  0
SECTION
  2
HEADER
  9
$ACADVER
  1
AC1009
  9
$INSBASE
 10
0.000000000
 20
0.000000000
  9
$EXTMIN
 10
-27.816686885
 20
-21.456636574
  9
$EXTMAX
 10
305.983555732
 20
236.023002311
  9
$LIMMIN
 10
-27.816686885
 20
-21.456636574
  9
$LIMMAX
 10
305.983555732
 20
236.023002311
  9
$SNAPBASE
 10
0.000000000
 20
0.000000000
  9
$SNAPANG
 50
0.000000000
  9
$SNAPSTYLE
 70
0
  9
$GRIDMODE
 70
0
  9
$GRIDUNIT
 10
0.000000000
 20
0.000000000
  9
$DIMEXO
 40
0.000000000
  9
$DIMDLI
 40
8.000000000
  9
$DIMDLE
 40
0.000000000
  9
$DIMEXE
 40
1.000000000
  9
$DIMTIH
 70
1
  9
$DIMTOH
 70
1
  9
$DIMTAD
 70
2
  9
$DIMZIN
 70
0
  9
$FILLETRAD
 40
1.000000000
  9
$CHAMFERA
 40
1.000000000
  9
$CHAMFERB
 40
1.000000000
  9
$TDCREATE
 40
2454158.461192130
  9
$TDUPDATE
 40
2454158.461192130
  9
$ANGBASE
 50
0.000000000
  9
$ANGDIR
 70
0
  0
ENDSEC
  0
SECTION
  2
TABLES
  0
TABLE
  2
LTYPE
 70
3
  0
LTYPE
  2
CENTER
 70
64
  3
___ _ ___ _ __
 72
65
 73
4
 40
13.000000000
 49
8.500000000
 49
-1.500000000
 49
1.500000000
 49
-1.500000000
  0
LTYPE
  2
CONTINUOUS
 70
64
  3
______________
 72
65
 73
0
 40
0.000000000
  0
LTYPE
  2
DIVIDE
 70
64
  3
___ . . ___ . 
 72
65
 73
6
 40
12.999999523
 49
5.199999809
 49
-2.599999905
 49
0.000000000
 49
-2.599999905
 49
0.000000000
 49
-2.599999905
  0
ENDTAB
  0
TABLE
  2
LAYER
 70
1
  0
LAYER
  2
1
 70
0
 62
7
  6
CONTINUOUS
  0
LAYER
  2
_CONSTR
 70
0
 62
5
  6
CONTINUOUS
  0
ENDTAB
  0
TABLE
  2
STYLE
 70
1
  0
STYLE
  2
STANDARD
 70
64
 40
0.000000000
 41
1.000000000
 50
0.000000000
 71
0
 42
3.200000000
  3
TXT
  4
EXTFONT
  0
ENDTAB
  0
TABLE
  2
VIEW
 70
0
  0
ENDTAB
  0
ENDSEC
  0
SECTION
  2
BLOCKS
  0
BLOCK
  8
0
  2
*D134
 70
65
 10
0.000000000
 20
0.000000000
  3
*D
  0
TEXT
  8
1
 62
4
  6
CONTINUOUS
 72
5
 10
111.641987949
 20
160.656629028
 40
2.800000000
  1
95
 41
0.899998740
 11
115.841987949
 21
160.656629028
  0
LINE
  8
1
 62
4
  6
CONTINUOUS
 10
66.233587949
 20
174.551629028
 11
66.233587949
 21
156.451629028
  0
POLYLINE
  8
1
 62
4
  6
CONTINUOUS
 66
1
  0
VERTEX
  8
1
 10
68.233587949
 20
158.751629028
  0
VERTEX
  8
1
 10
66.233587949
 20
158.451629028
  0
VERTEX
  8
1
 10
68.233587949
 20
158.151629028
  0
SEQEND
  8
1
  0
LINE
  8
1
 62
4
  6
CONTINUOUS
 10
66.233587949
 20
158.451629028
 11
161.233587949
 21
158.451629028
  0
POLYLINE
  8
1
 62
4
  6
CONTINUOUS
 66
1
  0
VERTEX
  8
1
 10
159.233587949
 20
158.151629028
  0
VERTEX
  8
1
 10
161.233587949
 20
158.451629028
  0
VERTEX
  8
1
 10
159.233587949
 20
158.751629028
  0
SEQEND
  8
1
  0
LINE
  8
1
 62
4
  6
CONTINUOUS
 10
161.233587949
 20
174.551629028
 11
161.233587949
 21
156.451629028
  0
ENDBLK
  8
0
  0
BLOCK
  8
0
  2
*D231
 70
65
 10
0.000000000
 20
0.000000000
  3
*D
  0
TEXT
  8
1
 62
4
  6
CONTINUOUS
 72
5
 10
168.121987949
 20
160.656629028
 40
2.800000000
  1
(
 41
1.800001800
 11
169.801987949
 21
160.656629028
  0
TEXT
  8
1
 62
4
  6
CONTINUOUS
 72
5
 10
170.641987949
 20
160.656629028
 40
2.800000000
  1
23
 41
0.899998740
 11
174.841987949
 21
160.656629028
  0
TEXT
  8
1
 62
4
  6
CONTINUOUS
 72
5
 10
175.681987949
 20
160.656629028
 40
2.800000000
  1
)
 41
1.800001800
 11
177.361987949
 21
160.656629028
  0
POLYLINE
  8
1
 62
4
  6
CONTINUOUS
 66
1
  0
VERTEX
  8
1
 10
163.233587949
 20
158.751629028
  0
VERTEX
  8
1
 10
161.233587949
 20
158.451629028
  0
VERTEX
  8
1
 10
163.233587949
 20
158.151629028
  0
SEQEND
  8
1
  0
LINE
  8
1
 62
4
  6
CONTINUOUS
 10
161.233587949
 20
158.451629028
 11
184.233587949
 21
158.451629028
  0
POLYLINE
  8
1
 62
4
  6
CONTINUOUS
 66
1
  0
VERTEX
  8
1
 10
182.233587949
 20
158.151629028
  0
VERTEX
  8
1
 10
184.233587949
 20
158.451629028
  0
VERTEX
  8
1
 10
182.233587949
 20
158.751629028
  0
SEQEND
  8
1
  0
LINE
  8
1
 62
4
  6
CONTINUOUS
 10
184.233587949
 20
174.651629028
 11
184.233587949
 21
156.451629028
  0
ENDBLK
  8
0
  0
BLOCK
  8
0
  2
blk234
 70
64
 10
0.000000000
 20
0.000000000
  3
blk234
  0
ARC
  8
1
 62
4
  6
CONTINUOUS
 10
0.000000000
 20
0.000000000
 40
1.000000000
 50
173.070994757
 51
279.331266055
  0
ENDBLK
  8
0
  0
BLOCK
  8
0
  2
blk235
 70
64
 10
0.000000000
 20
0.000000000
  3
blk235
  0
ARC
  8
1
 62
4
  6
CONTINUOUS
 10
0.000000000
 20
0.000000000
 40
1.000000000
 50
353.070994757
 51
459.331266055
  0
ENDBLK
  8
0
  0
BLOCK
  8
0
  2
blk236
 70
64
 10
0.000000000
 20
0.000000000
  3
blk236
  0
ARC
  8
1
 62
4
  6
CONTINUOUS
 10
0.000000000
 20
0.000000000
 40
1.000000000
 50
173.070994757
 51
279.331266055
  0
ENDBLK
  8
0
  0
BLOCK
  8
0
  2
blk237
 70
64
 10
0.000000000
 20
0.000000000
  3
blk237
  0
ARC
  8
1
 62
4
  6
CONTINUOUS
 10
0.000000000
 20
0.000000000
 40
1.000000000
 50
299.030548047
 51
405.290771187
  0
ENDBLK
  8
0
  0
BLOCK
  8
0
  2
blk238
 70
64
 10
0.000000000
 20
0.000000000
  3
blk238
  0
ARC
  8
1
 62
4
  6
CONTINUOUS
 10
0.000000000
 20
0.000000000
 40
1.000000000
 50
119.030548047
 51
225.290771187
  0
ENDBLK
  8
0
  0
BLOCK
  8
0
  2
blk239
 70
64
 10
0.000000000
 20
0.000000000
  3
blk239
  0
ARC
  8
1
 62
4
  6
CONTINUOUS
 10
0.000000000
 20
0.000000000
 40
1.000000000
 50
299.030548047
 51
405.290771187
  0
ENDBLK
  8
0
  0
BLOCK
  8
0
  2
*D240
 70
65
 10
0.000000000
 20
0.000000000
  3
*D
  0
TEXT
  8
1
 62
4
  6
CONTINUOUS
 72
5
 10
54.028587949
 20
181.488429028
 40
2.800000000
  1
φ
 41
1.270648030
 50
90.000000000
 11
54.028587949
 21
184.848429028
  0
TEXT
  8
1
 62
4
  6
CONTINUOUS
 72
5
 10
54.028587949
 20
186.528429028
 40
2.800000000
  1
30
 41
1.000000667
 50
90.000000000
 11
54.028587949
 21
190.728429028
  0
TEXT
  8
1
 62
4
  6
CONTINUOUS
 72
5
 10
52.264587949
 20
191.568429028
 40
1.400000000
  1
-0.02
 41
1.554544889
 50
90.000000000
 11
52.264587949
 21
199.548429028
  0
TEXT
  8
1
 62
4
  6
CONTINUOUS
 72
5
 10
54.406587949
 20
191.568429028
 40
1.400000000
  1
-0.03
 41
1.554544889
 50
90.000000000
 11
54.406587949
 21
199.548429028
  0
LINE
  8
1
 62
4
  6
CONTINUOUS
 10
66.333587949
 20
204.451629028
 11
54.233587949
 21
204.451629028
  0
POLYLINE
  8
1
 62
4
  6
CONTINUOUS
 66
1
  0
VERTEX
  8
1
 10
56.533587949
 20
202.451629028
  0
VERTEX
  8
1
 10
56.233587949
 20
204.451629028
  0
VERTEX
  8
1
 10
55.933587949
 20
202.451629028
  0
SEQEND
  8
1
  0
LINE
  8
1
 62
4
  6
CONTINUOUS
 10
56.233587949
 20
204.451629028
 11
56.233587949
 21
174.451629028
  0
POLYLINE
  8
1
 62
4
  6
CONTINUOUS
 66
1
  0
VERTEX
  8
1
 10
55.933587949
 20
176.451629028
  0
VERTEX
  8
1
 10
56.233587949
 20
174.451629028
  0
VERTEX
  8
1
 10
56.533587949
 20
176.451629028
  0
SEQEND
  8
1
  0
LINE
  8
1
 62
4
  6
CONTINUOUS
 10
66.333587949
 20
174.451629028
 11
54.233587949
 21
174.451629028
  0
ENDBLK
  8
0
  0
BLOCK
  8
0
  2
*D241
 70
65
 10
0.000000000
 20
0.000000000
  3
*D
  0
TEXT
  8
1
 62
4
  6
CONTINUOUS
 72
5
 10
191.851987949
 20
160.656629028
 40
2.800000000
  1
(
 41
1.800001800
 11
193.531987949
 21
160.656629028
  0
TEXT
  8
1
 62
4
  6
CONTINUOUS
 72
5
 10
194.371987949
 20
160.656629028
 40
2.800000000
  1
29.5
 41
1.099999267
 11
203.611987949
 21
160.656629028
  0
TEXT
  8
1
 62
4
  6
CONTINUOUS
 72
5
 10
204.451987949
 20
160.656629028
 40
2.800000000
  1
)
 41
1.800001800
 11
206.131987949
 21
160.656629028
  0
POLYLINE
  8
1
 62
4
  6
CONTINUOUS
 66
1
  0
VERTEX
  8
1
 10
186.233587949
 20
158.751629028
  0
VERTEX
  8
1
 10
184.233587949
 20
158.451629028
  0
VERTEX
  8
1
 10
186.233587949
 20
158.151629028
  0
SEQEND
  8
1
  0
LINE
  8
1
 62
4
  6
CONTINUOUS
 10
184.233587949
 20
158.451629028
 11
213.733587949
 21
158.451629028
  0
POLYLINE
  8
1
 62
4
  6
CONTINUOUS
 66
1
  0
VERTEX
  8
1
 10
211.733587949
 20
158.151629028
  0
VERTEX
  8
1
 10
213.733587949
 20
158.451629028
  0
VERTEX
  8
1
 10
211.733587949
 20
158.751629028
  0
SEQEND
  8
1
  0
LINE
  8
1
 62
4
  6
CONTINUOUS
 10
213.733587949
 20
185.201629028
 11
213.733587949
 21
156.451629028
  0
ENDBLK
  8
0
  0
BLOCK
  8
0
  2
*D270
 70
65
 10
0.000000000
 20
0.000000000
  3
*D
  0
TEXT
  8
1
 62
4
  6
CONTINUOUS
 72
5
 10
186.121987949
 20
215.156629028
 40
2.800000000
  1
(
 41
1.800001800
 11
187.801987949
 21
215.156629028
  0
TEXT
  8
1
 62
4
  6
CONTINUOUS
 72
5
 10
188.641987949
 20
215.156629028
 40
2.800000000
  1
13
 41
1.124997750
 11
192.841987949
 21
215.156629028
  0
TEXT
  8
1
 62
4
  6
CONTINUOUS
 72
5
 10
193.681987949
 20
215.156629028
 40
2.800000000
  1
)
 41
1.800001800
 11
195.361987949
 21
215.156629028
  0
LINE
  8
1
 62
4
  6
CONTINUOUS
 10
184.233587949
 20
204.251629028
 11
184.233587949
 21
214.951629028
  0
POLYLINE
  8
1
 62
4
  6
CONTINUOUS
 66
1
  0
VERTEX
  8
1
 10
186.233587949
 20
213.251629028
  0
VERTEX
  8
1
 10
184.233587949
 20
212.951629028
  0
VERTEX
  8
1
 10
186.233587949
 20
212.651629028
  0
SEQEND
  8
1
  0
LINE
  8
1
 62
4
  6
CONTINUOUS
 10
184.233587949
 20
212.951629028
 11
197.233587949
 21
212.951629028
  0
POLYLINE
  8
1
 62
4
  6
CONTINUOUS
 66
1
  0
VERTEX
  8
1
 10
195.233587949
 20
212.651629028
  0
VERTEX
  8
1
 10
197.233587949
 20
212.951629028
  0
VERTEX
  8
1
 10
195.233587949
 20
213.251629028
  0
SEQEND
  8
1
  0
LINE
  8
1
 62
4
  6
CONTINUOUS
 10
197.233587949
 20
203.951629028
 11
197.233587949
 21
214.951629028
  0
ENDBLK
  8
0
  0
ENDSEC
  0
SECTION
  2
ENTITIES
  0
LINE
  8
1
 62
7
  6
CONTINUOUS
 10
121.233587949
 20
195.989977443
 11
117.833587949
 21
195.989977443
  0
LINE
  8
1
 62
7
  6
CONTINUOUS
 10
161.233587949
 20
174.551629028
 11
161.133587949
 21
174.451629028
  0
LINE
  8
1
 62
7
  6
CONTINUOUS
 10
161.133587949
 20
204.451629028
 11
161.233587949
 21
204.351629028
  0
LINE
  8
1
 62
7
  6
CONTINUOUS
 10
66.333587949
 20
204.451629028
 11
66.233587949
 21
204.351629028
  0
LINE
  8
1
 62
7
  6
CONTINUOUS
 10
66.233587949
 20
174.551629028
 11
66.333587949
 21
174.451629028
  0
LINE
  8
1
 62
7
  6
CONTINUOUS
 10
161.233587949
 20
204.351629028
 11
161.233587949
 21
174.551629028
  0
POINT
  8
1
 62
7
  6
CONTINUOUS
 10
132.433587949
 20
202.951629028
  0
LINE
  8
1
 62
7
  6
CONTINUOUS
 10
66.233587949
 20
204.351629028
 11
66.233587949
 21
174.551629028
  0
LINE
  8
1
 62
7
  6
CONTINUOUS
 10
211.023621062
 20
193.801629028
 11
211.023621062
 21
185.101629028
  0
LINE
  8
1
 62
4
  6
CONTINUOUS
 10
183.235606991
 20
123.451629028
 11
176.235606991
 21
123.451629028
  0
LINE
  8
1
 62
7
  6
CONTINUOUS
 10
184.670591539
 20
183.951629028
 11
211.023621062
 21
184.601629028
  0
LINE
  8
1
 62
7
  6
CONTINUOUS
 10
184.233587949
 20
183.951629028
 11
184.670591539
 21
183.951629028
  0
ARC
  8
1
 62
7
  6
CONTINUOUS
 10
212.533587949
 20
185.201629028
 40
1.200000000
 50
226.658241773
 51
0.000000000
  0
ARC
  8
1
 62
7
  6
CONTINUOUS
 10
211.023621062
 20
183.601629028
 40
1.000000000
 50
46.658241773
 51
90.000000000
  0
LINE
  8
1
 62
7
  6
CONTINUOUS
 10
213.733587949
 20
193.701629028
 11
213.733587949
 21
185.201629028
  0
ARC
  8
1
 62
7
  6
CONTINUOUS
 10
211.023621062
 20
195.301629028
 40
1.000000000
 50
270.000000000
 51
313.341758227
  0
ARC
  8
1
 62
7
  6
CONTINUOUS
 10
212.533587949
 20
193.701629028
 40
1.200000000
 50
0.000000000
 51
133.341758227
  0
LINE
  8
1
 62
7
  6
CONTINUOUS
 10
184.233587949
 20
194.951629028
 11
184.670591539
 21
194.951629028
  0
LINE
  8
1
 62
7
  6
CONTINUOUS
 10
184.670591539
 20
194.951629028
 11
211.023621062
 21
194.301629028
  0
LINE
  8
1
 62
7
  6
CONTINUOUS
 10
184.233587949
 20
204.251629028
 11
184.033587949
 21
204.451629028
  0
LINE
  8
1
 62
7
  6
CONTINUOUS
 10
161.433587949
 20
204.451629028
 11
161.233587949
 21
204.251629028
  0
LINE
  8
1
 62
7
  6
CONTINUOUS
 10
161.233587949
 20
174.651629028
 11
161.433587949
 21
174.451629028
  0
LINE
  8
1
 62
7
  6
CONTINUOUS
 10
184.033587949
 20
174.451629028
 11
184.233587949
 21
174.651629028
  0
LINE
  8
1
 62
7
  6
CONTINUOUS
 10
184.233587949
 20
174.651629028
 11
184.233587949
 21
204.251629028
  0
LINE
  8
1
 62
7
  6
CONTINUOUS
 10
161.233587949
 20
174.651629028
 11
161.233587949
 21
204.251629028
  0
POINT
  8
1
 62
7
  6
CONTINUOUS
 10
132.433587949
 20
202.951629028
  0
LINE
  8
1
 62
7
  6
CONTINUOUS
 10
161.433587949
 20
174.451629028
 11
184.033587949
 21
174.451629028
  0
LINE
  8
1
 62
7
  6
CONTINUOUS
 10
161.433587949
 20
204.451629028
 11
184.033587949
 21
204.451629028
  0
LINE
  8
1
 62
7
  6
CONTINUOUS
 10
121.233587949
 20
195.989977443
 11
121.233587949
 21
182.913280612
  0
LINE
  8
1
 62
7
  6
CONTINUOUS
 10
117.833587949
 20
195.989977443
 11
117.833587949
 21
182.913280612
  0
LINE
  8
1
 62
7
  6
CONTINUOUS
 10
121.233587949
 20
182.913280612
 11
117.833587949
 21
182.913280612
  0
ARC
  8
1
 62
7
  6
CONTINUOUS
 10
96.984876643
 20
189.451629028
 40
25.114736710
 50
344.909814821
 51
15.090185179
  0
LINE
  8
1
 62
1
  6
CENTER
 10
64.233587949
 20
189.451629028
 11
240.893161131
 21
189.451629028
  0
ARC
  8
1
 62
7
  6
CONTINUOUS
 10
142.082299255
 20
189.451629028
 40
25.114736710
 50
164.909814821
 51
195.090185179
  0
LINE
  8
1
 62
7
  6
CONTINUOUS
 10
161.133587949
 20
204.451629028
 11
66.333587949
 21
204.451629028
  0
LINE
  8
1
 62
7
  6
CONTINUOUS
 10
161.133587949
 20
174.451629028
 11
66.333587949
 21
174.451629028
  0
LINE
  8
1
 62
4
  6
CONTINUOUS
 10
117.833587949
 20
195.989977443
 11
121.233587949
 21
182.913280612
  0
POINT
  8
1
 62
7
  6
CONTINUOUS
 10
136.233587949
 20
204.451629028
  0
LINE
  8
1
 62
4
  6
CONTINUOUS
 10
121.233587949
 20
195.989977443
 11
117.833587949
 21
182.913280612
  0
LINE
  8
1
 62
4
  6
CONTINUOUS
 10
176.235606991
 20
125.451629028
 11
183.235606991
 21
125.451629028
  0
LINE
  8
1
 62
7
  6
CONTINUOUS
 10
175.735606991
 20
117.151629028
 11
175.735606991
 21
131.751629028
  0
LINE
  8
1
 62
7
  6
CONTINUOUS
 10
183.235606991
 20
116.651629028
 11
176.235606991
 21
116.651629028
  0
LINE
  8
1
 62
7
  6
CONTINUOUS
 10
213.733587949
 20
193.101629028
 11
240.893161131
 21
193.101629028
  0
LINE
  8
1
 62
7
  6
CONTINUOUS
 10
213.733587949
 20
185.801629028
 11
240.893161131
 21
185.801629028
  0
LINE
  8
1
 62
7
  6
CONTINUOUS
 10
183.735606991
 20
131.751629028
 11
183.735606991
 21
117.151629028
  0
ARC
  8
1
 62
1
  6
CENTER
 10
240.893161131
 20
156.951629028
 40
32.500000000
 50
270.000000000
 51
90.000000000
  0
ARC
  8
1
 62
7
  6
CONTINUOUS
 10
240.893161131
 20
156.951629028
 40
28.850000000
 50
270.000000000
 51
359.678089408
  0
ARC
  8
1
 62
7
  6
CONTINUOUS
 10
240.893161131
 20
156.951629028
 40
36.150000000
 50
270.000000000
 51
359.678089408
  0
LINE
  8
1
 62
7
  6
CONTINUOUS
 10
176.235606991
 20
132.251629028
 11
183.235606991
 21
132.251629028
  0
ARC
  8
1
 62
7
  6
CONTINUOUS
 10
240.893161131
 20
156.951629028
 40
36.150000000
 50
6.912584153
 51
90.000000000
  0
LINE
  8
1
 62
7
  6
CONTINUOUS
 10
218.295721954
 20
128.101629028
 11
240.893161131
 21
128.101629028
  0
LINE
  8
1
 62
7
  6
CONTINUOUS
 10
218.295721954
 20
120.801629028
 11
240.893161131
 21
120.801629028
  0
LINE
  8
1
 62
1
  6
CENTER
 10
14.121960761
 20
124.451629028
 11
240.893161131
 21
124.451629028
  0
LINE
  8
1
 62
4
  6
CONTINUOUS
 10
176.235606991
 20
124.451629028
 11
183.235606991
 21
124.451629028
  0
LINE
  8
1
 62
4
  6
CONTINUOUS
 10
183.235606991
 20
122.451629028
 11
176.235606991
 21
122.451629028
  0
LINE
  8
1
 62
7
  6
CONTINUOUS
 10
174.735606991
 20
131.201629028
 11
174.235606991
 21
131.201629028
  0
LINE
  8
1
 62
4
  6
CONTINUOUS
 10
183.235606991
 20
121.451629028
 11
176.235606991
 21
121.451629028
  0
LINE
  8
1
 62
4
  6
CONTINUOUS
 10
183.235606991
 20
120.451629028
 11
176.235606991
 21
120.451629028
  0
LINE
  8
1
 62
7
  6
CONTINUOUS
 10
174.235606991
 20
131.201629028
 11
173.485606991
 21
131.951629028
  0
LINE
  8
1
 62
7
  6
CONTINUOUS
 10
173.485606991
 20
131.951629028
 11
167.785606991
 21
131.951629028
  0
LINE
  8
1
 62
7
  6
CONTINUOUS
 10
173.485606991
 20
116.951629028
 11
167.785606991
 21
116.951629028
  0
LINE
  8
1
 62
7
  6
CONTINUOUS
 10
174.235606991
 20
117.701629028
 11
173.485606991
 21
116.951629028
  0
LINE
  8
1
 62
7
  6
CONTINUOUS
 10
174.735606991
 20
117.701629028
 11
174.235606991
 21
117.701629028
  0
LINE
  8
1
 62
7
  6
CONTINUOUS
 10
167.785606991
 20
131.951629028
 11
167.785606991
 21
127.992464028
  0
LINE
  8
1
 62
7
  6
CONTINUOUS
 10
173.485606991
 20
116.951629028
 11
173.485606991
 21
120.910794028
  0
LINE
  8
1
 62
7
  6
CONTINUOUS
 10
174.235606991
 20
131.201629028
 11
174.235606991
 21
117.701629028
  0
LINE
  8
1
 62
7
  6
CONTINUOUS
 10
174.735606991
 20
117.701629028
 11
174.735606991
 21
131.201629028
  0
LINE
  8
1
 62
4
  6
CONTINUOUS
 10
183.235606991
 20
119.451629028
 11
176.235606991
 21
119.451629028
  0
LINE
  8
1
 62
4
  6
CONTINUOUS
 10
183.235606991
 20
118.451629028
 11
176.235606991
 21
118.451629028
  0
LINE
  8
1
 62
7
  6
CONTINUOUS
 10
174.735606991
 20
130.451629028
 11
175.735606991
 21
130.451629028
  0
LINE
  8
1
 62
7
  6
CONTINUOUS
 10
175.735606991
 20
118.451629028
 11
174.735606991
 21
118.451629028
  0
LINE
  8
1
 62
4
  6
CONTINUOUS
 10
183.235606991
 20
117.651629028
 11
176.235606991
 21
117.651629028
  0
LINE
  8
1
 62
7
  6
CONTINUOUS
 10
184.995721954
 20
131.451629028
 11
184.995721954
 21
117.451629028
  0
LINE
  8
1
 62
7
  6
CONTINUOUS
 10
185.995721954
 20
116.701629028
 11
185.995721954
 21
132.201629028
  0
LINE
  8
1
 62
1
  6
CONTINUOUS
 10
183.735606991
 20
130.951629028
 11
184.995721954
 21
130.951629028
  0
LINE
  8
1
 62
7
  6
CONTINUOUS
 10
187.495721954
 20
116.701629028
 11
187.495721954
 21
132.201629028
  0
LINE
  8
1
 62
7
  6
CONTINUOUS
 10
194.245721954
 20
131.951629028
 11
194.245721954
 21
127.992464028
  0
LINE
  8
1
 62
7
  6
CONTINUOUS
 10
185.995721954
 20
116.701629028
 11
187.495721954
 21
116.701629028
  0
LINE
  8
1
 62
1
  6
CONTINUOUS
 10
184.995721954
 20
117.951629028
 11
183.735606991
 21
117.951629028
  0
LINE
  8
1
 62
7
  6
CONTINUOUS
 10
187.495721954
 20
116.951629028
 11
194.245721954
 21
116.951629028
  0
LINE
  8
1
 62
7
  6
CONTINUOUS
 10
187.495721954
 20
131.951629028
 11
194.245721954
 21
131.951629028
  0
LINE
  8
1
 62
7
  6
CONTINUOUS
 10
185.995721954
 20
132.201629028
 11
187.495721954
 21
132.201629028
  0
LINE
  8
1
 62
1
  6
CONTINUOUS
 10
184.995721954
 20
117.951629028
 11
185.861747358
 21
117.451629028
  0
LINE
  8
1
 62
1
  6
CONTINUOUS
 10
185.861747358
 20
131.451629028
 11
184.995721954
 21
130.951629028
  0
LINE
  8
1
 62
7
  6
CONTINUOUS
 10
183.735606991
 20
131.451629028
 11
185.995721954
 21
131.451629028
  0
LINE
  8
1
 62
7
  6
CONTINUOUS
 10
185.995721954
 20
117.451629028
 11
183.735606991
 21
117.451629028
  0
LINE
  8
1
 62
7
  6
CONTINUOUS
 10
194.245721954
 20
120.910794028
 11
194.245721954
 21
116.951629028
  0
LINE
  8
1
 62
7
  6
CONTINUOUS
 10
214.995721954
 20
119.451629028
 11
215.795721954
 21
119.451629028
  0
LINE
  8
1
 62
7
  6
CONTINUOUS
 10
215.795721954
 20
129.451629028
 11
214.995721954
 21
129.451629028
  0
LINE
  8
1
 62
7
  6
CONTINUOUS
 10
187.495721954
 20
120.910794028
 11
194.245721954
 21
120.910794028
  0
LINE
  8
1
 62
7
  6
CONTINUOUS
 10
194.245721954
 20
127.992464028
 11
187.495721954
 21
127.992464028
  0
LINE
  8
1
 62
7
  6
CONTINUOUS
 10
194.245721954
 20
131.951629028
 11
214.995721954
 21
131.951629028
  0
LINE
  8
1
 62
7
  6
CONTINUOUS
 10
214.995721954
 20
116.951629028
 11
214.995721954
 21
131.951629028
  0
LINE
  8
1
 62
7
  6
CONTINUOUS
 10
194.245721954
 20
116.951629028
 11
214.995721954
 21
116.951629028
  0
ARC
  8
1
 62
7
  6
CONTINUOUS
 10
183.122983321
 20
124.451629028
 40
11.672738634
 50
342.341541512
 51
17.658458488
  0
LINE
  8
1
 62
7
  6
CONTINUOUS
 10
215.795721954
 20
127.639104028
 11
218.295721954
 21
127.639104028
  0
LINE
  8
1
 62
7
  6
CONTINUOUS
 10
218.295721954
 20
121.264154028
 11
215.795721954
 21
121.264154028
  0
LINE
  8
1
 62
7
  6
CONTINUOUS
 10
218.295721954
 20
116.951629028
 11
218.295721954
 21
131.951629028
  0
LINE
  8
1
 62
7
  6
CONTINUOUS
 10
215.795721954
 20
116.951629028
 11
218.295721954
 21
116.951629028
  0
LINE
  8
1
 62
7
  6
CONTINUOUS
 10
215.795721954
 20
131.951629028
 11
215.795721954
 21
116.951629028
  0
LINE
  8
1
 62
7
  6
CONTINUOUS
 10
218.295721954
 20
131.951629028
 11
215.795721954
 21
131.951629028
  0
LINE
  8
1
 62
7
  6
CONTINUOUS
 10
143.735606991
 20
128.101629028
 11
120.597594185
 21
128.101629028
  0
LINE
  8
1
 62
7
  6
CONTINUOUS
 10
143.735606991
 20
120.801629028
 11
120.597594185
 21
120.801629028
  0
LINE
  8
1
 62
4
  6
CONTINUOUS
 10
183.235606991
 20
126.451629028
 11
176.235606991
 21
126.451629028
  0
LINE
  8
1
 62
4
  6
CONTINUOUS
 10
176.235606991
 20
127.451629028
 11
183.235606991
 21
127.451629028
  0
LINE
  8
1
 62
4
  6
CONTINUOUS
 10
183.235606991
 20
128.451629028
 11
176.235606991
 21
128.451629028
  0
LINE
  8
1
 62
4
  6
CONTINUOUS
 10
176.235606991
 20
129.451629028
 11
183.235606991
 21
129.451629028
  0
LINE
  8
1
 62
4
  6
CONTINUOUS
 10
183.235606991
 20
130.451629028
 11
176.235606991
 21
130.451629028
  0
LINE
  8
1
 62
4
  6
CONTINUOUS
 10
176.235606991
 20
131.251629028
 11
183.235606991
 21
131.251629028
  0
LINE
  8
1
 62
7
  6
CONTINUOUS
 10
173.485606991
 20
127.992464028
 11
173.485606991
 21
131.951629028
  0
LINE
  8
1
 62
7
  6
CONTINUOUS
 10
167.785606991
 20
120.910794028
 11
167.785606991
 21
116.951629028
  0
LINE
  8
1
 62
7
  6
CONTINUOUS
 10
147.035606991
 20
119.451629028
 11
146.235606991
 21
119.451629028
  0
LINE
  8
1
 62
7
  6
CONTINUOUS
 10
146.235606991
 20
129.451629028
 11
147.035606991
 21
129.451629028
  0
LINE
  8
1
 62
7
  6
CONTINUOUS
 10
173.485606991
 20
120.910794028
 11
167.785606991
 21
120.910794028
  0
LINE
  8
1
 62
7
  6
CONTINUOUS
 10
167.785606991
 20
127.992464028
 11
173.485606991
 21
127.992464028
  0
LINE
  8
1
 62
7
  6
CONTINUOUS
 10
167.785606991
 20
116.951629028
 11
147.035606991
 21
116.951629028
  0
LINE
  8
1
 62
7
  6
CONTINUOUS
 10
147.035606991
 20
116.951629028
 11
147.035606991
 21
131.951629028
  0
LINE
  8
1
 62
7
  6
CONTINUOUS
 10
167.785606991
 20
131.951629028
 11
147.035606991
 21
131.951629028
  0
ARC
  8
1
 62
7
  6
CONTINUOUS
 10
178.908345625
 20
124.451629028
 40
11.672738634
 50
162.341541512
 51
197.658458488
  0
ARC
  8
1
 62
7
  6
CONTINUOUS
 10
162.362868358
 20
124.451629028
 40
11.672738634
 50
342.341541512
 51
17.658458488
  0
LINE
  8
1
 62
7
  6
CONTINUOUS
 10
146.235606991
 20
127.639104028
 11
143.735606991
 21
127.639104028
  0
LINE
  8
1
 62
7
  6
CONTINUOUS
 10
143.735606991
 20
121.264154028
 11
146.235606991
 21
121.264154028
  0
LINE
  8
1
 62
7
  6
CONTINUOUS
 10
143.735606991
 20
116.951629028
 11
143.735606991
 21
131.951629028
  0
LINE
  8
1
 62
7
  6
CONTINUOUS
 10
146.235606991
 20
116.951629028
 11
143.735606991
 21
116.951629028
  0
LINE
  8
1
 62
7
  6
CONTINUOUS
 10
146.235606991
 20
131.951629028
 11
146.235606991
 21
116.951629028
  0
LINE
  8
1
 62
7
  6
CONTINUOUS
 10
175.735606991
 20
131.751629028
 11
176.235606991
 21
132.251629028
  0
LINE
  8
1
 62
7
  6
CONTINUOUS
 10
183.235606991
 20
132.251629028
 11
183.235606991
 21
116.651629028
  0
LINE
  8
1
 62
7
  6
CONTINUOUS
 10
176.235606991
 20
132.251629028
 11
176.235606991
 21
116.651629028
  0
LINE
  8
1
 62
7
  6
CONTINUOUS
 10
183.235606991
 20
132.251629028
 11
183.735606991
 21
131.751629028
  0
LINE
  8
1
 62
7
  6
CONTINUOUS
 10
176.235606991
 20
116.651629028
 11
175.735606991
 21
117.151629028
  0
LINE
  8
1
 62
7
  6
CONTINUOUS
 10
143.735606991
 20
131.951629028
 11
146.235606991
 21
131.951629028
  0
LINE
  8
1
 62
7
  6
CONTINUOUS
 10
183.735606991
 20
117.151629028
 11
183.235606991
 21
116.651629028
  0
ARC
  8
1
 62
7
  6
CONTINUOUS
 10
240.893161131
 20
156.951629028
 40
28.850000000
 50
6.912584153
 51
90.000000000
  0
DIMENSION
  8
1
 62
4
  6
CONTINUOUS
  2
*D134
 70
1
 10
161.233587949
 20
158.451629028
 11
113.733587949
 21
158.451629028
 14
161.233587949
 24
174.551629028
 13
66.233587949
 23
174.551629028
 50
0.000000000
  0
LINE
  8
1
 62
4
  6
CONTINUOUS
 10
38.121960761
 20
131.951629028
 11
34.389909954
 21
132.951629028
  0
LINE
  8
1
 62
4
  6
CONTINUOUS
 10
33.121960761
 20
132.291374990
 11
38.121960761
 21
130.951629028
  0
LINE
  8
1
 62
4
  6
CONTINUOUS
 10
38.121960761
 20
129.951629028
 11
33.121960761
 21
131.291374990
  0
LINE
  8
1
 62
4
  6
CONTINUOUS
 10
33.121960761
 20
130.291374990
 11
38.121960761
 21
128.951629028
  0
LINE
  8
1
 62
4
  6
CONTINUOUS
 10
38.121960761
 20
127.951629028
 11
33.121960761
 21
129.291374990
  0
LINE
  8
1
 62
4
  6
CONTINUOUS
 10
33.121960761
 20
128.291374990
 11
38.121960761
 21
126.951629028
  0
LINE
  8
1
 62
4
  6
CONTINUOUS
 10
38.121960761
 20
125.951629028
 11
33.121960761
 21
127.291374990
  0
LINE
  8
1
 62
4
  6
CONTINUOUS
 10
33.121960761
 20
126.291374990
 11
38.121960761
 21
124.951629028
  0
LINE
  8
1
 62
4
  6
CONTINUOUS
 10
38.121960761
 20
123.951629028
 11
33.121960761
 21
125.291374990
  0
LINE
  8
1
 62
4
  6
CONTINUOUS
 10
33.121960761
 20
124.291374990
 11
38.121960761
 21
122.951629028
  0
LINE
  8
1
 62
4
  6
CONTINUOUS
 10
38.121960761
 20
121.951629028
 11
33.121960761
 21
123.291374990
  0
LINE
  8
1
 62
4
  6
CONTINUOUS
 10
33.121960761
 20
122.291374990
 11
38.121960761
 21
120.951629028
  0
LINE
  8
1
 62
4
  6
CONTINUOUS
 10
33.121960761
 20
131.951629028
 11
36.854011569
 21
132.951629028
  0
LINE
  8
1
 62
4
  6
CONTINUOUS
 10
33.121960761
 20
128.951629028
 11
38.121960761
 21
130.291374990
  0
LINE
  8
1
 62
4
  6
CONTINUOUS
 10
33.121960761
 20
129.951629028
 11
38.121960761
 21
131.291374990
  0
LINE
  8
1
 62
4
  6
CONTINUOUS
 10
38.121960761
 20
132.291374990
 11
33.121960761
 21
130.951629028
  0
LINE
  8
1
 62
4
  6
CONTINUOUS
 10
33.121960761
 20
125.951629028
 11
38.121960761
 21
127.291374990
  0
LINE
  8
1
 62
4
  6
CONTINUOUS
 10
33.121960761
 20
126.951629028
 11
38.121960761
 21
128.291374990
  0
LINE
  8
1
 62
4
  6
CONTINUOUS
 10
38.121960761
 20
129.291374990
 11
33.121960761
 21
127.951629028
  0
LINE
  8
1
 62
4
  6
CONTINUOUS
 10
33.121960761
 20
122.951629028
 11
38.121960761
 21
124.291374990
  0
LINE
  8
1
 62
4
  6
CONTINUOUS
 10
33.121960761
 20
123.951629028
 11
38.121960761
 21
125.291374990
  0
LINE
  8
1
 62
4
  6
CONTINUOUS
 10
38.121960761
 20
126.291374990
 11
33.121960761
 21
124.951629028
  0
LINE
  8
1
 62
4
  6
CONTINUOUS
 10
33.121960761
 20
119.951629028
 11
38.121960761
 21
121.291374990
  0
LINE
  8
1
 62
4
  6
CONTINUOUS
 10
33.121960761
 20
120.951629028
 11
38.121960761
 21
122.291374990
  0
LINE
  8
1
 62
4
  6
CONTINUOUS
 10
38.121960761
 20
123.291374990
 11
33.121960761
 21
121.951629028
  0
LINE
  8
1
 62
4
  6
CONTINUOUS
 10
38.121960761
 20
119.951629028
 11
33.121960761
 21
121.291374990
  0
LINE
  8
1
 62
4
  6
CONTINUOUS
 10
33.121960761
 20
120.291374990
 11
38.121960761
 21
118.951629028
  0
LINE
  8
1
 62
4
  6
CONTINUOUS
 10
38.121960761
 20
117.951629028
 11
33.121960761
 21
119.291374990
  0
LINE
  8
1
 62
4
  6
CONTINUOUS
 10
33.121960761
 20
118.291374990
 11
38.121960761
 21
116.951629028
  0
LINE
  8
1
 62
4
  6
CONTINUOUS
 10
38.121960761
 20
115.951629028
 11
33.121960761
 21
117.291374990
  0
LINE
  8
1
 62
4
  6
CONTINUOUS
 10
33.121960761
 20
115.951629028
 11
38.121960761
 21
117.291374990
  0
LINE
  8
1
 62
4
  6
CONTINUOUS
 10
33.121960761
 20
116.951629028
 11
38.121960761
 21
118.291374990
  0
LINE
  8
1
 62
4
  6
CONTINUOUS
 10
31.121960761
 20
131.951629028
 11
27.389909954
 21
132.951629028
  0
LINE
  8
1
 62
4
  6
CONTINUOUS
 10
26.121960761
 20
132.291374990
 11
31.121960761
 21
130.951629028
  0
LINE
  8
1
 62
4
  6
CONTINUOUS
 10
31.121960761
 20
129.951629028
 11
26.121960761
 21
131.291374990
  0
LINE
  8
1
 62
4
  6
CONTINUOUS
 10
26.121960761
 20
130.291374990
 11
31.121960761
 21
128.951629028
  0
LINE
  8
1
 62
4
  6
CONTINUOUS
 10
31.121960761
 20
127.951629028
 11
26.121960761
 21
129.291374990
  0
LINE
  8
1
 62
4
  6
CONTINUOUS
 10
26.121960761
 20
128.291374990
 11
31.121960761
 21
126.951629028
  0
LINE
  8
1
 62
4
  6
CONTINUOUS
 10
31.121960761
 20
125.951629028
 11
26.121960761
 21
127.291374990
  0
LINE
  8
1
 62
4
  6
CONTINUOUS
 10
26.121960761
 20
126.291374990
 11
31.121960761
 21
124.951629028
  0
LINE
  8
1
 62
4
  6
CONTINUOUS
 10
31.121960761
 20
123.951629028
 11
26.121960761
 21
125.291374990
  0
LINE
  8
1
 62
4
  6
CONTINUOUS
 10
26.121960761
 20
124.291374990
 11
31.121960761
 21
122.951629028
  0
LINE
  8
1
 62
4
  6
CONTINUOUS
 10
31.121960761
 20
121.951629028
 11
26.121960761
 21
123.291374990
  0
LINE
  8
1
 62
4
  6
CONTINUOUS
 10
26.121960761
 20
122.291374990
 11
31.121960761
 21
120.951629028
  0
LINE
  8
1
 62
4
  6
CONTINUOUS
 10
26.121960761
 20
131.951629028
 11
29.854011569
 21
132.951629028
  0
LINE
  8
1
 62
4
  6
CONTINUOUS
 10
38.121960761
 20
120.291374990
 11
33.121960761
 21
118.951629028
  0
LINE
  8
1
 62
4
  6
CONTINUOUS
 10
33.121960761
 20
117.951629028
 11
38.121960761
 21
119.291374990
  0
LINE
  8
1
 62
4
  6
CONTINUOUS
 10
26.121960761
 20
128.951629028
 11
31.121960761
 21
130.291374990
  0
LINE
  8
1
 62
4
  6
CONTINUOUS
 10
26.121960761
 20
129.951629028
 11
31.121960761
 21
131.291374990
  0
LINE
  8
1
 62
4
  6
CONTINUOUS
 10
31.121960761
 20
132.291374990
 11
26.121960761
 21
130.951629028
  0
LINE
  8
1
 62
4
  6
CONTINUOUS
 10
26.121960761
 20
125.951629028
 11
31.121960761
 21
127.291374990
  0
LINE
  8
1
 62
4
  6
CONTINUOUS
 10
26.121960761
 20
126.951629028
 11
31.121960761
 21
128.291374990
  0
LINE
  8
1
 62
4
  6
CONTINUOUS
 10
31.121960761
 20
129.291374990
 11
26.121960761
 21
127.951629028
  0
LINE
  8
1
 62
4
  6
CONTINUOUS
 10
26.121960761
 20
122.951629028
 11
31.121960761
 21
124.291374990
  0
LINE
  8
1
 62
4
  6
CONTINUOUS
 10
26.121960761
 20
123.951629028
 11
31.121960761
 21
125.291374990
  0
LINE
  8
1
 62
4
  6
CONTINUOUS
 10
31.121960761
 20
126.291374990
 11
26.121960761
 21
124.951629028
  0
LINE
  8
1
 62
4
  6
CONTINUOUS
 10
26.121960761
 20
119.951629028
 11
31.121960761
 21
121.291374990
  0
LINE
  8
1
 62
4
  6
CONTINUOUS
 10
26.121960761
 20
120.951629028
 11
31.121960761
 21
122.291374990
  0
LINE
  8
1
 62
4
  6
CONTINUOUS
 10
31.121960761
 20
123.291374990
 11
26.121960761
 21
121.951629028
  0
LINE
  8
1
 62
4
  6
CONTINUOUS
 10
31.121960761
 20
119.951629028
 11
26.121960761
 21
121.291374990
  0
LINE
  8
1
 62
4
  6
CONTINUOUS
 10
26.121960761
 20
120.291374990
 11
31.121960761
 21
118.951629028
  0
LINE
  8
1
 62
4
  6
CONTINUOUS
 10
31.121960761
 20
117.951629028
 11
26.121960761
 21
119.291374990
  0
LINE
  8
1
 62
4
  6
CONTINUOUS
 10
26.121960761
 20
118.291374990
 11
31.121960761
 21
116.951629028
  0
LINE
  8
1
 62
4
  6
CONTINUOUS
 10
31.121960761
 20
115.951629028
 11
26.121960761
 21
117.291374990
  0
LINE
  8
1
 62
7
  6
CONTINUOUS
 10
57.121960761
 20
131.451629028
 11
57.121960761
 21
117.451629028
  0
LINE
  8
1
 62
7
  6
CONTINUOUS
 10
58.121960761
 20
118.451629028
 11
58.121960761
 21
130.451629028
  0
LINE
  8
1
 62
7
  6
CONTINUOUS
 10
57.121960761
 20
117.451629028
 11
39.121960761
 21
116.701629028
  0
LINE
  8
1
 62
7
  6
CONTINUOUS
 10
58.121960761
 20
118.451629028
 11
57.121960761
 21
117.451629028
  0
LINE
  8
1
 62
7
  6
CONTINUOUS
 10
57.121960761
 20
131.451629028
 11
39.121960761
 21
132.201629028
  0
LINE
  8
1
 62
7
  6
CONTINUOUS
 10
58.121960761
 20
130.451629028
 11
57.121960761
 21
131.451629028
  0
LINE
  8
1
 62
7
  6
CONTINUOUS
 10
83.121960761
 20
120.201629028
 11
58.121960761
 21
119.201629028
  0
LINE
  8
1
 62
7
  6
CONTINUOUS
 10
58.121960761
 20
129.701629028
 11
83.121960761
 21
128.701629028
  0
LINE
  8
1
 62
7
  6
CONTINUOUS
 10
33.121960761
 20
116.551629028
 11
31.121960761
 21
116.551629028
  0
LINE
  8
1
 62
7
  6
CONTINUOUS
 10
31.121960761
 20
132.351629028
 11
33.121960761
 21
132.351629028
  0
LINE
  8
1
 62
7
  6
CONTINUOUS
 10
33.121960761
 20
115.951629028
 11
33.121960761
 21
132.951629028
  0
LINE
  8
1
 62
7
  6
CONTINUOUS
 10
38.121960761
 20
115.951629028
 11
33.121960761
 21
115.951629028
  0
LINE
  8
1
 62
7
  6
CONTINUOUS
 10
38.121960761
 20
132.951629028
 11
38.121960761
 21
115.951629028
  0
LINE
  8
1
 62
7
  6
CONTINUOUS
 10
33.121960761
 20
132.951629028
 11
38.121960761
 21
132.951629028
  0
LINE
  8
1
 62
7
  6
CONTINUOUS
 10
83.121960761
 20
128.701629028
 11
83.121960761
 21
120.201629028
  0
LINE
  8
1
 62
7
  6
CONTINUOUS
 10
39.121960761
 20
116.551629028
 11
38.121960761
 21
116.551629028
  0
LINE
  8
1
 62
7
  6
CONTINUOUS
 10
39.121960761
 20
132.351629028
 11
39.121960761
 21
116.551629028
  0
LINE
  8
1
 62
7
  6
CONTINUOUS
 10
38.121960761
 20
132.351629028
 11
39.121960761
 21
132.351629028
  0
LINE
  8
1
 62
7
  6
CONTINUOUS
 10
31.121960761
 20
132.951629028
 11
26.121960761
 21
132.951629028
  0
LINE
  8
1
 62
7
  6
CONTINUOUS
 10
31.121960761
 20
115.951629028
 11
31.121960761
 21
132.951629028
  0
LINE
  8
1
 62
7
  6
CONTINUOUS
 10
26.121960761
 20
115.951629028
 11
31.121960761
 21
115.951629028
  0
LINE
  8
1
 62
7
  6
CONTINUOUS
 10
26.121960761
 20
132.951629028
 11
26.121960761
 21
115.951629028
  0
LINE
  8
1
 62
4
  6
CONTINUOUS
 10
26.121960761
 20
115.951629028
 11
31.121960761
 21
117.291374990
  0
LINE
  8
1
 62
4
  6
CONTINUOUS
 10
26.121960761
 20
116.951629028
 11
31.121960761
 21
118.291374990
  0
LINE
  8
1
 62
7
  6
CONTINUOUS
 10
23.121960761
 20
132.351629028
 11
23.121960761
 21
116.551629028
  0
LINE
  8
1
 62
7
  6
CONTINUOUS
 10
23.121960761
 20
131.201629028
 11
16.121960761
 21
131.201629028
  0
LINE
  8
1
 62
7
  6
CONTINUOUS
 10
23.121960761
 20
116.551629028
 11
26.121960761
 21
116.551629028
  0
LINE
  8
1
 62
7
  6
CONTINUOUS
 10
16.121960761
 20
131.201629028
 11
16.121960761
 21
117.701629028
  0
LINE
  8
1
 62
7
  6
CONTINUOUS
 10
16.121960761
 20
117.701629028
 11
23.121960761
 21
117.701629028
  0
LINE
  8
1
 62
4
  6
CONTINUOUS
 10
26.121960761
 20
117.951629028
 11
31.121960761
 21
119.291374990
  0
LINE
  8
1
 62
4
  6
CONTINUOUS
 10
31.121960761
 20
120.291374990
 11
26.121960761
 21
118.951629028
  0
LINE
  8
1
 62
7
  6
CONTINUOUS
 10
26.121960761
 20
132.351629028
 11
23.121960761
 21
132.351629028
  0
DIMENSION
  8
1
 62
4
  6
CONTINUOUS
  2
*D231
 70
0
 10
184.233587949
 20
158.451629028
 11
172.733587949
 21
158.451629028
 14
184.233587949
 24
174.651629028
 13
161.233587949
 23
174.551629028
 50
0.000000000
  0
LINE
  8
1
 62
7
  6
CONTINUOUS
 10
116.947594185
 20
120.801629028
 11
83.121960761
 21
120.801629028
  0
LINE
  8
1
 62
7
  6
CONTINUOUS
 10
116.947594185
 20
128.101629028
 11
83.121960761
 21
128.101629028
  0
INSERT
  8
1
 62
4
  6
CONTINUOUS
  2
blk234
 10
271.266710984
 20
162.006388076
 41
2.349065613
 42
2.205131700
 50
48.905223967
  0
INSERT
  8
1
 62
4
  6
CONTINUOUS
  2
blk235
 10
275.047121841
 20
159.719937186
 41
2.349065613
 42
2.205131700
 50
48.905223967
  0
INSERT
  8
1
 62
4
  6
CONTINUOUS
  2
blk236
 10
274.890178885
 20
162.445683388
 41
2.349065613
 42
2.205131700
 50
48.905223967
  0
INSERT
  8
1
 62
4
  6
CONTINUOUS
  2
blk237
 10
275.315946720
 20
155.051053598
 41
2.860813220
 42
2.268833679
 50
99.526871475
  0
INSERT
  8
1
 62
4
  6
CONTINUOUS
  2
blk238
 10
271.469349636
 20
158.487010397
 41
2.860813220
 42
2.268833679
 50
99.526871475
  0
INSERT
  8
1
 62
4
  6
CONTINUOUS
  2
blk239
 10
271.666004328
 20
155.071560649
 41
2.860813220
 42
2.268833679
 50
99.526871475
  0
DIMENSION
  8
1
 62
4
  6
CONTINUOUS
  2
*D240
 70
1
 10
56.233587949
 20
174.451629028
 11
56.233587949
 21
189.451629028
 14
66.333587949
 24
174.451629028
 13
66.333587949
 23
204.451629028
 50
90.000000000
  0
DIMENSION
  8
1
 62
4
  6
CONTINUOUS
  2
*D241
 70
0
 10
213.733587949
 20
158.451629028
 11
198.983587949
 21
158.451629028
 14
213.733587949
 24
185.201629028
 13
184.233587949
 23
174.651629028
 50
0.000000000
  0
ARC
  8
1
 62
4
  6
CONTINUOUS
 10
121.966344185
 20
126.276629028
 40
2.281250000
 50
126.869897646
 51
233.130102354
  0
ARC
  8
1
 62
4
  6
CONTINUOUS
 10
119.228844185
 20
122.626629028
 40
2.281250000
 50
306.869897646
 51
53.130102354
  0
ARC
  8
1
 62
4
  6
CONTINUOUS
 10
121.966344185
 20
122.626629028
 40
2.281250000
 50
126.869897646
 51
233.130102354
  0
ARC
  8
1
 62
4
  6
CONTINUOUS
 10
115.578844185
 20
122.626629028
 40
2.281250000
 50
306.869897646
 51
53.130102354
  0
ARC
  8
1
 62
4
  6
CONTINUOUS
 10
118.316344185
 20
126.276629028
 40
2.281250000
 50
126.869897646
 51
233.130102354
  0
ARC
  8
1
 62
4
  6
CONTINUOUS
 10
115.578844185
 20
126.276629028
 40
2.281250000
 50
306.869897646
 51
53.130102354
  0
TEXT
  8
1
 62
3
  6
CONTINUOUS
 72
5
 10
113.698060888
 20
97.467629028
 40
4.000000000
  1
ＥＭ－８０５
 41
0.835205345
 11
136.898060888
 21
97.467629028
  0
LINE
  8
1
 62
7
  6
CONTINUOUS
 10
197.233587949
 20
195.951629028
 11
194.233587949
 21
195.951629028
  0
LINE
  8
1
 62
1
  6
CENTER
 10
182.233587949
 20
199.951629028
 11
248.173918552
 21
199.951629028
  0
LINE
  8
1
 62
7
  6
CONTINUOUS
 10
197.233587949
 20
203.951629028
 11
197.233587949
 21
195.951629028
  0
LINE
  8
1
 62
7
  6
CONTINUOUS
 10
194.233587949
 20
203.951629028
 11
197.233587949
 21
203.951629028
  0
LINE
  8
1
 62
7
  6
CONTINUOUS
 10
185.001537141
 20
203.951629028
 11
185.001537141
 21
195.951629028
  0
LINE
  8
1
 62
7
  6
CONTINUOUS
 10
197.233587949
 20
201.951629028
 11
248.173918552
 21
201.951629028
  0
LINE
  8
1
 62
7
  6
CONTINUOUS
 10
184.733587949
 20
196.951629028
 11
185.001537141
 21
195.951629028
  0
LINE
  8
1
 62
7
  6
CONTINUOUS
 10
184.733587949
 20
202.951629028
 11
184.733587949
 21
196.951629028
  0
LINE
  8
1
 62
7
  6
CONTINUOUS
 10
185.001537141
 20
203.951629028
 11
184.733587949
 21
202.951629028
  0
LINE
  8
1
 62
7
  6
CONTINUOUS
 10
191.733587949
 20
195.951629028
 11
191.733587949
 21
203.951629028
  0
LINE
  8
1
 62
7
  6
CONTINUOUS
 10
192.733587949
 20
203.951629028
 11
192.733587949
 21
195.951629028
  0
LINE
  8
1
 62
7
  6
CONTINUOUS
 10
194.233587949
 20
195.951629028
 11
194.233587949
 21
203.951629028
  0
LINE
  8
1
 62
7
  6
CONTINUOUS
 10
191.733587949
 20
195.951629028
 11
185.001537141
 21
195.951629028
  0
LINE
  8
1
 62
7
  6
CONTINUOUS
 10
192.733587949
 20
195.951629028
 11
191.733587949
 21
195.951629028
  0
LINE
  8
1
 62
7
  6
CONTINUOUS
 10
194.233587949
 20
197.451629028
 11
192.733587949
 21
197.451629028
  0
LINE
  8
1
 62
7
  6
CONTINUOUS
 10
192.733587949
 20
202.451629028
 11
194.233587949
 21
202.451629028
  0
LINE
  8
1
 62
7
  6
CONTINUOUS
 10
191.733587949
 20
203.951629028
 11
192.733587949
 21
203.951629028
  0
LINE
  8
1
 62
7
  6
CONTINUOUS
 10
185.001537141
 20
203.951629028
 11
191.733587949
 21
203.951629028
  0
LINE
  8
1
 62
7
  6
CONTINUOUS
 10
184.233587949
 20
196.951629028
 11
184.733587949
 21
196.951629028
  0
LINE
  8
1
 62
7
  6
CONTINUOUS
 10
184.733587949
 20
202.951629028
 11
184.233587949
 21
202.951629028
  0
LINE
  8
1
 62
7
  6
CONTINUOUS
 10
248.173918552
 20
197.951629028
 11
197.233587949
 21
197.951629028
  0
DIMENSION
  8
1
 62
4
  6
CONTINUOUS
  2
*D270
 70
0
 10
197.233587949
 20
212.951629028
 11
190.733587949
 21
212.951629028
 14
197.233587949
 24
203.951629028
 13
184.233587949
 23
204.251629028
 50
0.000000000
  0
ARC
  8
1
 62
4
  6
CONTINUOUS
 10
247.423918552
 20
198.951629028
 40
1.250000000
 50
306.869897646
 51
53.130102354
  0
ARC
  8
1
 62
4
  6
CONTINUOUS
 10
248.923918552
 20
200.951629028
 40
1.250000000
 50
126.869897646
 51
233.130102354
  0
ARC
  8
1
 62
4
  6
CONTINUOUS
 10
247.423918552
 20
200.951629028
 40
1.250000000
 50
306.869897646
 51
53.130102354
  0
ENDSEC
  0
EOF
