  0
SECTION
  2
HEADER
  9
$ACADVER
  1
AC1009
  9
$INSBASE
 10
0.000000000
 20
0.000000000
  9
$EXTMIN
 10
-20.188405797
 20
-20.261376812
  9
$EXTMAX
 10
222.072463768
 20
222.875144928
  9
$LIMMIN
 10
-20.188405797
 20
-20.261376812
  9
$LIMMAX
 10
222.072463768
 20
222.875144928
  9
$SNAPBASE
 10
0.000000000
 20
0.000000000
  9
$SNAPANG
 50
0.000000000
  9
$SNAPSTYLE
 70
0
  9
$GRIDMODE
 70
0
  9
$GRIDUNIT
 10
0.000000000
 20
0.000000000
  9
$DIMEXO
 40
0.000000000
  9
$DIMDLI
 40
8.000000000
  9
$DIMDLE
 40
0.000000000
  9
$DIMEXE
 40
1.000000000
  9
$DIMTIH
 70
1
  9
$DIMTOH
 70
1
  9
$DIMTAD
 70
2
  9
$DIMZIN
 70
0
  9
$FILLETRAD
 40
1.000000000
  9
$CHAMFERA
 40
1.000000000
  9
$CHAMFERB
 40
1.000000000
  9
$TDCREATE
 40
2454158.461192130
  9
$TDUPDATE
 40
2454158.461192130
  9
$ANGBASE
 50
0.000000000
  9
$ANGDIR
 70
0
  0
ENDSEC
  0
SECTION
  2
TABLES
  0
TABLE
  2
LTYPE
 70
3
  0
LTYPE
  2
CENTER
 70
64
  3
___ _ ___ _ __
 72
65
 73
4
 40
13.000000000
 49
8.500000000
 49
-1.500000000
 49
1.500000000
 49
-1.500000000
  0
LTYPE
  2
CONTINUOUS
 70
64
  3
______________
 72
65
 73
0
 40
0.000000000
  0
LTYPE
  2
DIVIDE
 70
64
  3
___ . . ___ . 
 72
65
 73
6
 40
12.999999523
 49
5.199999809
 49
-2.599999905
 49
0.000000000
 49
-2.599999905
 49
0.000000000
 49
-2.599999905
  0
ENDTAB
  0
TABLE
  2
LAYER
 70
1
  0
LAYER
  2
1
 70
0
 62
7
  6
CONTINUOUS
999
Comment001
  0
LAYER
  2
_CONSTR
 70
0
 62
5
  6
CONTINUOUS
  0
ENDTAB
  0
TABLE
  2
STYLE
 70
1
  0
STYLE
  2
STANDARD
 70
64
 40
0.000000000
 41
1.000000000
 50
0.000000000
 71
0
 42
3.200000000
  3
TXT
  4
EXTFONT
  0
ENDTAB
  0
TABLE
  2
VIEW
 70
0
  0
ENDTAB
  0
ENDSEC
  0
SECTION
  2
BLOCKS
  0
BLOCK
  8
0
  2
*D33
 70
65
 10
0.000000000
 20
0.000000000
  3
*D
  0
TEXT
  8
1
 62
4
  6
CONTINUOUS
 72
5
 10
110.250850882
 20
147.668768116
 40
2.800000000
  1
4.6
 41
1.199998800
 11
116.970850882
 21
147.668768116
  0
LINE
  8
1
 62
4
  6
CONTINUOUS
 10
104.784057971
 20
160.363768116
 11
104.784057971
 21
143.463768116
  0
POLYLINE
  8
1
 62
4
  6
CONTINUOUS
 66
1
  0
VERTEX
  8
1
 10
102.784057971
 20
145.763768116
  0
VERTEX
  8
1
 10
104.784057971
 20
145.463768116
  0
SEQEND
  8
1
  0
POLYLINE
  8
1
 62
4
  6
CONTINUOUS
 66
1
  0
VERTEX
  8
1
 10
101.784057971
 20
145.463768116
  0
VERTEX
  8
1
 10
104.784057971
 20
145.463768116
  0
VERTEX
  8
1
 10
102.784057971
 20
145.163768116
  0
SEQEND
  8
1
  0
LINE
  8
1
 62
4
  6
CONTINUOUS
 10
104.784057971
 20
145.463768116
 11
109.384057971
 21
145.463768116
  0
POLYLINE
  8
1
 62
4
  6
CONTINUOUS
 66
1
  0
VERTEX
  8
1
 10
111.384057971
 20
145.163768116
  0
VERTEX
  8
1
 10
109.384057971
 20
145.463768116
  0
SEQEND
  8
1
  0
POLYLINE
  8
1
 62
4
  6
CONTINUOUS
 66
1
  0
VERTEX
  8
1
 10
112.384057971
 20
145.463768116
  0
VERTEX
  8
1
 10
109.384057971
 20
145.463768116
  0
VERTEX
  8
1
 10
111.384057971
 20
145.763768116
  0
SEQEND
  8
1
  0
LINE
  8
1
 62
4
  6
CONTINUOUS
 10
109.384057971
 20
157.663768116
 11
109.384057971
 21
143.463768116
  0
POLYLINE
  8
1
 62
4
  6
CONTINUOUS
 66
1
  0
VERTEX
  8
1
 10
109.384057971
 20
145.463768116
  0
VERTEX
  8
1
 10
118.954050882
 20
145.463768116
  0
SEQEND
  8
1
  0
ENDBLK
  8
0
  0
BLOCK
  8
0
  2
*D34
 70
65
 10
0.000000000
 20
0.000000000
  3
*D
  0
TEXT
  8
1
 62
4
  6
CONTINUOUS
 72
5
 10
77.307555356
 20
165.332168116
 40
2.800000000
  1
φ
 41
1.270648030
 50
90.000000000
 11
77.307555356
 21
168.692168116
  0
TEXT
  8
1
 62
4
  6
CONTINUOUS
 72
5
 10
77.307555356
 20
170.372168116
 40
2.800000000
  1
10.5
 41
1.319998944
 50
90.000000000
 11
77.307555356
 21
179.612168116
  0
LINE
  8
1
 62
4
  6
CONTINUOUS
 10
101.284057971
 20
177.713768116
 11
77.512555356
 21
177.713768116
  0
POLYLINE
  8
1
 62
4
  6
CONTINUOUS
 66
1
  0
VERTEX
  8
1
 10
79.812555356
 20
175.713768116
  0
VERTEX
  8
1
 10
79.512555356
 20
177.713768116
  0
VERTEX
  8
1
 10
79.212555356
 20
175.713768116
  0
SEQEND
  8
1
  0
LINE
  8
1
 62
4
  6
CONTINUOUS
 10
79.512555356
 20
177.713768116
 11
79.512555356
 21
167.213768116
  0
POLYLINE
  8
1
 62
4
  6
CONTINUOUS
 66
1
  0
VERTEX
  8
1
 10
79.212555356
 20
169.213768116
  0
VERTEX
  8
1
 10
79.512555356
 20
167.213768116
  0
VERTEX
  8
1
 10
79.812555356
 20
169.213768116
  0
SEQEND
  8
1
  0
LINE
  8
1
 62
4
  6
CONTINUOUS
 10
101.284057971
 20
167.213768116
 11
77.512555356
 21
167.213768116
  0
ENDBLK
  8
0
  0
BLOCK
  8
0
  2
*D36
 70
65
 10
0.000000000
 20
0.000000000
  3
*D
  0
TEXT
  8
1
 62
4
  6
CONTINUOUS
 72
5
 10
61.307555356
 20
164.500568116
 40
2.800000000
  1
φ
 41
1.270648030
 50
90.000000000
 11
61.307555356
 21
167.860568116
  0
TEXT
  8
1
 62
4
  6
CONTINUOUS
 72
5
 10
61.307555356
 20
169.540568116
 40
2.800000000
  1
30
 41
1.000000667
 50
90.000000000
 11
61.307555356
 21
173.740568116
  0
TEXT
  8
1
 62
4
  6
CONTINUOUS
 72
5
 10
59.543555356
 20
174.580568116
 40
1.400000000
  1
 0
 41
2.333335926
 50
90.000000000
 11
59.543555356
 21
177.520568116
  0
TEXT
  8
1
 62
4
  6
CONTINUOUS
 72
5
 10
61.685555356
 20
174.580568116
 40
1.400000000
  1
-0.01
 41
1.710000684
 50
90.000000000
 11
61.685555356
 21
182.560568116
  0
LINE
  8
1
 62
4
  6
CONTINUOUS
 10
109.584057971
 20
187.463768116
 11
61.512555356
 21
187.463768116
  0
POLYLINE
  8
1
 62
4
  6
CONTINUOUS
 66
1
  0
VERTEX
  8
1
 10
63.812555356
 20
185.463768116
  0
VERTEX
  8
1
 10
63.512555356
 20
187.463768116
  0
VERTEX
  8
1
 10
63.212555356
 20
185.463768116
  0
SEQEND
  8
1
  0
LINE
  8
1
 62
4
  6
CONTINUOUS
 10
63.512555356
 20
187.463768116
 11
63.512555356
 21
157.463768116
  0
POLYLINE
  8
1
 62
4
  6
CONTINUOUS
 66
1
  0
VERTEX
  8
1
 10
63.212555356
 20
159.463768116
  0
VERTEX
  8
1
 10
63.512555356
 20
157.463768116
  0
VERTEX
  8
1
 10
63.812555356
 20
159.463768116
  0
SEQEND
  8
1
  0
LINE
  8
1
 62
4
  6
CONTINUOUS
 10
109.584057971
 20
157.463768116
 11
61.512555356
 21
157.463768116
  0
ENDBLK
  8
0
  0
BLOCK
  8
0
  2
*D93
 70
65
 10
0.000000000
 20
0.000000000
  3
*D
  0
TEXT
  8
1
 62
4
  6
CONTINUOUS
 72
5
 10
69.307555356
 20
165.332168116
 40
2.800000000
  1
φ
 41
1.270648030
 50
90.000000000
 11
69.307555356
 21
168.692168116
  0
TEXT
  8
1
 62
4
  6
CONTINUOUS
 72
5
 10
69.307555356
 20
170.372168116
 40
2.800000000
  1
24.6
 41
1.099999267
 50
90.000000000
 11
69.307555356
 21
179.612168116
  0
LINE
  8
1
 62
4
  6
CONTINUOUS
 10
104.984057971
 20
184.763768116
 11
69.512555356
 21
184.763768116
  0
POLYLINE
  8
1
 62
4
  6
CONTINUOUS
 66
1
  0
VERTEX
  8
1
 10
71.812555356
 20
182.763768116
  0
VERTEX
  8
1
 10
71.512555356
 20
184.763768116
  0
VERTEX
  8
1
 10
71.212555356
 20
182.763768116
  0
SEQEND
  8
1
  0
LINE
  8
1
 62
4
  6
CONTINUOUS
 10
71.512555356
 20
184.763768116
 11
71.512555356
 21
160.163768116
  0
POLYLINE
  8
1
 62
4
  6
CONTINUOUS
 66
1
  0
VERTEX
  8
1
 10
71.212555356
 20
162.163768116
  0
VERTEX
  8
1
 10
71.512555356
 20
160.163768116
  0
VERTEX
  8
1
 10
71.812555356
 20
162.163768116
  0
SEQEND
  8
1
  0
LINE
  8
1
 62
4
  6
CONTINUOUS
 10
104.984057971
 20
160.163768116
 11
69.512555356
 21
160.163768116
  0
ENDBLK
  8
0
  0
BLOCK
  8
0
  2
*D97
 70
65
 10
0.000000000
 20
0.000000000
  3
*D
  0
TEXT
  8
1
 62
4
  6
CONTINUOUS
 72
5
 10
185.002457971
 20
139.668768116
 40
2.800000000
  1
(
 41
1.800001800
 11
186.682457971
 21
139.668768116
  0
TEXT
  8
1
 62
4
  6
CONTINUOUS
 72
5
 10
187.522457971
 20
139.668768116
 40
2.800000000
  1
15.5
 41
1.237498917
 11
196.762457971
 21
139.668768116
  0
TEXT
  8
1
 62
4
  6
CONTINUOUS
 72
5
 10
197.602457971
 20
139.668768116
 40
2.800000000
  1
)
 41
1.800001800
 11
199.282457971
 21
139.668768116
  0
POLYLINE
  8
1
 62
4
  6
CONTINUOUS
 66
1
  0
VERTEX
  8
1
 10
186.384057971
 20
137.763768116
  0
VERTEX
  8
1
 10
184.384057971
 20
137.463768116
  0
VERTEX
  8
1
 10
186.384057971
 20
137.163768116
  0
SEQEND
  8
1
  0
LINE
  8
1
 62
4
  6
CONTINUOUS
 10
184.384057971
 20
137.463768116
 11
199.884057971
 21
137.463768116
  0
POLYLINE
  8
1
 62
4
  6
CONTINUOUS
 66
1
  0
VERTEX
  8
1
 10
197.884057971
 20
137.163768116
  0
VERTEX
  8
1
 10
199.884057971
 20
137.463768116
  0
VERTEX
  8
1
 10
197.884057971
 20
137.763768116
  0
SEQEND
  8
1
  0
LINE
  8
1
 62
4
  6
CONTINUOUS
 10
199.884057971
 20
160.538768116
 11
199.884057971
 21
135.463768116
  0
ENDBLK
  8
0
  0
BLOCK
  8
0
  2
*D100
 70
65
 10
0.000000000
 20
0.000000000
  3
*D
  0
TEXT
  8
1
 62
4
  6
CONTINUOUS
 72
5
 10
144.792457971
 20
139.668768116
 40
2.800000000
  1
75
 41
0.899998740
 11
148.992457971
 21
139.668768116
  0
POLYLINE
  8
1
 62
4
  6
CONTINUOUS
 66
1
  0
VERTEX
  8
1
 10
111.384057971
 20
137.763768116
  0
VERTEX
  8
1
 10
109.384057971
 20
137.463768116
  0
VERTEX
  8
1
 10
111.384057971
 20
137.163768116
  0
SEQEND
  8
1
  0
LINE
  8
1
 62
4
  6
CONTINUOUS
 10
109.384057971
 20
137.463768116
 11
184.384057971
 21
137.463768116
  0
POLYLINE
  8
1
 62
4
  6
CONTINUOUS
 66
1
  0
VERTEX
  8
1
 10
182.384057971
 20
137.163768116
  0
VERTEX
  8
1
 10
184.384057971
 20
137.463768116
  0
VERTEX
  8
1
 10
182.384057971
 20
137.763768116
  0
SEQEND
  8
1
  0
LINE
  8
1
 62
4
  6
CONTINUOUS
 10
184.384057971
 20
157.563768116
 11
184.384057971
 21
135.463768116
  0
ENDBLK
  8
0
  0
BLOCK
  8
0
  2
*D132
 70
65
 10
0.000000000
 20
0.000000000
  3
*D
  0
TEXT
  8
1
 62
4
  6
CONTINUOUS
 72
5
 10
95.722406663
 20
139.668768116
 40
2.800000000
  1
(
 41
1.950001950
 11
97.542406663
 21
139.668768116
  0
TEXT
  8
1
 62
4
  6
CONTINUOUS
 72
5
 10
98.452406663
 20
139.668768116
 40
2.800000000
  1
11.9
 41
1.532141106
 11
108.462406663
 21
139.668768116
  0
TEXT
  8
1
 62
4
  6
CONTINUOUS
 72
5
 10
109.372406663
 20
139.668768116
 40
2.800000000
  1
)
 41
1.950001950
 11
111.192406663
 21
139.668768116
  0
LINE
  8
1
 62
4
  6
CONTINUOUS
 10
97.512555356
 20
169.863768116
 11
97.512555356
 21
135.463768116
  0
POLYLINE
  8
1
 62
4
  6
CONTINUOUS
 66
1
  0
VERTEX
  8
1
 10
99.512555356
 20
137.763768116
  0
VERTEX
  8
1
 10
97.512555356
 20
137.463768116
  0
VERTEX
  8
1
 10
99.512555356
 20
137.163768116
  0
SEQEND
  8
1
  0
LINE
  8
1
 62
4
  6
CONTINUOUS
 10
97.512555356
 20
137.463768116
 11
109.384057971
 21
137.463768116
  0
POLYLINE
  8
1
 62
4
  6
CONTINUOUS
 66
1
  0
VERTEX
  8
1
 10
107.384057971
 20
137.163768116
  0
VERTEX
  8
1
 10
109.384057971
 20
137.463768116
  0
VERTEX
  8
1
 10
107.384057971
 20
137.763768116
  0
SEQEND
  8
1
  0
LINE
  8
1
 62
4
  6
CONTINUOUS
 10
109.384057971
 20
157.663768116
 11
109.384057971
 21
135.463768116
  0
ENDBLK
  8
0
  0
BLOCK
  8
0
  2
*D133
 70
65
 10
0.000000000
 20
0.000000000
  3
*D
  0
TEXT
  8
1
 62
4
  6
CONTINUOUS
 72
5
 10
140.306706663
 20
131.668768116
 40
2.800000000
  1
(
 41
1.800001800
 11
141.986706663
 21
131.668768116
  0
TEXT
  8
1
 62
4
  6
CONTINUOUS
 72
5
 10
142.826706663
 20
131.668768116
 40
2.800000000
  1
102.4
 41
1.199999314
 11
154.586706663
 21
131.668768116
  0
TEXT
  8
1
 62
4
  6
CONTINUOUS
 72
5
 10
155.426706663
 20
131.668768116
 40
2.800000000
  1
)
 41
1.800001800
 11
157.106706663
 21
131.668768116
  0
LINE
  8
1
 62
4
  6
CONTINUOUS
 10
97.512555356
 20
169.863768116
 11
97.512555356
 21
127.463768116
  0
POLYLINE
  8
1
 62
4
  6
CONTINUOUS
 66
1
  0
VERTEX
  8
1
 10
99.512555356
 20
129.763768116
  0
VERTEX
  8
1
 10
97.512555356
 20
129.463768116
  0
VERTEX
  8
1
 10
99.512555356
 20
129.163768116
  0
SEQEND
  8
1
  0
LINE
  8
1
 62
4
  6
CONTINUOUS
 10
97.512555356
 20
129.463768116
 11
199.884057971
 21
129.463768116
  0
POLYLINE
  8
1
 62
4
  6
CONTINUOUS
 66
1
  0
VERTEX
  8
1
 10
197.884057971
 20
129.163768116
  0
VERTEX
  8
1
 10
199.884057971
 20
129.463768116
  0
VERTEX
  8
1
 10
197.884057971
 20
129.763768116
  0
SEQEND
  8
1
  0
LINE
  8
1
 62
4
  6
CONTINUOUS
 10
199.884057971
 20
160.538768116
 11
199.884057971
 21
127.463768116
  0
ENDBLK
  8
0
  0
ENDSEC
  0
SECTION
  2
ENTITIES
  0
LINE
  8
1
 62
7
  6
CONTINUOUS
 10
104.784057971
 20
177.813768116
 11
104.684057971
 21
177.813768116
  0
LINE
  8
1
 62
7
  6
CONTINUOUS
 10
109.384057971
 20
160.963768116
 11
108.484057971
 21
160.963768116
  0
LINE
  8
1
 62
7
  6
CONTINUOUS
 10
109.384057971
 20
157.663768116
 11
109.384057971
 21
187.263768116
  0
LINE
  8
1
 62
7
  6
CONTINUOUS
 10
184.284057971
 20
157.463768116
 11
109.584057971
 21
157.463768116
  0
LINE
  8
1
 62
7
  6
CONTINUOUS
 10
199.384057971
 20
160.038768116
 11
199.884057971
 21
160.538768116
  0
LINE
  8
1
 62
7
  6
CONTINUOUS
 10
184.384057971
 20
185.063768116
 11
185.384057971
 21
185.063768116
  0
LINE
  8
1
 62
7
  6
CONTINUOUS
 10
184.284057971
 20
187.463768116
 11
184.384057971
 21
187.363768116
  0
LINE
  8
1
 62
7
  6
CONTINUOUS
 10
199.884057971
 20
184.388768116
 11
199.884057971
 21
160.538768116
  0
LINE
  8
1
 62
7
  6
CONTINUOUS
 10
185.384057971
 20
159.813768116
 11
193.884057971
 21
159.813768116
  0
LINE
  8
1
 62
7
  6
CONTINUOUS
 10
102.584057971
 20
174.699836093
 11
104.384057971
 21
174.699836093
  0
LINE
  8
1
 62
7
  6
CONTINUOUS
 10
184.384057971
 20
187.363768116
 11
184.384057971
 21
157.563768116
  0
LINE
  8
1
 62
1
  6
CONTINUOUS
 10
193.884057971
 20
160.538768116
 11
192.628321136
 21
159.813768116
  0
LINE
  8
1
 62
1
  6
CONTINUOUS
 10
199.884057971
 20
160.538768116
 11
193.884057971
 21
160.538768116
  0
LINE
  8
1
 62
7
  6
CONTINUOUS
 10
193.884057971
 20
185.113768116
 11
193.884057971
 21
159.813768116
  0
LINE
  8
1
 62
7
  6
CONTINUOUS
 10
185.384057971
 20
185.113768116
 11
193.884057971
 21
185.113768116
  0
LINE
  8
1
 62
7
  6
CONTINUOUS
 10
184.384057971
 20
157.563768116
 11
184.284057971
 21
157.463768116
  0
LINE
  8
1
 62
1
  6
CENTER
 10
85.512555356
 20
172.463768116
 11
201.884057971
 21
172.463768116
  0
LINE
  8
1
 62
7
  6
CONTINUOUS
 10
100.512555356
 20
169.063768116
 11
101.084057971
 21
169.113768116
  0
LINE
  8
1
 62
7
  6
CONTINUOUS
 10
99.512555356
 20
169.513768116
 11
99.962555356
 21
169.063768116
  0
LINE
  8
1
 62
7
  6
CONTINUOUS
 10
101.084057971
 20
175.813768116
 11
100.512555356
 21
175.863768116
  0
LINE
  8
1
 62
7
  6
CONTINUOUS
 10
180.181057971
 20
195.763768116
 11
181.834057971
 21
194.763768116
  0
LINE
  8
1
 62
7
  6
CONTINUOUS
 10
179.719057971
 20
196.398768116
 11
180.181057971
 21
195.763768116
  0
LINE
  8
1
 62
7
  6
CONTINUOUS
 10
180.181057971
 20
195.763768116
 11
174.884057971
 21
195.763768116
  0
LINE
  8
1
 62
7
  6
CONTINUOUS
 10
180.181057971
 20
201.163768116
 11
180.181057971
 21
195.763768116
  0
LINE
  8
1
 62
7
  6
CONTINUOUS
 10
179.719057971
 20
196.398768116
 11
179.719057971
 21
200.363768116
  0
LINE
  8
1
 62
7
  6
CONTINUOUS
 10
175.984057971
 20
196.398768116
 11
179.719057971
 21
196.398768116
  0
LINE
  8
1
 62
7
  6
CONTINUOUS
 10
99.962555356
 20
169.063768116
 11
100.512555356
 21
169.063768116
  0
LINE
  8
1
 62
7
  6
CONTINUOUS
 10
99.512555356
 20
174.970778886
 11
97.812555356
 21
174.970778886
  0
LINE
  8
1
 62
7
  6
CONTINUOUS
 10
108.484057971
 20
183.963768116
 11
109.384057971
 21
183.963768116
  0
LINE
  8
1
 62
7
  6
CONTINUOUS
 10
109.584057971
 20
187.463768116
 11
184.284057971
 21
187.463768116
  0
LINE
  8
1
 62
7
  6
CONTINUOUS
 10
102.584057971
 20
174.699836093
 11
102.584057971
 21
170.227700138
  0
LINE
  8
1
 62
1
  6
CONTINUOUS
 10
193.884057971
 20
184.388768116
 11
192.628321136
 21
185.113768116
  0
DIMENSION
  8
1
 62
4
  6
CONTINUOUS
  2
*D33
 70
0
 10
109.384057971
 20
145.463768116
 11
113.602450882
 21
145.463768116
 14
109.384057971
 24
157.663768116
 13
104.784057971
 23
160.363768116
 50
0.000000000
  0
DIMENSION
  8
1
 62
4
  6
CONTINUOUS
  2
*D34
 70
1
 10
79.512555356
 20
167.213768116
 11
79.512555356
 21
172.463768116
 14
101.284057971
 24
167.213768116
 13
101.284057971
 23
177.713768116
 50
90.000000000
  0
TEXT
  8
1
 62
3
  6
CONTINUOUS
 72
5
 10
134.898306663
 20
115.479768116
 40
4.000000000
  1
ＮＲ－３０８０
 41
0.834929522
 11
162.098306663
 21
115.479768116
  0
DIMENSION
  8
1
 62
4
  6
CONTINUOUS
  2
*D36
 70
1
 10
63.512555356
 20
157.463768116
 11
63.512555356
 21
172.463768116
 14
109.584057971
 24
157.463768116
 13
109.584057971
 23
187.463768116
 50
90.000000000
  0
LINE
  8
1
 62
1
  6
CONTINUOUS
 10
199.884057971
 20
184.388768116
 11
193.884057971
 21
184.388768116
  0
LINE
  8
1
 62
7
  6
CONTINUOUS
 10
97.512555356
 20
170.928171169
 11
97.812555356
 21
170.777567919
  0
LINE
  8
1
 62
7
  6
CONTINUOUS
 10
99.962555356
 20
175.863768116
 11
99.512555356
 21
175.413768116
  0
LINE
  8
1
 62
7
  6
CONTINUOUS
 10
180.405057971
 20
193.763768116
 11
180.405057971
 21
188.763768116
  0
LINE
  8
1
 62
7
  6
CONTINUOUS
 10
176.364057971
 20
193.763768116
 11
176.364057971
 21
188.763768116
  0
LINE
  8
1
 62
7
  6
CONTINUOUS
 10
100.512555356
 20
175.863768116
 11
100.512555356
 21
170.984876284
  0
LINE
  8
1
 62
7
  6
CONTINUOUS
 10
97.812555356
 20
171.210580621
 11
97.512555356
 21
171.361183871
  0
LINE
  8
1
 62
7
  6
CONTINUOUS
 10
99.512555356
 20
171.210580621
 11
99.962555356
 21
170.984876284
  0
LINE
  8
1
 62
7
  6
CONTINUOUS
 10
186.884057971
 20
202.613768116
 11
191.884057971
 21
202.613768116
  0
LINE
  8
1
 62
7
  6
CONTINUOUS
 10
182.274057971
 20
201.163768116
 11
182.996057971
 21
202.413768116
  0
LINE
  8
1
 62
1
  6
CENTER
 10
178.384057971
 20
198.963768116
 11
178.384057971
 21
185.463768116
  0
LINE
  8
1
 62
7
  6
CONTINUOUS
 10
193.884057971
 20
160.038768116
 11
199.384057971
 21
160.038768116
  0
LINE
  8
1
 62
7
  6
CONTINUOUS
 10
97.512555356
 20
175.113768116
 11
97.512555356
 21
169.863768116
  0
LINE
  8
1
 62
7
  6
CONTINUOUS
 10
182.996057971
 20
202.413768116
 11
186.538057971
 21
202.413768116
  0
LINE
  8
1
 62
7
  6
CONTINUOUS
 10
186.884057971
 20
202.613768116
 11
186.538057971
 21
202.413768116
  0
LINE
  8
1
 62
7
  6
CONTINUOUS
 10
191.884057971
 20
200.156768116
 11
192.484057971
 21
200.156768116
  0
LINE
  8
1
 62
7
  6
CONTINUOUS
 10
100.512555356
 20
175.863768116
 11
99.962555356
 21
175.863768116
  0
LINE
  8
1
 62
7
  6
CONTINUOUS
 10
99.512555356
 20
169.513768116
 11
99.512555356
 21
170.777567919
  0
LINE
  8
1
 62
7
  6
CONTINUOUS
 10
97.512555356
 20
175.113768116
 11
97.812555356
 21
175.413768116
  0
LINE
  8
1
 62
7
  6
CONTINUOUS
 10
193.884057971
 20
184.888768116
 11
199.384057971
 21
184.888768116
  0
LINE
  8
1
 62
7
  6
CONTINUOUS
 10
192.484057971
 20
202.513768116
 11
193.984057971
 21
202.513768116
  0
LINE
  8
1
 62
7
  6
CONTINUOUS
 10
180.181057971
 20
201.163768116
 11
179.719057971
 21
200.363768116
  0
LINE
  8
1
 62
7
  6
CONTINUOUS
 10
179.719057971
 20
200.363768116
 11
178.384057971
 21
200.363768116
  0
LINE
  8
1
 62
7
  6
CONTINUOUS
 10
100.512555356
 20
169.063768116
 11
100.512555356
 21
170.551863582
  0
LINE
  8
1
 62
7
  6
CONTINUOUS
 10
99.962555356
 20
169.063768116
 11
99.962555356
 21
170.551863582
  0
LINE
  8
1
 62
7
  6
CONTINUOUS
 10
182.274057971
 20
201.163768116
 11
180.180057971
 21
201.163768116
  0
LINE
  8
1
 62
7
  6
CONTINUOUS
 10
101.084057971
 20
170.572177663
 11
100.512555356
 21
170.551863582
  0
LINE
  8
1
 62
7
  6
CONTINUOUS
 10
182.274057971
 20
194.763768116
 11
182.996057971
 21
193.513768116
  0
LINE
  8
1
 62
7
  6
CONTINUOUS
 10
182.996057971
 20
193.513768116
 11
186.538057971
 21
193.513768116
  0
LINE
  8
1
 62
7
  6
CONTINUOUS
 10
186.884057971
 20
193.313768116
 11
191.884057971
 21
193.313768116
  0
LINE
  8
1
 62
7
  6
CONTINUOUS
 10
100.512555356
 20
170.984876284
 11
101.084057971
 21
171.005190364
  0
LINE
  8
1
 62
7
  6
CONTINUOUS
 10
100.512555356
 20
170.984876284
 11
99.962555356
 21
170.984876284
  0
LINE
  8
1
 62
7
  6
CONTINUOUS
 10
99.962555356
 20
170.551863582
 11
100.512555356
 21
170.551863582
  0
LINE
  8
1
 62
7
  6
CONTINUOUS
 10
185.384057971
 20
185.113768116
 11
185.384057971
 21
159.813768116
  0
LINE
  8
1
 62
7
  6
CONTINUOUS
 10
99.512555356
 20
175.413768116
 11
97.812555356
 21
175.413768116
  0
LINE
  8
1
 62
7
  6
CONTINUOUS
 10
97.512555356
 20
169.863768116
 11
99.512555356
 21
169.863768116
  0
LINE
  8
1
 62
7
  6
CONTINUOUS
 10
97.512555356
 20
174.670778886
 11
97.812555356
 21
174.970778886
  0
LINE
  8
1
 62
7
  6
CONTINUOUS
 10
109.384057971
 20
187.263768116
 11
109.584057971
 21
187.463768116
  0
LINE
  8
1
 62
7
  6
CONTINUOUS
 10
109.584057971
 20
157.463768116
 11
109.384057971
 21
157.663768116
  0
LINE
  8
1
 62
7
  6
CONTINUOUS
 10
186.884057971
 20
193.313768116
 11
186.538057971
 21
193.513768116
  0
LINE
  8
1
 62
7
  6
CONTINUOUS
 10
191.884057971
 20
195.770768116
 11
192.484057971
 21
195.770768116
  0
LINE
  8
1
 62
7
  6
CONTINUOUS
 10
192.484057971
 20
193.413768116
 11
193.984057971
 21
193.413768116
  0
LINE
  8
1
 62
7
  6
CONTINUOUS
 10
199.384057971
 20
184.888768116
 11
199.884057971
 21
184.388768116
  0
LINE
  8
1
 62
7
  6
CONTINUOUS
 10
181.834057971
 20
194.763768116
 11
182.274057971
 21
194.763768116
  0
LINE
  8
1
 62
7
  6
CONTINUOUS
 10
181.834057971
 20
193.763768116
 11
181.834057971
 21
194.763768116
  0
LINE
  8
1
 62
7
  6
CONTINUOUS
 10
97.812555356
 20
175.413768116
 11
97.812555356
 21
174.970778886
  0
LINE
  8
1
 62
7
  6
CONTINUOUS
 10
99.512555356
 20
172.556757345
 11
97.812555356
 21
172.556757345
  0
LINE
  8
1
 62
7
  6
CONTINUOUS
 10
181.834057971
 20
187.763768116
 11
181.834057971
 21
188.763768116
  0
LINE
  8
1
 62
4
  6
CONTINUOUS
 10
102.584057971
 20
174.699836093
 11
104.384057971
 21
170.227700138
  0
LINE
  8
1
 62
4
  6
CONTINUOUS
 10
97.512555356
 20
174.670778886
 11
99.512555356
 21
172.556757345
  0
LINE
  8
1
 62
7
  6
CONTINUOUS
 10
104.684057971
 20
177.813768116
 11
104.584057971
 21
177.713768116
  0
LINE
  8
1
 62
7
  6
CONTINUOUS
 10
181.884057971
 20
187.463768116
 11
181.884057971
 21
187.763768116
  0
LINE
  8
1
 62
7
  6
CONTINUOUS
 10
104.584057971
 20
177.713768116
 11
104.584057971
 21
167.213768116
  0
LINE
  8
1
 62
7
  6
CONTINUOUS
 10
104.584057971
 20
167.213768116
 11
101.284057971
 21
167.213768116
  0
LINE
  8
1
 62
7
  6
CONTINUOUS
 10
104.784057971
 20
160.363768116
 11
104.984057971
 21
160.163768116
  0
LINE
  8
1
 62
7
  6
CONTINUOUS
 10
182.426057971
 20
193.763768116
 11
182.426057971
 21
188.763768116
  0
DIMENSION
  8
1
 62
4
  6
CONTINUOUS
  2
*D93
 70
1
 10
71.512555356
 20
160.163768116
 11
71.512555356
 21
172.463768116
 14
104.984057971
 24
160.163768116
 13
104.984057971
 23
184.763768116
 50
90.000000000
  0
LINE
  8
1
 62
7
  6
CONTINUOUS
 10
175.984057971
 20
196.398768116
 11
175.984057971
 21
197.963768116
  0
LINE
  8
1
 62
7
  6
CONTINUOUS
 10
174.884057971
 20
195.763768116
 11
174.884057971
 21
193.763768116
  0
LINE
  8
1
 62
7
  6
CONTINUOUS
 10
174.884057971
 20
195.763768116
 11
175.984057971
 21
196.398768116
  0
DIMENSION
  8
1
 62
4
  6
CONTINUOUS
  2
*D97
 70
0
 10
199.884057971
 20
137.463768116
 11
192.134057971
 21
137.463768116
 14
199.884057971
 24
160.538768116
 13
184.384057971
 23
157.563768116
 50
0.000000000
  0
LINE
  8
1
 62
7
  6
CONTINUOUS
 10
104.784057971
 20
160.363768116
 11
104.784057971
 21
184.563768116
  0
LINE
  8
1
 62
7
  6
CONTINUOUS
 10
108.384057971
 20
160.163768116
 11
104.984057971
 21
160.163768116
  0
DIMENSION
  8
1
 62
4
  6
CONTINUOUS
  2
*D100
 70
0
 10
184.384057971
 20
137.463768116
 11
146.884057971
 21
137.463768116
 14
184.384057971
 24
157.563768116
 13
109.384057971
 23
157.663768116
 50
0.000000000
  0
LINE
  8
1
 62
7
  6
CONTINUOUS
 10
174.934057971
 20
187.763768116
 11
174.934057971
 21
188.763768116
  0
LINE
  8
1
 62
7
  6
CONTINUOUS
 10
99.512555356
 20
170.777567919
 11
99.962555356
 21
170.551863582
  0
LINE
  8
1
 62
4
  6
CONTINUOUS
 10
99.512555356
 20
174.970778886
 11
97.512555356
 21
172.707360595
  0
LINE
  8
1
 62
7
  6
CONTINUOUS
 10
174.884057971
 20
187.463768116
 11
174.884057971
 21
187.763768116
  0
ARC
  8
1
 62
7
  6
CONTINUOUS
 10
87.812555356
 20
171.263768116
 40
0.300000000
 50
180.000000000
 51
270.000000000
  0
LINE
  8
1
 62
7
  6
CONTINUOUS
 10
182.274057971
 20
201.163768116
 11
182.274057971
 21
194.763768116
  0
LINE
  8
1
 62
7
  6
CONTINUOUS
 10
182.996057971
 20
202.413768116
 11
182.996057971
 21
193.513768116
  0
LINE
  8
1
 62
7
  6
CONTINUOUS
 10
186.538057971
 20
202.413768116
 11
186.538057971
 21
193.513768116
  0
LINE
  8
1
 62
7
  6
CONTINUOUS
 10
174.343057971
 20
193.763768116
 11
174.343057971
 21
188.763768116
  0
LINE
  8
1
 62
1
  6
CENTER
 10
177.384057971
 20
197.963768116
 11
195.984057971
 21
197.963768116
  0
LINE
  8
1
 62
7
  6
CONTINUOUS
 10
182.426057971
 20
193.763768116
 11
174.343057971
 21
193.763768116
  0
LINE
  8
1
 62
7
  6
CONTINUOUS
 10
87.512555356
 20
173.663768116
 11
87.512555356
 21
171.263768116
  0
LINE
  8
1
 62
7
  6
CONTINUOUS
 10
97.512555356
 20
170.963768116
 11
87.812555356
 21
170.963768116
  0
LINE
  8
1
 62
7
  6
CONTINUOUS
 10
87.812555356
 20
173.963768116
 11
97.512555356
 21
173.963768116
  0
ARC
  8
1
 62
7
  6
CONTINUOUS
 10
87.812555356
 20
173.663768116
 40
0.300000000
 50
89.999999935
 51
180.000000000
  0
LINE
  8
1
 62
7
  6
CONTINUOUS
 10
99.962555356
 20
170.984876284
 11
99.962555356
 21
175.863768116
  0
LINE
  8
1
 62
7
  6
CONTINUOUS
 10
99.512555356
 20
170.777567919
 11
97.812555356
 21
170.777567919
  0
LINE
  8
1
 62
7
  6
CONTINUOUS
 10
108.384057971
 20
160.163768116
 11
108.484057971
 21
160.263768116
  0
LINE
  8
1
 62
7
  6
CONTINUOUS
 10
104.784057971
 20
184.563768116
 11
104.984057971
 21
184.763768116
  0
LINE
  8
1
 62
7
  6
CONTINUOUS
 10
174.343057971
 20
188.763768116
 11
182.426057971
 21
188.763768116
  0
LINE
  8
1
 62
7
  6
CONTINUOUS
 10
99.512555356
 20
171.210580621
 11
99.512555356
 21
175.413768116
  0
LINE
  8
1
 62
7
  6
CONTINUOUS
 10
97.812555356
 20
170.777567919
 11
97.812555356
 21
169.863768116
  0
LINE
  8
1
 62
7
  6
CONTINUOUS
 10
184.384057971
 20
159.863768116
 11
185.384057971
 21
159.863768116
  0
LINE
  8
1
 62
4
  6
CONTINUOUS
 10
104.384057971
 20
174.699836093
 11
102.584057971
 21
170.227700138
  0
LINE
  8
1
 62
7
  6
CONTINUOUS
 10
174.884057971
 20
187.463768116
 11
181.884057971
 21
187.463768116
  0
LINE
  8
1
 62
7
  6
CONTINUOUS
 10
174.884057971
 20
187.763768116
 11
181.884057971
 21
187.763768116
  0
LINE
  8
1
 62
7
  6
CONTINUOUS
 10
191.884057971
 20
202.613768116
 11
191.884057971
 21
193.313768116
  0
LINE
  8
1
 62
7
  6
CONTINUOUS
 10
192.484057971
 20
193.413768116
 11
192.484057971
 21
202.513768116
  0
LINE
  8
1
 62
7
  6
CONTINUOUS
 10
193.984057971
 20
193.413768116
 11
193.984057971
 21
202.513768116
  0
LINE
  8
1
 62
7
  6
CONTINUOUS
 10
186.884057971
 20
202.613768116
 11
186.884057971
 21
193.313768116
  0
ARC
  8
1
 62
7
  6
CONTINUOUS
 10
178.384057971
 20
197.963768116
 40
2.400000000
 50
89.999999935
 51
180.000000000
  0
DIMENSION
  8
1
 62
4
  6
CONTINUOUS
  2
*D132
 70
0
 10
109.384057971
 20
137.463768116
 11
103.448306663
 21
137.463768116
 14
109.384057971
 24
157.663768116
 13
97.512555356
 23
169.863768116
 50
0.000000000
  0
DIMENSION
  8
1
 62
4
  6
CONTINUOUS
  2
*D133
 70
0
 10
199.884057971
 20
129.463768116
 11
148.698306663
 21
129.463768116
 14
199.884057971
 24
160.538768116
 13
97.512555356
 23
169.863768116
 50
0.000000000
  0
LINE
  8
1
 62
7
  6
CONTINUOUS
 10
97.812555356
 20
172.556757345
 11
97.812555356
 21
171.210580621
  0
LINE
  8
1
 62
7
  6
CONTINUOUS
 10
97.812555356
 20
171.210580621
 11
99.512555356
 21
171.210580621
  0
LINE
  8
1
 62
7
  6
CONTINUOUS
 10
97.812555356
 20
172.556757345
 11
97.512555356
 21
172.707360595
  0
LINE
  8
1
 62
7
  6
CONTINUOUS
 10
108.384057971
 20
184.763768116
 11
104.984057971
 21
184.763768116
  0
LINE
  8
1
 62
7
  6
CONTINUOUS
 10
108.484057971
 20
160.263768116
 11
108.484057971
 21
184.663768116
  0
LINE
  8
1
 62
7
  6
CONTINUOUS
 10
101.084057971
 20
177.513768116
 11
101.084057971
 21
167.413768116
  0
LINE
  8
1
 62
7
  6
CONTINUOUS
 10
102.584057971
 20
170.227700138
 11
104.384057971
 21
170.227700138
  0
LINE
  8
1
 62
7
  6
CONTINUOUS
 10
101.084057971
 20
167.413768116
 11
101.284057971
 21
167.213768116
  0
LINE
  8
1
 62
7
  6
CONTINUOUS
 10
104.784057971
 20
167.113768116
 11
104.684057971
 21
167.113768116
  0
LINE
  8
1
 62
7
  6
CONTINUOUS
 10
101.084057971
 20
177.513768116
 11
101.284057971
 21
177.713768116
  0
LINE
  8
1
 62
7
  6
CONTINUOUS
 10
104.584057971
 20
177.713768116
 11
101.284057971
 21
177.713768116
  0
LINE
  8
1
 62
7
  6
CONTINUOUS
 10
104.384057971
 20
170.227700138
 11
104.384057971
 21
174.699836093
  0
LINE
  8
1
 62
7
  6
CONTINUOUS
 10
108.384057971
 20
184.763768116
 11
108.484057971
 21
184.663768116
  0
LINE
  8
1
 62
7
  6
CONTINUOUS
 10
104.684057971
 20
167.113768116
 11
104.584057971
 21
167.213768116
  0
ENDSEC
  0
EOF
