  0
SECTION
  2
HEADER
  9
$ACADVER
  1
AC1009
  9
$INSBASE
 10
0.000000000
 20
0.000000000
  9
$EXTMIN
 10
-23.344304348
 20
-20.627842029
  9
$EXTMAX
 10
256.787347826
 20
226.906262319
  9
$LIMMIN
 10
-23.344304348
 20
-20.627842029
  9
$LIMMAX
 10
256.787347826
 20
226.906262319
  9
$SNAPBASE
 10
0.000000000
 20
0.000000000
  9
$SNAPANG
 50
0.000000000
  9
$SNAPSTYLE
 70
0
  9
$GRIDMODE
 70
0
  9
$GRIDUNIT
 10
0.000000000
 20
0.000000000
  9
$DIMEXO
 40
0.000000000
  9
$DIMDLI
 40
8.000000000
  9
$DIMDLE
 40
0.000000000
  9
$DIMEXE
 40
1.000000000
  9
$DIMTIH
 70
1
  9
$DIMTOH
 70
1
  9
$DIMTAD
 70
2
  9
$DIMZIN
 70
0
  9
$FILLETRAD
 40
1.000000000
  9
$CHAMFERA
 40
1.000000000
  9
$CHAMFERB
 40
1.000000000
  9
$TDCREATE
 40
2454158.461192130
  9
$TDUPDATE
 40
2454158.461192130
  9
$ANGBASE
 50
0.000000000
  9
$ANGDIR
 70
0
  0
ENDSEC
  0
SECTION
  2
TABLES
  0
TABLE
  2
LTYPE
 70
3
  0
LTYPE
  2
CENTER
 70
64
  3
___ _ ___ _ __
 72
65
 73
4
 40
13.000000000
 49
8.500000000
 49
-1.500000000
 49
1.500000000
 49
-1.500000000
  0
LTYPE
  2
CONTINUOUS
 70
64
  3
______________
 72
65
 73
0
 40
0.000000000
  0
LTYPE
  2
DIVIDE
 70
64
  3
___ . . ___ . 
 72
65
 73
6
 40
12.999999523
 49
5.199999809
 49
-2.599999905
 49
0.000000000
 49
-2.599999905
 49
0.000000000
 49
-2.599999905
  0
ENDTAB
  0
TABLE
  2
LAYER
 70
1
  0
LAYER
  2
1
 70
0
 62
7
  6
CONTINUOUS
999
Comment001
  0
LAYER
  2
_CONSTR
 70
0
 62
5
  6
CONTINUOUS
  0
ENDTAB
  0
TABLE
  2
STYLE
 70
1
  0
STYLE
  2
STANDARD
 70
64
 40
0.000000000
 41
1.000000000
 50
0.000000000
 71
0
 42
3.200000000
  3
TXT
  4
EXTFONT
  0
ENDTAB
  0
TABLE
  2
VIEW
 70
0
  0
ENDTAB
  0
ENDSEC
  0
SECTION
  2
BLOCKS
  0
BLOCK
  8
0
  2
*D4
 70
65
 10
0.000000000
 20
0.000000000
  3
*D
  0
TEXT
  8
1
 62
4
  6
CONTINUOUS
 72
5
 10
88.536540863
 20
173.196220290
 40
2.800000000
  1
φ
 41
1.270648030
 50
90.000000000
 11
88.536540863
 21
176.556220290
  0
TEXT
  8
1
 62
4
  6
CONTINUOUS
 72
5
 10
88.536540863
 20
178.236220290
 40
2.800000000
  1
50
 41
1.000000667
 50
90.000000000
 11
88.536540863
 21
182.436220290
  0
TEXT
  8
1
 62
4
  6
CONTINUOUS
 72
5
 10
86.772540863
 20
183.276220290
 40
1.400000000
  1
 0
 41
2.333335926
 50
90.000000000
 11
86.772540863
 21
186.216220290
  0
TEXT
  8
1
 62
4
  6
CONTINUOUS
 72
5
 10
88.914540863
 20
183.276220290
 40
1.400000000
  1
-0.01
 41
1.710000684
 50
90.000000000
 11
88.914540863
 21
191.256220290
  0
LINE
  8
1
 62
4
  6
CONTINUOUS
 10
139.833043478
 20
206.159420290
 11
88.741540863
 21
206.159420290
  0
POLYLINE
  8
1
 62
4
  6
CONTINUOUS
 66
1
  0
VERTEX
  8
1
 10
91.041540863
 20
204.159420290
  0
VERTEX
  8
1
 10
90.741540863
 20
206.159420290
  0
VERTEX
  8
1
 10
90.441540863
 20
204.159420290
  0
SEQEND
  8
1
  0
LINE
  8
1
 62
4
  6
CONTINUOUS
 10
90.741540863
 20
206.159420290
 11
90.741540863
 21
156.159420290
  0
POLYLINE
  8
1
 62
4
  6
CONTINUOUS
 66
1
  0
VERTEX
  8
1
 10
90.441540863
 20
158.159420290
  0
VERTEX
  8
1
 10
90.741540863
 20
156.159420290
  0
VERTEX
  8
1
 10
91.041540863
 20
158.159420290
  0
SEQEND
  8
1
  0
LINE
  8
1
 62
4
  6
CONTINUOUS
 10
139.833043478
 20
156.159420290
 11
88.741540863
 21
156.159420290
  0
ENDBLK
  8
0
  0
BLOCK
  8
0
  2
*D11
 70
65
 10
0.000000000
 20
0.000000000
  3
*D
  0
TEXT
  8
1
 62
4
  6
CONTINUOUS
 72
5
 10
96.536540863
 20
174.027820290
 40
2.800000000
  1
φ
 41
1.270648030
 50
90.000000000
 11
96.536540863
 21
177.387820290
  0
TEXT
  8
1
 62
4
  6
CONTINUOUS
 72
5
 10
96.536540863
 20
179.067820290
 40
2.800000000
  1
12.9
 41
1.237498917
 50
90.000000000
 11
96.536540863
 21
188.307820290
  0
LINE
  8
1
 62
4
  6
CONTINUOUS
 10
122.991540863
 20
187.609420290
 11
96.741540863
 21
187.609420290
  0
POLYLINE
  8
1
 62
4
  6
CONTINUOUS
 66
1
  0
VERTEX
  8
1
 10
99.041540863
 20
185.609420290
  0
VERTEX
  8
1
 10
98.741540863
 20
187.609420290
  0
VERTEX
  8
1
 10
98.441540863
 20
185.609420290
  0
SEQEND
  8
1
  0
LINE
  8
1
 62
4
  6
CONTINUOUS
 10
98.741540863
 20
187.609420290
 11
98.741540863
 21
174.709420290
  0
POLYLINE
  8
1
 62
4
  6
CONTINUOUS
 66
1
  0
VERTEX
  8
1
 10
98.441540863
 20
176.709420290
  0
VERTEX
  8
1
 10
98.741540863
 20
174.709420290
  0
VERTEX
  8
1
 10
99.041540863
 20
176.709420290
  0
SEQEND
  8
1
  0
LINE
  8
1
 62
4
  6
CONTINUOUS
 10
122.991540863
 20
174.709420290
 11
96.741540863
 21
174.709420290
  0
ENDBLK
  8
0
  0
BLOCK
  8
0
  2
*D12
 70
65
 10
0.000000000
 20
0.000000000
  3
*D
  0
TEXT
  8
1
 62
4
  6
CONTINUOUS
 72
5
 10
217.155743478
 20
138.364420290
 40
2.800000000
  1
(
 41
1.650001650
 11
218.695743478
 21
138.364420290
  0
TEXT
  8
1
 62
4
  6
CONTINUOUS
 72
5
 10
219.465743478
 20
138.364420290
 40
2.800000000
  1
15.5
 41
1.134374007
 11
227.935743478
 21
138.364420290
  0
TEXT
  8
1
 62
4
  6
CONTINUOUS
 72
5
 10
228.705743478
 20
138.364420290
 40
2.800000000
  1
)
 41
1.650001650
 11
230.245743478
 21
138.364420290
  0
POLYLINE
  8
1
 62
4
  6
CONTINUOUS
 66
1
  0
VERTEX
  8
1
 10
217.943043478
 20
136.459420290
  0
VERTEX
  8
1
 10
215.943043478
 20
136.159420290
  0
VERTEX
  8
1
 10
217.943043478
 20
135.859420290
  0
SEQEND
  8
1
  0
LINE
  8
1
 62
4
  6
CONTINUOUS
 10
215.943043478
 20
136.159420290
 11
231.443043478
 21
136.159420290
  0
POLYLINE
  8
1
 62
4
  6
CONTINUOUS
 66
1
  0
VERTEX
  8
1
 10
229.443043478
 20
135.859420290
  0
VERTEX
  8
1
 10
231.443043478
 20
136.159420290
  0
VERTEX
  8
1
 10
229.443043478
 20
136.459420290
  0
SEQEND
  8
1
  0
LINE
  8
1
 62
4
  6
CONTINUOUS
 10
231.443043478
 20
169.759420290
 11
231.443043478
 21
134.159420290
  0
ENDBLK
  8
0
  0
BLOCK
  8
0
  2
*D18
 70
65
 10
0.000000000
 20
0.000000000
  3
*D
  0
TEXT
  8
1
 62
4
  6
CONTINUOUS
 72
5
 10
172.016443478
 20
138.364420290
 40
2.800000000
  1
76.11
 41
1.260000126
 11
183.776443478
 21
138.364420290
  0
POLYLINE
  8
1
 62
4
  6
CONTINUOUS
 66
1
  0
VERTEX
  8
1
 10
141.833043478
 20
136.459420290
  0
VERTEX
  8
1
 10
139.833043478
 20
136.159420290
  0
VERTEX
  8
1
 10
141.833043478
 20
135.859420290
  0
SEQEND
  8
1
  0
LINE
  8
1
 62
4
  6
CONTINUOUS
 10
139.833043478
 20
136.159420290
 11
215.943043478
 21
136.159420290
  0
POLYLINE
  8
1
 62
4
  6
CONTINUOUS
 66
1
  0
VERTEX
  8
1
 10
213.943043478
 20
135.859420290
  0
VERTEX
  8
1
 10
215.943043478
 20
136.159420290
  0
VERTEX
  8
1
 10
213.943043478
 20
136.459420290
  0
SEQEND
  8
1
  0
LINE
  8
1
 62
4
  6
CONTINUOUS
 10
215.943043478
 20
156.209420290
 11
215.943043478
 21
134.159420290
  0
ENDBLK
  8
0
  0
BLOCK
  8
0
  2
*D22
 70
65
 10
0.000000000
 20
0.000000000
  3
*D
  0
TEXT
  8
1
 62
4
  6
CONTINUOUS
 72
5
 10
133.540043478
 20
138.364420290
 40
2.800000000
  1
(
 41
1.500001500
 11
134.940043478
 21
138.364420290
  0
TEXT
  8
1
 62
4
  6
CONTINUOUS
 72
5
 10
135.640043478
 20
138.364420290
 40
2.800000000
  1
7
 41
0.749997375
 11
137.040043478
 21
138.364420290
  0
TEXT
  8
1
 62
4
  6
CONTINUOUS
 72
5
 10
137.740043478
 20
138.364420290
 40
2.800000000
  1
)
 41
1.500001500
 11
139.140043478
 21
138.364420290
  0
POLYLINE
  8
1
 62
4
  6
CONTINUOUS
 66
1
  0
VERTEX
  8
1
 10
130.833043478
 20
136.459420290
  0
VERTEX
  8
1
 10
132.833043478
 20
136.159420290
  0
SEQEND
  8
1
  0
POLYLINE
  8
1
 62
4
  6
CONTINUOUS
 66
1
  0
VERTEX
  8
1
 10
129.833043478
 20
136.159420290
  0
VERTEX
  8
1
 10
132.833043478
 20
136.159420290
  0
VERTEX
  8
1
 10
130.833043478
 20
135.859420290
  0
SEQEND
  8
1
  0
LINE
  8
1
 62
4
  6
CONTINUOUS
 10
132.833043478
 20
136.159420290
 11
139.833043478
 21
136.159420290
  0
POLYLINE
  8
1
 62
4
  6
CONTINUOUS
 66
1
  0
VERTEX
  8
1
 10
141.833043478
 20
135.859420290
  0
VERTEX
  8
1
 10
139.833043478
 20
136.159420290
  0
SEQEND
  8
1
  0
POLYLINE
  8
1
 62
4
  6
CONTINUOUS
 66
1
  0
VERTEX
  8
1
 10
142.833043478
 20
136.159420290
  0
VERTEX
  8
1
 10
139.833043478
 20
136.159420290
  0
VERTEX
  8
1
 10
141.833043478
 20
136.459420290
  0
SEQEND
  8
1
  0
LINE
  8
1
 62
4
  6
CONTINUOUS
 10
139.833043478
 20
156.159420290
 11
139.833043478
 21
134.159420290
  0
ENDBLK
  8
0
  0
BLOCK
  8
0
  2
*D34
 70
65
 10
0.000000000
 20
0.000000000
  3
*D
  0
TEXT
  8
1
 62
4
  6
CONTINUOUS
 72
5
 10
117.794292171
 20
138.364420290
 40
2.800000000
  1
(
 41
1.500001500
 11
119.194292171
 21
138.364420290
  0
TEXT
  8
1
 62
4
  6
CONTINUOUS
 72
5
 10
119.894292171
 20
138.364420290
 40
2.800000000
  1
16.09
 41
0.999999429
 11
129.694292171
 21
138.364420290
  0
TEXT
  8
1
 62
4
  6
CONTINUOUS
 72
5
 10
130.394292171
 20
138.364420290
 40
2.800000000
  1
)
 41
1.500001500
 11
131.794292171
 21
138.364420290
  0
LINE
  8
1
 62
4
  6
CONTINUOUS
 10
116.741540863
 20
177.736770559
 11
116.741540863
 21
134.159420290
  0
POLYLINE
  8
1
 62
4
  6
CONTINUOUS
 66
1
  0
VERTEX
  8
1
 10
118.741540863
 20
136.459420290
  0
VERTEX
  8
1
 10
116.741540863
 20
136.159420290
  0
VERTEX
  8
1
 10
118.741540863
 20
135.859420290
  0
SEQEND
  8
1
  0
LINE
  8
1
 62
4
  6
CONTINUOUS
 10
116.741540863
 20
136.159420290
 11
132.833043478
 21
136.159420290
  0
POLYLINE
  8
1
 62
4
  6
CONTINUOUS
 66
1
  0
VERTEX
  8
1
 10
130.833043478
 20
135.859420290
  0
VERTEX
  8
1
 10
132.833043478
 20
136.159420290
  0
VERTEX
  8
1
 10
130.833043478
 20
136.459420290
  0
SEQEND
  8
1
  0
LINE
  8
1
 62
4
  6
CONTINUOUS
 10
132.833043478
 20
163.159420290
 11
132.833043478
 21
134.159420290
  0
ENDBLK
  8
0
  0
BLOCK
  8
0
  2
*D56
 70
65
 10
0.000000000
 20
0.000000000
  3
*D
  0
TEXT
  8
1
 62
4
  6
CONTINUOUS
 72
5
 10
165.700692171
 20
130.364420290
 40
2.800000000
  1
(
 41
1.800001800
 11
167.380692171
 21
130.364420290
  0
TEXT
  8
1
 62
4
  6
CONTINUOUS
 72
5
 10
168.220692171
 20
130.364420290
 40
2.800000000
  1
114.7
 41
1.259998992
 11
179.980692171
 21
130.364420290
  0
TEXT
  8
1
 62
4
  6
CONTINUOUS
 72
5
 10
180.820692171
 20
130.364420290
 40
2.800000000
  1
)
 41
1.800001800
 11
182.500692171
 21
130.364420290
  0
LINE
  8
1
 62
4
  6
CONTINUOUS
 10
116.741540863
 20
177.736770559
 11
116.741540863
 21
126.159420290
  0
POLYLINE
  8
1
 62
4
  6
CONTINUOUS
 66
1
  0
VERTEX
  8
1
 10
118.741540863
 20
128.459420290
  0
VERTEX
  8
1
 10
116.741540863
 20
128.159420290
  0
VERTEX
  8
1
 10
118.741540863
 20
127.859420290
  0
SEQEND
  8
1
  0
LINE
  8
1
 62
4
  6
CONTINUOUS
 10
116.741540863
 20
128.159420290
 11
231.443043478
 21
128.159420290
  0
POLYLINE
  8
1
 62
4
  6
CONTINUOUS
 66
1
  0
VERTEX
  8
1
 10
229.443043478
 20
127.859420290
  0
VERTEX
  8
1
 10
231.443043478
 20
128.159420290
  0
VERTEX
  8
1
 10
229.443043478
 20
128.459420290
  0
SEQEND
  8
1
  0
LINE
  8
1
 62
4
  6
CONTINUOUS
 10
231.443043478
 20
169.759420290
 11
231.443043478
 21
126.159420290
  0
ENDBLK
  8
0
  0
ENDSEC
  0
SECTION
  2
ENTITIES
  0
LINE
  8
1
 62
7
  6
CONTINUOUS
 10
121.253014534
 20
176.159420290
 11
121.253014534
 21
177.084803743
  0
LINE
  8
1
 62
7
  6
CONTINUOUS
 10
132.413043478
 20
187.159420290
 11
130.463043478
 21
187.159420290
  0
LINE
  8
1
 62
1
  6
CENTER
 10
213.943043478
 20
201.659420290
 11
231.693043478
 21
201.659420290
  0
DIMENSION
  8
1
 62
4
  6
CONTINUOUS
  2
*D4
 70
1
 10
90.741540863
 20
156.159420290
 11
90.741540863
 21
181.159420290
 14
139.833043478
 24
156.159420290
 13
139.833043478
 23
206.159420290
 50
90.000000000
  0
LINE
  8
1
 62
7
  6
CONTINUOUS
 10
128.241540863
 20
186.109420290
 11
129.413043478
 21
186.109420290
  0
LINE
  8
1
 62
7
  6
CONTINUOUS
 10
203.943043478
 20
206.159420290
 11
191.833043478
 21
206.159420290
  0
LINE
  8
1
 62
7
  6
CONTINUOUS
 10
129.413043478
 20
176.209420290
 11
129.413043478
 21
186.109420290
  0
LINE
  8
1
 62
1
  6
CONTINUOUS
 10
129.413043478
 20
186.109420290
 11
128.913043478
 21
185.809420290
  0
LINE
  8
1
 62
1
  6
CONTINUOUS
 10
128.913043478
 20
185.809420290
 11
128.241540863
 21
185.809420290
  0
LINE
  8
1
 62
7
  6
CONTINUOUS
 10
117.241540863
 20
176.870745155
 11
119.945834857
 21
175.309420290
  0
DIMENSION
  8
1
 62
4
  6
CONTINUOUS
  2
*D11
 70
1
 10
98.741540863
 20
174.709420290
 11
98.741540863
 21
181.159420290
 14
122.991540863
 24
174.709420290
 13
122.991540863
 23
187.609420290
 50
90.000000000
  0
DIMENSION
  8
1
 62
4
  6
CONTINUOUS
  2
*D12
 70
0
 10
231.443043478
 20
136.159420290
 11
223.693043478
 21
136.159420290
 14
231.443043478
 24
169.759420290
 13
215.943043478
 23
156.209420290
 50
0.000000000
  0
LINE
  8
1
 62
7
  6
CONTINUOUS
 10
129.413043478
 20
186.109420290
 11
130.463043478
 21
187.159420290
  0
LINE
  8
1
 62
7
  6
CONTINUOUS
 10
203.943043478
 20
156.159420290
 11
203.943043478
 21
206.159420290
  0
LINE
  8
1
 62
7
  6
CONTINUOUS
 10
191.833043478
 20
156.159420290
 11
203.943043478
 21
156.159420290
  0
LINE
  8
1
 62
7
  6
CONTINUOUS
 10
132.413043478
 20
175.159420290
 11
130.463043478
 21
175.159420290
  0
LINE
  8
1
 62
7
  6
CONTINUOUS
 10
191.833043478
 20
206.159420290
 11
191.833043478
 21
156.159420290
  0
DIMENSION
  8
1
 62
4
  6
CONTINUOUS
  2
*D18
 70
0
 10
215.943043478
 20
136.159420290
 11
177.888043478
 21
136.159420290
 14
215.943043478
 24
156.209420290
 13
139.833043478
 23
156.159420290
 50
0.000000000
  0
LINE
  8
1
 62
7
  6
CONTINUOUS
 10
120.583047214
 20
186.159420290
 11
120.583047214
 21
185.001931562
  0
LINE
  8
1
 62
7
  6
CONTINUOUS
 10
120.753014534
 20
186.159420290
 11
120.753014534
 21
185.100062240
  0
LINE
  8
1
 62
7
  6
CONTINUOUS
 10
128.241540863
 20
176.209420290
 11
129.413043478
 21
176.209420290
  0
DIMENSION
  8
1
 62
4
  6
CONTINUOUS
  2
*D22
 70
0
 10
139.833043478
 20
136.159420290
 11
136.333043478
 21
136.159420290
 14
139.833043478
 24
156.159420290
 13
132.833043478
 23
163.159420290
 50
0.000000000
  0
LINE
  8
1
 62
7
  6
CONTINUOUS
 10
128.913043478
 20
176.209420290
 11
128.913043478
 21
186.109420290
  0
LINE
  8
1
 62
1
  6
CONTINUOUS
 10
129.413043478
 20
176.209420290
 11
128.913043478
 21
176.509420290
  0
LINE
  8
1
 62
1
  6
CONTINUOUS
 10
128.913043478
 20
176.509420290
 11
128.241540863
 21
176.509420290
  0
LINE
  8
1
 62
7
  6
CONTINUOUS
 10
121.253014534
 20
186.159420290
 11
121.253014534
 21
185.234036836
  0
LINE
  8
1
 62
7
  6
CONTINUOUS
 10
129.413043478
 20
176.209420290
 11
130.463043478
 21
175.159420290
  0
LINE
  8
1
 62
7
  6
CONTINUOUS
 10
130.463043478
 20
175.159420290
 11
130.463043478
 21
187.159420290
  0
LINE
  8
1
 62
7
  6
CONTINUOUS
 10
120.753014534
 20
176.159420290
 11
120.753014534
 21
177.218778340
  0
LINE
  8
1
 62
7
  6
CONTINUOUS
 10
120.583047214
 20
176.159420290
 11
120.583047214
 21
177.316909018
  0
LINE
  8
1
 62
7
  6
CONTINUOUS
 10
132.413043478
 20
173.169420290
 11
132.413043478
 21
189.149420290
  0
LINE
  8
1
 62
7
  6
CONTINUOUS
 10
139.833043478
 20
156.159420290
 11
139.833043478
 21
206.159420290
  0
LINE
  8
1
 62
7
  6
CONTINUOUS
 10
132.833043478
 20
172.759420290
 11
132.823043478
 21
172.759420290
  0
DIMENSION
  8
1
 62
4
  6
CONTINUOUS
  2
*D34
 70
0
 10
132.833043478
 20
136.159420290
 11
124.787292171
 21
136.159420290
 14
132.833043478
 24
163.159420290
 13
116.741540863
 23
177.736770559
 50
0.000000000
  0
LINE
  8
1
 62
7
  6
CONTINUOUS
 10
132.833043478
 20
189.559420290
 11
132.823043478
 21
189.559420290
  0
LINE
  8
1
 62
7
  6
CONTINUOUS
 10
106.941540863
 20
182.659420290
 11
116.741540863
 21
182.659420290
  0
LINE
  8
1
 62
7
  6
CONTINUOUS
 10
132.823043478
 20
172.759420290
 11
132.413043478
 21
173.169420290
  0
LINE
  8
1
 62
7
  6
CONTINUOUS
 10
132.413043478
 20
189.149420290
 11
132.823043478
 21
189.559420290
  0
LINE
  8
1
 62
1
  6
CENTER
 10
104.741540863
 20
181.159420290
 11
233.443043478
 21
181.159420290
  0
LINE
  8
1
 62
7
  6
CONTINUOUS
 10
191.833043478
 20
156.159420290
 11
191.833043478
 21
206.159420290
  0
LINE
  8
1
 62
7
  6
CONTINUOUS
 10
139.833043478
 20
156.159420290
 11
191.833043478
 21
156.159420290
  0
LINE
  8
1
 62
7
  6
CONTINUOUS
 10
132.833043478
 20
163.159420290
 11
139.833043478
 21
156.159420290
  0
LINE
  8
1
 62
7
  6
CONTINUOUS
 10
139.833043478
 20
206.159420290
 11
132.833043478
 21
199.159420290
  0
LINE
  8
1
 62
7
  6
CONTINUOUS
 10
191.833043478
 20
206.159420290
 11
139.833043478
 21
206.159420290
  0
LINE
  8
1
 62
7
  6
CONTINUOUS
 10
132.833043478
 20
199.159420290
 11
132.833043478
 21
163.159420290
  0
LINE
  8
1
 62
7
  6
CONTINUOUS
 10
120.753014534
 20
177.218778340
 11
120.583047214
 21
177.316909018
  0
ARC
  8
1
 62
7
  6
CONTINUOUS
 10
106.941540863
 20
182.459420290
 40
0.200000000
 50
90.000000000
 51
180.000000000
  0
LINE
  8
1
 62
7
  6
CONTINUOUS
 10
116.741540863
 20
184.582070021
 11
116.741540863
 21
177.736770559
  0
LINE
  8
1
 62
7
  6
CONTINUOUS
 10
117.241540863
 20
185.448095424
 11
119.945834857
 21
187.009420290
  0
ARC
  8
1
 62
7
  6
CONTINUOUS
 10
106.941540863
 20
179.859420290
 40
0.200000000
 50
180.000000000
 51
270.000000000
  0
LINE
  8
1
 62
7
  6
CONTINUOUS
 10
106.741540863
 20
182.459420290
 11
106.741540863
 21
179.859420290
  0
LINE
  8
1
 62
7
  6
CONTINUOUS
 10
203.943043478
 20
206.109420290
 11
203.993043478
 21
206.159420290
  0
LINE
  8
1
 62
7
  6
CONTINUOUS
 10
216.943043478
 20
193.809420290
 11
216.943043478
 21
168.509420290
  0
LINE
  8
1
 62
7
  6
CONTINUOUS
 10
128.241540863
 20
175.209420290
 11
128.241540863
 21
187.109420290
  0
LINE
  8
1
 62
7
  6
CONTINUOUS
 10
215.943043478
 20
168.659420290
 11
216.943043478
 21
168.659420290
  0
DIMENSION
  8
1
 62
4
  6
CONTINUOUS
  2
*D56
 70
0
 10
231.443043478
 20
128.159420290
 11
174.092292171
 21
128.159420290
 14
231.443043478
 24
169.759420290
 13
116.741540863
 23
177.736770559
 50
0.000000000
  0
LINE
  8
1
 62
7
  6
CONTINUOUS
 10
215.943043478
 20
193.659420290
 11
216.943043478
 21
193.659420290
  0
LINE
  8
1
 62
7
  6
CONTINUOUS
 10
203.993043478
 20
156.159420290
 11
203.943043478
 21
156.209420290
  0
LINE
  8
1
 62
7
  6
CONTINUOUS
 10
215.943043478
 20
156.209420290
 11
215.893043478
 21
156.159420290
  0
LINE
  8
1
 62
7
  6
CONTINUOUS
 10
203.943043478
 20
206.109420290
 11
203.943043478
 21
156.209420290
  0
LINE
  8
1
 62
7
  6
CONTINUOUS
 10
203.993043478
 20
156.159420290
 11
215.893043478
 21
156.159420290
  0
LINE
  8
1
 62
7
  6
CONTINUOUS
 10
215.943043478
 20
156.209420290
 11
215.943043478
 21
206.109420290
  0
LINE
  8
1
 62
7
  6
CONTINUOUS
 10
215.893043478
 20
206.159420290
 11
215.943043478
 21
206.109420290
  0
LINE
  8
1
 62
7
  6
CONTINUOUS
 10
216.943043478
 20
168.509420290
 11
225.443043478
 21
168.509420290
  0
LINE
  8
1
 62
7
  6
CONTINUOUS
 10
231.443043478
 20
169.759420290
 11
231.443043478
 21
192.559420290
  0
LINE
  8
1
 62
7
  6
CONTINUOUS
 10
230.443043478
 20
168.759420290
 11
230.443043478
 21
193.559420290
  0
LINE
  8
1
 62
7
  6
CONTINUOUS
 10
215.893043478
 20
206.159420290
 11
203.993043478
 21
206.159420290
  0
LINE
  8
1
 62
7
  6
CONTINUOUS
 10
225.443043478
 20
193.809420290
 11
216.943043478
 21
193.809420290
  0
LINE
  8
1
 62
1
  6
CONTINUOUS
 10
231.043043478
 20
192.959420290
 11
225.443043478
 21
192.959420290
  0
LINE
  8
1
 62
1
  6
CONTINUOUS
 10
231.043043478
 20
169.359420290
 11
225.443043478
 21
169.359420290
  0
LINE
  8
1
 62
7
  6
CONTINUOUS
 10
116.741540863
 20
179.659420290
 11
106.941540863
 21
179.659420290
  0
LINE
  8
1
 62
7
  6
CONTINUOUS
 10
225.443043478
 20
168.509420290
 11
225.443043478
 21
193.809420290
  0
LINE
  8
1
 62
7
  6
CONTINUOUS
 10
225.443043478
 20
168.759420290
 11
230.443043478
 21
168.759420290
  0
LINE
  8
1
 62
1
  6
CONTINUOUS
 10
223.970800292
 20
193.809420290
 11
225.443043478
 21
192.959420290
  0
LINE
  8
1
 62
7
  6
CONTINUOUS
 10
120.017929238
 20
175.309420290
 11
120.241540863
 21
175.533031915
  0
LINE
  8
1
 62
7
  6
CONTINUOUS
 10
120.017929238
 20
175.309420290
 11
119.945834857
 21
175.309420290
  0
LINE
  8
1
 62
4
  6
CONTINUOUS
 10
120.241540863
 20
184.410425211
 11
122.741540863
 21
177.084803743
  0
LINE
  8
1
 62
4
  6
CONTINUOUS
 10
122.741540863
 20
185.234036836
 11
120.241540863
 21
177.908415369
  0
LINE
  8
1
 62
7
  6
CONTINUOUS
 10
119.945834857
 20
187.009420290
 11
120.017929238
 21
187.009420290
  0
LINE
  8
1
 62
7
  6
CONTINUOUS
 10
122.991540863
 20
174.709420290
 11
122.991540863
 21
187.609420290
  0
LINE
  8
1
 62
1
  6
CONTINUOUS
 10
225.443043478
 20
169.359420290
 11
223.970800292
 21
168.509420290
  0
LINE
  8
1
 62
7
  6
CONTINUOUS
 10
122.991540863
 20
187.609420290
 11
127.741540863
 21
187.609420290
  0
LINE
  8
1
 62
7
  6
CONTINUOUS
 10
120.241540863
 20
177.908415369
 11
120.583047214
 21
177.316909018
  0
LINE
  8
1
 62
7
  6
CONTINUOUS
 10
120.017929238
 20
187.009420290
 11
120.241540863
 21
186.785808665
  0
LINE
  8
1
 62
7
  6
CONTINUOUS
 10
122.741540863
 20
185.234036836
 11
121.253014534
 21
185.234036836
  0
ARC
  8
1
 62
7
  6
CONTINUOUS
 10
121.253014534
 20
178.084803743
 40
1.000000000
 50
240.000000000
 51
270.000000000
  0
LINE
  8
1
 62
7
  6
CONTINUOUS
 10
122.741540863
 20
174.959420290
 11
122.741540863
 21
187.359420290
  0
LINE
  8
1
 62
7
  6
CONTINUOUS
 10
120.241540863
 20
186.785808665
 11
120.241540863
 21
175.533031915
  0
LINE
  8
1
 62
7
  6
CONTINUOUS
 10
122.741540863
 20
176.159420290
 11
120.241540863
 21
176.159420290
  0
LINE
  8
1
 62
7
  6
CONTINUOUS
 10
122.741540863
 20
187.359420290
 11
122.991540863
 21
187.609420290
  0
LINE
  8
1
 62
7
  6
CONTINUOUS
 10
122.741540863
 20
174.959420290
 11
122.991540863
 21
174.709420290
  0
LINE
  8
1
 62
7
  6
CONTINUOUS
 10
122.741540863
 20
186.159420290
 11
120.241540863
 21
186.159420290
  0
LINE
  8
1
 62
7
  6
CONTINUOUS
 10
122.991540863
 20
174.709420290
 11
127.741540863
 21
174.709420290
  0
LINE
  8
1
 62
7
  6
CONTINUOUS
 10
120.753014534
 20
185.100062240
 11
120.583047214
 21
185.001931562
  0
ARC
  8
1
 62
7
  6
CONTINUOUS
 10
127.741540863
 20
187.109420290
 40
0.500000000
 50
0.000000000
 51
90.000000000
  0
ARC
  8
1
 62
7
  6
CONTINUOUS
 10
117.741540863
 20
177.736770559
 40
1.000000000
 50
180.000000000
 51
240.000000000
  0
LINE
  8
1
 62
7
  6
CONTINUOUS
 10
127.741540863
 20
174.709420290
 11
127.741540863
 21
187.609420290
  0
ARC
  8
1
 62
7
  6
CONTINUOUS
 10
117.741540863
 20
184.582070021
 40
1.000000000
 50
120.000000000
 51
180.000000000
  0
LINE
  8
1
 62
7
  6
CONTINUOUS
 10
225.443043478
 20
193.559420290
 11
230.443043478
 21
193.559420290
  0
LINE
  8
1
 62
7
  6
CONTINUOUS
 10
120.241540863
 20
186.159420290
 11
120.241540863
 21
186.785808665
  0
LINE
  8
1
 62
7
  6
CONTINUOUS
 10
230.443043478
 20
193.559420290
 11
231.443043478
 21
192.559420290
  0
ARC
  8
1
 62
7
  6
CONTINUOUS
 10
127.741540863
 20
175.209420290
 40
0.500000000
 50
270.000000000
 51
0.000000000
  0
LINE
  8
1
 62
7
  6
CONTINUOUS
 10
117.241540863
 20
184.948095424
 11
117.241540863
 21
177.370745155
  0
LINE
  8
1
 62
7
  6
CONTINUOUS
 10
231.443043478
 20
169.759420290
 11
230.443043478
 21
168.759420290
  0
LINE
  8
1
 62
7
  6
CONTINUOUS
 10
119.945834857
 20
175.309420290
 11
119.945834857
 21
187.009420290
  0
LINE
  8
1
 62
7
  6
CONTINUOUS
 10
120.017929238
 20
175.309420290
 11
120.017929238
 21
187.009420290
  0
LINE
  8
1
 62
7
  6
CONTINUOUS
 10
120.241540863
 20
184.410425211
 11
120.583047214
 21
185.001931562
  0
ARC
  8
1
 62
7
  6
CONTINUOUS
 10
121.253014534
 20
184.234036836
 40
1.000000000
 50
90.000000000
 51
120.000000000
  0
LINE
  8
1
 62
7
  6
CONTINUOUS
 10
122.741540863
 20
177.084803743
 11
121.253014534
 21
177.084803743
  0
LINE
  8
1
 62
7
  6
CONTINUOUS
 10
221.993043478
 20
197.040420290
 11
217.243043478
 21
197.040420290
  0
LINE
  8
1
 62
7
  6
CONTINUOUS
 10
221.993043478
 20
206.278420290
 11
217.243043478
 21
206.278420290
  0
LINE
  8
1
 62
7
  6
CONTINUOUS
 10
226.693043478
 20
205.659420290
 11
226.693043478
 21
197.659420290
  0
LINE
  8
1
 62
7
  6
CONTINUOUS
 10
216.243043478
 20
205.159420290
 11
215.943043478
 21
205.159420290
  0
LINE
  8
1
 62
7
  6
CONTINUOUS
 10
216.243043478
 20
205.259420290
 11
217.243043478
 21
205.259420290
  0
LINE
  8
1
 62
7
  6
CONTINUOUS
 10
216.243043478
 20
198.059420290
 11
216.243043478
 21
205.259420290
  0
LINE
  8
1
 62
7
  6
CONTINUOUS
 10
215.943043478
 20
198.159420290
 11
215.943043478
 21
205.159420290
  0
LINE
  8
1
 62
7
  6
CONTINUOUS
 10
216.243043478
 20
198.159420290
 11
215.943043478
 21
198.159420290
  0
LINE
  8
1
 62
7
  6
CONTINUOUS
 10
216.243043478
 20
198.059420290
 11
217.243043478
 21
198.059420290
  0
LINE
  8
1
 62
7
  6
CONTINUOUS
 10
227.593043478
 20
199.466420290
 11
228.193043478
 21
199.466420290
  0
LINE
  8
1
 62
7
  6
CONTINUOUS
 10
228.193043478
 20
197.709420290
 11
229.693043478
 21
197.709420290
  0
LINE
  8
1
 62
7
  6
CONTINUOUS
 10
227.593043478
 20
197.709420290
 11
226.693043478
 21
197.709420290
  0
LINE
  8
1
 62
7
  6
CONTINUOUS
 10
221.993043478
 20
197.659420290
 11
226.693043478
 21
197.659420290
  0
LINE
  8
1
 62
7
  6
CONTINUOUS
 10
227.593043478
 20
203.852420290
 11
228.193043478
 21
203.852420290
  0
LINE
  8
1
 62
7
  6
CONTINUOUS
 10
228.193043478
 20
205.609420290
 11
228.193043478
 21
197.709420290
  0
LINE
  8
1
 62
7
  6
CONTINUOUS
 10
229.693043478
 20
205.609420290
 11
229.693043478
 21
197.709420290
  0
LINE
  8
1
 62
7
  6
CONTINUOUS
 10
228.193043478
 20
205.609420290
 11
229.693043478
 21
205.609420290
  0
LINE
  8
1
 62
7
  6
CONTINUOUS
 10
227.593043478
 20
205.609420290
 11
227.593043478
 21
197.709420290
  0
LINE
  8
1
 62
7
  6
CONTINUOUS
 10
227.593043478
 20
205.609420290
 11
226.693043478
 21
205.609420290
  0
LINE
  8
1
 62
7
  6
CONTINUOUS
 10
221.993043478
 20
205.659420290
 11
226.693043478
 21
205.659420290
  0
LINE
  8
1
 62
7
  6
CONTINUOUS
 10
217.243043478
 20
206.278420290
 11
217.243043478
 21
197.040420290
  0
LINE
  8
1
 62
7
  6
CONTINUOUS
 10
221.993043478
 20
206.278420290
 11
221.993043478
 21
197.040420290
  0
TEXT
  8
1
 62
3
  6
CONTINUOUS
 72
5
 10
158.292292171
 20
114.175420290
 40
4.000000000
  1
ＮＲＡ－５０８０
 41
0.834724541
 11
189.492292171
 21
114.175420290
  0
LINE
  8
1
 62
7
  6
CONTINUOUS
 10
221.993043478
 20
203.968420290
 11
217.243043478
 21
203.968420290
  0
LINE
  8
1
 62
7
  6
CONTINUOUS
 10
221.993043478
 20
199.350420290
 11
217.243043478
 21
199.350420290
  0
ENDSEC
  0
EOF
