  0
SECTION
  2
HEADER
  9
$ACADVER
  1
AC1009
  9
$INSBASE
 10
0.000000000
 20
0.000000000
  9
$EXTMIN
 10
-37.241800985
 20
-18.942028986
  9
$EXTMAX
 10
409.659810834
 20
208.362318841
  9
$LIMMIN
 10
-37.241800985
 20
-18.942028986
  9
$LIMMAX
 10
409.659810834
 20
208.362318841
  9
$SNAPBASE
 10
0.000000000
 20
0.000000000
  9
$SNAPANG
 50
0.000000000
  9
$SNAPSTYLE
 70
0
  9
$GRIDMODE
 70
0
  9
$GRIDUNIT
 10
0.000000000
 20
0.000000000
  9
$DIMEXO
 40
0.000000000
  9
$DIMDLI
 40
8.000000000
  9
$DIMDLE
 40
0.000000000
  9
$DIMEXE
 40
1.000000000
  9
$DIMTIH
 70
1
  9
$DIMTOH
 70
1
  9
$DIMTAD
 70
2
  9
$DIMZIN
 70
0
  9
$FILLETRAD
 40
1.000000000
  9
$CHAMFERA
 40
1.000000000
  9
$CHAMFERB
 40
1.000000000
  9
$TDCREATE
 40
2454176.619976852
  9
$TDUPDATE
 40
2454176.619976852
  9
$ANGBASE
 50
0.000000000
  9
$ANGDIR
 70
0
  0
ENDSEC
  0
SECTION
  2
TABLES
  0
TABLE
  2
LTYPE
 70
4
  0
LTYPE
  2
CENTER
 70
64
  3
___ _ ___ _ __
 72
65
 73
4
 40
13.000000000
 49
8.500000000
 49
-1.500000000
 49
1.500000000
 49
-1.500000000
  0
LTYPE
  2
CONTINUOUS
 70
64
  3
______________
 72
65
 73
0
 40
0.000000000
  0
LTYPE
  2
DASHED
 70
64
  3
___ ___ ___ __
 72
65
 73
2
 40
5.000000119
 49
3.400000095
 49
-1.600000024
  0
LTYPE
  2
DIVIDE
 70
64
  3
___ . . ___ . 
 72
65
 73
6
 40
12.999999523
 49
5.199999809
 49
-2.599999905
 49
0.000000000
 49
-2.599999905
 49
0.000000000
 49
-2.599999905
  0
ENDTAB
  0
TABLE
  2
LAYER
 70
6
  0
LAYER
  2
1
 70
0
 62
7
  6
CONTINUOUS
999
Comment001
  0
LAYER
  2
2
 70
0
 62
3
  6
CONTINUOUS
999
CSLAYER2
  0
LAYER
  2
3
 70
0
 62
3
  6
CONTINUOUS
999
CSLAYER3
  0
LAYER
  2
4
 70
0
 62
3
  6
CONTINUOUS
999
CSLAYER5
  0
LAYER
  2
5
 70
0
 62
3
  6
CONTINUOUS
999
CSLAYER6
  0
LAYER
  2
6
 70
0
 62
3
  6
CONTINUOUS
999
CSLAYER16
  0
LAYER
  2
_CONSTR
 70
0
 62
5
  6
CONTINUOUS
  0
ENDTAB
  0
TABLE
  2
STYLE
 70
1
  0
STYLE
  2
STANDARD
 70
64
 40
0.000000000
 41
1.000000000
 50
0.000000000
 71
0
 42
3.200000000
  3
TXT
  4
EXTFONT
  0
ENDTAB
  0
TABLE
  2
VIEW
 70
0
  0
ENDTAB
  0
ENDSEC
  0
SECTION
  2
BLOCKS
  0
BLOCK
  8
0
  2
*D221
 70
65
 10
0.000000000
 20
0.000000000
  3
*D
  0
TEXT
  8
1
 62
4
  6
CONTINUOUS
 72
5
 10
223.917385507
 20
103.625289855
 40
2.800000000
  1
(
 41
1.800001800
 11
225.597385507
 21
103.625289855
  0
TEXT
  8
1
 62
4
  6
CONTINUOUS
 72
5
 10
226.437385507
 20
103.625289855
 40
2.800000000
  1
23
 41
0.899998740
 11
230.637385507
 21
103.625289855
  0
TEXT
  8
1
 62
4
  6
CONTINUOUS
 72
5
 10
231.477385507
 20
103.625289855
 40
2.800000000
  1
)
 41
1.800001800
 11
233.157385507
 21
103.625289855
  0
LINE
  8
1
 62
4
  6
CONTINUOUS
 10
217.028985507
 20
129.470289855
 11
217.028985507
 21
99.420289855
  0
POLYLINE
  8
1
 62
4
  6
CONTINUOUS
 66
1
  0
VERTEX
  8
1
 10
219.028985507
 20
101.720289855
  0
VERTEX
  8
1
 10
217.028985507
 20
101.420289855
  0
VERTEX
  8
1
 10
219.028985507
 20
101.120289855
  0
SEQEND
  8
1
  0
LINE
  8
1
 62
4
  6
CONTINUOUS
 10
217.028985507
 20
101.420289855
 11
240.028985507
 21
101.420289855
  0
POLYLINE
  8
1
 62
4
  6
CONTINUOUS
 66
1
  0
VERTEX
  8
1
 10
238.028985507
 20
101.120289855
  0
VERTEX
  8
1
 10
240.028985507
 20
101.420289855
  0
VERTEX
  8
1
 10
238.028985507
 20
101.720289855
  0
SEQEND
  8
1
  0
LINE
  8
1
 62
4
  6
CONTINUOUS
 10
240.028985507
 20
129.670289855
 11
240.028985507
 21
99.420289855
  0
ENDBLK
  8
0
  0
BLOCK
  8
0
  2
*D224
 70
65
 10
0.000000000
 20
0.000000000
  3
*D
  0
TEXT
  8
1
 62
4
  6
CONTINUOUS
 72
5
 10
131.887385507
 20
103.625289855
 40
2.800000000
  1
(
 41
1.800001800
 11
133.567385507
 21
103.625289855
  0
TEXT
  8
1
 62
4
  6
CONTINUOUS
 72
5
 10
134.407385507
 20
103.625289855
 40
2.800000000
  1
153.5
 41
1.145453817
 11
146.167385507
 21
103.625289855
  0
TEXT
  8
1
 62
4
  6
CONTINUOUS
 72
5
 10
147.007385507
 20
103.625289855
 40
2.800000000
  1
)
 41
1.800001800
 11
148.687385507
 21
103.625289855
  0
LINE
  8
1
 62
4
  6
CONTINUOUS
 10
63.528985507
 20
139.670289855
 11
63.528985507
 21
99.420289855
  0
POLYLINE
  8
1
 62
4
  6
CONTINUOUS
 66
1
  0
VERTEX
  8
1
 10
65.528985507
 20
101.720289855
  0
VERTEX
  8
1
 10
63.528985507
 20
101.420289855
  0
VERTEX
  8
1
 10
65.528985507
 20
101.120289855
  0
SEQEND
  8
1
  0
LINE
  8
1
 62
4
  6
CONTINUOUS
 10
63.528985507
 20
101.420289855
 11
217.028985507
 21
101.420289855
  0
POLYLINE
  8
1
 62
4
  6
CONTINUOUS
 66
1
  0
VERTEX
  8
1
 10
215.028985507
 20
101.120289855
  0
VERTEX
  8
1
 10
217.028985507
 20
101.420289855
  0
VERTEX
  8
1
 10
215.028985507
 20
101.720289855
  0
SEQEND
  8
1
  0
LINE
  8
1
 62
4
  6
CONTINUOUS
 10
217.028985507
 20
129.470289855
 11
217.028985507
 21
99.420289855
  0
ENDBLK
  8
0
  0
BLOCK
  8
0
  2
*D227
 70
65
 10
0.000000000
 20
0.000000000
  3
*D
  0
TEXT
  8
1
 62
4
  6
CONTINUOUS
 72
5
 10
271.097385507
 20
95.625289855
 40
2.800000000
  1
(
 41
1.800001800
 11
272.777385507
 21
95.625289855
  0
TEXT
  8
1
 62
4
  6
CONTINUOUS
 72
5
 10
273.617385507
 20
95.625289855
 40
2.800000000
  1
76.4
 41
1.099999267
 11
282.857385507
 21
95.625289855
  0
TEXT
  8
1
 62
4
  6
CONTINUOUS
 72
5
 10
283.697385507
 20
95.625289855
 40
2.800000000
  1
)
 41
1.800001800
 11
285.377385507
 21
95.625289855
  0
POLYLINE
  8
1
 62
4
  6
CONTINUOUS
 66
1
  0
VERTEX
  8
1
 10
242.028985507
 20
93.720289855
  0
VERTEX
  8
1
 10
240.028985507
 20
93.420289855
  0
VERTEX
  8
1
 10
242.028985507
 20
93.120289855
  0
SEQEND
  8
1
  0
LINE
  8
1
 62
4
  6
CONTINUOUS
 10
240.028985507
 20
93.420289855
 11
316.428985507
 21
93.420289855
  0
POLYLINE
  8
1
 62
4
  6
CONTINUOUS
 66
1
  0
VERTEX
  8
1
 10
314.428985507
 20
93.120289855
  0
VERTEX
  8
1
 10
316.428985507
 20
93.420289855
  0
VERTEX
  8
1
 10
314.428985507
 20
93.720289855
  0
SEQEND
  8
1
  0
LINE
  8
1
 62
4
  6
CONTINUOUS
 10
316.428985507
 20
145.920289855
 11
316.428985507
 21
91.420289855
  0
ENDBLK
  8
0
  0
BLOCK
  8
0
  2
*D228
 70
65
 10
0.000000000
 20
0.000000000
  3
*D
  0
TEXT
  8
1
 62
4
  6
CONTINUOUS
 72
5
 10
143.387385507
 20
95.625289855
 40
2.800000000
  1
(
 41
1.800001800
 11
145.067385507
 21
95.625289855
  0
TEXT
  8
1
 62
4
  6
CONTINUOUS
 72
5
 10
145.907385507
 20
95.625289855
 40
2.800000000
  1
176.5
 41
1.145453817
 11
157.667385507
 21
95.625289855
  0
TEXT
  8
1
 62
4
  6
CONTINUOUS
 72
5
 10
158.507385507
 20
95.625289855
 40
2.800000000
  1
)
 41
1.800001800
 11
160.187385507
 21
95.625289855
  0
LINE
  8
1
 62
4
  6
CONTINUOUS
 10
63.528985507
 20
139.670289855
 11
63.528985507
 21
91.420289855
  0
POLYLINE
  8
1
 62
4
  6
CONTINUOUS
 66
1
  0
VERTEX
  8
1
 10
65.528985507
 20
93.720289855
  0
VERTEX
  8
1
 10
63.528985507
 20
93.420289855
  0
VERTEX
  8
1
 10
65.528985507
 20
93.120289855
  0
SEQEND
  8
1
  0
LINE
  8
1
 62
4
  6
CONTINUOUS
 10
63.528985507
 20
93.420289855
 11
240.028985507
 21
93.420289855
  0
POLYLINE
  8
1
 62
4
  6
CONTINUOUS
 66
1
  0
VERTEX
  8
1
 10
238.028985507
 20
93.120289855
  0
VERTEX
  8
1
 10
240.028985507
 20
93.420289855
  0
VERTEX
  8
1
 10
238.028985507
 20
93.720289855
  0
SEQEND
  8
1
  0
LINE
  8
1
 62
4
  6
CONTINUOUS
 10
240.028985507
 20
129.670289855
 11
240.028985507
 21
91.420289855
  0
ENDBLK
  8
0
  0
BLOCK
  8
0
  2
*D229
 70
65
 10
0.000000000
 20
0.000000000
  3
*D
  0
TEXT
  8
1
 62
4
  6
CONTINUOUS
 72
5
 10
78.807639545
 20
111.625289855
 40
2.800000000
  1
(
 41
1.800001800
 11
80.487639545
 21
111.625289855
  0
TEXT
  8
1
 62
4
  6
CONTINUOUS
 72
5
 10
81.327639545
 20
111.625289855
 40
2.800000000
  1
44.8
 41
1.099999267
 11
90.567639545
 21
111.625289855
  0
TEXT
  8
1
 62
4
  6
CONTINUOUS
 72
5
 10
91.407639545
 20
111.625289855
 40
2.800000000
  1
)
 41
1.800001800
 11
93.087639545
 21
111.625289855
  0
POLYLINE
  8
1
 62
4
  6
CONTINUOUS
 66
1
  0
VERTEX
  8
1
 10
65.528985507
 20
109.720289855
  0
VERTEX
  8
1
 10
63.528985507
 20
109.420289855
  0
VERTEX
  8
1
 10
65.528985507
 20
109.120289855
  0
SEQEND
  8
1
  0
LINE
  8
1
 62
4
  6
CONTINUOUS
 10
63.528985507
 20
109.420289855
 11
108.349493583
 21
109.420289855
  0
POLYLINE
  8
1
 62
4
  6
CONTINUOUS
 66
1
  0
VERTEX
  8
1
 10
106.349493583
 20
109.120289855
  0
VERTEX
  8
1
 10
108.349493583
 20
109.420289855
  0
VERTEX
  8
1
 10
106.349493583
 20
109.720289855
  0
SEQEND
  8
1
  0
LINE
  8
1
 62
4
  6
CONTINUOUS
 10
108.349493583
 20
129.420289855
 11
108.349493583
 21
107.420289855
  0
ENDBLK
  8
0
  0
BLOCK
  8
0
  2
*D247
 70
65
 10
0.000000000
 20
0.000000000
  3
*D
  0
TEXT
  8
1
 62
4
  6
CONTINUOUS
 72
5
 10
47.211634200
 20
95.625289855
 40
2.800000000
  1
(
 41
1.800001800
 11
48.891634200
 21
95.625289855
  0
TEXT
  8
1
 62
4
  6
CONTINUOUS
 72
5
 10
49.731634200
 20
95.625289855
 40
2.800000000
  1
18.4
 41
1.237498917
 11
58.971634200
 21
95.625289855
  0
TEXT
  8
1
 62
4
  6
CONTINUOUS
 72
5
 10
59.811634200
 20
95.625289855
 40
2.800000000
  1
)
 41
1.800001800
 11
61.491634200
 21
95.625289855
  0
LINE
  8
1
 62
4
  6
CONTINUOUS
 10
45.157482892
 20
152.797640124
 11
45.157482892
 21
91.420289855
  0
POLYLINE
  8
1
 62
4
  6
CONTINUOUS
 66
1
  0
VERTEX
  8
1
 10
47.157482892
 20
93.720289855
  0
VERTEX
  8
1
 10
45.157482892
 20
93.420289855
  0
VERTEX
  8
1
 10
47.157482892
 20
93.120289855
  0
SEQEND
  8
1
  0
LINE
  8
1
 62
4
  6
CONTINUOUS
 10
45.157482892
 20
93.420289855
 11
63.528985507
 21
93.420289855
  0
POLYLINE
  8
1
 62
4
  6
CONTINUOUS
 66
1
  0
VERTEX
  8
1
 10
61.528985507
 20
93.120289855
  0
VERTEX
  8
1
 10
63.528985507
 20
93.420289855
  0
VERTEX
  8
1
 10
61.528985507
 20
93.720289855
  0
SEQEND
  8
1
  0
LINE
  8
1
 62
4
  6
CONTINUOUS
 10
63.528985507
 20
139.670289855
 11
63.528985507
 21
91.420289855
  0
ENDBLK
  8
0
  0
BLOCK
  8
0
  2
*D249
 70
65
 10
0.000000000
 20
0.000000000
  3
*D
  0
TEXT
  8
1
 62
4
  6
CONTINUOUS
 72
5
 10
6.952482892
 20
151.457089855
 40
2.800000000
  1
φ
 41
1.270648030
 50
90.000000000
 11
6.952482892
 21
154.817089855
  0
TEXT
  8
1
 62
4
  6
CONTINUOUS
 72
5
 10
6.952482892
 20
156.497089855
 40
2.800000000
  1
60
 41
1.000000667
 50
90.000000000
 11
6.952482892
 21
160.697089855
  0
TEXT
  8
1
 62
4
  6
CONTINUOUS
 72
5
 10
5.188482892
 20
161.537089855
 40
1.400000000
  1
 0
 41
2.333335926
 50
90.000000000
 11
5.188482892
 21
164.477089855
  0
TEXT
  8
1
 62
4
  6
CONTINUOUS
 72
5
 10
7.330482892
 20
161.537089855
 40
1.400000000
  1
-0.01
 41
1.710000684
 50
90.000000000
 11
7.330482892
 21
169.517089855
  0
LINE
  8
1
 62
4
  6
CONTINUOUS
 10
108.349493583
 20
189.420289855
 11
7.157482892
 21
189.420289855
  0
POLYLINE
  8
1
 62
4
  6
CONTINUOUS
 66
1
  0
VERTEX
  8
1
 10
9.457482892
 20
187.420289855
  0
VERTEX
  8
1
 10
9.157482892
 20
189.420289855
  0
VERTEX
  8
1
 10
8.857482892
 20
187.420289855
  0
SEQEND
  8
1
  0
LINE
  8
1
 62
4
  6
CONTINUOUS
 10
9.157482892
 20
189.420289855
 11
9.157482892
 21
129.420289855
  0
POLYLINE
  8
1
 62
4
  6
CONTINUOUS
 66
1
  0
VERTEX
  8
1
 10
8.857482892
 20
131.420289855
  0
VERTEX
  8
1
 10
9.157482892
 20
129.420289855
  0
VERTEX
  8
1
 10
9.457482892
 20
131.420289855
  0
SEQEND
  8
1
  0
LINE
  8
1
 62
4
  6
CONTINUOUS
 10
108.349493583
 20
129.420289855
 11
7.157482892
 21
129.420289855
  0
ENDBLK
  8
0
  0
BLOCK
  8
0
  2
*D251
 70
65
 10
0.000000000
 20
0.000000000
  3
*D
  0
TEXT
  8
1
 62
4
  6
CONTINUOUS
 72
5
 10
14.952482892
 20
152.288689855
 40
2.800000000
  1
φ
 41
1.270648030
 50
90.000000000
 11
14.952482892
 21
155.648689855
  0
TEXT
  8
1
 62
4
  6
CONTINUOUS
 72
5
 10
14.952482892
 20
157.328689855
 40
2.800000000
  1
39.9
 41
1.099999267
 50
90.000000000
 11
14.952482892
 21
166.568689855
  0
LINE
  8
1
 62
4
  6
CONTINUOUS
 10
63.728985507
 20
179.370289855
 11
15.157482892
 21
179.370289855
  0
POLYLINE
  8
1
 62
4
  6
CONTINUOUS
 66
1
  0
VERTEX
  8
1
 10
17.457482892
 20
177.370289855
  0
VERTEX
  8
1
 10
17.157482892
 20
179.370289855
  0
VERTEX
  8
1
 10
16.857482892
 20
177.370289855
  0
SEQEND
  8
1
  0
LINE
  8
1
 62
4
  6
CONTINUOUS
 10
17.157482892
 20
179.370289855
 11
17.157482892
 21
139.470289855
  0
POLYLINE
  8
1
 62
4
  6
CONTINUOUS
 66
1
  0
VERTEX
  8
1
 10
16.857482892
 20
141.470289855
  0
VERTEX
  8
1
 10
17.157482892
 20
139.470289855
  0
VERTEX
  8
1
 10
17.457482892
 20
141.470289855
  0
SEQEND
  8
1
  0
LINE
  8
1
 62
4
  6
CONTINUOUS
 10
63.728985507
 20
139.470289855
 11
15.157482892
 21
139.470289855
  0
ENDBLK
  8
0
  0
BLOCK
  8
0
  2
*D253
 70
65
 10
0.000000000
 20
0.000000000
  3
*D
  0
TEXT
  8
1
 62
4
  6
CONTINUOUS
 72
5
 10
22.952482892
 20
152.288689855
 40
2.800000000
  1
φ
 41
1.270648030
 50
90.000000000
 11
22.952482892
 21
155.648689855
  0
TEXT
  8
1
 62
4
  6
CONTINUOUS
 72
5
 10
22.952482892
 20
157.328689855
 40
2.800000000
  1
18.9
 41
1.237498917
 50
90.000000000
 11
22.952482892
 21
166.568689855
  0
LINE
  8
1
 62
4
  6
CONTINUOUS
 10
49.322546402
 20
168.870289855
 11
23.157482892
 21
168.870289855
  0
POLYLINE
  8
1
 62
4
  6
CONTINUOUS
 66
1
  0
VERTEX
  8
1
 10
25.457482892
 20
166.870289855
  0
VERTEX
  8
1
 10
25.157482892
 20
168.870289855
  0
VERTEX
  8
1
 10
24.857482892
 20
166.870289855
  0
SEQEND
  8
1
  0
LINE
  8
1
 62
4
  6
CONTINUOUS
 10
25.157482892
 20
168.870289855
 11
25.157482892
 21
149.970289855
  0
POLYLINE
  8
1
 62
4
  6
CONTINUOUS
 66
1
  0
VERTEX
  8
1
 10
24.857482892
 20
151.970289855
  0
VERTEX
  8
1
 10
25.157482892
 20
149.970289855
  0
VERTEX
  8
1
 10
25.457482892
 20
151.970289855
  0
SEQEND
  8
1
  0
LINE
  8
1
 62
4
  6
CONTINUOUS
 10
49.322546402
 20
149.970289855
 11
23.157482892
 21
149.970289855
  0
ENDBLK
  8
0
  0
ENDSEC
  0
SECTION
  2
ENTITIES
  0
LINE
  8
5
 62
7
  6
CONTINUOUS
 10
309.328985507
 20
173.170289855
 11
309.328985507
 21
145.670289855
  0
LINE
  8
5
 62
7
  6
CONTINUOUS
 10
276.578985507
 20
143.670289855
 11
278.328985507
 21
145.420289855
  0
LINE
  8
3
 62
7
  6
CONTINUOUS
 10
271.228985507
 20
176.620289855
 11
271.228985507
 21
142.220289855
  0
LINE
  8
1
 62
7
  6
CONTINUOUS
 10
108.349493583
 20
129.420289855
 11
108.349493583
 21
189.420289855
  0
LINE
  8
1
 62
7
  6
CONTINUOUS
 10
216.978985507
 20
129.420289855
 11
108.349493583
 21
129.420289855
  0
LINE
  8
1
 62
7
  6
CONTINUOUS
 10
71.028985507
 20
139.420289855
 11
108.349493583
 21
129.420289855
  0
LINE
  8
1
 62
7
  6
CONTINUOUS
 10
70.528985507
 20
140.520289855
 11
71.028985507
 21
140.520289855
  0
LINE
  8
1
 62
7
  6
CONTINUOUS
 10
216.978985507
 20
129.420289855
 11
217.028985507
 21
129.470289855
  0
LINE
  8
1
 62
7
  6
CONTINUOUS
 10
49.857482892
 20
168.620289855
 11
49.857482892
 21
150.220289855
  0
LINE
  8
1
 62
7
  6
CONTINUOUS
 10
50.107482892
 20
154.390130812
 11
53.107482892
 21
154.390130812
  0
LINE
  8
1
 62
7
  6
CONTINUOUS
 10
216.978985507
 20
189.420289855
 11
217.028985507
 21
189.370289855
  0
LINE
  8
1
 62
7
  6
CONTINUOUS
 10
49.607482892
 20
168.870289855
 11
49.607482892
 21
149.970289855
  0
LINE
  8
1
 62
7
  6
CONTINUOUS
 10
70.528985507
 20
178.320289855
 11
71.028985507
 21
178.320289855
  0
LINE
  8
1
 62
7
  6
CONTINUOUS
 10
71.028985507
 20
139.420289855
 11
71.028985507
 21
179.420289855
  0
LINE
  8
1
 62
7
  6
CONTINUOUS
 10
71.028985507
 20
179.420289855
 11
108.349493583
 21
189.420289855
  0
LINE
  8
1
 62
1
  6
CENTER
 10
33.157482892
 20
159.420289855
 11
364.268009849
 21
159.420289855
  0
LINE
  8
1
 62
7
  6
CONTINUOUS
 10
217.028985507
 20
129.470289855
 11
217.028985507
 21
189.370289855
  0
LINE
  8
1
 62
7
  6
CONTINUOUS
 10
216.978985507
 20
189.420289855
 11
108.349493583
 21
189.420289855
  0
LINE
  8
5
 62
7
  6
CONTINUOUS
 10
278.328985507
 20
145.420289855
 11
278.328985507
 21
173.420289855
  0
LINE
  8
2
 62
7
  6
DASHED
 10
243.028985507
 20
171.118355855
 11
243.028985507
 21
174.920289855
  0
LINE
  8
1
 62
7
  6
CONTINUOUS
 10
58.228985507
 20
151.495289855
 11
63.528985507
 21
151.495289855
  0
LINE
  8
1
 62
7
  6
CONTINUOUS
 10
58.028985507
 20
167.145289855
 11
58.028985507
 21
151.695289855
  0
LINE
  8
3
 62
7
  6
CONTINUOUS
 10
271.228985507
 20
142.220289855
 11
270.928985507
 21
141.920289855
  0
LINE
  8
1
 62
7
  6
CONTINUOUS
 10
58.228985507
 20
167.345289855
 11
63.528985507
 21
167.345289855
  0
LINE
  8
3
 62
7
  6
CONTINUOUS
 10
247.028985507
 20
141.920289855
 11
246.728985507
 21
142.220289855
  0
LINE
  8
1
 62
7
  6
CONTINUOUS
 10
53.107482892
 20
168.870289855
 11
53.357482892
 21
168.620289855
  0
LINE
  8
3
 62
7
  6
CONTINUOUS
 10
247.028985507
 20
141.920289855
 11
255.428985507
 21
141.920289855
  0
LINE
  8
3
 62
7
  6
CONTINUOUS
 10
255.728985507
 20
142.220289855
 11
255.428985507
 21
141.920289855
  0
LINE
  8
3
 62
7
  6
CONTINUOUS
 10
258.228985507
 20
142.420289855
 11
255.728985507
 21
142.420289855
  0
LINE
  8
3
 62
7
  6
CONTINUOUS
 10
270.928985507
 20
141.920289855
 11
258.528985507
 21
141.920289855
  0
LINE
  8
3
 62
7
  6
CONTINUOUS
 10
258.528985507
 20
141.920289855
 11
258.228985507
 21
142.220289855
  0
LINE
  8
3
 62
7
  6
CONTINUOUS
 10
246.728985507
 20
176.620289855
 11
246.728985507
 21
142.220289855
  0
LINE
  8
3
 62
7
  6
CONTINUOUS
 10
255.728985507
 20
176.546557996
 11
255.728985507
 21
142.220289855
  0
LINE
  8
3
 62
7
  6
CONTINUOUS
 10
258.228985507
 20
176.620289855
 11
258.228985507
 21
142.220289855
  0
LINE
  8
1
 62
7
  6
CONTINUOUS
 10
240.028985507
 20
129.670289855
 11
239.828985507
 21
129.470289855
  0
LINE
  8
1
 62
7
  6
CONTINUOUS
 10
239.828985507
 20
189.370289855
 11
240.028985507
 21
189.170289855
  0
LINE
  8
1
 62
7
  6
CONTINUOUS
 10
239.828985507
 20
189.370289855
 11
235.528985507
 21
189.370289855
  0
LINE
  8
1
 62
7
  6
CONTINUOUS
 10
240.028985507
 20
129.670289855
 11
240.028985507
 21
189.170289855
  0
LINE
  8
1
 62
7
  6
CONTINUOUS
 10
235.528985507
 20
129.470289855
 11
239.828985507
 21
129.470289855
  0
LINE
  8
1
 62
7
  6
CONTINUOUS
 10
227.078985507
 20
129.445289855
 11
227.028985507
 21
129.495289855
  0
LINE
  8
1
 62
7
  6
CONTINUOUS
 10
235.528985507
 20
129.495289855
 11
235.478985507
 21
129.445289855
  0
LINE
  8
1
 62
7
  6
CONTINUOUS
 10
235.478985507
 20
189.395289855
 11
235.528985507
 21
189.345289855
  0
LINE
  8
1
 62
7
  6
CONTINUOUS
 10
58.228985507
 20
151.495289855
 11
58.028985507
 21
151.695289855
  0
LINE
  8
1
 62
7
  6
CONTINUOUS
 10
58.028985507
 20
167.145289855
 11
58.228985507
 21
167.345289855
  0
LINE
  8
1
 62
7
  6
CONTINUOUS
 10
58.028985507
 20
167.070289855
 11
57.657482892
 21
167.070289855
  0
LINE
  8
1
 62
7
  6
CONTINUOUS
 10
227.028985507
 20
189.345289855
 11
227.078985507
 21
189.395289855
  0
LINE
  8
1
 62
7
  6
CONTINUOUS
 10
58.028985507
 20
151.770289855
 11
57.657482892
 21
151.770289855
  0
LINE
  8
1
 62
7
  6
CONTINUOUS
 10
235.478985507
 20
189.395289855
 11
227.078985507
 21
189.395289855
  0
LINE
  8
1
 62
7
  6
CONTINUOUS
 10
235.528985507
 20
129.495289855
 11
235.528985507
 21
189.345289855
  0
LINE
  8
1
 62
7
  6
CONTINUOUS
 10
58.228985507
 20
167.345289855
 11
58.228985507
 21
151.495289855
  0
LINE
  8
1
 62
7
  6
CONTINUOUS
 10
59.028985507
 20
163.135882002
 11
59.028985507
 21
155.704697708
  0
LINE
  8
1
 62
7
  6
CONTINUOUS
 10
59.028985507
 20
155.704697708
 11
62.528985507
 21
155.704697708
  0
LINE
  8
1
 62
7
  6
CONTINUOUS
 10
62.528985507
 20
155.704697708
 11
62.528985507
 21
163.135882002
  0
LINE
  8
1
 62
7
  6
CONTINUOUS
 10
62.528985507
 20
163.135882002
 11
59.028985507
 21
163.135882002
  0
LINE
  8
1
 62
4
  6
CONTINUOUS
 10
62.528985507
 20
163.135882002
 11
59.028985507
 21
155.704697708
  0
LINE
  8
1
 62
4
  6
CONTINUOUS
 10
59.028985507
 20
163.135882002
 11
62.528985507
 21
155.704697708
  0
LINE
  8
1
 62
7
  6
CONTINUOUS
 10
227.078985507
 20
129.445289855
 11
235.478985507
 21
129.445289855
  0
LINE
  8
1
 62
7
  6
CONTINUOUS
 10
227.028985507
 20
189.345289855
 11
227.028985507
 21
129.495289855
  0
LINE
  8
1
 62
7
  6
CONTINUOUS
 10
63.528985507
 20
179.170289855
 11
63.528985507
 21
139.670289855
  0
LINE
  8
1
 62
7
  6
CONTINUOUS
 10
63.728985507
 20
139.470289855
 11
70.328985507
 21
139.470289855
  0
LINE
  8
1
 62
7
  6
CONTINUOUS
 10
70.528985507
 20
139.670289855
 11
70.528985507
 21
179.170289855
  0
LINE
  8
1
 62
7
  6
CONTINUOUS
 10
70.328985507
 20
179.370289855
 11
63.728985507
 21
179.370289855
  0
LINE
  8
1
 62
7
  6
CONTINUOUS
 10
63.528985507
 20
179.170289855
 11
63.728985507
 21
179.370289855
  0
LINE
  8
1
 62
7
  6
CONTINUOUS
 10
70.328985507
 20
179.370289855
 11
70.528985507
 21
179.170289855
  0
LINE
  8
1
 62
7
  6
CONTINUOUS
 10
70.528985507
 20
139.670289855
 11
70.328985507
 21
139.470289855
  0
LINE
  8
1
 62
7
  6
CONTINUOUS
 10
63.728985507
 20
139.470289855
 11
63.528985507
 21
139.670289855
  0
LINE
  8
1
 62
7
  6
CONTINUOUS
 10
235.528985507
 20
189.370289855
 11
235.528985507
 21
129.470289855
  0
LINE
  8
1
 62
7
  6
CONTINUOUS
 10
57.511036283
 20
168.016736464
 11
56.803929502
 21
168.723843246
  0
LINE
  8
1
 62
7
  6
CONTINUOUS
 10
56.803929502
 20
150.116736464
 11
57.511036283
 21
150.823843246
  0
LINE
  8
1
 62
7
  6
CONTINUOUS
 10
45.157482892
 20
166.042939586
 11
45.157482892
 21
152.797640124
  0
LINE
  8
1
 62
7
  6
CONTINUOUS
 10
57.657482892
 20
151.177396636
 11
57.657482892
 21
167.663183074
  0
ARC
  8
1
 62
7
  6
CONTINUOUS
 10
35.357482892
 20
156.620289855
 40
0.200000000
 50
180.000000000
 51
270.000000000
  0
ARC
  8
1
 62
7
  6
CONTINUOUS
 10
35.357482892
 20
162.220289855
 40
0.200000000
 50
90.000000000
 51
180.000000000
  0
LINE
  8
1
 62
7
  6
CONTINUOUS
 10
56.450376111
 20
168.870289855
 11
53.607482892
 21
168.870289855
  0
LINE
  8
1
 62
7
  6
CONTINUOUS
 10
50.107482892
 20
164.450448898
 11
53.107482892
 21
164.450448898
  0
LINE
  8
1
 62
7
  6
CONTINUOUS
 10
45.657482892
 20
151.931614720
 11
48.822546402
 21
150.104264451
  0
LINE
  8
1
 62
7
  6
CONTINUOUS
 10
50.107482892
 20
168.870289855
 11
53.107482892
 21
168.870289855
  0
LINE
  8
1
 62
7
  6
CONTINUOUS
 10
53.607482892
 20
149.970289855
 11
56.450376111
 21
149.970289855
  0
LINE
  8
1
 62
7
  6
CONTINUOUS
 10
49.607482892
 20
168.870289855
 11
49.857482892
 21
168.620289855
  0
LINE
  8
1
 62
7
  6
CONTINUOUS
 10
49.322546402
 20
149.970289855
 11
49.607482892
 21
149.970289855
  0
LINE
  8
1
 62
7
  6
CONTINUOUS
 10
35.357482892
 20
156.420289855
 11
45.157482892
 21
156.420289855
  0
LINE
  8
1
 62
7
  6
CONTINUOUS
 10
35.157482892
 20
162.220289855
 11
35.157482892
 21
156.620289855
  0
LINE
  8
1
 62
7
  6
CONTINUOUS
 10
45.157482892
 20
162.420289855
 11
35.357482892
 21
162.420289855
  0
LINE
  8
1
 62
7
  6
CONTINUOUS
 10
226.978985507
 20
189.395289855
 11
217.078985507
 21
189.395289855
  0
LINE
  8
1
 62
7
  6
CONTINUOUS
 10
227.028985507
 20
129.495289855
 11
227.028985507
 21
189.345289855
  0
LINE
  8
1
 62
7
  6
CONTINUOUS
 10
217.078985507
 20
129.445289855
 11
226.978985507
 21
129.445289855
  0
LINE
  8
1
 62
7
  6
CONTINUOUS
 10
217.028985507
 20
189.345289855
 11
217.028985507
 21
129.495289855
  0
LINE
  8
1
 62
7
  6
CONTINUOUS
 10
57.511036283
 20
167.516736464
 11
57.511036283
 21
151.323843246
  0
LINE
  8
1
 62
7
  6
CONTINUOUS
 10
53.107482892
 20
154.390130812
 11
53.357482892
 21
154.640130812
  0
LINE
  8
1
 62
7
  6
CONTINUOUS
 10
49.857482892
 20
154.640130812
 11
50.107482892
 21
154.390130812
  0
LINE
  8
1
 62
7
  6
CONTINUOUS
 10
53.107482892
 20
164.450448898
 11
53.357482892
 21
164.200448898
  0
LINE
  8
1
 62
7
  6
CONTINUOUS
 10
49.857482892
 20
164.200448898
 11
50.107482892
 21
164.450448898
  0
LINE
  8
1
 62
7
  6
CONTINUOUS
 10
50.107482892
 20
154.390130812
 11
50.107482892
 21
149.970289855
  0
LINE
  8
1
 62
7
  6
CONTINUOUS
 10
53.107482892
 20
154.390130812
 11
53.107482892
 21
149.970289855
  0
LINE
  8
1
 62
7
  6
CONTINUOUS
 10
49.857482892
 20
150.220289855
 11
50.107482892
 21
149.970289855
  0
LINE
  8
1
 62
7
  6
CONTINUOUS
 10
49.607482892
 20
149.970289855
 11
49.857482892
 21
150.220289855
  0
LINE
  8
1
 62
7
  6
CONTINUOUS
 10
49.857482892
 20
168.620289855
 11
50.107482892
 21
168.870289855
  0
LINE
  8
1
 62
7
  6
CONTINUOUS
 10
56.803929502
 20
168.223843246
 11
56.803929502
 21
150.616736464
  0
LINE
  8
1
 62
7
  6
CONTINUOUS
 10
50.107482892
 20
149.970289855
 11
53.107482892
 21
149.970289855
  0
LINE
  8
1
 62
7
  6
CONTINUOUS
 10
49.322546402
 20
168.870289855
 11
49.607482892
 21
168.870289855
  0
LINE
  8
1
 62
7
  6
CONTINUOUS
 10
227.028985507
 20
129.495289855
 11
226.978985507
 21
129.445289855
  0
LINE
  8
1
 62
7
  6
CONTINUOUS
 10
53.357482892
 20
168.620289855
 11
53.357482892
 21
150.220289855
  0
LINE
  8
1
 62
7
  6
CONTINUOUS
 10
53.107482892
 20
149.970289855
 11
53.357482892
 21
150.220289855
  0
LINE
  8
1
 62
7
  6
CONTINUOUS
 10
53.357482892
 20
150.220289855
 11
53.607482892
 21
149.970289855
  0
LINE
  8
1
 62
7
  6
CONTINUOUS
 10
56.450376111
 20
168.870289855
 11
56.450376111
 21
149.970289855
  0
LINE
  8
1
 62
7
  6
CONTINUOUS
 10
45.657482892
 20
166.408964990
 11
45.657482892
 21
152.431614720
  0
LINE
  8
1
 62
7
  6
CONTINUOUS
 10
45.657482892
 20
166.908964990
 11
48.822546402
 21
168.736315259
  0
ARC
  8
1
 62
7
  6
CONTINUOUS
 10
49.322546402
 20
167.870289855
 40
1.000000000
 50
90.000000000
 51
120.000000000
  0
LINE
  8
1
 62
7
  6
CONTINUOUS
 10
53.357482892
 20
168.620289855
 11
53.607482892
 21
168.870289855
  0
LINE
  8
1
 62
7
  6
CONTINUOUS
 10
48.822546402
 20
168.236315259
 11
48.822546402
 21
150.604264451
  0
ARC
  8
1
 62
7
  6
CONTINUOUS
 10
57.157482892
 20
167.663183074
 40
0.500000000
 50
0.000000000
 51
45.000000000
  0
ARC
  8
1
 62
7
  6
CONTINUOUS
 10
57.157482892
 20
151.177396636
 40
0.500000000
 50
315.000000000
 51
0.000000000
  0
ARC
  8
1
 62
7
  6
CONTINUOUS
 10
56.450376111
 20
150.470289855
 40
0.500000000
 50
270.000000000
 51
315.000000000
  0
ARC
  8
1
 62
7
  6
CONTINUOUS
 10
49.322546402
 20
150.970289855
 40
1.000000000
 50
240.000000000
 51
270.000000000
  0
ARC
  8
1
 62
7
  6
CONTINUOUS
 10
46.157482892
 20
152.797640124
 40
1.000000000
 50
180.000000000
 51
240.000000000
  0
LINE
  8
1
 62
7
  6
CONTINUOUS
 10
50.107482892
 20
168.870289855
 11
50.107482892
 21
164.450448898
  0
ARC
  8
1
 62
7
  6
CONTINUOUS
 10
46.157482892
 20
166.042939586
 40
1.000000000
 50
120.000000000
 51
180.000000000
  0
ARC
  8
1
 62
7
  6
CONTINUOUS
 10
56.450376111
 20
168.370289855
 40
0.500000000
 50
45.000000000
 51
90.000000000
  0
LINE
  8
1
 62
7
  6
CONTINUOUS
 10
49.322546402
 20
168.870289855
 11
49.322546402
 21
149.970289855
  0
LINE
  8
1
 62
7
  6
CONTINUOUS
 10
53.607482892
 20
168.870289855
 11
53.607482892
 21
149.970289855
  0
LINE
  8
1
 62
7
  6
CONTINUOUS
 10
53.107482892
 20
168.870289855
 11
53.107482892
 21
164.450448898
  0
LINE
  8
1
 62
7
  6
CONTINUOUS
 10
217.078985507
 20
129.445289855
 11
217.028985507
 21
129.495289855
  0
LINE
  8
1
 62
7
  6
CONTINUOUS
 10
226.978985507
 20
189.395289855
 11
227.028985507
 21
189.345289855
  0
LINE
  8
1
 62
7
  6
CONTINUOUS
 10
217.028985507
 20
189.345289855
 11
217.078985507
 21
189.395289855
  0
LINE
  8
5
 62
7
  6
CONTINUOUS
 10
278.328985507
 20
145.420289855
 11
309.078985507
 21
145.420289855
  0
ARC
  8
5
 62
7
  6
CONTINUOUS
 10
309.078985507
 20
145.670289855
 40
0.250000000
 50
270.000000000
 51
0.000000000
  0
LINE
  8
3
 62
4
  6
CONTINUOUS
 10
258.528985507
 20
171.605065855
 11
263.844209507
 21
176.920289855
  0
LINE
  8
5
 62
7
  6
CONTINUOUS
 10
289.328985507
 20
154.224137855
 11
289.328985507
 21
164.616441855
  0
LINE
  8
5
 62
7
  6
CONTINUOUS
 10
299.828985507
 20
154.224137855
 11
289.328985507
 21
154.224137855
  0
LINE
  8
5
 62
7
  6
CONTINUOUS
 10
299.828985507
 20
164.616441855
 11
299.828985507
 21
154.224137855
  0
LINE
  8
4
 62
7
  6
CONTINUOUS
 10
312.428985507
 20
152.881941855
 11
314.928985507
 21
152.881941855
  0
CIRCLE
  8
1
 62
7
  6
CONTINUOUS
 10
251.028985507
 20
159.420289855
 40
1.700000000
  0
LINE
  8
3
 62
4
  6
CONTINUOUS
 10
258.528985507
 20
174.433492855
 11
261.015782507
 21
176.920289855
  0
LINE
  8
3
 62
4
  6
CONTINUOUS
 10
262.785334507
 20
141.920289855
 11
270.928985507
 21
150.063940855
  0
LINE
  8
3
 62
4
  6
CONTINUOUS
 10
265.613761507
 20
141.920289855
 11
270.928985507
 21
147.235513855
  0
LINE
  8
3
 62
4
  6
CONTINUOUS
 10
259.956907507
 20
141.920289855
 11
270.928985507
 21
152.892367855
  0
LINE
  8
3
 62
4
  6
CONTINUOUS
 10
258.528985507
 20
143.320794855
 11
270.928985507
 21
155.720794855
  0
LINE
  8
4
 62
7
  6
CONTINUOUS
 10
312.428985507
 20
171.170289855
 11
310.928985507
 21
171.170289855
  0
ARC
  8
4
 62
7
  6
CONTINUOUS
 10
314.928985507
 20
172.920289855
 40
1.500000000
 50
0.000000000
 51
90.000000000
  0
LINE
  8
4
 62
7
  6
CONTINUOUS
 10
312.428985507
 20
174.420289855
 11
314.928985507
 21
174.420289855
  0
LINE
  8
4
 62
7
  6
CONTINUOUS
 10
309.328985507
 20
171.379039855
 11
310.928985507
 21
171.379039855
  0
LINE
  8
4
 62
7
  6
CONTINUOUS
 10
310.928985507
 20
171.820289855
 11
309.328985507
 21
171.820289855
  0
LINE
  8
5
 62
7
  6
CONTINUOUS
 10
276.578985507
 20
175.170289855
 11
271.228985507
 21
175.170289855
  0
LINE
  8
3
 62
7
  6
CONTINUOUS
 10
255.428985507
 20
141.920289855
 11
255.428985507
 21
176.920289855
  0
LINE
  8
3
 62
7
  6
CONTINUOUS
 10
258.528985507
 20
141.920289855
 11
258.528985507
 21
176.920289855
  0
LINE
  8
3
 62
4
  6
CONTINUOUS
 10
258.528985507
 20
144.407086855
 11
261.015782507
 21
141.920289855
  0
LINE
  8
3
 62
4
  6
CONTINUOUS
 10
258.528985507
 20
147.235513855
 11
263.844209507
 21
141.920289855
  0
LINE
  8
3
 62
4
  6
CONTINUOUS
 10
258.528985507
 20
150.063940855
 11
266.672636507
 21
141.920289855
  0
LINE
  8
3
 62
4
  6
CONTINUOUS
 10
258.528985507
 20
152.892367855
 11
269.501063507
 21
141.920289855
  0
LINE
  8
3
 62
4
  6
CONTINUOUS
 10
258.528985507
 20
155.720794855
 11
270.928985507
 21
143.320794855
  0
LINE
  8
3
 62
4
  6
CONTINUOUS
 10
258.528985507
 20
158.549221855
 11
270.928985507
 21
146.149221855
  0
LINE
  8
3
 62
4
  6
CONTINUOUS
 10
258.528985507
 20
161.377648855
 11
270.928985507
 21
148.977648855
  0
LINE
  8
3
 62
4
  6
CONTINUOUS
 10
258.528985507
 20
164.206075855
 11
270.928985507
 21
151.806075855
  0
LINE
  8
3
 62
4
  6
CONTINUOUS
 10
258.528985507
 20
167.034503855
 11
270.928985507
 21
154.634503855
  0
LINE
  8
3
 62
4
  6
CONTINUOUS
 10
258.528985507
 20
169.862930855
 11
270.928985507
 21
157.462930855
  0
LINE
  8
3
 62
4
  6
CONTINUOUS
 10
258.528985507
 20
172.691357855
 11
270.928985507
 21
160.291357855
  0
LINE
  8
3
 62
4
  6
CONTINUOUS
 10
258.528985507
 20
175.519784855
 11
270.928985507
 21
163.119784855
  0
LINE
  8
3
 62
4
  6
CONTINUOUS
 10
259.956907507
 20
176.920289855
 11
270.928985507
 21
165.948211855
  0
LINE
  8
3
 62
4
  6
CONTINUOUS
 10
262.785334507
 20
176.920289855
 11
270.928985507
 21
168.776638855
  0
LINE
  8
3
 62
4
  6
CONTINUOUS
 10
265.613761507
 20
176.920289855
 11
270.928985507
 21
171.605065855
  0
LINE
  8
4
 62
7
  6
CONTINUOUS
 10
310.928985507
 20
171.820289855
 11
310.928985507
 21
147.020289855
  0
LINE
  8
4
 62
7
  6
CONTINUOUS
 10
312.428985507
 20
147.670289855
 11
310.928985507
 21
147.670289855
  0
ARC
  8
4
 62
7
  6
CONTINUOUS
 10
314.928985507
 20
145.920289855
 40
1.500000000
 50
270.000000000
 51
0.000000000
  0
LINE
  8
4
 62
7
  6
CONTINUOUS
 10
316.428985507
 20
145.920289855
 11
316.428985507
 21
172.920289855
  0
LINE
  8
4
 62
7
  6
CONTINUOUS
 10
312.428985507
 20
144.420289855
 11
314.928985507
 21
144.420289855
  0
LINE
  8
4
 62
7
  6
CONTINUOUS
 10
312.428985507
 20
174.420289855
 11
312.428985507
 21
144.420289855
  0
LINE
  8
4
 62
7
  6
CONTINUOUS
 10
309.328985507
 20
147.461539855
 11
310.928985507
 21
147.461539855
  0
LINE
  8
4
 62
7
  6
CONTINUOUS
 10
310.928985507
 20
147.020289855
 11
309.328985507
 21
147.020289855
  0
LINE
  8
5
 62
7
  6
CONTINUOUS
 10
276.578985507
 20
143.670289855
 11
271.228985507
 21
143.670289855
  0
LINE
  8
5
 62
7
  6
CONTINUOUS
 10
276.578985507
 20
175.170289855
 11
276.578985507
 21
143.670289855
  0
LINE
  8
3
 62
7
  6
CONTINUOUS
 10
258.528985507
 20
176.920289855
 11
258.228985507
 21
176.620289855
  0
LINE
  8
3
 62
7
  6
CONTINUOUS
 10
270.928985507
 20
176.920289855
 11
258.528985507
 21
176.920289855
  0
LINE
  8
3
 62
7
  6
CONTINUOUS
 10
258.228985507
 20
176.420289855
 11
255.728985507
 21
176.420289855
  0
LINE
  8
3
 62
7
  6
CONTINUOUS
 10
255.728985507
 20
176.620289855
 11
255.428985507
 21
176.920289855
  0
LINE
  8
3
 62
7
  6
CONTINUOUS
 10
247.028985507
 20
176.920289855
 11
255.428985507
 21
176.920289855
  0
LINE
  8
3
 62
7
  6
CONTINUOUS
 10
247.028985507
 20
176.920289855
 11
246.728985507
 21
176.620289855
  0
LINE
  8
3
 62
7
  6
CONTINUOUS
 10
271.228985507
 20
176.620289855
 11
270.928985507
 21
176.920289855
  0
LINE
  8
3
 62
4
  6
CONTINUOUS
 10
268.442188507
 20
176.920289855
 11
270.928985507
 21
174.433492855
  0
LINE
  8
5
 62
7
  6
CONTINUOUS
 10
276.578985507
 20
175.170289855
 11
278.328985507
 21
173.420289855
  0
LINE
  8
3
 62
4
  6
CONTINUOUS
 10
258.528985507
 20
146.149221855
 11
270.928985507
 21
158.549221855
  0
LINE
  8
5
 62
7
  6
CONTINUOUS
 10
278.328985507
 20
173.420289855
 11
309.078985507
 21
173.420289855
  0
ARC
  8
5
 62
7
  6
CONTINUOUS
 10
309.078985507
 20
173.170289855
 40
0.250000000
 50
0.000000000
 51
90.000000000
  0
LINE
  8
5
 62
7
  6
CONTINUOUS
 10
299.828985507
 20
164.616441855
 11
289.328985507
 21
164.616441855
  0
LINE
  8
3
 62
4
  6
CONTINUOUS
 10
258.528985507
 20
148.977648855
 11
270.928985507
 21
161.377648855
  0
LINE
  8
3
 62
4
  6
CONTINUOUS
 10
258.528985507
 20
151.806075855
 11
270.928985507
 21
164.206075855
  0
LINE
  8
4
 62
7
  6
CONTINUOUS
 10
312.428985507
 20
165.958637855
 11
314.928985507
 21
165.958637855
  0
LINE
  8
3
 62
4
  6
CONTINUOUS
 10
268.442188507
 20
141.920289855
 11
270.928985507
 21
144.407086855
  0
LINE
  8
3
 62
4
  6
CONTINUOUS
 10
258.528985507
 20
154.634503855
 11
270.928985507
 21
167.034503855
  0
LINE
  8
3
 62
4
  6
CONTINUOUS
 10
258.528985507
 20
157.462930855
 11
270.928985507
 21
169.862930855
  0
LINE
  8
3
 62
4
  6
CONTINUOUS
 10
258.528985507
 20
160.291357855
 11
270.928985507
 21
172.691357855
  0
LINE
  8
3
 62
4
  6
CONTINUOUS
 10
258.528985507
 20
163.119784855
 11
270.928985507
 21
175.519784855
  0
LINE
  8
3
 62
4
  6
CONTINUOUS
 10
258.528985507
 20
165.948211855
 11
269.501063507
 21
176.920289855
  0
LINE
  8
3
 62
4
  6
CONTINUOUS
 10
258.528985507
 20
168.776638855
 11
266.672636507
 21
176.920289855
  0
LINE
  8
2
 62
7
  6
DASHED
 10
243.028985507
 20
147.722223855
 11
243.028985507
 21
143.920289855
  0
ARC
  8
1
 62
7
  6
CONTINUOUS
 10
301.428987318
 20
159.420289855
 40
14.999998190
 50
334.158065650
 51
25.841934350
  0
LINE
  8
2
 62
7
  6
CONTINUOUS
 10
316.428985507
 20
151.270289855
 11
364.268009849
 21
151.270289855
  0
LINE
  8
2
 62
7
  6
CONTINUOUS
 10
316.428985507
 20
167.570289855
 11
364.268009849
 21
167.570289855
  0
LINE
  8
3
 62
7
  6
CONTINUOUS
 10
270.928985507
 20
141.920289855
 11
270.928985507
 21
176.920289855
  0
LINE
  8
1
 62
7
  6
CONTINUOUS
 10
246.728985507
 20
174.920289855
 11
246.028985507
 21
174.920289855
  0
LINE
  8
1
 62
7
  6
CONTINUOUS
 10
246.028985507
 20
143.920289855
 11
246.728985507
 21
143.920289855
  0
LINE
  8
1
 62
7
  6
CONTINUOUS
 10
245.828985507
 20
176.670289855
 11
243.028985507
 21
176.670289855
  0
LINE
  8
1
 62
7
  6
CONTINUOUS
 10
243.028985507
 20
171.170289855
 11
245.828985507
 21
171.170289855
  0
LINE
  8
1
 62
7
  6
CONTINUOUS
 10
245.828985507
 20
171.170289855
 11
246.028985507
 21
171.370289855
  0
LINE
  8
1
 62
7
  6
CONTINUOUS
 10
246.028985507
 20
176.470289855
 11
245.828985507
 21
176.670289855
  0
LINE
  8
1
 62
7
  6
CONTINUOUS
 10
245.828985507
 20
147.670289855
 11
243.028985507
 21
147.670289855
  0
LINE
  8
1
 62
7
  6
CONTINUOUS
 10
243.028985507
 20
142.170289855
 11
245.828985507
 21
142.170289855
  0
LINE
  8
1
 62
7
  6
CONTINUOUS
 10
245.828985507
 20
142.170289855
 11
246.028985507
 21
142.370289855
  0
LINE
  8
1
 62
7
  6
CONTINUOUS
 10
246.028985507
 20
147.470289855
 11
245.828985507
 21
147.670289855
  0
LINE
  8
1
 62
7
  6
CONTINUOUS
 10
240.028985507
 20
177.920289855
 11
243.028985507
 21
177.920289855
  0
LINE
  8
1
 62
7
  6
CONTINUOUS
 10
243.028985507
 20
174.709174855
 11
243.028985507
 21
177.920289855
  0
LINE
  8
1
 62
7
  6
CONTINUOUS
 10
243.028985507
 20
174.709174855
 11
240.028985507
 21
174.709174855
  0
LINE
  8
1
 62
7
  6
CONTINUOUS
 10
240.028985507
 20
144.131404855
 11
243.028985507
 21
144.131404855
  0
LINE
  8
1
 62
7
  6
CONTINUOUS
 10
243.028985507
 20
140.920289855
 11
243.028985507
 21
144.131404855
  0
LINE
  8
1
 62
7
  6
CONTINUOUS
 10
243.028985507
 20
140.920289855
 11
240.028985507
 21
140.920289855
  0
LINE
  8
1
 62
7
  6
CONTINUOUS
 10
243.028985507
 20
174.709174855
 11
243.028985507
 21
144.131404855
  0
LINE
  8
1
 62
7
  6
CONTINUOUS
 10
246.028985507
 20
173.920289855
 11
246.028985507
 21
171.370289855
  0
LINE
  8
1
 62
7
  6
CONTINUOUS
 10
246.028985507
 20
176.470289855
 11
246.028985507
 21
173.920289855
  0
LINE
  8
1
 62
7
  6
CONTINUOUS
 10
246.028985507
 20
147.470289855
 11
246.028985507
 21
142.370289855
  0
LINE
  8
1
 62
7
  6
CONTINUOUS
 10
248.778985507
 20
189.220289855
 11
240.729846507
 21
189.220289855
  0
TEXT
  8
1
 62
3
  6
CONTINUOUS
 72
5
 10
135.978985507
 20
79.436289855
 40
4.000000000
  1
ＥＭＳ－６０４０
 41
0.834724541
 11
167.178985507
 21
79.436289855
  0
DIMENSION
  8
1
 62
4
  6
CONTINUOUS
  2
*D221
 70
0
 10
240.028985507
 20
101.420289855
 11
228.528985507
 21
101.420289855
 14
240.028985507
 24
129.670289855
 13
217.028985507
 23
129.470289855
 50
0.000000000
  0
LINE
  8
1
 62
4
  6
CONTINUOUS
 10
289.328985507
 20
164.616441855
 11
299.828985507
 21
154.224137855
  0
LINE
  8
1
 62
4
  6
CONTINUOUS
 10
299.828985507
 20
164.616441855
 11
289.328985507
 21
154.224137855
  0
DIMENSION
  8
1
 62
4
  6
CONTINUOUS
  2
*D224
 70
0
 10
217.028985507
 20
101.420289855
 11
140.278985507
 21
101.420289855
 14
217.028985507
 24
129.470289855
 13
63.528985507
 23
139.670289855
 50
0.000000000
  0
LINE
  8
1
 62
7
  6
CONTINUOUS
 10
240.729846507
 20
179.220289855
 11
248.778985507
 21
179.220289855
  0
LINE
  8
2
 62
7
  6
CONTINUOUS
 10
251.928985507
 20
181.220289855
 11
303.387820309
 21
181.220289855
  0
DIMENSION
  8
1
 62
4
  6
CONTINUOUS
  2
*D227
 70
0
 10
316.428985507
 20
93.420289855
 11
278.228985507
 21
93.420289855
 14
316.428985507
 24
145.920289855
 13
240.028985507
 23
129.670289855
 50
0.000000000
  0
DIMENSION
  8
1
 62
4
  6
CONTINUOUS
  2
*D228
 70
0
 10
240.028985507
 20
93.420289855
 11
151.778985507
 21
93.420289855
 14
240.028985507
 24
129.670289855
 13
63.528985507
 23
139.670289855
 50
0.000000000
  0
DIMENSION
  8
1
 62
4
  6
CONTINUOUS
  2
*D229
 70
0
 10
108.349493583
 20
109.420289855
 11
85.939239545
 21
109.420289855
 14
108.349493583
 24
129.420289855
 13
63.528985507
 23
139.670289855
 50
0.000000000
  0
LINE
  8
2
 62
7
  6
CONTINUOUS
 10
251.928985507
 20
187.220289855
 11
303.387820309
 21
187.220289855
  0
LINE
  8
6
 62
1
  6
CENTER
 10
238.028985507
 20
184.220289855
 11
303.387820309
 21
184.220289855
  0
ARC
  8
1
 62
4
  6
CONTINUOUS
 10
361.211759849
 20
163.495289855
 40
5.093750000
 50
306.869897646
 51
53.130102354
  0
ARC
  8
1
 62
4
  6
CONTINUOUS
 10
367.324259849
 20
163.495289855
 40
5.093750000
 50
126.869897646
 51
233.130102354
  0
ARC
  8
1
 62
4
  6
CONTINUOUS
 10
361.211759849
 20
155.345289855
 40
5.093750000
 50
306.869897646
 51
53.130102354
  0
LINE
  8
1
 62
7
  6
CONTINUOUS
 10
240.729846507
 20
189.220289855
 11
240.128985507
 21
188.220289855
  0
LINE
  8
1
 62
7
  6
CONTINUOUS
 10
240.128985507
 20
180.220289855
 11
240.729846507
 21
179.220289855
  0
LINE
  8
1
 62
7
  6
CONTINUOUS
 10
248.778985507
 20
179.270289855
 11
249.828985507
 21
179.270289855
  0
LINE
  8
1
 62
7
  6
CONTINUOUS
 10
249.828985507
 20
189.170289855
 11
248.778985507
 21
189.170289855
  0
LINE
  8
1
 62
7
  6
CONTINUOUS
 10
250.428985507
 20
179.270289855
 11
251.428985507
 21
179.270289855
  0
LINE
  8
1
 62
7
  6
CONTINUOUS
 10
251.428985507
 20
189.170289855
 11
250.428985507
 21
189.170289855
  0
ARC
  8
1
 62
7
  6
CONTINUOUS
 10
251.428985507
 20
179.770289855
 40
0.500000000
 50
270.000000000
 51
0.000000000
  0
ARC
  8
1
 62
7
  6
CONTINUOUS
 10
251.428985507
 20
188.670289855
 40
0.500000000
 50
0.000000000
 51
90.000000000
  0
LINE
  8
1
 62
7
  6
CONTINUOUS
 10
240.028985507
 20
180.220289855
 11
240.128985507
 21
180.220289855
  0
LINE
  8
1
 62
7
  6
CONTINUOUS
 10
240.128985507
 20
188.220289855
 11
240.028985507
 21
188.220289855
  0
LINE
  8
1
 62
7
  6
CONTINUOUS
 10
249.828985507
 20
180.980289855
 11
250.428985507
 21
180.980289855
  0
LINE
  8
1
 62
7
  6
CONTINUOUS
 10
250.428985507
 20
187.460289855
 11
249.828985507
 21
187.460289855
  0
DIMENSION
  8
1
 62
4
  6
CONTINUOUS
  2
*D247
 70
0
 10
63.528985507
 20
93.420289855
 11
54.343234200
 21
93.420289855
 14
63.528985507
 24
139.670289855
 13
45.157482892
 23
152.797640124
 50
0.000000000
  0
LINE
  8
1
 62
7
  6
CONTINUOUS
 10
240.729846507
 20
179.220289855
 11
240.729846507
 21
189.220289855
  0
DIMENSION
  8
1
 62
4
  6
CONTINUOUS
  2
*D249
 70
1
 10
9.157482892
 20
129.420289855
 11
9.157482892
 21
159.420289855
 14
108.349493583
 24
129.420289855
 13
108.349493583
 23
189.420289855
 50
90.000000000
  0
LINE
  8
1
 62
7
  6
CONTINUOUS
 10
248.778985507
 20
179.220289855
 11
248.778985507
 21
189.220289855
  0
DIMENSION
  8
1
 62
4
  6
CONTINUOUS
  2
*D251
 70
1
 10
17.157482892
 20
139.470289855
 11
17.157482892
 21
159.420289855
 14
63.728985507
 24
139.470289855
 13
63.728985507
 23
179.370289855
 50
90.000000000
  0
LINE
  8
1
 62
7
  6
CONTINUOUS
 10
240.128985507
 20
180.220289855
 11
240.128985507
 21
188.220289855
  0
DIMENSION
  8
1
 62
4
  6
CONTINUOUS
  2
*D253
 70
1
 10
25.157482892
 20
149.970289855
 11
25.157482892
 21
159.420289855
 14
49.322546402
 24
149.970289855
 13
49.322546402
 23
168.870289855
 50
90.000000000
  0
LINE
  8
1
 62
7
  6
CONTINUOUS
 10
249.828985507
 20
179.270289855
 11
249.828985507
 21
189.170289855
  0
LINE
  8
1
 62
4
  6
CONTINUOUS
 10
49.857482892
 20
164.200448898
 11
53.357482892
 21
154.640130812
  0
LINE
  8
1
 62
7
  6
CONTINUOUS
 10
250.428985507
 20
179.270289855
 11
250.428985507
 21
189.170289855
  0
LINE
  8
1
 62
4
  6
CONTINUOUS
 10
53.357482892
 20
164.200448898
 11
49.857482892
 21
154.640130812
  0
LINE
  8
1
 62
7
  6
CONTINUOUS
 10
251.928985507
 20
179.770289855
 11
251.928985507
 21
188.670289855
  0
ARC
  8
1
 62
4
  6
CONTINUOUS
 10
302.262820309
 20
185.720289855
 40
1.875000000
 50
306.869897646
 51
53.130102354
  0
ARC
  8
1
 62
4
  6
CONTINUOUS
 10
304.512820309
 20
185.720289855
 40
1.875000000
 50
126.869897646
 51
233.130102354
  0
ARC
  8
1
 62
4
  6
CONTINUOUS
 10
302.262820309
 20
182.720289855
 40
1.875000000
 50
306.869897646
 51
53.130102354
  0
ENDSEC
  0
EOF
