  0
SECTION
  2
HEADER
  9
$ACADVER
  1
AC1009
  9
$INSBASE
 10
0.000000000
 20
0.000000000
  9
$EXTMIN
 10
-32.577239562
 20
-21.104252086
  9
$EXTMAX
 10
358.349635177
 20
232.146772941
  9
$LIMMIN
 10
-32.577239562
 20
-21.104252086
  9
$LIMMAX
 10
358.349635177
 20
232.146772941
  9
$SNAPBASE
 10
0.000000000
 20
0.000000000
  9
$SNAPANG
 50
0.000000000
  9
$SNAPSTYLE
 70
0
  9
$GRIDMODE
 70
0
  9
$GRIDUNIT
 10
0.000000000
 20
0.000000000
  9
$DIMEXO
 40
0.000000000
  9
$DIMDLI
 40
8.000000000
  9
$DIMDLE
 40
0.000000000
  9
$DIMEXE
 40
1.000000000
  9
$DIMTIH
 70
1
  9
$DIMTOH
 70
1
  9
$DIMTAD
 70
2
  9
$DIMZIN
 70
0
  9
$FILLETRAD
 40
1.000000000
  9
$CHAMFERA
 40
1.000000000
  9
$CHAMFERB
 40
1.000000000
  9
$TDCREATE
 40
2454176.619976852
  9
$TDUPDATE
 40
2454176.619976852
  9
$ANGBASE
 50
0.000000000
  9
$ANGDIR
 70
0
  0
ENDSEC
  0
SECTION
  2
TABLES
  0
TABLE
  2
LTYPE
 70
3
  0
LTYPE
  2
CENTER
 70
64
  3
___ _ ___ _ __
 72
65
 73
4
 40
13.000000000
 49
8.500000000
 49
-1.500000000
 49
1.500000000
 49
-1.500000000
  0
LTYPE
  2
CONTINUOUS
 70
64
  3
______________
 72
65
 73
0
 40
0.000000000
  0
LTYPE
  2
DIVIDE
 70
64
  3
___ . . ___ . 
 72
65
 73
6
 40
12.999999523
 49
5.199999809
 49
-2.599999905
 49
0.000000000
 49
-2.599999905
 49
0.000000000
 49
-2.599999905
  0
ENDTAB
  0
TABLE
  2
LAYER
 70
4
  0
LAYER
  2
1
 70
0
 62
7
  6
CONTINUOUS
999
Comment001
  0
LAYER
  2
2
 70
0
 62
3
  6
CONTINUOUS
999
CSLAYER2
  0
LAYER
  2
3
 70
0
 62
3
  6
CONTINUOUS
999
CSLAYER3
  0
LAYER
  2
6
 70
0
 62
3
  6
CONTINUOUS
999
CSLAYER16
  0
LAYER
  2
_CONSTR
 70
0
 62
5
  6
CONTINUOUS
  0
ENDTAB
  0
TABLE
  2
STYLE
 70
1
  0
STYLE
  2
STANDARD
 70
64
 40
0.000000000
 41
1.000000000
 50
0.000000000
 71
0
 42
3.200000000
  3
TXT
  4
EXTFONT
  0
ENDTAB
  0
TABLE
  2
VIEW
 70
0
  0
ENDTAB
  0
ENDSEC
  0
SECTION
  2
BLOCKS
  0
BLOCK
  8
0
  2
*D180
 70
65
 10
0.000000000
 20
0.000000000
  3
*D
  0
TEXT
  8
1
 62
4
  6
CONTINUOUS
 72
5
 10
131.887385507
 20
103.625289855
 40
2.800000000
  1
(
 41
1.800001800
 11
133.567385507
 21
103.625289855
  0
TEXT
  8
1
 62
4
  6
CONTINUOUS
 72
5
 10
134.407385507
 20
103.625289855
 40
2.800000000
  1
153.5
 41
1.145453817
 11
146.167385507
 21
103.625289855
  0
TEXT
  8
1
 62
4
  6
CONTINUOUS
 72
5
 10
147.007385507
 20
103.625289855
 40
2.800000000
  1
)
 41
1.800001800
 11
148.687385507
 21
103.625289855
  0
LINE
  8
1
 62
4
  6
CONTINUOUS
 10
63.528985507
 20
139.670289855
 11
63.528985507
 21
99.420289855
  0
POLYLINE
  8
1
 62
4
  6
CONTINUOUS
 66
1
  0
VERTEX
  8
1
 10
65.528985507
 20
101.720289855
  0
VERTEX
  8
1
 10
63.528985507
 20
101.420289855
  0
VERTEX
  8
1
 10
65.528985507
 20
101.120289855
  0
SEQEND
  8
1
  0
LINE
  8
1
 62
4
  6
CONTINUOUS
 10
63.528985507
 20
101.420289855
 11
217.028985507
 21
101.420289855
  0
POLYLINE
  8
1
 62
4
  6
CONTINUOUS
 66
1
  0
VERTEX
  8
1
 10
215.028985507
 20
101.120289855
  0
VERTEX
  8
1
 10
217.028985507
 20
101.420289855
  0
VERTEX
  8
1
 10
215.028985507
 20
101.720289855
  0
SEQEND
  8
1
  0
LINE
  8
1
 62
4
  6
CONTINUOUS
 10
217.028985507
 20
129.470289855
 11
217.028985507
 21
99.420289855
  0
ENDBLK
  8
0
  0
BLOCK
  8
0
  2
*D183
 70
65
 10
0.000000000
 20
0.000000000
  3
*D
  0
TEXT
  8
1
 62
4
  6
CONTINUOUS
 72
5
 10
257.417385507
 20
95.625289855
 40
2.800000000
  1
(
 41
1.800001800
 11
259.097385507
 21
95.625289855
  0
TEXT
  8
1
 62
4
  6
CONTINUOUS
 72
5
 10
259.937385507
 20
95.625289855
 40
2.800000000
  1
44
 41
0.899998740
 11
264.137385507
 21
95.625289855
  0
TEXT
  8
1
 62
4
  6
CONTINUOUS
 72
5
 10
264.977385507
 20
95.625289855
 40
2.800000000
  1
)
 41
1.800001800
 11
266.657385507
 21
95.625289855
  0
POLYLINE
  8
1
 62
4
  6
CONTINUOUS
 66
1
  0
VERTEX
  8
1
 10
242.028985507
 20
93.720289855
  0
VERTEX
  8
1
 10
240.028985507
 20
93.420289855
  0
VERTEX
  8
1
 10
242.028985507
 20
93.120289855
  0
SEQEND
  8
1
  0
LINE
  8
1
 62
4
  6
CONTINUOUS
 10
240.028985507
 20
93.420289855
 11
284.028985507
 21
93.420289855
  0
POLYLINE
  8
1
 62
4
  6
CONTINUOUS
 66
1
  0
VERTEX
  8
1
 10
282.028985507
 20
93.120289855
  0
VERTEX
  8
1
 10
284.028985507
 20
93.420289855
  0
VERTEX
  8
1
 10
282.028985507
 20
93.720289855
  0
SEQEND
  8
1
  0
LINE
  8
1
 62
4
  6
CONTINUOUS
 10
284.028985507
 20
143.170289855
 11
284.028985507
 21
91.420289855
  0
ENDBLK
  8
0
  0
BLOCK
  8
0
  2
*D184
 70
65
 10
0.000000000
 20
0.000000000
  3
*D
  0
TEXT
  8
1
 62
4
  6
CONTINUOUS
 72
5
 10
143.387385507
 20
95.625289855
 40
2.800000000
  1
(
 41
1.800001800
 11
145.067385507
 21
95.625289855
  0
TEXT
  8
1
 62
4
  6
CONTINUOUS
 72
5
 10
145.907385507
 20
95.625289855
 40
2.800000000
  1
176.5
 41
1.145453817
 11
157.667385507
 21
95.625289855
  0
TEXT
  8
1
 62
4
  6
CONTINUOUS
 72
5
 10
158.507385507
 20
95.625289855
 40
2.800000000
  1
)
 41
1.800001800
 11
160.187385507
 21
95.625289855
  0
LINE
  8
1
 62
4
  6
CONTINUOUS
 10
63.528985507
 20
139.670289855
 11
63.528985507
 21
91.420289855
  0
POLYLINE
  8
1
 62
4
  6
CONTINUOUS
 66
1
  0
VERTEX
  8
1
 10
65.528985507
 20
93.720289855
  0
VERTEX
  8
1
 10
63.528985507
 20
93.420289855
  0
VERTEX
  8
1
 10
65.528985507
 20
93.120289855
  0
SEQEND
  8
1
  0
LINE
  8
1
 62
4
  6
CONTINUOUS
 10
63.528985507
 20
93.420289855
 11
240.028985507
 21
93.420289855
  0
POLYLINE
  8
1
 62
4
  6
CONTINUOUS
 66
1
  0
VERTEX
  8
1
 10
238.028985507
 20
93.120289855
  0
VERTEX
  8
1
 10
240.028985507
 20
93.420289855
  0
VERTEX
  8
1
 10
238.028985507
 20
93.720289855
  0
SEQEND
  8
1
  0
LINE
  8
1
 62
4
  6
CONTINUOUS
 10
240.028985507
 20
129.720289855
 11
240.028985507
 21
91.420289855
  0
ENDBLK
  8
0
  0
BLOCK
  8
0
  2
*D185
 70
65
 10
0.000000000
 20
0.000000000
  3
*D
  0
TEXT
  8
1
 62
4
  6
CONTINUOUS
 72
5
 10
78.807639545
 20
111.625289855
 40
2.800000000
  1
(
 41
1.800001800
 11
80.487639545
 21
111.625289855
  0
TEXT
  8
1
 62
4
  6
CONTINUOUS
 72
5
 10
81.327639545
 20
111.625289855
 40
2.800000000
  1
44.8
 41
1.099999267
 11
90.567639545
 21
111.625289855
  0
TEXT
  8
1
 62
4
  6
CONTINUOUS
 72
5
 10
91.407639545
 20
111.625289855
 40
2.800000000
  1
)
 41
1.800001800
 11
93.087639545
 21
111.625289855
  0
POLYLINE
  8
1
 62
4
  6
CONTINUOUS
 66
1
  0
VERTEX
  8
1
 10
65.528985507
 20
109.720289855
  0
VERTEX
  8
1
 10
63.528985507
 20
109.420289855
  0
VERTEX
  8
1
 10
65.528985507
 20
109.120289855
  0
SEQEND
  8
1
  0
LINE
  8
1
 62
4
  6
CONTINUOUS
 10
63.528985507
 20
109.420289855
 11
108.349493583
 21
109.420289855
  0
POLYLINE
  8
1
 62
4
  6
CONTINUOUS
 66
1
  0
VERTEX
  8
1
 10
106.349493583
 20
109.120289855
  0
VERTEX
  8
1
 10
108.349493583
 20
109.420289855
  0
VERTEX
  8
1
 10
106.349493583
 20
109.720289855
  0
SEQEND
  8
1
  0
LINE
  8
1
 62
4
  6
CONTINUOUS
 10
108.349493583
 20
129.420289855
 11
108.349493583
 21
107.420289855
  0
ENDBLK
  8
0
  0
BLOCK
  8
0
  2
*D201
 70
65
 10
0.000000000
 20
0.000000000
  3
*D
  0
TEXT
  8
1
 62
4
  6
CONTINUOUS
 72
5
 10
47.211634200
 20
95.625289855
 40
2.800000000
  1
(
 41
1.800001800
 11
48.891634200
 21
95.625289855
  0
TEXT
  8
1
 62
4
  6
CONTINUOUS
 72
5
 10
49.731634200
 20
95.625289855
 40
2.800000000
  1
18.4
 41
1.237498917
 11
58.971634200
 21
95.625289855
  0
TEXT
  8
1
 62
4
  6
CONTINUOUS
 72
5
 10
59.811634200
 20
95.625289855
 40
2.800000000
  1
)
 41
1.800001800
 11
61.491634200
 21
95.625289855
  0
LINE
  8
1
 62
4
  6
CONTINUOUS
 10
45.157482892
 20
152.797640124
 11
45.157482892
 21
91.420289855
  0
POLYLINE
  8
1
 62
4
  6
CONTINUOUS
 66
1
  0
VERTEX
  8
1
 10
47.157482892
 20
93.720289855
  0
VERTEX
  8
1
 10
45.157482892
 20
93.420289855
  0
VERTEX
  8
1
 10
47.157482892
 20
93.120289855
  0
SEQEND
  8
1
  0
LINE
  8
1
 62
4
  6
CONTINUOUS
 10
45.157482892
 20
93.420289855
 11
63.528985507
 21
93.420289855
  0
POLYLINE
  8
1
 62
4
  6
CONTINUOUS
 66
1
  0
VERTEX
  8
1
 10
61.528985507
 20
93.120289855
  0
VERTEX
  8
1
 10
63.528985507
 20
93.420289855
  0
VERTEX
  8
1
 10
61.528985507
 20
93.720289855
  0
SEQEND
  8
1
  0
LINE
  8
1
 62
4
  6
CONTINUOUS
 10
63.528985507
 20
139.670289855
 11
63.528985507
 21
91.420289855
  0
ENDBLK
  8
0
  0
BLOCK
  8
0
  2
*D203
 70
65
 10
0.000000000
 20
0.000000000
  3
*D
  0
TEXT
  8
1
 62
4
  6
CONTINUOUS
 72
5
 10
6.952482892
 20
151.457089855
 40
2.800000000
  1
φ
 41
1.270648030
 50
90.000000000
 11
6.952482892
 21
154.817089855
  0
TEXT
  8
1
 62
4
  6
CONTINUOUS
 72
5
 10
6.952482892
 20
156.497089855
 40
2.800000000
  1
60
 41
1.000000667
 50
90.000000000
 11
6.952482892
 21
160.697089855
  0
TEXT
  8
1
 62
4
  6
CONTINUOUS
 72
5
 10
5.188482892
 20
161.537089855
 40
1.400000000
  1
 0
 41
2.333335926
 50
90.000000000
 11
5.188482892
 21
164.477089855
  0
TEXT
  8
1
 62
4
  6
CONTINUOUS
 72
5
 10
7.330482892
 20
161.537089855
 40
1.400000000
  1
-0.01
 41
1.710000684
 50
90.000000000
 11
7.330482892
 21
169.517089855
  0
LINE
  8
1
 62
4
  6
CONTINUOUS
 10
108.349493583
 20
189.420289855
 11
7.157482892
 21
189.420289855
  0
POLYLINE
  8
1
 62
4
  6
CONTINUOUS
 66
1
  0
VERTEX
  8
1
 10
9.457482892
 20
187.420289855
  0
VERTEX
  8
1
 10
9.157482892
 20
189.420289855
  0
VERTEX
  8
1
 10
8.857482892
 20
187.420289855
  0
SEQEND
  8
1
  0
LINE
  8
1
 62
4
  6
CONTINUOUS
 10
9.157482892
 20
189.420289855
 11
9.157482892
 21
129.420289855
  0
POLYLINE
  8
1
 62
4
  6
CONTINUOUS
 66
1
  0
VERTEX
  8
1
 10
8.857482892
 20
131.420289855
  0
VERTEX
  8
1
 10
9.157482892
 20
129.420289855
  0
VERTEX
  8
1
 10
9.457482892
 20
131.420289855
  0
SEQEND
  8
1
  0
LINE
  8
1
 62
4
  6
CONTINUOUS
 10
108.349493583
 20
129.420289855
 11
7.157482892
 21
129.420289855
  0
ENDBLK
  8
0
  0
BLOCK
  8
0
  2
*D205
 70
65
 10
0.000000000
 20
0.000000000
  3
*D
  0
TEXT
  8
1
 62
4
  6
CONTINUOUS
 72
5
 10
14.952482892
 20
152.288689855
 40
2.800000000
  1
φ
 41
1.270648030
 50
90.000000000
 11
14.952482892
 21
155.648689855
  0
TEXT
  8
1
 62
4
  6
CONTINUOUS
 72
5
 10
14.952482892
 20
157.328689855
 40
2.800000000
  1
39.9
 41
1.099999267
 50
90.000000000
 11
14.952482892
 21
166.568689855
  0
LINE
  8
1
 62
4
  6
CONTINUOUS
 10
63.728985507
 20
179.370289855
 11
15.157482892
 21
179.370289855
  0
POLYLINE
  8
1
 62
4
  6
CONTINUOUS
 66
1
  0
VERTEX
  8
1
 10
17.457482892
 20
177.370289855
  0
VERTEX
  8
1
 10
17.157482892
 20
179.370289855
  0
VERTEX
  8
1
 10
16.857482892
 20
177.370289855
  0
SEQEND
  8
1
  0
LINE
  8
1
 62
4
  6
CONTINUOUS
 10
17.157482892
 20
179.370289855
 11
17.157482892
 21
139.470289855
  0
POLYLINE
  8
1
 62
4
  6
CONTINUOUS
 66
1
  0
VERTEX
  8
1
 10
16.857482892
 20
141.470289855
  0
VERTEX
  8
1
 10
17.157482892
 20
139.470289855
  0
VERTEX
  8
1
 10
17.457482892
 20
141.470289855
  0
SEQEND
  8
1
  0
LINE
  8
1
 62
4
  6
CONTINUOUS
 10
63.728985507
 20
139.470289855
 11
15.157482892
 21
139.470289855
  0
ENDBLK
  8
0
  0
BLOCK
  8
0
  2
*D207
 70
65
 10
0.000000000
 20
0.000000000
  3
*D
  0
TEXT
  8
1
 62
4
  6
CONTINUOUS
 72
5
 10
22.952482892
 20
152.288689855
 40
2.800000000
  1
φ
 41
1.270648030
 50
90.000000000
 11
22.952482892
 21
155.648689855
  0
TEXT
  8
1
 62
4
  6
CONTINUOUS
 72
5
 10
22.952482892
 20
157.328689855
 40
2.800000000
  1
18.9
 41
1.237498917
 50
90.000000000
 11
22.952482892
 21
166.568689855
  0
LINE
  8
1
 62
4
  6
CONTINUOUS
 10
49.322546402
 20
168.870289855
 11
23.157482892
 21
168.870289855
  0
POLYLINE
  8
1
 62
4
  6
CONTINUOUS
 66
1
  0
VERTEX
  8
1
 10
25.457482892
 20
166.870289855
  0
VERTEX
  8
1
 10
25.157482892
 20
168.870289855
  0
VERTEX
  8
1
 10
24.857482892
 20
166.870289855
  0
SEQEND
  8
1
  0
LINE
  8
1
 62
4
  6
CONTINUOUS
 10
25.157482892
 20
168.870289855
 11
25.157482892
 21
149.970289855
  0
POLYLINE
  8
1
 62
4
  6
CONTINUOUS
 66
1
  0
VERTEX
  8
1
 10
24.857482892
 20
151.970289855
  0
VERTEX
  8
1
 10
25.157482892
 20
149.970289855
  0
VERTEX
  8
1
 10
25.457482892
 20
151.970289855
  0
SEQEND
  8
1
  0
LINE
  8
1
 62
4
  6
CONTINUOUS
 10
49.322546402
 20
149.970289855
 11
23.157482892
 21
149.970289855
  0
ENDBLK
  8
0
  0
BLOCK
  8
0
  2
*D235
 70
65
 10
0.000000000
 20
0.000000000
  3
*D
  0
TEXT
  8
1
 62
4
  6
CONTINUOUS
 72
5
 10
223.917385507
 20
103.625289855
 40
2.800000000
  1
(
 41
1.800001800
 11
225.597385507
 21
103.625289855
  0
TEXT
  8
1
 62
4
  6
CONTINUOUS
 72
5
 10
226.437385507
 20
103.625289855
 40
2.800000000
  1
23
 41
0.899998740
 11
230.637385507
 21
103.625289855
  0
TEXT
  8
1
 62
4
  6
CONTINUOUS
 72
5
 10
231.477385507
 20
103.625289855
 40
2.800000000
  1
)
 41
1.800001800
 11
233.157385507
 21
103.625289855
  0
LINE
  8
1
 62
4
  6
CONTINUOUS
 10
217.028985507
 20
129.470289855
 11
217.028985507
 21
99.420289855
  0
POLYLINE
  8
1
 62
4
  6
CONTINUOUS
 66
1
  0
VERTEX
  8
1
 10
219.028985507
 20
101.720289855
  0
VERTEX
  8
1
 10
217.028985507
 20
101.420289855
  0
VERTEX
  8
1
 10
219.028985507
 20
101.120289855
  0
SEQEND
  8
1
  0
LINE
  8
1
 62
4
  6
CONTINUOUS
 10
217.028985507
 20
101.420289855
 11
240.028985507
 21
101.420289855
  0
POLYLINE
  8
1
 62
4
  6
CONTINUOUS
 66
1
  0
VERTEX
  8
1
 10
238.028985507
 20
101.120289855
  0
VERTEX
  8
1
 10
240.028985507
 20
101.420289855
  0
VERTEX
  8
1
 10
238.028985507
 20
101.720289855
  0
SEQEND
  8
1
  0
LINE
  8
1
 62
4
  6
CONTINUOUS
 10
240.028985507
 20
129.720289855
 11
240.028985507
 21
99.420289855
  0
ENDBLK
  8
0
  0
ENDSEC
  0
SECTION
  2
ENTITIES
  0
LINE
  8
1
 62
7
  6
CONTINUOUS
 10
108.349493583
 20
129.420289855
 11
108.349493583
 21
189.420289855
  0
LINE
  8
1
 62
7
  6
CONTINUOUS
 10
216.978985507
 20
129.420289855
 11
108.349493583
 21
129.420289855
  0
LINE
  8
1
 62
7
  6
CONTINUOUS
 10
71.028985507
 20
139.420289855
 11
108.349493583
 21
129.420289855
  0
LINE
  8
1
 62
7
  6
CONTINUOUS
 10
70.528985507
 20
140.520289855
 11
71.028985507
 21
140.520289855
  0
LINE
  8
1
 62
7
  6
CONTINUOUS
 10
216.978985507
 20
129.420289855
 11
217.028985507
 21
129.470289855
  0
LINE
  8
1
 62
7
  6
CONTINUOUS
 10
49.857482892
 20
168.620289855
 11
49.857482892
 21
150.220289855
  0
LINE
  8
1
 62
7
  6
CONTINUOUS
 10
50.107482892
 20
154.390130812
 11
53.107482892
 21
154.390130812
  0
LINE
  8
1
 62
7
  6
CONTINUOUS
 10
216.978985507
 20
189.420289855
 11
217.028985507
 21
189.370289855
  0
LINE
  8
1
 62
7
  6
CONTINUOUS
 10
49.607482892
 20
168.870289855
 11
49.607482892
 21
149.970289855
  0
LINE
  8
1
 62
7
  6
CONTINUOUS
 10
70.528985507
 20
178.320289855
 11
71.028985507
 21
178.320289855
  0
LINE
  8
1
 62
7
  6
CONTINUOUS
 10
71.028985507
 20
139.420289855
 11
71.028985507
 21
179.420289855
  0
LINE
  8
1
 62
7
  6
CONTINUOUS
 10
71.028985507
 20
179.420289855
 11
108.349493583
 21
189.420289855
  0
LINE
  8
1
 62
1
  6
CENTER
 10
33.157482892
 20
159.420289855
 11
321.501856742
 21
159.420289855
  0
LINE
  8
1
 62
7
  6
CONTINUOUS
 10
217.028985507
 20
129.470289855
 11
217.028985507
 21
189.370289855
  0
LINE
  8
1
 62
7
  6
CONTINUOUS
 10
216.978985507
 20
189.420289855
 11
108.349493583
 21
189.420289855
  0
LINE
  8
1
 62
7
  6
CONTINUOUS
 10
58.228985507
 20
151.495289855
 11
63.528985507
 21
151.495289855
  0
LINE
  8
1
 62
7
  6
CONTINUOUS
 10
58.028985507
 20
167.145289855
 11
58.028985507
 21
151.695289855
  0
POLYLINE
  8
1
 62
7
  6
CONTINUOUS
 66
1
  0
VERTEX
  8
1
 10
252.728985507
 20
154.484974314
  0
VERTEX
  8
1
 10
252.435125868
 20
154.478715803
 42
0.019852260
  0
VERTEX
  8
1
 10
251.854659344
 20
154.398227519
 42
0.018839602
  0
VERTEX
  8
1
 10
251.292625038
 20
154.232392510
 42
0.018074386
  0
VERTEX
  8
1
 10
250.759607738
 20
153.987495939
 42
0.017691781
  0
VERTEX
  8
1
 10
250.266272978
 20
153.669762520
 42
0.017709551
  0
VERTEX
  8
1
 10
249.823082253
 20
153.285569703
 42
0.017934347
  0
VERTEX
  8
1
 10
249.439968690
 20
152.841690444
 42
0.018483569
  0
VERTEX
  8
1
 10
249.127171576
 20
152.345403657
 42
0.019457381
  0
VERTEX
  8
1
 10
248.896760030
 20
151.806080145
 42
0.020970219
  0
VERTEX
  8
1
 10
248.761286966
 20
151.234726208
 42
0.022533090
  0
VERTEX
  8
1
 10
248.732973183
 20
150.648589820
 42
0.024734933
  0
VERTEX
  8
1
 10
248.821981631
 20
150.068002429
 42
0.025443862
  0
VERTEX
  8
1
 10
249.027035978
 20
149.517586733
 42
0.026050543
  0
VERTEX
  8
1
 10
249.340465858
 20
149.021557732
 42
0.024573635
  0
VERTEX
  8
1
 10
249.743240609
 20
148.593918261
 42
0.022368155
  0
VERTEX
  8
1
 10
250.213346022
 20
148.243532509
 42
0.020039073
  0
VERTEX
  8
1
 10
250.732134336
 20
147.969922717
 42
0.017519066
  0
VERTEX
  8
1
 10
251.282819128
 20
147.769641967
 42
0.015819620
  0
VERTEX
  8
1
 10
251.853908438
 20
147.639023502
 42
0.014538525
  0
VERTEX
  8
1
 10
252.436164304
 20
147.574469517
 42
0.013806160
  0
VERTEX
  8
1
 10
253.021806711
 20
147.574469517
 42
0.013771209
  0
VERTEX
  8
1
 10
253.604062576
 20
147.639023502
 42
0.013984548
  0
VERTEX
  8
1
 10
254.175151886
 20
147.769641967
 42
0.015156302
  0
VERTEX
  8
1
 10
254.725836679
 20
147.969922717
 42
0.016518513
  0
VERTEX
  8
1
 10
255.244624993
 20
148.243532509
 42
0.018721792
  0
VERTEX
  8
1
 10
255.714730405
 20
148.593918261
 42
0.021418160
  0
VERTEX
  8
1
 10
256.117505156
 20
149.021557732
 42
0.023333386
  0
VERTEX
  8
1
 10
256.430935037
 20
149.517586733
 42
0.026016633
  0
VERTEX
  8
1
 10
256.635989384
 20
150.068002429
 42
0.025581359
  0
VERTEX
  8
1
 10
256.724997832
 20
150.648589820
 42
0.025624998
  0
VERTEX
  8
1
 10
256.696684048
 20
151.234726208
 42
0.023531799
  0
VERTEX
  8
1
 10
256.561210985
 20
151.806080145
 42
0.021781027
  0
VERTEX
  8
1
 10
256.330799438
 20
152.345403657
 42
0.020159135
  0
VERTEX
  8
1
 10
256.018002324
 20
152.841690444
 42
0.018891363
  0
VERTEX
  8
1
 10
255.634888761
 20
153.285569703
 42
0.018169031
  0
VERTEX
  8
1
 10
255.191698037
 20
153.669762520
 42
0.017786961
  0
VERTEX
  8
1
 10
254.698363277
 20
153.987495939
 42
0.017650567
  0
VERTEX
  8
1
 10
254.165345976
 20
154.232392510
 42
0.017834289
  0
VERTEX
  8
1
 10
253.603311671
 20
154.398227519
 42
0.018414942
  0
VERTEX
  8
1
 10
253.022845146
 20
154.478715803
 42
0.019325649
  0
VERTEX
  8
1
 10
252.728985507
 20
154.484974314
  0
VERTEX
  8
1
 10
252.728985507
 20
154.484974314
  0
VERTEX
  8
1
 10
252.728985507
 20
154.484974314
  0
VERTEX
  8
1
 10
252.728985507
 20
154.484974314
  0
VERTEX
  8
1
 10
252.728985507
 20
154.484974314
  0
VERTEX
  8
1
 10
252.728985507
 20
154.484974314
  0
VERTEX
  8
1
 10
252.728985507
 20
154.484974314
  0
VERTEX
  8
1
 10
252.728985507
 20
154.484974314
  0
VERTEX
  8
1
 10
252.728985507
 20
154.484974314
  0
VERTEX
  8
1
 10
252.728985507
 20
154.484974314
  0
VERTEX
  8
1
 10
252.728985507
 20
154.484974314
  0
VERTEX
  8
1
 10
252.728985507
 20
154.484974314
  0
VERTEX
  8
1
 10
252.728985507
 20
154.484974314
  0
VERTEX
  8
1
 10
252.728985507
 20
154.484974314
  0
VERTEX
  8
1
 10
252.728985507
 20
154.484974314
  0
VERTEX
  8
1
 10
252.728985507
 20
154.484974314
  0
VERTEX
  8
1
 10
252.728985507
 20
154.484974314
  0
VERTEX
  8
1
 10
252.728985507
 20
154.484974314
  0
VERTEX
  8
1
 10
252.728985507
 20
154.484974314
  0
VERTEX
  8
1
 10
252.728985507
 20
154.484974314
  0
VERTEX
  8
1
 10
252.728985507
 20
154.484974314
  0
VERTEX
  8
1
 10
252.728985507
 20
154.484974314
  0
VERTEX
  8
1
 10
252.728985507
 20
154.484974314
  0
VERTEX
  8
1
 10
252.728985507
 20
154.484974314
  0
VERTEX
  8
1
 10
252.728985507
 20
154.484974314
  0
VERTEX
  8
1
 10
252.728985507
 20
154.484974314
  0
VERTEX
  8
1
 10
252.728985507
 20
154.484974314
  0
VERTEX
  8
1
 10
252.728985507
 20
154.484974314
  0
VERTEX
  8
1
 10
252.728985507
 20
154.484974314
  0
VERTEX
  8
1
 10
252.728985507
 20
154.484974314
  0
VERTEX
  8
1
 10
252.728985507
 20
154.484974314
  0
VERTEX
  8
1
 10
252.728985507
 20
154.484974314
  0
SEQEND
  8
1
  0
LINE
  8
1
 62
7
  6
CONTINUOUS
 10
58.228985507
 20
167.345289855
 11
63.528985507
 21
167.345289855
  0
LINE
  8
1
 62
7
  6
CONTINUOUS
 10
53.107482892
 20
168.870289855
 11
53.357482892
 21
168.620289855
  0
LINE
  8
1
 62
7
  6
CONTINUOUS
 10
240.028985507
 20
129.720289855
 11
239.828985507
 21
129.520289855
  0
LINE
  8
1
 62
7
  6
CONTINUOUS
 10
239.828985507
 20
189.320289855
 11
240.028985507
 21
189.120289855
  0
LINE
  8
1
 62
7
  6
CONTINUOUS
 10
239.828985507
 20
189.320289855
 11
235.528985507
 21
189.320289855
  0
LINE
  8
1
 62
7
  6
CONTINUOUS
 10
240.028985507
 20
129.720289855
 11
240.028985507
 21
189.120289855
  0
LINE
  8
1
 62
7
  6
CONTINUOUS
 10
235.528985507
 20
129.520289855
 11
239.828985507
 21
129.520289855
  0
LINE
  8
1
 62
7
  6
CONTINUOUS
 10
227.078985507
 20
129.445289855
 11
227.028985507
 21
129.495289855
  0
LINE
  8
1
 62
7
  6
CONTINUOUS
 10
235.528985507
 20
129.495289855
 11
235.478985507
 21
129.445289855
  0
LINE
  8
1
 62
7
  6
CONTINUOUS
 10
235.478985507
 20
189.395289855
 11
235.528985507
 21
189.345289855
  0
LINE
  8
1
 62
7
  6
CONTINUOUS
 10
58.228985507
 20
151.495289855
 11
58.028985507
 21
151.695289855
  0
LINE
  8
1
 62
7
  6
CONTINUOUS
 10
58.028985507
 20
167.145289855
 11
58.228985507
 21
167.345289855
  0
LINE
  8
1
 62
7
  6
CONTINUOUS
 10
58.028985507
 20
167.070289855
 11
57.657482892
 21
167.070289855
  0
LINE
  8
1
 62
7
  6
CONTINUOUS
 10
227.028985507
 20
189.345289855
 11
227.078985507
 21
189.395289855
  0
LINE
  8
1
 62
7
  6
CONTINUOUS
 10
58.028985507
 20
151.770289855
 11
57.657482892
 21
151.770289855
  0
LINE
  8
1
 62
7
  6
CONTINUOUS
 10
235.478985507
 20
189.395289855
 11
227.078985507
 21
189.395289855
  0
LINE
  8
1
 62
7
  6
CONTINUOUS
 10
235.528985507
 20
129.495289855
 11
235.528985507
 21
189.345289855
  0
LINE
  8
1
 62
7
  6
CONTINUOUS
 10
58.228985507
 20
167.345289855
 11
58.228985507
 21
151.495289855
  0
LINE
  8
1
 62
7
  6
CONTINUOUS
 10
59.028985507
 20
163.135882002
 11
59.028985507
 21
155.704697708
  0
LINE
  8
1
 62
7
  6
CONTINUOUS
 10
59.028985507
 20
155.704697708
 11
62.528985507
 21
155.704697708
  0
LINE
  8
1
 62
7
  6
CONTINUOUS
 10
62.528985507
 20
155.704697708
 11
62.528985507
 21
163.135882002
  0
LINE
  8
1
 62
7
  6
CONTINUOUS
 10
62.528985507
 20
163.135882002
 11
59.028985507
 21
163.135882002
  0
LINE
  8
1
 62
4
  6
CONTINUOUS
 10
62.528985507
 20
163.135882002
 11
59.028985507
 21
155.704697708
  0
LINE
  8
1
 62
4
  6
CONTINUOUS
 10
59.028985507
 20
163.135882002
 11
62.528985507
 21
155.704697708
  0
LINE
  8
1
 62
7
  6
CONTINUOUS
 10
227.078985507
 20
129.445289855
 11
235.478985507
 21
129.445289855
  0
LINE
  8
1
 62
7
  6
CONTINUOUS
 10
227.028985507
 20
189.345289855
 11
227.028985507
 21
129.495289855
  0
LINE
  8
1
 62
7
  6
CONTINUOUS
 10
63.528985507
 20
179.170289855
 11
63.528985507
 21
139.670289855
  0
LINE
  8
1
 62
7
  6
CONTINUOUS
 10
63.728985507
 20
139.470289855
 11
70.328985507
 21
139.470289855
  0
LINE
  8
1
 62
7
  6
CONTINUOUS
 10
70.528985507
 20
139.670289855
 11
70.528985507
 21
179.170289855
  0
LINE
  8
1
 62
7
  6
CONTINUOUS
 10
70.328985507
 20
179.370289855
 11
63.728985507
 21
179.370289855
  0
LINE
  8
1
 62
7
  6
CONTINUOUS
 10
63.528985507
 20
179.170289855
 11
63.728985507
 21
179.370289855
  0
LINE
  8
1
 62
7
  6
CONTINUOUS
 10
70.328985507
 20
179.370289855
 11
70.528985507
 21
179.170289855
  0
LINE
  8
1
 62
7
  6
CONTINUOUS
 10
70.528985507
 20
139.670289855
 11
70.328985507
 21
139.470289855
  0
LINE
  8
1
 62
7
  6
CONTINUOUS
 10
63.728985507
 20
139.470289855
 11
63.528985507
 21
139.670289855
  0
LINE
  8
1
 62
7
  6
CONTINUOUS
 10
235.528985507
 20
189.320289855
 11
235.528985507
 21
129.520289855
  0
LINE
  8
1
 62
7
  6
CONTINUOUS
 10
57.511036283
 20
168.016736464
 11
56.803929502
 21
168.723843246
  0
LINE
  8
1
 62
7
  6
CONTINUOUS
 10
56.803929502
 20
150.116736464
 11
57.511036283
 21
150.823843246
  0
LINE
  8
1
 62
7
  6
CONTINUOUS
 10
45.157482892
 20
166.042939586
 11
45.157482892
 21
152.797640124
  0
LINE
  8
1
 62
7
  6
CONTINUOUS
 10
57.657482892
 20
151.177396636
 11
57.657482892
 21
167.663183074
  0
ARC
  8
1
 62
7
  6
CONTINUOUS
 10
35.357482892
 20
156.620289855
 40
0.200000000
 50
180.000000000
 51
270.000000000
  0
ARC
  8
1
 62
7
  6
CONTINUOUS
 10
35.357482892
 20
162.220289855
 40
0.200000000
 50
90.000000000
 51
180.000000000
  0
LINE
  8
1
 62
7
  6
CONTINUOUS
 10
56.450376111
 20
168.870289855
 11
53.607482892
 21
168.870289855
  0
LINE
  8
1
 62
7
  6
CONTINUOUS
 10
50.107482892
 20
164.450448898
 11
53.107482892
 21
164.450448898
  0
LINE
  8
1
 62
7
  6
CONTINUOUS
 10
45.657482892
 20
151.931614720
 11
48.822546402
 21
150.104264451
  0
LINE
  8
1
 62
7
  6
CONTINUOUS
 10
50.107482892
 20
168.870289855
 11
53.107482892
 21
168.870289855
  0
LINE
  8
1
 62
7
  6
CONTINUOUS
 10
53.607482892
 20
149.970289855
 11
56.450376111
 21
149.970289855
  0
LINE
  8
1
 62
7
  6
CONTINUOUS
 10
49.607482892
 20
168.870289855
 11
49.857482892
 21
168.620289855
  0
LINE
  8
1
 62
7
  6
CONTINUOUS
 10
49.322546402
 20
149.970289855
 11
49.607482892
 21
149.970289855
  0
LINE
  8
1
 62
7
  6
CONTINUOUS
 10
35.357482892
 20
156.420289855
 11
45.157482892
 21
156.420289855
  0
LINE
  8
1
 62
7
  6
CONTINUOUS
 10
35.157482892
 20
162.220289855
 11
35.157482892
 21
156.620289855
  0
LINE
  8
1
 62
7
  6
CONTINUOUS
 10
45.157482892
 20
162.420289855
 11
35.357482892
 21
162.420289855
  0
LINE
  8
1
 62
7
  6
CONTINUOUS
 10
226.978985507
 20
189.395289855
 11
217.078985507
 21
189.395289855
  0
LINE
  8
1
 62
7
  6
CONTINUOUS
 10
227.028985507
 20
129.495289855
 11
227.028985507
 21
189.345289855
  0
LINE
  8
1
 62
7
  6
CONTINUOUS
 10
217.078985507
 20
129.445289855
 11
226.978985507
 21
129.445289855
  0
LINE
  8
1
 62
7
  6
CONTINUOUS
 10
217.028985507
 20
189.345289855
 11
217.028985507
 21
129.495289855
  0
LINE
  8
1
 62
7
  6
CONTINUOUS
 10
57.511036283
 20
167.516736464
 11
57.511036283
 21
151.323843246
  0
LINE
  8
1
 62
7
  6
CONTINUOUS
 10
53.107482892
 20
154.390130812
 11
53.357482892
 21
154.640130812
  0
LINE
  8
1
 62
7
  6
CONTINUOUS
 10
49.857482892
 20
154.640130812
 11
50.107482892
 21
154.390130812
  0
LINE
  8
1
 62
7
  6
CONTINUOUS
 10
53.107482892
 20
164.450448898
 11
53.357482892
 21
164.200448898
  0
LINE
  8
1
 62
7
  6
CONTINUOUS
 10
49.857482892
 20
164.200448898
 11
50.107482892
 21
164.450448898
  0
LINE
  8
1
 62
7
  6
CONTINUOUS
 10
50.107482892
 20
154.390130812
 11
50.107482892
 21
149.970289855
  0
LINE
  8
1
 62
7
  6
CONTINUOUS
 10
53.107482892
 20
154.390130812
 11
53.107482892
 21
149.970289855
  0
LINE
  8
1
 62
7
  6
CONTINUOUS
 10
49.857482892
 20
150.220289855
 11
50.107482892
 21
149.970289855
  0
LINE
  8
1
 62
7
  6
CONTINUOUS
 10
49.607482892
 20
149.970289855
 11
49.857482892
 21
150.220289855
  0
LINE
  8
1
 62
7
  6
CONTINUOUS
 10
49.857482892
 20
168.620289855
 11
50.107482892
 21
168.870289855
  0
LINE
  8
1
 62
7
  6
CONTINUOUS
 10
56.803929502
 20
168.223843246
 11
56.803929502
 21
150.616736464
  0
LINE
  8
1
 62
7
  6
CONTINUOUS
 10
50.107482892
 20
149.970289855
 11
53.107482892
 21
149.970289855
  0
LINE
  8
1
 62
7
  6
CONTINUOUS
 10
49.322546402
 20
168.870289855
 11
49.607482892
 21
168.870289855
  0
LINE
  8
1
 62
7
  6
CONTINUOUS
 10
227.028985507
 20
129.495289855
 11
226.978985507
 21
129.445289855
  0
LINE
  8
1
 62
7
  6
CONTINUOUS
 10
53.357482892
 20
168.620289855
 11
53.357482892
 21
150.220289855
  0
LINE
  8
1
 62
7
  6
CONTINUOUS
 10
53.107482892
 20
149.970289855
 11
53.357482892
 21
150.220289855
  0
LINE
  8
1
 62
7
  6
CONTINUOUS
 10
53.357482892
 20
150.220289855
 11
53.607482892
 21
149.970289855
  0
LINE
  8
1
 62
7
  6
CONTINUOUS
 10
56.450376111
 20
168.870289855
 11
56.450376111
 21
149.970289855
  0
LINE
  8
1
 62
7
  6
CONTINUOUS
 10
45.657482892
 20
166.408964990
 11
45.657482892
 21
152.431614720
  0
LINE
  8
1
 62
7
  6
CONTINUOUS
 10
45.657482892
 20
166.908964990
 11
48.822546402
 21
168.736315259
  0
ARC
  8
1
 62
7
  6
CONTINUOUS
 10
49.322546402
 20
167.870289855
 40
1.000000000
 50
90.000000000
 51
120.000000000
  0
LINE
  8
1
 62
7
  6
CONTINUOUS
 10
53.357482892
 20
168.620289855
 11
53.607482892
 21
168.870289855
  0
LINE
  8
1
 62
7
  6
CONTINUOUS
 10
48.822546402
 20
168.236315259
 11
48.822546402
 21
150.604264451
  0
ARC
  8
1
 62
7
  6
CONTINUOUS
 10
57.157482892
 20
167.663183074
 40
0.500000000
 50
0.000000000
 51
45.000000000
  0
ARC
  8
1
 62
7
  6
CONTINUOUS
 10
57.157482892
 20
151.177396636
 40
0.500000000
 50
315.000000000
 51
0.000000000
  0
ARC
  8
1
 62
7
  6
CONTINUOUS
 10
56.450376111
 20
150.470289855
 40
0.500000000
 50
270.000000000
 51
315.000000000
  0
ARC
  8
1
 62
7
  6
CONTINUOUS
 10
49.322546402
 20
150.970289855
 40
1.000000000
 50
240.000000000
 51
270.000000000
  0
ARC
  8
1
 62
7
  6
CONTINUOUS
 10
46.157482892
 20
152.797640124
 40
1.000000000
 50
180.000000000
 51
240.000000000
  0
LINE
  8
1
 62
7
  6
CONTINUOUS
 10
50.107482892
 20
168.870289855
 11
50.107482892
 21
164.450448898
  0
ARC
  8
1
 62
7
  6
CONTINUOUS
 10
46.157482892
 20
166.042939586
 40
1.000000000
 50
120.000000000
 51
180.000000000
  0
ARC
  8
1
 62
7
  6
CONTINUOUS
 10
56.450376111
 20
168.370289855
 40
0.500000000
 50
45.000000000
 51
90.000000000
  0
LINE
  8
1
 62
7
  6
CONTINUOUS
 10
49.322546402
 20
168.870289855
 11
49.322546402
 21
149.970289855
  0
LINE
  8
1
 62
7
  6
CONTINUOUS
 10
53.607482892
 20
168.870289855
 11
53.607482892
 21
149.970289855
  0
LINE
  8
1
 62
7
  6
CONTINUOUS
 10
53.107482892
 20
168.870289855
 11
53.107482892
 21
164.450448898
  0
LINE
  8
1
 62
7
  6
CONTINUOUS
 10
217.078985507
 20
129.445289855
 11
217.028985507
 21
129.495289855
  0
LINE
  8
1
 62
7
  6
CONTINUOUS
 10
226.978985507
 20
189.395289855
 11
227.028985507
 21
189.345289855
  0
LINE
  8
1
 62
7
  6
CONTINUOUS
 10
217.028985507
 20
189.345289855
 11
217.078985507
 21
189.395289855
  0
POLYLINE
  8
1
 62
7
  6
CONTINUOUS
 66
1
  0
VERTEX
  8
1
 10
252.728985507
 20
154.008077860
  0
VERTEX
  8
1
 10
252.509540988
 20
154.002192568
 42
0.014035467
  0
VERTEX
  8
1
 10
252.072500962
 20
153.953585192
 42
0.013980061
  0
VERTEX
  8
1
 10
251.643329336
 20
153.856273394
 42
0.014195300
  0
VERTEX
  8
1
 10
251.228384685
 20
153.710645755
 42
0.014696243
  0
VERTEX
  8
1
 10
250.833793738
 20
153.516896278
 42
0.015369022
  0
VERTEX
  8
1
 10
250.466074739
 20
153.275547551
 42
0.016127723
  0
VERTEX
  8
1
 10
250.133065865
 20
152.988229938
 42
0.017161638
  0
VERTEX
  8
1
 10
249.842995672
 20
152.657317855
 42
0.018105268
  0
VERTEX
  8
1
 10
249.604671341
 20
152.287530332
 42
0.019326823
  0
VERTEX
  8
1
 10
249.426749688
 20
151.884924047
 42
0.020093431
  0
VERTEX
  8
1
 10
249.316361639
 20
151.458901699
 42
0.021056079
  0
VERTEX
  8
1
 10
249.279160613
 20
151.020289852
 42
0.021126803
  0
VERTEX
  8
1
 10
249.316361698
 20
150.581678465
 42
0.021293583
  0
VERTEX
  8
1
 10
249.426747956
 20
150.155656973
 42
0.020505376
  0
VERTEX
  8
1
 10
249.604671563
 20
149.753049505
 42
0.019837918
  0
VERTEX
  8
1
 10
249.843002616
 20
149.383258706
 42
0.018666869
  0
VERTEX
  8
1
 10
250.133064778
 20
149.052350424
 42
0.017651883
  0
VERTEX
  8
1
 10
250.466046906
 20
148.765045430
 42
0.016615467
  0
VERTEX
  8
1
 10
250.833787298
 20
148.523686512
 42
0.015721878
  0
VERTEX
  8
1
 10
251.228481508
 20
148.329888186
 42
0.015011263
  0
VERTEX
  8
1
 10
251.643397052
 20
148.184274929
 42
0.014439065
  0
VERTEX
  8
1
 10
252.072203124
 20
148.087137666
 42
0.014067261
  0
VERTEX
  8
1
 10
252.509153469
 20
148.038572996
 42
0.013851440
  0
VERTEX
  8
1
 10
252.948817545
 20
148.038572996
 42
0.013806673
  0
VERTEX
  8
1
 10
253.385767891
 20
148.087137666
 42
0.013938843
  0
VERTEX
  8
1
 10
253.814573962
 20
148.184274929
 42
0.014233362
  0
VERTEX
  8
1
 10
254.229489507
 20
148.329888186
 42
0.014699814
  0
VERTEX
  8
1
 10
254.624183717
 20
148.523686512
 42
0.015366418
  0
VERTEX
  8
1
 10
254.991924109
 20
148.765045430
 42
0.016131429
  0
VERTEX
  8
1
 10
255.324906237
 20
149.052350424
 42
0.017161488
  0
VERTEX
  8
1
 10
255.614968399
 20
149.383258706
 42
0.018102539
  0
VERTEX
  8
1
 10
255.853299452
 20
149.753049505
 42
0.019327086
  0
VERTEX
  8
1
 10
256.031223058
 20
150.155656973
 42
0.020094598
  0
VERTEX
  8
1
 10
256.141609316
 20
150.581678465
 42
0.021055672
  0
VERTEX
  8
1
 10
256.178810401
 20
151.020289852
 42
0.021126549
  0
VERTEX
  8
1
 10
256.141609375
 20
151.458901699
 42
0.021294335
  0
VERTEX
  8
1
 10
256.031221326
 20
151.884924047
 42
0.020504907
  0
VERTEX
  8
1
 10
255.853299674
 20
152.287530332
 42
0.019836256
  0
VERTEX
  8
1
 10
255.614975342
 20
152.657317855
 42
0.018668466
  0
VERTEX
  8
1
 10
255.324905149
 20
152.988229938
 42
0.017655011
  0
VERTEX
  8
1
 10
254.991896275
 20
153.275547551
 42
0.016612441
  0
VERTEX
  8
1
 10
254.624177277
 20
153.516896278
 42
0.015719902
  0
VERTEX
  8
1
 10
254.229586330
 20
153.710645755
 42
0.015014882
  0
VERTEX
  8
1
 10
253.814641678
 20
153.856273394
 42
0.014420495
  0
VERTEX
  8
1
 10
253.385470052
 20
153.953585192
 42
0.014053310
  0
VERTEX
  8
1
 10
252.948430027
 20
154.002192568
 42
0.013973891
  0
VERTEX
  8
1
 10
252.728985507
 20
154.008077860
  0
VERTEX
  8
1
 10
252.728985507
 20
154.008077860
  0
VERTEX
  8
1
 10
252.728985507
 20
154.008077860
  0
VERTEX
  8
1
 10
252.728985507
 20
154.008077860
  0
VERTEX
  8
1
 10
252.728985507
 20
154.008077860
  0
VERTEX
  8
1
 10
252.728985507
 20
154.008077860
  0
VERTEX
  8
1
 10
252.728985507
 20
154.008077860
  0
VERTEX
  8
1
 10
252.728985507
 20
154.008077860
  0
VERTEX
  8
1
 10
252.728985507
 20
154.008077860
  0
VERTEX
  8
1
 10
252.728985507
 20
154.008077860
  0
VERTEX
  8
1
 10
252.728985507
 20
154.008077860
  0
VERTEX
  8
1
 10
252.728985507
 20
154.008077860
  0
VERTEX
  8
1
 10
252.728985507
 20
154.008077860
  0
VERTEX
  8
1
 10
252.728985507
 20
154.008077860
  0
VERTEX
  8
1
 10
252.728985507
 20
154.008077860
  0
VERTEX
  8
1
 10
252.728985507
 20
154.008077860
  0
VERTEX
  8
1
 10
252.728985507
 20
154.008077860
  0
VERTEX
  8
1
 10
252.728985507
 20
154.008077860
  0
VERTEX
  8
1
 10
252.728985507
 20
154.008077860
  0
VERTEX
  8
1
 10
252.728985507
 20
154.008077860
  0
VERTEX
  8
1
 10
252.728985507
 20
154.008077860
  0
VERTEX
  8
1
 10
252.728985507
 20
154.008077860
  0
VERTEX
  8
1
 10
252.728985507
 20
154.008077860
  0
VERTEX
  8
1
 10
252.728985507
 20
154.008077860
  0
VERTEX
  8
1
 10
252.728985507
 20
154.008077860
  0
VERTEX
  8
1
 10
252.728985507
 20
154.008077860
  0
VERTEX
  8
1
 10
252.728985507
 20
154.008077860
  0
VERTEX
  8
1
 10
252.728985507
 20
154.008077860
  0
VERTEX
  8
1
 10
252.728985507
 20
154.008077860
  0
VERTEX
  8
1
 10
252.728985507
 20
154.008077860
  0
VERTEX
  8
1
 10
252.728985507
 20
154.008077860
  0
VERTEX
  8
1
 10
252.728985507
 20
154.008077860
  0
SEQEND
  8
1
  0
LINE
  8
1
 62
4
  6
CONTINUOUS
 10
252.968985507
 20
151.601933855
 11
252.488985507
 21
151.601933855
  0
LINE
  8
1
 62
4
  6
CONTINUOUS
 10
252.968985507
 20
150.861258334
 11
252.968985507
 21
151.601933855
  0
LINE
  8
1
 62
4
  6
CONTINUOUS
 10
254.209661029
 20
150.361258334
 11
253.468985507
 21
150.361258334
  0
LINE
  8
1
 62
4
  6
CONTINUOUS
 10
254.209661029
 20
149.881258334
 11
254.209661029
 21
150.361258334
  0
LINE
  8
1
 62
4
  6
CONTINUOUS
 10
253.468985507
 20
149.881258334
 11
254.209661029
 21
149.881258334
  0
LINE
  8
1
 62
4
  6
CONTINUOUS
 10
252.968985507
 20
148.940582812
 11
252.968985507
 21
149.381258334
  0
LINE
  8
1
 62
4
  6
CONTINUOUS
 10
252.488985507
 20
148.940582812
 11
252.968985507
 21
148.940582812
  0
POLYLINE
  8
1
 62
7
  6
CONTINUOUS
 66
1
  0
VERTEX
  8
1
 10
276.528772150
 20
164.363711232
  0
VERTEX
  8
1
 10
276.641671337
 20
164.385478699
 42
-0.002112778
  0
VERTEX
  8
1
 10
276.867933756
 20
164.426311798
 42
-0.001810407
  0
VERTEX
  8
1
 10
277.094728143
 20
164.464015273
 42
-0.001442307
  0
VERTEX
  8
1
 10
277.321926129
 20
164.499302432
 42
-0.001002512
  0
VERTEX
  8
1
 10
277.549385714
 20
164.532968601
 42
-0.000562926
  0
VERTEX
  8
1
 10
277.776967765
 20
164.565791839
 42
-0.000258479
  0
VERTEX
  8
1
 10
278.004628867
 20
164.597974417
 42
-0.000542802
  0
VERTEX
  8
1
 10
278.232438833
 20
164.629037438
 42
-0.000827621
  0
VERTEX
  8
1
 10
278.460472530
 20
164.658466703
 42
-0.001084048
  0
VERTEX
  8
1
 10
278.688768414
 20
164.685847119
 42
-0.001250250
  0
VERTEX
  8
1
 10
278.917327388
 20
164.710865829
 42
-0.001416807
  0
VERTEX
  8
1
 10
279.146137072
 20
164.733368939
 42
-0.001053529
  0
VERTEX
  8
1
 10
279.375102788
 20
164.754301318
 42
-0.000276288
  0
VERTEX
  8
1
 10
279.604094229
 20
164.775083626
 42
0.000492533
  0
VERTEX
  8
1
 10
279.833076877
 20
164.795952040
 42
-0.001200235
  0
VERTEX
  8
1
 10
280.062297766
 20
164.813660844
 42
-0.003182578
  0
VERTEX
  8
1
 10
280.177076873
 20
164.820289855
  0
VERTEX
  8
1
 10
280.177076873
 20
164.820289855
  0
VERTEX
  8
1
 10
280.177076873
 20
164.820289855
  0
VERTEX
  8
1
 10
280.177076873
 20
164.820289855
  0
VERTEX
  8
1
 10
280.177076873
 20
164.820289855
  0
VERTEX
  8
1
 10
280.177076873
 20
164.820289855
  0
VERTEX
  8
1
 10
280.177076873
 20
164.820289855
  0
VERTEX
  8
1
 10
280.177076873
 20
164.820289855
  0
VERTEX
  8
1
 10
280.177076873
 20
164.820289855
  0
VERTEX
  8
1
 10
280.177076873
 20
164.820289855
  0
VERTEX
  8
1
 10
280.177076873
 20
164.820289855
  0
VERTEX
  8
1
 10
280.177076873
 20
164.820289855
  0
VERTEX
  8
1
 10
280.177076873
 20
164.820289855
  0
VERTEX
  8
1
 10
280.177076873
 20
164.820289855
  0
VERTEX
  8
1
 10
280.177076873
 20
164.820289855
  0
VERTEX
  8
1
 10
280.177076873
 20
164.820289855
  0
VERTEX
  8
1
 10
280.177076873
 20
164.820289855
  0
VERTEX
  8
1
 10
280.177076873
 20
164.820289855
  0
VERTEX
  8
1
 10
280.177076873
 20
164.820289855
  0
VERTEX
  8
1
 10
280.177076873
 20
164.820289855
  0
VERTEX
  8
1
 10
280.177076873
 20
164.820289855
  0
VERTEX
  8
1
 10
280.177076873
 20
164.820289855
  0
VERTEX
  8
1
 10
280.177076873
 20
164.820289855
  0
VERTEX
  8
1
 10
280.177076873
 20
164.820289855
  0
VERTEX
  8
1
 10
280.177076873
 20
164.820289855
  0
VERTEX
  8
1
 10
280.177076873
 20
164.820289855
  0
VERTEX
  8
1
 10
280.177076873
 20
164.820289855
  0
VERTEX
  8
1
 10
280.177076873
 20
164.820289855
  0
VERTEX
  8
1
 10
280.177076873
 20
164.820289855
  0
VERTEX
  8
1
 10
280.177076873
 20
164.820289855
  0
VERTEX
  8
1
 10
280.177076873
 20
164.820289855
  0
VERTEX
  8
1
 10
280.177076873
 20
164.820289855
  0
SEQEND
  8
1
  0
LINE
  8
1
 62
7
  6
CONTINUOUS
 10
284.028985507
 20
164.820289855
 11
284.028985507
 21
175.670289855
  0
LINE
  8
1
 62
7
  6
CONTINUOUS
 10
276.528985507
 20
153.099921393
 11
276.528985507
 21
142.170289855
  0
LINE
  8
1
 62
7
  6
CONTINUOUS
 10
276.528985507
 20
153.099921393
 11
276.528985507
 21
142.170289855
  0
ARC
  8
1
 62
7
  6
CONTINUOUS
 10
275.412486873
 20
159.419896855
 40
6.417740000
 50
280.018764000
 51
304.158515000
  0
ARC
  8
1
 62
7
  6
CONTINUOUS
 10
277.645613873
 20
159.420086855
 40
6.418106000
 50
100.021784000
 51
259.977657000
  0
ARC
  8
1
 62
7
  6
CONTINUOUS
 10
277.278828873
 20
159.420289855
 40
5.000000000
 50
98.627584000
 51
261.372355000
  0
LINE
  8
2
 62
7
  6
CONTINUOUS
 10
280.177076873
 20
164.820289855
 11
312.144701218
 21
164.820289855
  0
LINE
  8
2
 62
7
  6
CONTINUOUS
 10
280.177076873
 20
154.020289855
 11
312.144701218
 21
154.020289855
  0
ARC
  8
1
 62
4
  6
CONTINUOUS
 10
318.347395615
 20
158.220289855
 40
3.375000000
 50
306.869897646
 51
53.130102354
  0
ARC
  8
1
 62
4
  6
CONTINUOUS
 10
322.397395615
 20
163.620289855
 40
3.375000000
 50
126.869897646
 51
233.130102354
  0
ARC
  8
1
 62
4
  6
CONTINUOUS
 10
318.347395615
 20
163.620289855
 40
3.375000000
 50
306.869897646
 51
53.130102354
  0
LINE
  8
1
 62
4
  6
CONTINUOUS
 10
251.248309986
 20
149.881258334
 11
251.988985507
 21
149.881258334
  0
LINE
  8
1
 62
4
  6
CONTINUOUS
 10
251.248309986
 20
150.361258334
 11
251.248309986
 21
149.881258334
  0
LINE
  8
1
 62
4
  6
CONTINUOUS
 10
252.488985507
 20
149.381258334
 11
252.488985507
 21
148.940582812
  0
ARC
  8
1
 62
4
  6
CONTINUOUS
 10
310.119701218
 20
156.720289855
 40
3.375000000
 50
306.869897646
 51
53.130102354
  0
ARC
  8
1
 62
4
  6
CONTINUOUS
 10
314.169701218
 20
162.120289855
 40
3.375000000
 50
126.869897646
 51
233.130102354
  0
ARC
  8
1
 62
4
  6
CONTINUOUS
 10
310.119701218
 20
162.120289855
 40
3.375000000
 50
306.869897646
 51
53.130102354
  0
LINE
  8
1
 62
4
  6
CONTINUOUS
 10
251.988985507
 20
150.361258334
 11
251.248309986
 21
150.361258334
  0
LINE
  8
1
 62
7
  6
CONTINUOUS
 10
256.728820691
 20
176.670289855
 11
276.528985507
 21
176.670289855
  0
ARC
  8
1
 62
7
  6
CONTINUOUS
 10
252.728985507
 20
173.438471855
 40
4.431818000
 50
109.478568000
 51
135.995095000
  0
ARC
  8
1
 62
7
  6
CONTINUOUS
 10
252.728985507
 20
173.438471855
 40
4.431818000
 50
44.019922000
 51
70.521432000
  0
ARC
  8
1
 62
7
  6
CONTINUOUS
 10
252.689508507
 20
173.465380855
 40
4.386633000
 50
99.292030000
 51
109.132366000
  0
ARC
  8
1
 62
7
  6
CONTINUOUS
 10
252.358020507
 20
174.709729855
 40
3.107652000
 50
92.178745000
 51
96.964305000
  0
ARC
  8
1
 62
7
  6
CONTINUOUS
 10
252.138706507
 20
176.693535855
 40
1.126153000
 50
77.494999000
 51
84.845801000
  0
ARC
  8
1
 62
7
  6
CONTINUOUS
 10
251.744574507
 20
177.319046855
 40
0.794742000
 50
21.450621000
 51
36.607256000
  0
ARC
  8
1
 62
7
  6
CONTINUOUS
 10
252.728985507
 20
173.309211855
 40
4.307429000
 50
86.743092000
 51
93.256908000
  0
ARC
  8
1
 62
7
  6
CONTINUOUS
 10
253.713396507
 20
177.319046855
 40
0.794742000
 50
143.392744000
 51
158.549379000
  0
ARC
  8
1
 62
7
  6
CONTINUOUS
 10
253.319263507
 20
176.693535855
 40
1.126153000
 50
95.154199000
 51
102.505001000
  0
ARC
  8
1
 62
7
  6
CONTINUOUS
 10
253.099950507
 20
174.709729855
 40
3.107652000
 50
83.035695000
 51
87.821255000
  0
ARC
  8
1
 62
7
  6
CONTINUOUS
 10
252.768461507
 20
173.465380855
 40
4.386633000
 50
70.867634000
 51
80.707970000
  0
LINE
  8
1
 62
7
  6
CONTINUOUS
 10
254.206793507
 20
177.616640855
 11
254.206187507
 21
177.609712855
  0
LINE
  8
1
 62
7
  6
CONTINUOUS
 10
251.251782507
 20
177.609712855
 11
251.251176507
 21
177.616640855
  0
ARC
  8
1
 62
7
  6
CONTINUOUS
 10
252.728902507
 20
193.623668855
 40
17.418852000
 50
256.724618790
 51
283.275381210
  0
LINE
  8
2
 62
1
  6
CENTER
 10
241.028985507
 20
173.920289855
 11
248.028985507
 21
173.920289855
  0
LINE
  8
2
 62
7
  6
CONTINUOUS
 10
246.028985507
 20
176.370289855
 11
246.028985507
 21
171.470289855
  0
LINE
  8
1
 62
7
  6
CONTINUOUS
 10
284.028985507
 20
143.170289855
 11
284.028985507
 21
154.020289855
  0
LINE
  8
1
 62
7
  6
CONTINUOUS
 10
276.528985507
 20
142.170289855
 11
283.028985507
 21
142.170289855
  0
ARC
  8
2
 62
7
  6
CONTINUOUS
 10
245.728985507
 20
171.470289855
 40
0.300000000
 50
270.000000000
 51
0.000000000
  0
LINE
  8
2
 62
7
  6
CONTINUOUS
 10
245.728985507
 20
171.170289855
 11
243.028985507
 21
171.170289855
  0
ARC
  8
2
 62
7
  6
CONTINUOUS
 10
245.728985507
 20
176.370289855
 40
0.300000000
 50
0.000000000
 51
90.000000000
  0
LINE
  8
2
 62
7
  6
CONTINUOUS
 10
245.728985507
 20
176.670289855
 11
243.028985507
 21
176.670289855
  0
LINE
  8
2
 62
7
  6
CONTINUOUS
 10
245.728985507
 20
142.170289855
 11
243.028985507
 21
142.170289855
  0
ARC
  8
2
 62
7
  6
CONTINUOUS
 10
245.728985507
 20
142.470289855
 40
0.300000000
 50
270.000000000
 51
0.000000000
  0
LINE
  8
2
 62
7
  6
CONTINUOUS
 10
245.728985507
 20
147.670289855
 11
243.028985507
 21
147.670289855
  0
ARC
  8
2
 62
7
  6
CONTINUOUS
 10
245.728985507
 20
147.370289855
 40
0.300000000
 50
0.000000000
 51
90.000000000
  0
LINE
  8
2
 62
7
  6
CONTINUOUS
 10
246.028985507
 20
142.470289855
 11
246.028985507
 21
147.370289855
  0
LINE
  8
1
 62
7
  6
CONTINUOUS
 10
284.028985507
 20
143.170289855
 11
283.028985507
 21
142.170289855
  0
LINE
  8
1
 62
7
  6
CONTINUOUS
 10
283.028985507
 20
176.670289855
 11
284.028985507
 21
175.670289855
  0
LINE
  8
1
 62
7
  6
CONTINUOUS
 10
283.028985507
 20
176.670289855
 11
276.528985507
 21
176.670289855
  0
LINE
  8
1
 62
7
  6
CONTINUOUS
 10
276.528985507
 20
142.170289855
 11
243.028985507
 21
142.170289855
  0
LINE
  8
1
 62
7
  6
CONTINUOUS
 10
276.528985507
 20
176.670289855
 11
276.528985507
 21
165.740263214
  0
LINE
  8
1
 62
7
  6
CONTINUOUS
 10
243.028985507
 20
176.670289855
 11
248.728984323
 21
176.670289855
  0
LINE
  8
1
 62
7
  6
CONTINUOUS
 10
276.528985507
 20
176.670289855
 11
276.528985507
 21
165.740263214
  0
LINE
  8
2
 62
1
  6
CENTER
 10
241.028985507
 20
144.920289855
 11
248.028985507
 21
144.920289855
  0
LINE
  8
1
 62
7
  6
CONTINUOUS
 10
243.028985507
 20
177.920289855
 11
240.028985507
 21
177.920289855
  0
LINE
  8
1
 62
7
  6
CONTINUOUS
 10
243.028985507
 20
140.920289855
 11
243.028985507
 21
177.920289855
  0
LINE
  8
1
 62
7
  6
CONTINUOUS
 10
240.028985507
 20
140.920289855
 11
243.028985507
 21
140.920289855
  0
LINE
  8
1
 62
7
  6
CONTINUOUS
 10
240.028985507
 20
177.920289855
 11
240.028985507
 21
140.920289855
  0
LINE
  8
1
 62
7
  6
CONTINUOUS
 10
248.778985507
 20
189.220289855
 11
240.729846507
 21
189.220289855
  0
TEXT
  8
1
 62
3
  6
CONTINUOUS
 72
5
 10
133.978985507
 20
79.436289855
 40
4.000000000
  1
ＥＭＳ－６０４０Ｋ
 41
0.834566215
 11
169.178985507
 21
79.436289855
  0
DIMENSION
  8
1
 62
4
  6
CONTINUOUS
  2
*D180
 70
0
 10
217.028985507
 20
101.420289855
 11
140.278985507
 21
101.420289855
 14
217.028985507
 24
129.470289855
 13
63.528985507
 23
139.670289855
 50
0.000000000
  0
LINE
  8
1
 62
7
  6
CONTINUOUS
 10
240.729846507
 20
179.220289855
 11
248.778985507
 21
179.220289855
  0
LINE
  8
2
 62
7
  6
CONTINUOUS
 10
251.928985507
 20
181.220289855
 11
303.387820309
 21
181.220289855
  0
DIMENSION
  8
1
 62
4
  6
CONTINUOUS
  2
*D183
 70
0
 10
284.028985507
 20
93.420289855
 11
262.028985507
 21
93.420289855
 14
284.028985507
 24
143.170289855
 13
240.028985507
 23
129.720289855
 50
0.000000000
  0
DIMENSION
  8
1
 62
4
  6
CONTINUOUS
  2
*D184
 70
0
 10
240.028985507
 20
93.420289855
 11
151.778985507
 21
93.420289855
 14
240.028985507
 24
129.720289855
 13
63.528985507
 23
139.670289855
 50
0.000000000
  0
DIMENSION
  8
1
 62
4
  6
CONTINUOUS
  2
*D185
 70
0
 10
108.349493583
 20
109.420289855
 11
85.939239545
 21
109.420289855
 14
108.349493583
 24
129.420289855
 13
63.528985507
 23
139.670289855
 50
0.000000000
  0
LINE
  8
2
 62
7
  6
CONTINUOUS
 10
251.928985507
 20
187.220289855
 11
303.387820309
 21
187.220289855
  0
LINE
  8
6
 62
1
  6
CENTER
 10
238.028985507
 20
184.220289855
 11
303.387820309
 21
184.220289855
  0
LINE
  8
3
 62
1
  6
CENTER
 10
252.728985507
 20
174.204816855
 11
252.728985507
 21
179.616640855
  0
LINE
  8
1
 62
7
  6
CONTINUOUS
 10
240.729846507
 20
189.220289855
 11
240.128985507
 21
188.220289855
  0
LINE
  8
1
 62
7
  6
CONTINUOUS
 10
240.128985507
 20
180.220289855
 11
240.729846507
 21
179.220289855
  0
LINE
  8
1
 62
7
  6
CONTINUOUS
 10
248.778985507
 20
179.270289855
 11
249.828985507
 21
179.270289855
  0
LINE
  8
1
 62
7
  6
CONTINUOUS
 10
249.828985507
 20
189.170289855
 11
248.778985507
 21
189.170289855
  0
LINE
  8
1
 62
7
  6
CONTINUOUS
 10
250.428985507
 20
179.270289855
 11
251.428985507
 21
179.270289855
  0
LINE
  8
1
 62
7
  6
CONTINUOUS
 10
251.428985507
 20
189.170289855
 11
250.428985507
 21
189.170289855
  0
ARC
  8
1
 62
7
  6
CONTINUOUS
 10
251.428985507
 20
179.770289855
 40
0.500000000
 50
270.000000000
 51
0.000000000
  0
ARC
  8
1
 62
7
  6
CONTINUOUS
 10
251.428985507
 20
188.670289855
 40
0.500000000
 50
0.000000000
 51
90.000000000
  0
LINE
  8
1
 62
7
  6
CONTINUOUS
 10
240.028985507
 20
180.220289855
 11
240.128985507
 21
180.220289855
  0
LINE
  8
1
 62
7
  6
CONTINUOUS
 10
240.128985507
 20
188.220289855
 11
240.028985507
 21
188.220289855
  0
LINE
  8
1
 62
7
  6
CONTINUOUS
 10
249.828985507
 20
180.980289855
 11
250.428985507
 21
180.980289855
  0
LINE
  8
1
 62
7
  6
CONTINUOUS
 10
250.428985507
 20
187.460289855
 11
249.828985507
 21
187.460289855
  0
DIMENSION
  8
1
 62
4
  6
CONTINUOUS
  2
*D201
 70
0
 10
63.528985507
 20
93.420289855
 11
54.343234200
 21
93.420289855
 14
63.528985507
 24
139.670289855
 13
45.157482892
 23
152.797640124
 50
0.000000000
  0
LINE
  8
1
 62
7
  6
CONTINUOUS
 10
240.729846507
 20
179.220289855
 11
240.729846507
 21
189.220289855
  0
DIMENSION
  8
1
 62
4
  6
CONTINUOUS
  2
*D203
 70
1
 10
9.157482892
 20
129.420289855
 11
9.157482892
 21
159.420289855
 14
108.349493583
 24
129.420289855
 13
108.349493583
 23
189.420289855
 50
90.000000000
  0
LINE
  8
1
 62
7
  6
CONTINUOUS
 10
248.778985507
 20
179.220289855
 11
248.778985507
 21
189.220289855
  0
DIMENSION
  8
1
 62
4
  6
CONTINUOUS
  2
*D205
 70
1
 10
17.157482892
 20
139.470289855
 11
17.157482892
 21
159.420289855
 14
63.728985507
 24
139.470289855
 13
63.728985507
 23
179.370289855
 50
90.000000000
  0
LINE
  8
1
 62
7
  6
CONTINUOUS
 10
240.128985507
 20
180.220289855
 11
240.128985507
 21
188.220289855
  0
DIMENSION
  8
1
 62
4
  6
CONTINUOUS
  2
*D207
 70
1
 10
25.157482892
 20
149.970289855
 11
25.157482892
 21
159.420289855
 14
49.322546402
 24
149.970289855
 13
49.322546402
 23
168.870289855
 50
90.000000000
  0
LINE
  8
1
 62
7
  6
CONTINUOUS
 10
249.828985507
 20
179.270289855
 11
249.828985507
 21
189.170289855
  0
LINE
  8
1
 62
4
  6
CONTINUOUS
 10
49.857482892
 20
164.200448898
 11
53.357482892
 21
154.640130812
  0
LINE
  8
1
 62
7
  6
CONTINUOUS
 10
250.428985507
 20
179.270289855
 11
250.428985507
 21
189.170289855
  0
LINE
  8
1
 62
4
  6
CONTINUOUS
 10
53.357482892
 20
164.200448898
 11
49.857482892
 21
154.640130812
  0
LINE
  8
1
 62
7
  6
CONTINUOUS
 10
251.928985507
 20
179.770289855
 11
251.928985507
 21
188.670289855
  0
ARC
  8
1
 62
4
  6
CONTINUOUS
 10
302.262820309
 20
185.720289855
 40
1.875000000
 50
306.869897646
 51
53.130102354
  0
ARC
  8
1
 62
4
  6
CONTINUOUS
 10
304.512820309
 20
185.720289855
 40
1.875000000
 50
126.869897646
 51
233.130102354
  0
ARC
  8
1
 62
4
  6
CONTINUOUS
 10
302.262820309
 20
182.720289855
 40
1.875000000
 50
306.869897646
 51
53.130102354
  0
LINE
  8
1
 62
4
  6
CONTINUOUS
 10
252.488985507
 20
151.601933855
 11
252.488985507
 21
150.861258334
  0
LINE
  8
2
 62
7
  6
CONTINUOUS
 10
284.028985507
 20
167.420289855
 11
287.628985507
 21
167.420289855
  0
ARC
  8
2
 62
7
  6
CONTINUOUS
 10
287.628985507
 20
151.020289855
 40
0.400000000
 50
0.000000000
 51
90.000000000
  0
LINE
  8
2
 62
1
  6
CENTER
 10
282.028985507
 20
147.920289855
 11
290.028985507
 21
147.920289855
  0
LINE
  8
2
 62
7
  6
CONTINUOUS
 10
288.028985507
 20
144.820289855
 11
288.028985507
 21
151.020289855
  0
ARC
  8
2
 62
7
  6
CONTINUOUS
 10
287.628985507
 20
144.820289855
 40
0.400000000
 50
270.000000000
 51
0.000000000
  0
LINE
  8
2
 62
7
  6
CONTINUOUS
 10
284.028985507
 20
144.420289855
 11
287.628985507
 21
144.420289855
  0
LINE
  8
2
 62
7
  6
CONTINUOUS
 10
284.028985507
 20
151.420289855
 11
287.628985507
 21
151.420289855
  0
LINE
  8
2
 62
7
  6
CONTINUOUS
 10
284.028985507
 20
174.420289855
 11
287.628985507
 21
174.420289855
  0
ARC
  8
2
 62
7
  6
CONTINUOUS
 10
287.628985507
 20
174.020289855
 40
0.400000000
 50
0.000000000
 51
90.000000000
  0
LINE
  8
2
 62
7
  6
CONTINUOUS
 10
288.028985507
 20
174.020289855
 11
288.028985507
 21
167.820289855
  0
LINE
  8
2
 62
1
  6
CENTER
 10
282.028985507
 20
170.920289855
 11
290.028985507
 21
170.920289855
  0
ARC
  8
2
 62
7
  6
CONTINUOUS
 10
287.628985507
 20
167.820289855
 40
0.400000000
 50
270.000000000
 51
0.000000000
  0
ARC
  8
1
 62
4
  6
CONTINUOUS
 10
251.988985507
 20
149.381258334
 40
0.500000000
 50
0.000000000
 51
90.000000000
  0
ARC
  8
1
 62
4
  6
CONTINUOUS
 10
253.468985507
 20
149.381258334
 40
0.500000000
 50
90.000000000
 51
180.000000000
  0
LINE
  8
1
 62
7
  6
CONTINUOUS
 10
313.274162344
 20
155.520289855
 11
320.372395615
 21
155.520289855
  0
ARC
  8
1
 62
4
  6
CONTINUOUS
 10
253.468985507
 20
150.861258334
 40
0.500000000
 50
180.000000000
 51
270.000000000
  0
LINE
  8
2
 62
7
  6
CONTINUOUS
 10
284.028828873
 20
166.320289855
 11
320.372395615
 21
166.320289855
  0
ARC
  8
1
 62
4
  6
CONTINUOUS
 10
251.988985507
 20
150.861258334
 40
0.500000000
 50
270.000000000
 51
0.000000000
  0
DIMENSION
  8
1
 62
4
  6
CONTINUOUS
  2
*D235
 70
0
 10
240.028985507
 20
101.420289855
 11
228.528985507
 21
101.420289855
 14
240.028985507
 24
129.720289855
 13
217.028985507
 23
129.470289855
 50
0.000000000
  0
POLYLINE
  8
1
 62
7
  6
CONTINUOUS
 66
1
  0
VERTEX
  8
1
 10
276.528772150
 20
154.476868478
  0
VERTEX
  8
1
 10
276.641671337
 20
154.455101011
 42
0.002112779
  0
VERTEX
  8
1
 10
276.867933756
 20
154.414267912
 42
0.001810407
  0
VERTEX
  8
1
 10
277.094728143
 20
154.376564437
 42
0.001442306
  0
VERTEX
  8
1
 10
277.321926129
 20
154.341277278
 42
0.001002512
  0
VERTEX
  8
1
 10
277.549385714
 20
154.307611110
 42
0.000562926
  0
VERTEX
  8
1
 10
277.776967765
 20
154.274787871
 42
0.000258479
  0
VERTEX
  8
1
 10
278.004628867
 20
154.242605293
 42
0.000542802
  0
VERTEX
  8
1
 10
278.232438833
 20
154.211542272
 42
0.000827621
  0
VERTEX
  8
1
 10
278.460472530
 20
154.182113007
 42
0.001084047
  0
VERTEX
  8
1
 10
278.688768414
 20
154.154732591
 42
0.001250249
  0
VERTEX
  8
1
 10
278.917327388
 20
154.129713881
 42
0.001416807
  0
VERTEX
  8
1
 10
279.146137072
 20
154.107210771
 42
0.001053529
  0
VERTEX
  8
1
 10
279.375102788
 20
154.086278392
 42
0.000276288
  0
VERTEX
  8
1
 10
279.604094229
 20
154.065496085
 42
-0.000492532
  0
VERTEX
  8
1
 10
279.833076877
 20
154.044627670
 42
0.001200234
  0
VERTEX
  8
1
 10
280.062297766
 20
154.026918866
 42
0.003182578
  0
VERTEX
  8
1
 10
280.177076873
 20
154.020289855
  0
VERTEX
  8
1
 10
280.177076873
 20
154.020289855
  0
VERTEX
  8
1
 10
280.177076873
 20
154.020289855
  0
VERTEX
  8
1
 10
280.177076873
 20
154.020289855
  0
VERTEX
  8
1
 10
280.177076873
 20
154.020289855
  0
VERTEX
  8
1
 10
280.177076873
 20
154.020289855
  0
VERTEX
  8
1
 10
280.177076873
 20
154.020289855
  0
VERTEX
  8
1
 10
280.177076873
 20
154.020289855
  0
VERTEX
  8
1
 10
280.177076873
 20
154.020289855
  0
VERTEX
  8
1
 10
280.177076873
 20
154.020289855
  0
VERTEX
  8
1
 10
280.177076873
 20
154.020289855
  0
VERTEX
  8
1
 10
280.177076873
 20
154.020289855
  0
VERTEX
  8
1
 10
280.177076873
 20
154.020289855
  0
VERTEX
  8
1
 10
280.177076873
 20
154.020289855
  0
VERTEX
  8
1
 10
280.177076873
 20
154.020289855
  0
VERTEX
  8
1
 10
280.177076873
 20
154.020289855
  0
VERTEX
  8
1
 10
280.177076873
 20
154.020289855
  0
VERTEX
  8
1
 10
280.177076873
 20
154.020289855
  0
VERTEX
  8
1
 10
280.177076873
 20
154.020289855
  0
VERTEX
  8
1
 10
280.177076873
 20
154.020289855
  0
VERTEX
  8
1
 10
280.177076873
 20
154.020289855
  0
VERTEX
  8
1
 10
280.177076873
 20
154.020289855
  0
VERTEX
  8
1
 10
280.177076873
 20
154.020289855
  0
VERTEX
  8
1
 10
280.177076873
 20
154.020289855
  0
VERTEX
  8
1
 10
280.177076873
 20
154.020289855
  0
VERTEX
  8
1
 10
280.177076873
 20
154.020289855
  0
VERTEX
  8
1
 10
280.177076873
 20
154.020289855
  0
VERTEX
  8
1
 10
280.177076873
 20
154.020289855
  0
VERTEX
  8
1
 10
280.177076873
 20
154.020289855
  0
VERTEX
  8
1
 10
280.177076873
 20
154.020289855
  0
VERTEX
  8
1
 10
280.177076873
 20
154.020289855
  0
VERTEX
  8
1
 10
280.177076873
 20
154.020289855
  0
SEQEND
  8
1
  0
ARC
  8
1
 62
7
  6
CONTINUOUS
 10
275.412486873
 20
159.420682855
 40
6.417740000
 50
55.696877736
 51
79.981236000
  0
ENDSEC
  0
EOF
