  0
SECTION
  2
HEADER
  9
$ACADVER
  1
AC1015
  9
$ACADMAINTVER
 70
     6
  9
$DWGCODEPAGE
  3
ANSI_932
  9
$INSBASE
 10
-27.0931479332116
 20
2481.060073401526
 30
0.0
  9
$EXTMIN
 10
-77.33765801800641
 20
2197.857674543383
 30
0.0
  9
$EXTMAX
 10
230.632661533147
 20
2370.905048281959
 30
0.0
  9
$LIMMIN
 10
-77.33765801800641
 20
2197.857674543383
  9
$LIMMAX
 10
230.632661533147
 20
2370.905048281959
  9
$ORTHOMODE
 70
     0
  9
$REGENMODE
 70
     0
  9
$FILLMODE
 70
     1
  9
$QTEXTMODE
 70
     0
  9
$MIRRTEXT
 70
     1
  9
$LTSCALE
 40
1.0
  9
$ATTMODE
 70
     1
  9
$TEXTSIZE
 40
3.5
  9
$TRACEWID
 40
0.05
  9
$TEXTSTYLE
  7
Standard
  9
$CLAYER
  8
無題001
  9
$CELTYPE
  6
Continuous
  9
$CECOLOR
 62
     7
  9
$CELTSCALE
 40
1.0
  9
$DISPSILH
 70
     0
  9
$DIMSCALE
 40
1.0
  9
$DIMASZ
 40
2.0
  9
$DIMEXO
 40
0.0
  9
$DIMDLI
 40
10.0
  9
$DIMRND
 40
0.0
  9
$DIMDLE
 40
1.0
  9
$DIMEXE
 40
1.0
  9
$DIMTP
 40
0.0
  9
$DIMTM
 40
0.0
  9
$DIMTXT
 40
3.5
  9
$DIMCEN
 40
0.09
  9
$DIMTSZ
 40
0.0
  9
$DIMTOL
 70
     0
  9
$DIMLIM
 70
     0
  9
$DIMTIH
 70
     0
  9
$DIMTOH
 70
     0
  9
$DIMSE1
 70
     0
  9
$DIMSE2
 70
     0
  9
$DIMTAD
 70
     1
  9
$DIMZIN
 70
     8
  9
$DIMBLK
  1
OPEN30
  9
$DIMASO
 70
     1
  9
$DIMSHO
 70
     0
  9
$DIMPOST
  1

  9
$DIMAPOST
  1

  9
$DIMALT
 70
     0
  9
$DIMALTD
 70
     3
  9
$DIMALTF
 40
25.4
  9
$DIMLFAC
 40
1.0
  9
$DIMTOFL
 70
     0
  9
$DIMTVP
 40
0.0
  9
$DIMTIX
 70
     0
  9
$DIMSOXD
 70
     0
  9
$DIMSAH
 70
     0
  9
$DIMBLK1
  1
OPEN30
  9
$DIMBLK2
  1
OPEN30
  9
$DIMSTYLE
  2
Standard
  9
$DIMCLRD
 70
     4
  9
$DIMCLRE
 70
     4
  9
$DIMCLRT
 70
     4
  9
$DIMTFAC
 40
0.5
  9
$DIMGAP
 40
0.784
  9
$DIMJUST
 70
     0
  9
$DIMSD1
 70
     0
  9
$DIMSD2
 70
     0
  9
$DIMTOLJ
 70
     1
  9
$DIMTZIN
 70
     0
  9
$DIMALTZ
 70
     0
  9
$DIMALTTZ
 70
     0
  9
$DIMUPT
 70
     0
  9
$DIMDEC
 70
     3
  9
$DIMTDEC
 70
     3
  9
$DIMALTU
 70
     2
  9
$DIMALTTD
 70
     2
  9
$DIMTXSTY
  7
WinFont1
  9
$DIMAUNIT
 70
     0
  9
$DIMADEC
 70
     3
  9
$DIMALTRND
 40
0.0
  9
$DIMAZIN
 70
     2
  9
$DIMDSEP
 70
    46
  9
$DIMATFIT
 70
     3
  9
$DIMFRAC
 70
     0
  9
$DIMLDRBLK
  1

  9
$DIMLUNIT
 70
     2
  9
$DIMLWD
 70
    -1
  9
$DIMLWE
 70
    -1
  9
$DIMTMOVE
 70
     0
  9
$LUNITS
 70
     2
  9
$LUPREC
 70
     4
  9
$SKETCHINC
 40
0.1
  9
$FILLETRAD
 40
0.0
  9
$AUNITS
 70
     0
  9
$AUPREC
 70
     0
  9
$MENU
  1
ACAD
  9
$ELEVATION
 40
0.0
  9
$PELEVATION
 40
0.0
  9
$THICKNESS
 40
0.0
  9
$LIMCHECK
 70
     0
  9
$CHAMFERA
 40
0.0
  9
$CHAMFERB
 40
0.0
  9
$CHAMFERC
 40
0.0
  9
$CHAMFERD
 40
0.0
  9
$SKPOLY
 70
     0
  9
$TDCREATE
 40
5565253.375
  9
$TDUCREATE
 40
5565253.0
  9
$TDUPDATE
 40
2459780.558150636
  9
$TDUUPDATE
 40
2459780.183150636
  9
$TDINDWG
 40
0.0
  9
$TDUSRTIMER
 40
0.0
  9
$USRTIMER
 70
     1
  9
$ANGBASE
 50
0.0
  9
$ANGDIR
 70
     0
  9
$PDMODE
 70
    65
  9
$PDSIZE
 40
0.2
  9
$PLINEWID
 40
0.0
  9
$SPLFRAME
 70
     0
  9
$SPLINETYPE
 70
     6
  9
$SPLINESEGS
 70
     8
  9
$HANDSEED
  5
3D3
  9
$SURFTAB1
 70
     6
  9
$SURFTAB2
 70
     6
  9
$SURFTYPE
 70
     6
  9
$SURFU
 70
     6
  9
$SURFV
 70
     6
  9
$UCSBASE
  2

  9
$UCSNAME
  2

  9
$UCSORG
 10
0.0
 20
0.0
 30
0.0
  9
$UCSXDIR
 10
1.0
 20
0.0
 30
0.0
  9
$UCSYDIR
 10
0.0
 20
1.0
 30
0.0
  9
$UCSORTHOREF
  2

  9
$UCSORTHOVIEW
 70
     0
  9
$UCSORGTOP
 10
0.0
 20
0.0
 30
0.0
  9
$UCSORGBOTTOM
 10
0.0
 20
0.0
 30
0.0
  9
$UCSORGLEFT
 10
0.0
 20
0.0
 30
0.0
  9
$UCSORGRIGHT
 10
0.0
 20
0.0
 30
0.0
  9
$UCSORGFRONT
 10
0.0
 20
0.0
 30
0.0
  9
$UCSORGBACK
 10
0.0
 20
0.0
 30
0.0
  9
$PUCSBASE
  2

  9
$PUCSNAME
  2

  9
$PUCSORG
 10
0.0
 20
0.0
 30
0.0
  9
$PUCSXDIR
 10
1.0
 20
0.0
 30
0.0
  9
$PUCSYDIR
 10
0.0
 20
1.0
 30
0.0
  9
$PUCSORTHOREF
  2

  9
$PUCSORTHOVIEW
 70
     0
  9
$PUCSORGTOP
 10
0.0
 20
0.0
 30
0.0
  9
$PUCSORGBOTTOM
 10
0.0
 20
0.0
 30
0.0
  9
$PUCSORGLEFT
 10
0.0
 20
0.0
 30
0.0
  9
$PUCSORGRIGHT
 10
0.0
 20
0.0
 30
0.0
  9
$PUCSORGFRONT
 10
0.0
 20
0.0
 30
0.0
  9
$PUCSORGBACK
 10
0.0
 20
0.0
 30
0.0
  9
$USERI1
 70
     0
  9
$USERI2
 70
     0
  9
$USERI3
 70
     0
  9
$USERI4
 70
     0
  9
$USERI5
 70
     0
  9
$USERR1
 40
0.0
  9
$USERR2
 40
0.0
  9
$USERR3
 40
0.0
  9
$USERR4
 40
0.0
  9
$USERR5
 40
0.0
  9
$WORLDVIEW
 70
     1
  9
$SHADEDGE
 70
     3
  9
$SHADEDIF
 70
    70
  9
$TILEMODE
 70
     1
  9
$MAXACTVP
 70
    64
  9
$PINSBASE
 10
0.0
 20
0.0
 30
0.0
  9
$PLIMCHECK
 70
     0
  9
$PEXTMIN
 10
1.000000000000000E+20
 20
1.000000000000000E+20
 30
1.000000000000000E+20
  9
$PEXTMAX
 10
-1.000000000000000E+20
 20
-1.000000000000000E+20
 30
-1.000000000000000E+20
  9
$PLIMMIN
 10
0.0
 20
0.0
  9
$PLIMMAX
 10
12.0
 20
9.0
  9
$UNITMODE
 70
     0
  9
$VISRETAIN
 70
     1
  9
$PLINEGEN
 70
     0
  9
$PSLTSCALE
 70
     1
  9
$TREEDEPTH
 70
  3020
  9
$CMLSTYLE
  2
Standard
  9
$CMLJUST
 70
     0
  9
$CMLSCALE
 40
1.0
  9
$PROXYGRAPHICS
 70
     1
  9
$MEASUREMENT
 70
     0
  9
$CELWEIGHT
370
    -1
  9
$ENDCAPS
280
     0
  9
$JOINSTYLE
280
     0
  9
$LWDISPLAY
290
     0
  9
$INSUNITS
 70
     1
  9
$HYPERLINKBASE
  1

  9
$STYLESHEET
  1

  9
$XEDIT
290
     1
  9
$CEPSNTYPE
380
     0
  9
$PSTYLEMODE
290
     1
  9
$FINGERPRINTGUID
  2
{ee374c34-8b6b-4619-815f-ef6f093e5987}
  9
$VERSIONGUID
  2
{FAEB1C32-E019-11D5-929B-00C0DF256EC4}
  9
$EXTNAMES
290
     1
  9
$PSVPSCALE
 40
0.0
  9
$OLESTARTUP
290
     0
  0
ENDSEC
  0
SECTION
  2
CLASSES
  0
CLASS
  1
ACDBDICTIONARYWDFLT
  2
AcDbDictionaryWithDefault
  3
ObjectDBX Classes
 90
        0
280
     0
281
     0
  0
CLASS
  1
VISUALSTYLE
  2
AcDbVisualStyle
  3
ObjectDBX Classes
 90
     4095
280
     0
281
     0
  0
CLASS
  1
MATERIAL
  2
AcDbMaterial
  3
ObjectDBX Classes
 90
     1153
280
     0
281
     0
  0
CLASS
  1
SCALE
  2
AcDbScale
  3
ObjectDBX Classes
 90
     1153
280
     0
281
     0
  0
CLASS
  1
TABLESTYLE
  2
AcDbTableStyle
  3
ObjectDBX Classes
 90
     4095
280
     0
281
     0
  0
CLASS
  1
MLEADERSTYLE
  2
AcDbMLeaderStyle
  3
ACDB_MLEADERSTYLE_CLASS
 90
     4095
280
     0
281
     0
  0
CLASS
  1
SUN
  2
AcDbSun
  3
SCENEOE
 90
     1153
280
     0
281
     0
  0
CLASS
  1
DICTIONARYVAR
  2
AcDbDictionaryVar
  3
ObjectDBX Classes
 90
        0
280
     0
281
     0
  0
CLASS
  1
ACDBPLACEHOLDER
  2
AcDbPlaceHolder
  3
ObjectDBX Classes
 90
        0
280
     0
281
     0
  0
CLASS
  1
LAYOUT
  2
AcDbLayout
  3
ObjectDBX Classes
 90
        0
280
     0
281
     0
  0
ENDSEC
  0
SECTION
  2
TABLES
  0
TABLE
  2
VPORT
  5
8
102
{ACAD_XDICTIONARY
360
396
102
}
330
0
100
AcDbSymbolTable
 70
     1
  0
VPORT
  5
29
330
8
100
AcDbSymbolTableRecord
100
AcDbViewportTableRecord
  2
*Active
 70
     0
 10
0.0
 20
0.0
 11
1.0
 21
1.0
 12
153.9851597755767
 22
86.52368686928799
 13
0.0
 23
0.0
 14
0.5
 24
0.5
 15
0.5
 25
0.5
 16
0.0
 26
0.0
 36
1.0
 17
0.0
 27
0.0
 37
0.0
 40
173.047373738576
 41
1.779687913764046
 42
50.0
 43
0.0
 44
0.0
 50
0.0
 51
0.0
 71
     0
 72
  1000
 73
     1
 74
     3
 75
     0
 76
     0
 77
     0
 78
     0
281
     0
 65
     1
110
0.0
120
0.0
130
0.0
111
1.0
121
0.0
131
0.0
112
0.0
122
1.0
132
0.0
 79
     0
146
0.0
  0
ENDTAB
  0
TABLE
  2
LTYPE
  5
5
330
0
100
AcDbSymbolTable
 70
    17
  0
LTYPE
  5
14
330
5
100
AcDbSymbolTableRecord
100
AcDbLinetypeTableRecord
  2
ByBlock
 70
     0
  3

 72
    65
 73
     0
 40
0.0
  0
LTYPE
  5
15
330
5
100
AcDbSymbolTableRecord
100
AcDbLinetypeTableRecord
  2
ByLayer
 70
     0
  3

 72
    65
 73
     0
 40
0.0
  0
LTYPE
  5
16
330
5
100
AcDbSymbolTableRecord
100
AcDbLinetypeTableRecord
  2
Continuous
 70
     0
  3
Solid line
 72
    65
 73
     0
 40
0.0
  0
LTYPE
  5
6E
330
5
100
AcDbSymbolTableRecord
100
AcDbLinetypeTableRecord
  2
DIVIDE
 70
     0
  3
Divide ____ . . ____ . . ____ . . ____ . . ____
 72
    65
 73
     6
 40
1.25
 49
0.5
 74
     0
 49
-0.25
 74
     0
 49
0.0
 74
     0
 49
-0.25
 74
     0
 49
0.0
 74
     0
 49
-0.25
 74
     0
  0
LTYPE
  5
6F
330
5
100
AcDbSymbolTableRecord
100
AcDbLinetypeTableRecord
  2
HIDDEN
 70
     0
  3
Hidden __ __ __ __ __ __ __ __ __ __ __ __ __ _
 72
    65
 73
     2
 40
9.525
 49
6.35
 74
     0
 49
-3.175
 74
     0
  0
LTYPE
  5
70
330
5
100
AcDbSymbolTableRecord
100
AcDbLinetypeTableRecord
  2
HIDDEN2
 70
     0
  3
Hidden (.5x) _ _ _ _ _ _ _ _ _ _ _ _ _ _ _ _ _
 72
    65
 73
     2
 40
4.7625
 49
3.175
 74
     0
 49
-1.5875
 74
     0
  0
LTYPE
  5
71
330
5
100
AcDbSymbolTableRecord
100
AcDbLinetypeTableRecord
  2
CENTER2
 70
     0
  3
Center (.5x) ___ _ ___ _ ___ _ ___ _ ___ _ ___
 72
    65
 73
     4
 40
28.575
 49
19.05
 74
     0
 49
-3.175
 74
     0
 49
3.175
 74
     0
 49
-3.175
 74
     0
  0
LTYPE
  5
72
330
5
100
AcDbSymbolTableRecord
100
AcDbLinetypeTableRecord
  2
PHANTOM2
 70
     0
  3
Phantom (.5x) ___ _ _ ___ _ _ ___ _ _ ___ _ _
 72
    65
 73
     6
 40
31.75
 49
15.875
 74
     0
 49
-3.175
 74
     0
 49
3.175
 74
     0
 49
-3.175
 74
     0
 49
3.175
 74
     0
 49
-3.175
 74
     0
  0
LTYPE
  5
73
330
5
100
AcDbSymbolTableRecord
100
AcDbLinetypeTableRecord
  2
DASHED
 70
     0
  3
Dashed __ __ __ __ __ __ __ __ __ __ __ __ __ _
 72
    65
 73
     2
 40
19.05
 49
12.7
 74
     0
 49
-6.35
 74
     0
  0
LTYPE
  5
74
330
5
100
AcDbSymbolTableRecord
100
AcDbLinetypeTableRecord
  2
CENTER
 70
     0
  3
Center ____ _ ____ _ ____ _ ____ _ ____ _ ____
 72
    65
 73
     4
 40
50.8
 49
31.75
 74
     0
 49
-6.35
 74
     0
 49
6.35
 74
     0
 49
-6.35
 74
     0
  0
LTYPE
  5
75
330
5
100
AcDbSymbolTableRecord
100
AcDbLinetypeTableRecord
  2
PHANTOM
 70
     0
  3
Phantom ______  __  __  ______  __  __  ______
 72
    65
 73
     6
 40
63.5
 49
31.75
 74
     0
 49
-6.35
 74
     0
 49
6.35
 74
     0
 49
-6.35
 74
     0
 49
6.35
 74
     0
 49
-6.35
 74
     0
  0
LTYPE
  5
76
330
5
100
AcDbSymbolTableRecord
100
AcDbLinetypeTableRecord
  2
BORDER2
 70
     0
  3
Border (.5x) __.__.__.__.__.__.__.__.__.__.__.
 72
    65
 73
     6
 40
22.225
 49
6.35
 74
     0
 49
-3.175
 74
     0
 49
6.35
 74
     0
 49
-3.175
 74
     0
 49
0.0
 74
     0
 49
-3.175
 74
     0
  0
LTYPE
  5
77
330
5
100
AcDbSymbolTableRecord
100
AcDbLinetypeTableRecord
  2
HIDDENX2
 70
     0
  3
Hidden (2x) ____ ____ ____ ____ ____ ____ ____
 72
    65
 73
     2
 40
19.05
 49
12.7
 74
     0
 49
-6.35
 74
     0
  0
LTYPE
  5
78
330
5
100
AcDbSymbolTableRecord
100
AcDbLinetypeTableRecord
  2
DOTX2
 70
     0
  3
Dot (2x) .  .  .  .  .  .  .  .  .  .  .  .  . 
 72
    65
 73
     2
 40
12.7
 49
0.0
 74
     0
 49
-12.7
 74
     0
  0
LTYPE
  5
79
330
5
100
AcDbSymbolTableRecord
100
AcDbLinetypeTableRecord
  2
DASHDOTX2
 70
     0
  3
Dash dot (2x) ____  .  ____  .  ____  .  ___
 72
    65
 73
     4
 40
50.8
 49
25.4
 74
     0
 49
-12.7
 74
     0
 49
0.0
 74
     0
 49
-12.7
 74
     0
  0
LTYPE
  5
7A
330
5
100
AcDbSymbolTableRecord
100
AcDbLinetypeTableRecord
  2
DIVIDEX2
 70
     0
  3
Divide (2x) ________  .  .  ________  .  .  _
 72
    65
 73
     6
 40
63.5
 49
25.4
 74
     0
 49
-12.7
 74
     0
 49
0.0
 74
     0
 49
-12.7
 74
     0
 49
0.0
 74
     0
 49
-12.7
 74
     0
  0
LTYPE
  5
7B
330
5
100
AcDbSymbolTableRecord
100
AcDbLinetypeTableRecord
  2
DASHEDX2
 70
     0
  3
Dashed (2x) ____  ____  ____  ____  ____  ___
 72
    65
 73
     2
 40
38.1
 49
25.4
 74
     0
 49
-12.7
 74
     0
  0
LTYPE
  5
7C
330
5
100
AcDbSymbolTableRecord
100
AcDbLinetypeTableRecord
  2
CENTERX2
 70
     0
  3
Center (2x) ________  __  ________  __  _____
 72
    65
 73
     4
 40
101.6
 49
63.5
 74
     0
 49
-12.7
 74
     0
 49
12.7
 74
     0
 49
-12.7
 74
     0
  0
LTYPE
  5
7D
330
5
100
AcDbSymbolTableRecord
100
AcDbLinetypeTableRecord
  2
PHANTOMX2
 70
     0
  3
Phantom (2x) ____________    ____    ____   _
 72
    65
 73
     6
 40
127.0
 49
63.5
 74
     0
 49
-12.7
 74
     0
 49
12.7
 74
     0
 49
-12.7
 74
     0
 49
12.7
 74
     0
 49
-12.7
 74
     0
  0
ENDTAB
  0
TABLE
  2
LAYER
  5
2
330
0
100
AcDbSymbolTable
 70
     3
  0
LAYER
  5
10
330
2
100
AcDbSymbolTableRecord
100
AcDbLayerTableRecord
  2
0
 70
     0
 62
     7
  6
Continuous
370
     0
390
F
  0
LAYER
  5
7E
330
2
100
AcDbSymbolTableRecord
100
AcDbLayerTableRecord
  2
無題001
 70
     0
 62
     7
  6
Continuous
370
     0
390
F
  0
LAYER
  5
7F
330
2
100
AcDbSymbolTableRecord
100
AcDbLayerTableRecord
  2
DEFPOINTS
 70
     0
 62
     3
  6
DIVIDE
290
     0
370
     0
390
F
  0
ENDTAB
  0
TABLE
  2
STYLE
  5
3
330
0
100
AcDbSymbolTable
 70
     7
  0
STYLE
  5
11
330
3
100
AcDbSymbolTableRecord
100
AcDbTextStyleTableRecord
  2
Standard
 70
     0
 40
0.0
 41
0.8
 50
0.0
 71
     0
 42
3.5
  3
MONOTXT.shx
  4
EXTFONT.shx
  0
STYLE
  5
80
330
3
100
AcDbSymbolTableRecord
100
AcDbTextStyleTableRecord
  2
DIMSTANDARD
 70
     0
 40
0.0
 41
0.2
 50
0.0
 71
     0
 42
3.5
  3
MONOTXT.shx
  4
EXTFONT.shx
  0
STYLE
  5
D3
330
3
100
AcDbSymbolTableRecord
100
AcDbTextStyleTableRecord
  2
MTSTANDARD
 70
     0
 40
0.0
 41
1.0
 50
0.0
 71
     0
 42
3.5
  3
MONOTXT.shx
  4
EXTFONT.shx
  0
STYLE
  5
D4
330
3
100
AcDbSymbolTableRecord
100
AcDbTextStyleTableRecord
  2
MTSTANDARD1
 70
     0
 40
0.0
 41
1.0
 50
0.0
 71
     0
 42
3.5
  3
MONOTXT.shx
  4
EXTFONT.shx
  0
STYLE
  5
D9
330
3
100
AcDbSymbolTableRecord
100
AcDbTextStyleTableRecord
  2
WinFont1
 70
     0
 40
0.0
 41
0.8
 50
0.0
 71
     0
 42
3.5
  3

  4

1001
ACAD
1000
MS Gothic
1071
    32768
  0
STYLE
  5
326
330
3
100
AcDbSymbolTableRecord
100
AcDbTextStyleTableRecord
  2
MTSTANDARD2
 70
     0
 40
0.0
 41
1.0
 50
0.0
 71
     0
 42
3.5
  3
MONOTXT.shx
  4
EXTFONT.shx
  0
STYLE
  5
353
330
3
100
AcDbSymbolTableRecord
100
AcDbTextStyleTableRecord
  2
MTSTANDARD3
 70
     0
 40
0.0
 41
1.0
 50
0.0
 71
     0
 42
3.5
  3
MONOTXT.shx
  4
EXTFONT.shx
  0
ENDTAB
  0
TABLE
  2
VIEW
  5
6
330
0
100
AcDbSymbolTable
 70
     0
  0
ENDTAB
  0
TABLE
  2
UCS
  5
7
330
0
100
AcDbSymbolTable
 70
     0
  0
ENDTAB
  0
TABLE
  2
APPID
  5
9
330
0
100
AcDbSymbolTable
 70
     2
  0
APPID
  5
12
330
9
100
AcDbSymbolTableRecord
100
AcDbRegAppTableRecord
  2
ACAD
 70
     0
  0
APPID
  5
3D0
330
9
100
AcDbSymbolTableRecord
100
AcDbRegAppTableRecord
  2
ACAD_MLEADERVER
 70
     0
  0
ENDTAB
  0
TABLE
  2
DIMSTYLE
  5
A
330
0
100
AcDbSymbolTable
 70
     9
100
AcDbDimStyleTable
  0
DIMSTYLE
105
27
330
A
100
AcDbSymbolTableRecord
100
AcDbDimStyleTableRecord
  2
Standard
 70
     0
 41
2.0
 42
0.0
 43
10.0
 44
1.0
 73
     0
 74
     0
 77
     3
 78
     8
 79
     2
140
3.5
141
0.0
146
0.5
147
0.784
176
     4
177
     4
271
     3
178
     4
179
     3
271
     3
340
11
342
85
371
    -1
372
    -1
  0
DIMSTYLE
105
DA
102
{ACAD_REACTORS
330
DB
330
10D
102
}
330
A
100
AcDbSymbolTableRecord
100
AcDbDimStyleTableRecord
  2
DIMSTYEX_1
 70
     0
 41
2.0
 42
0.0
 43
0.0
 44
1.0
 73
     0
 74
     0
 77
     3
 78
     8
 79
     2
140
2.809856
141
0.0
146
0.5
147
0.784
173
     1
176
     4
177
     4
271
     1
178
     4
179
     3
271
     1
272
     1
279
     2
340
D9
342
85
343
85
344
85
371
    -1
372
    -1
  0
DIMSTYLE
105
13F
102
{ACAD_REACTORS
330
140
330
1FF
330
309
330
325
102
}
330
A
100
AcDbSymbolTableRecord
100
AcDbDimStyleTableRecord
  2
DIMSTYEX_2
 70
     0
 41
2.0
 42
0.0
 43
0.0
 44
1.0
 73
     0
 74
     0
 77
     3
 78
     8
 79
     2
140
2.809856
141
0.0
146
0.5
147
0.784
173
     1
176
     4
177
     4
271
     3
178
     4
179
     3
271
     3
272
     3
279
     2
340
D9
342
85
343
85
344
85
371
    -1
372
    -1
  0
DIMSTYLE
105
15F
102
{ACAD_REACTORS
330
160
102
}
330
A
100
AcDbSymbolTableRecord
100
AcDbDimStyleTableRecord
  2
DIMSTYEX_3
 70
     0
 41
2.0
 42
0.0
 43
20.0
 44
1.0
 73
     0
 74
     0
 77
     3
 78
     8
 79
     2
140
2.809856
141
0.0
146
0.5
147
0.784
173
     1
176
     4
177
     4
271
     3
178
     4
179
     3
271
     3
272
     3
279
     2
340
D9
342
85
343
85
344
85
371
    -1
372
    -1
  0
DIMSTYLE
105
1E3
102
{ACAD_REACTORS
330
1E4
102
}
330
A
100
AcDbSymbolTableRecord
100
AcDbDimStyleTableRecord
  2
DIMSTYEX_4
 70
     0
 41
2.0
 42
0.0
 43
8.499999999999996
 44
1.0
 73
     0
 74
     0
 77
     3
 78
     8
 79
     2
140
2.809856
141
0.0
146
0.5
147
0.784
173
     1
176
     4
177
     4
271
     3
178
     4
179
     3
271
     3
272
     3
279
     2
340
D9
342
85
343
85
344
85
371
    -1
372
    -1
  0
DIMSTYLE
105
1F1
102
{ACAD_REACTORS
330
1F2
102
}
330
A
100
AcDbSymbolTableRecord
100
AcDbDimStyleTableRecord
  2
DIMSTYEX_5
 70
     0
 41
2.0
 42
0.0
 43
16.99999999999999
 44
1.0
 73
     0
 74
     0
 77
     3
 78
     8
 79
     2
140
2.809856
141
0.0
146
0.5
147
0.784
173
     1
176
     4
177
     4
271
     3
178
     4
179
     3
271
     3
272
     3
279
     2
340
D9
342
85
343
85
344
85
371
    -1
372
    -1
  0
DIMSTYLE
105
2FB
102
{ACAD_REACTORS
330
2FC
102
}
330
A
100
AcDbSymbolTableRecord
100
AcDbDimStyleTableRecord
  2
DIMSTYEX_6
 70
     0
 41
2.0
 42
0.0
 43
8.0
 44
1.0
 73
     0
 74
     0
 77
     3
 78
     8
 79
     2
140
2.809856
141
0.0
146
0.5
147
0.784
173
     1
176
     4
177
     4
271
     3
178
     4
179
     3
271
     3
272
     3
279
     2
340
D9
342
85
343
85
344
85
371
    -1
372
    -1
  0
DIMSTYLE
105
316
102
{ACAD_REACTORS
330
317
102
}
330
A
100
AcDbSymbolTableRecord
100
AcDbDimStyleTableRecord
  2
DIMSTYEX_7
 70
     0
 41
2.0
 42
0.0
 43
0.0
 44
1.0
 73
     0
 74
     0
 76
     1
 77
     3
 78
     8
 79
     2
140
2.809856
141
0.0
146
0.5
147
0.784
173
     1
176
     4
177
     4
271
     3
178
     4
179
     3
271
     3
272
     3
279
     2
340
D9
342
85
343
85
344
85
371
    -1
372
    -1
  0
DIMSTYLE
105
363
102
{ACAD_REACTORS
330
364
330
371
330
37E
102
}
330
A
100
AcDbSymbolTableRecord
100
AcDbDimStyleTableRecord
  2
DIMSTYEX_8
 70
     0
 41
2.0
 42
0.0
 43
0.0
 44
1.0
 73
     0
 74
     0
 77
     3
 78
     8
 79
     2
140
2.809856
141
0.0
146
0.5
147
0.784
173
     1
176
     4
177
     4
271
     3
178
     4
179
     3
271
     3
272
     3
340
D9
342
85
343
85
344
85
371
    -1
372
    -1
  0
ENDTAB
  0
TABLE
  2
BLOCK_RECORD
  5
1
330
0
100
AcDbSymbolTable
 70
    28
  0
BLOCK_RECORD
  5
1F
330
1
100
AcDbSymbolTableRecord
100
AcDbBlockTableRecord
  2
*Model_Space
340
22
  0
BLOCK_RECORD
  5
1B
330
1
100
AcDbSymbolTableRecord
100
AcDbBlockTableRecord
  2
*Paper_Space
340
1E
  0
BLOCK_RECORD
  5
81
330
1
100
AcDbSymbolTableRecord
100
AcDbBlockTableRecord
  2
_SMALL
340
0
  0
BLOCK_RECORD
  5
85
330
1
100
AcDbSymbolTableRecord
100
AcDbBlockTableRecord
  2
_OPEN30
340
0
102
{BLKREFS
331
CF
331
D0
331
105
331
106
331
137
331
138
331
157
331
158
331
1DB
331
1DC
331
1E9
331
1EA
331
1F7
331
1F8
331
2F3
331
2F4
331
301
331
302
331
30E
331
30F
331
31C
331
31D
331
35B
331
35C
331
369
331
36A
331
376
331
377
102
}
  0
BLOCK_RECORD
  5
8B
330
1
100
AcDbSymbolTableRecord
100
AcDbBlockTableRecord
  2
_OBLIQUE
340
0
  0
BLOCK_RECORD
  5
8F
330
1
100
AcDbSymbolTableRecord
100
AcDbBlockTableRecord
  2
_DOT
340
0
  0
BLOCK_RECORD
  5
93
330
1
100
AcDbSymbolTableRecord
100
AcDbBlockTableRecord
  2
_DOTSMALL
340
0
  0
BLOCK_RECORD
  5
97
330
1
100
AcDbSymbolTableRecord
100
AcDbBlockTableRecord
  2
_DATUMFILLED
340
0
  0
BLOCK_RECORD
  5
9B
330
1
100
AcDbSymbolTableRecord
100
AcDbBlockTableRecord
  2
DATUMFILLED2
340
0
  0
BLOCK_RECORD
  5
9F
330
1
100
AcDbSymbolTableRecord
100
AcDbBlockTableRecord
  2
_DATUMBLANK
340
0
  0
BLOCK_RECORD
  5
A5
330
1
100
AcDbSymbolTableRecord
100
AcDbBlockTableRecord
  2
DATUMBLANK2
340
0
  0
BLOCK_RECORD
  5
AB
330
1
100
AcDbSymbolTableRecord
100
AcDbBlockTableRecord
  2
_NONE
340
0
  0
BLOCK_RECORD
  5
AE
330
1
100
AcDbSymbolTableRecord
100
AcDbBlockTableRecord
  2
BLK0
340
0
102
{BLKREFS
331
C6
102
}
  0
BLOCK_RECORD
  5
CB
330
1
100
AcDbSymbolTableRecord
100
AcDbBlockTableRecord
  2
_D1
340
0
  0
BLOCK_RECORD
  5
101
330
1
100
AcDbSymbolTableRecord
100
AcDbBlockTableRecord
  2
_D2
340
0
  0
BLOCK_RECORD
  5
133
330
1
100
AcDbSymbolTableRecord
100
AcDbBlockTableRecord
  2
_D3
340
0
  0
BLOCK_RECORD
  5
141
330
1
100
AcDbSymbolTableRecord
100
AcDbBlockTableRecord
  2
BLK1
340
0
102
{BLKREFS
331
152
102
}
  0
BLOCK_RECORD
  5
153
330
1
100
AcDbSymbolTableRecord
100
AcDbBlockTableRecord
  2
_D4
340
0
  0
BLOCK_RECORD
  5
1D7
330
1
100
AcDbSymbolTableRecord
100
AcDbBlockTableRecord
  2
_D5
340
0
  0
BLOCK_RECORD
  5
1E5
330
1
100
AcDbSymbolTableRecord
100
AcDbBlockTableRecord
  2
_D6
340
0
  0
BLOCK_RECORD
  5
1F3
330
1
100
AcDbSymbolTableRecord
100
AcDbBlockTableRecord
  2
_D7
340
0
  0
BLOCK_RECORD
  5
203
330
1
100
AcDbSymbolTableRecord
100
AcDbBlockTableRecord
  2
BLK2
340
0
102
{BLKREFS
331
21B
102
}
  0
BLOCK_RECORD
  5
248
330
1
100
AcDbSymbolTableRecord
100
AcDbBlockTableRecord
  2
BLK3
340
0
102
{BLKREFS
331
259
102
}
  0
BLOCK_RECORD
  5
2EF
330
1
100
AcDbSymbolTableRecord
100
AcDbBlockTableRecord
  2
_D8
340
0
  0
BLOCK_RECORD
  5
2FD
330
1
100
AcDbSymbolTableRecord
100
AcDbBlockTableRecord
  2
_D9
340
0
  0
BLOCK_RECORD
  5
30A
330
1
100
AcDbSymbolTableRecord
100
AcDbBlockTableRecord
  2
_D10
340
0
  0
BLOCK_RECORD
  5
318
330
1
100
AcDbSymbolTableRecord
100
AcDbBlockTableRecord
  2
_D11
340
0
  0
BLOCK_RECORD
  5
357
330
1
100
AcDbSymbolTableRecord
100
AcDbBlockTableRecord
  2
_D12
340
0
  0
BLOCK_RECORD
  5
365
330
1
100
AcDbSymbolTableRecord
100
AcDbBlockTableRecord
  2
_D13
340
0
  0
BLOCK_RECORD
  5
372
330
1
100
AcDbSymbolTableRecord
100
AcDbBlockTableRecord
  2
_D14
340
0
  0
ENDTAB
  0
ENDSEC
  0
SECTION
  2
BLOCKS
  0
BLOCK
  5
20
330
1F
100
AcDbEntity
  8
0
100
AcDbBlockBegin
  2
*Model_Space
 70
     0
 10
0.0
 20
0.0
 30
0.0
  3
*Model_Space
  1

  0
ENDBLK
  5
21
330
1F
100
AcDbEntity
  8
0
100
AcDbBlockEnd
  0
BLOCK
  5
1C
330
1B
100
AcDbEntity
 67
     1
  8
0
100
AcDbBlockBegin
  2
*Paper_Space
 70
     0
 10
0.0
 20
0.0
 30
0.0
  3
*Paper_Space
  1

  0
ENDBLK
  5
1D
330
1B
100
AcDbEntity
 67
     1
  8
0
100
AcDbBlockEnd
  0
BLOCK
  5
82
330
81
100
AcDbEntity
  8
0
100
AcDbBlockBegin
  2
_SMALL
 70
     0
 10
0.0
 20
0.0
 30
0.0
  3
_SMALL
  1

  0
CIRCLE
  5
84
330
81
100
AcDbEntity
  8
0
  6
ByBlock
 62
     0
370
    -2
100
AcDbCircle
 10
0.0
 20
0.0
 30
0.0
 40
0.1666666666
  0
CIRCLE
  5
37F
330
81
100
AcDbEntity
  8
0
  6
ByBlock
 62
     0
370
    -2
100
AcDbCircle
 10
0.0
 20
0.0
 30
0.0
 40
0.1666666666
  0
ENDBLK
  5
83
330
81
100
AcDbEntity
  8
0
100
AcDbBlockEnd
  0
BLOCK
  5
86
330
85
100
AcDbEntity
  8
0
100
AcDbBlockBegin
  2
_OPEN30
 70
     0
 10
0.0
 20
0.0
 30
0.0
  3
_OPEN30
  1

  0
LINE
  5
88
330
85
100
AcDbEntity
  8
0
  6
ByBlock
 62
     0
370
    -2
100
AcDbLine
 10
-1.0
 20
0.26794919
 30
0.0
 11
0.0
 21
0.0
 31
0.0
  0
LINE
  5
89
330
85
100
AcDbEntity
  8
0
  6
ByBlock
 62
     0
370
    -2
100
AcDbLine
 10
0.0
 20
0.0
 30
0.0
 11
-1.0
 21
-0.26794919
 31
0.0
  0
LINE
  5
8A
330
85
100
AcDbEntity
  8
0
  6
ByBlock
 62
     0
370
    -2
100
AcDbLine
 10
0.0
 20
0.0
 30
0.0
 11
-1.0
 21
0.0
 31
0.0
  0
LINE
  5
380
330
85
100
AcDbEntity
  8
0
  6
ByBlock
 62
     0
370
    -2
100
AcDbLine
 10
-1.0
 20
0.26794919
 30
0.0
 11
0.0
 21
0.0
 31
0.0
  0
LINE
  5
381
330
85
100
AcDbEntity
  8
0
  6
ByBlock
 62
     0
370
    -2
100
AcDbLine
 10
0.0
 20
0.0
 30
0.0
 11
-1.0
 21
-0.26794919
 31
0.0
  0
LINE
  5
382
330
85
100
AcDbEntity
  8
0
  6
ByBlock
 62
     0
370
    -2
100
AcDbLine
 10
0.0
 20
0.0
 30
0.0
 11
-1.0
 21
0.0
 31
0.0
  0
ENDBLK
  5
87
330
85
100
AcDbEntity
  8
0
100
AcDbBlockEnd
  0
BLOCK
  5
8C
330
8B
100
AcDbEntity
  8
0
100
AcDbBlockBegin
  2
_OBLIQUE
 70
     0
 10
0.0
 20
0.0
 30
0.0
  3
_OBLIQUE
  1

  0
LINE
  5
8E
330
8B
100
AcDbEntity
  8
0
  6
ByBlock
 62
     0
370
    -2
100
AcDbLine
 10
-0.5
 20
-0.5
 30
0.0
 11
0.5
 21
0.5
 31
0.0
  0
LINE
  5
383
330
8B
100
AcDbEntity
  8
0
  6
ByBlock
 62
     0
370
    -2
100
AcDbLine
 10
-0.5
 20
-0.5
 30
0.0
 11
0.5
 21
0.5
 31
0.0
  0
ENDBLK
  5
8D
330
8B
100
AcDbEntity
  8
0
100
AcDbBlockEnd
  0
BLOCK
  5
90
330
8F
100
AcDbEntity
  8
0
100
AcDbBlockBegin
  2
_DOT
 70
     0
 10
0.0
 20
0.0
 30
0.0
  3
_DOT
  1

  0
LWPOLYLINE
  5
92
330
8F
100
AcDbEntity
  8
0
  6
ByBlock
 62
     0
370
    -2
100
AcDbPolyline
 90
        2
 70
     1
 43
0.5
 10
-0.25
 20
0.0
 42
1.0
 10
0.25
 20
0.0
 42
1.0
  0
LWPOLYLINE
  5
384
330
8F
100
AcDbEntity
  8
0
  6
ByBlock
 62
     0
370
    -2
100
AcDbPolyline
 90
        2
 70
     1
 43
0.5
 10
-0.25
 20
0.0
 42
1.0
 10
0.25
 20
0.0
 42
1.0
  0
ENDBLK
  5
91
330
8F
100
AcDbEntity
  8
0
100
AcDbBlockEnd
  0
BLOCK
  5
94
330
93
100
AcDbEntity
  8
0
100
AcDbBlockBegin
  2
_DOTSMALL
 70
     0
 10
0.0
 20
0.0
 30
0.0
  3
_DOTSMALL
  1

  0
LWPOLYLINE
  5
96
330
93
100
AcDbEntity
  8
0
  6
ByBlock
 62
     0
370
    -2
100
AcDbPolyline
 90
        2
 70
     1
 43
0.5
 10
-0.0625
 20
0.0
 42
1.0
 10
0.0625
 20
0.0
 42
1.0
  0
LWPOLYLINE
  5
385
330
93
100
AcDbEntity
  8
0
  6
ByBlock
 62
     0
370
    -2
100
AcDbPolyline
 90
        2
 70
     1
 43
0.5
 10
-0.0625
 20
0.0
 42
1.0
 10
0.0625
 20
0.0
 42
1.0
  0
ENDBLK
  5
95
330
93
100
AcDbEntity
  8
0
100
AcDbBlockEnd
  0
BLOCK
  5
98
330
97
100
AcDbEntity
  8
0
100
AcDbBlockBegin
  2
_DATUMFILLED
 70
     0
 10
0.0
 20
0.0
 30
0.0
  3
_DATUMFILLED
  1

  0
SOLID
  5
9A
330
97
100
AcDbEntity
  8
0
  6
ByBlock
 62
     0
370
    -2
100
AcDbTrace
 10
0.0
 20
0.57735027
 30
0.0
 11
-1.0
 21
0.0
 31
0.0
 12
0.0
 22
-0.57735027
 32
0.0
 13
0.0
 23
-0.57735027
 33
0.0
  0
SOLID
  5
386
330
97
100
AcDbEntity
  8
0
  6
ByBlock
 62
     0
370
    -2
100
AcDbTrace
 10
0.0
 20
0.57735027
 30
0.0
 11
-1.0
 21
0.0
 31
0.0
 12
0.0
 22
-0.57735027
 32
0.0
 13
0.0
 23
-0.57735027
 33
0.0
  0
ENDBLK
  5
99
330
97
100
AcDbEntity
  8
0
100
AcDbBlockEnd
  0
BLOCK
  5
9C
330
9B
100
AcDbEntity
  8
0
100
AcDbBlockBegin
  2
DATUMFILLED2
 70
     0
 10
0.0
 20
0.0
 30
0.0
  3
DATUMFILLED2
  1

  0
SOLID
  5
9E
330
9B
100
AcDbEntity
  8
0
  6
ByBlock
 62
     0
370
    -2
100
AcDbTrace
 10
0.0
 20
1.0
 30
0.0
 11
-1.0
 21
0.0
 31
0.0
 12
0.0
 22
-1.0
 32
0.0
 13
0.0
 23
-1.0
 33
0.0
  0
SOLID
  5
387
330
9B
100
AcDbEntity
  8
0
  6
ByBlock
 62
     0
370
    -2
100
AcDbTrace
 10
0.0
 20
1.0
 30
0.0
 11
-1.0
 21
0.0
 31
0.0
 12
0.0
 22
-1.0
 32
0.0
 13
0.0
 23
-1.0
 33
0.0
  0
ENDBLK
  5
9D
330
9B
100
AcDbEntity
  8
0
100
AcDbBlockEnd
  0
BLOCK
  5
A0
330
9F
100
AcDbEntity
  8
0
100
AcDbBlockBegin
  2
_DATUMBLANK
 70
     0
 10
0.0
 20
0.0
 30
0.0
  3
_DATUMBLANK
  1

  0
LINE
  5
A2
330
9F
100
AcDbEntity
  8
0
  6
ByBlock
 62
     0
370
    -2
100
AcDbLine
 10
0.0
 20
0.57735027
 30
0.0
 11
-1.0
 21
0.0
 31
0.0
  0
LINE
  5
A3
330
9F
100
AcDbEntity
  8
0
  6
ByBlock
 62
     0
370
    -2
100
AcDbLine
 10
-1.0
 20
0.0
 30
0.0
 11
0.0
 21
-0.57735027
 31
0.0
  0
LINE
  5
A4
330
9F
100
AcDbEntity
  8
0
  6
ByBlock
 62
     0
370
    -2
100
AcDbLine
 10
0.0
 20
-0.57735027
 30
0.0
 11
0.0
 21
0.57735027
 31
0.0
  0
LINE
  5
388
330
9F
100
AcDbEntity
  8
0
  6
ByBlock
 62
     0
370
    -2
100
AcDbLine
 10
0.0
 20
0.57735027
 30
0.0
 11
-1.0
 21
0.0
 31
0.0
  0
LINE
  5
389
330
9F
100
AcDbEntity
  8
0
  6
ByBlock
 62
     0
370
    -2
100
AcDbLine
 10
-1.0
 20
0.0
 30
0.0
 11
0.0
 21
-0.57735027
 31
0.0
  0
LINE
  5
38A
330
9F
100
AcDbEntity
  8
0
  6
ByBlock
 62
     0
370
    -2
100
AcDbLine
 10
0.0
 20
-0.57735027
 30
0.0
 11
0.0
 21
0.57735027
 31
0.0
  0
ENDBLK
  5
A1
330
9F
100
AcDbEntity
  8
0
100
AcDbBlockEnd
  0
BLOCK
  5
A6
330
A5
100
AcDbEntity
  8
0
100
AcDbBlockBegin
  2
DATUMBLANK2
 70
     0
 10
0.0
 20
0.0
 30
0.0
  3
DATUMBLANK2
  1

  0
LINE
  5
A8
330
A5
100
AcDbEntity
  8
0
  6
ByBlock
 62
     0
370
    -2
100
AcDbLine
 10
0.0
 20
1.0
 30
0.0
 11
-1.0
 21
0.0
 31
0.0
  0
LINE
  5
A9
330
A5
100
AcDbEntity
  8
0
  6
ByBlock
 62
     0
370
    -2
100
AcDbLine
 10
-1.0
 20
0.0
 30
0.0
 11
0.0
 21
-1.0
 31
0.0
  0
LINE
  5
AA
330
A5
100
AcDbEntity
  8
0
  6
ByBlock
 62
     0
370
    -2
100
AcDbLine
 10
0.0
 20
-1.0
 30
0.0
 11
0.0
 21
1.0
 31
0.0
  0
LINE
  5
38B
330
A5
100
AcDbEntity
  8
0
  6
ByBlock
 62
     0
370
    -2
100
AcDbLine
 10
0.0
 20
1.0
 30
0.0
 11
-1.0
 21
0.0
 31
0.0
  0
LINE
  5
38C
330
A5
100
AcDbEntity
  8
0
  6
ByBlock
 62
     0
370
    -2
100
AcDbLine
 10
-1.0
 20
0.0
 30
0.0
 11
0.0
 21
-1.0
 31
0.0
  0
LINE
  5
38D
330
A5
100
AcDbEntity
  8
0
  6
ByBlock
 62
     0
370
    -2
100
AcDbLine
 10
0.0
 20
-1.0
 30
0.0
 11
0.0
 21
1.0
 31
0.0
  0
ENDBLK
  5
A7
330
A5
100
AcDbEntity
  8
0
100
AcDbBlockEnd
  0
BLOCK
  5
AC
330
AB
100
AcDbEntity
  8
0
100
AcDbBlockBegin
  2
_NONE
 70
     0
 10
0.0
 20
0.0
 30
0.0
  3
_NONE
  1

  0
ENDBLK
  5
AD
330
AB
100
AcDbEntity
  8
0
100
AcDbBlockEnd
  0
BLOCK
  5
AF
330
AE
100
AcDbEntity
  8
0
100
AcDbBlockBegin
  2
BLK0
 70
     0
 10
146.6055194303
 20
2216.046882497882
 30
0.0
  3
BLK0
  1

  0
LINE
  5
B1
330
AE
100
AcDbEntity
  8
無題001
  6
Continuous
 62
     7
100
AcDbLine
 10
150.3941945649
 20
2220.046882497882
 30
0.0
 11
150.3941945649
 21
2212.046882497882
 31
0.0
  0
LINE
  5
B2
330
AE
100
AcDbEntity
  8
無題001
  6
Continuous
 62
     7
100
AcDbLine
 10
147.1055194303
 20
2212.546882497882
 30
0.0
 11
150.1055194303
 21
2212.546882497882
 31
0.0
  0
LINE
  5
B3
330
AE
100
AcDbEntity
  8
無題001
  6
Continuous
 62
     7
100
AcDbLine
 10
159.7055194303
 20
2219.546882497882
 30
0.0
 11
158.8236194789
 21
2219.546882497882
 31
0.0
  0
LINE
  5
B4
330
AE
100
AcDbEntity
  8
無題001
  6
Continuous
 62
     7
100
AcDbLine
 10
147.1055194303
 20
2219.046882497882
 30
0.0
 11
146.6055194303
 21
2219.046882497882
 31
0.0
  0
LINE
  5
B5
330
AE
100
AcDbEntity
  8
無題001
  6
Continuous
 62
     7
100
AcDbLine
 10
150.3941945649
 20
2212.046882497882
 30
0.0
 11
158.8236194789
 21
2212.046882497882
 31
0.0
  0
LINE
  5
B6
330
AE
100
AcDbEntity
  8
無題001
  6
Continuous
 62
     7
100
AcDbLine
 10
158.8236194789
 20
2220.046882497882
 30
0.0
 11
150.3941945649
 21
2220.046882497882
 31
0.0
  0
LINE
  5
B7
330
AE
100
AcDbEntity
  8
無題001
  6
Continuous
 62
     7
100
AcDbLine
 10
147.1055194303
 20
2219.546882497882
 30
0.0
 11
147.1055194303
 21
2212.546882497882
 31
0.0
  0
LINE
  5
B8
330
AE
100
AcDbEntity
  8
無題001
  6
Continuous
 62
     7
100
AcDbLine
 10
158.8236194789
 20
2212.046882497882
 30
0.0
 11
158.8236194789
 21
2220.046882497882
 31
0.0
  0
LINE
  5
B9
330
AE
100
AcDbEntity
  8
無題001
  6
Continuous
 62
     7
100
AcDbLine
 10
159.7055194303
 20
2212.046882497882
 30
0.0
 11
161.2055194303
 21
2212.046882497882
 31
0.0
  0
LINE
  5
BA
330
AE
100
AcDbEntity
  8
無題001
  6
Continuous
 62
     7
100
AcDbLine
 10
146.6055194303
 20
2219.046882497882
 30
0.0
 11
146.6055194303
 21
2213.046882497882
 31
0.0
  0
LINE
  5
BB
330
AE
100
AcDbEntity
  8
無題001
  6
Continuous
 62
     7
100
AcDbLine
 10
158.8236194789
 20
2212.546882497882
 30
0.0
 11
159.7055194303
 21
2212.546882497882
 31
0.0
  0
LINE
  5
BC
330
AE
100
AcDbEntity
  8
無題001
  6
Continuous
 62
     7
100
AcDbLine
 10
159.7055194303
 20
2212.046882497882
 30
0.0
 11
159.7055194303
 21
2220.046882497882
 31
0.0
  0
LINE
  5
BD
330
AE
100
AcDbEntity
  8
無題001
  6
Continuous
 62
     7
100
AcDbLine
 10
150.1055194303
 20
2219.546882497882
 30
0.0
 11
147.1055194303
 21
2219.546882497882
 31
0.0
  0
LINE
  5
BE
330
AE
100
AcDbEntity
  8
無題001
  6
Continuous
 62
     7
100
AcDbLine
 10
150.3941945649
 20
2220.046882497882
 30
0.0
 11
150.1055194303
 21
2219.546882497882
 31
0.0
  0
LINE
  5
BF
330
AE
100
AcDbEntity
  8
無題001
  6
Continuous
 62
     7
100
AcDbLine
 10
159.7055194303
 20
2212.546882497882
 30
0.0
 11
159.7055194303
 21
2219.546882497882
 31
0.0
  0
LINE
  5
C0
330
AE
100
AcDbEntity
  8
無題001
  6
Continuous
 62
     7
100
AcDbLine
 10
150.1055194303
 20
2219.546882497882
 30
0.0
 11
150.1055194303
 21
2212.546882497882
 31
0.0
  0
LINE
  5
C1
330
AE
100
AcDbEntity
  8
無題001
  6
Continuous
 62
     7
100
AcDbLine
 10
150.1055194303
 20
2212.546882497882
 30
0.0
 11
150.3941945649
 21
2212.046882497882
 31
0.0
  0
LINE
  5
C2
330
AE
100
AcDbEntity
  8
無題001
  6
Continuous
 62
     7
100
AcDbLine
 10
161.2055194303
 20
2212.046882497882
 30
0.0
 11
161.2055194303
 21
2220.046882497882
 31
0.0
  0
LINE
  5
C3
330
AE
100
AcDbEntity
  8
無題001
  6
Continuous
 62
     7
100
AcDbLine
 10
161.2055194303
 20
2220.046882497882
 30
0.0
 11
159.7055194303
 21
2220.046882497882
 31
0.0
  0
LINE
  5
C4
330
AE
100
AcDbEntity
  8
無題001
  6
CENTER2
 62
     1
100
AcDbLine
 10
144.6055194303
 20
2216.046882497882
 30
0.0
 11
163.2055194303
 21
2216.046882497882
 31
0.0
  0
LINE
  5
C5
330
AE
100
AcDbEntity
  8
無題001
  6
Continuous
 62
     7
100
AcDbLine
 10
147.1055194303
 20
2213.046882497882
 30
0.0
 11
146.6055194303
 21
2213.046882497882
 31
0.0
  0
ENDBLK
  5
B0
330
AE
100
AcDbEntity
  8
0
100
AcDbBlockEnd
  0
BLOCK
  5
CC
330
CB
100
AcDbEntity
  8
0
100
AcDbBlockBegin
  2
_D1
 70
     0
 10
0.0
 20
0.0
 30
0.0
  3
_D1
  1

  0
LINE
  5
CE
330
CB
100
AcDbEntity
  8
無題001
  6
Continuous
 62
     4
100
AcDbLine
 10
71.1055194303
 20
2288.4355314696
 30
0.0
 11
62.4340168152
 21
2288.4355314696
 31
0.0
  0
INSERT
  5
CF
330
CB
100
AcDbEntity
  8
無題001
  6
Continuous
 62
     4
100
AcDbBlockReference
  2
_OPEN30
 10
71.1055194303
 20
2288.4355314696
 30
0.0
 41
1.969615506024411
 42
1.969615506024411
 43
1.969615506024411
  0
INSERT
  5
D0
330
CB
100
AcDbEntity
  8
無題001
  6
Continuous
 62
     4
100
AcDbBlockReference
  2
_OPEN30
 10
62.4340168152
 20
2288.4355314696
 30
0.0
 41
1.969615506024418
 42
1.969615506024418
 43
1.969615506024418
 50
180.0
  0
LINE
  5
D1
330
CB
100
AcDbEntity
  8
無題001
  6
Continuous
 62
     4
100
AcDbLine
 10
71.1055194303
 20
2310.9355314696
 30
0.0
 11
71.1055194303
 21
2287.4355314696
 31
0.0
  0
LINE
  5
D2
330
CB
100
AcDbEntity
  8
無題001
  6
Continuous
 62
     4
100
AcDbLine
 10
62.4340168152
 20
2324.4128817388
 30
0.0
 11
62.43401681520001
 21
2287.4355314696
 31
0.0
  0
MTEXT
  5
D5
330
CB
100
AcDbEntity
  8
無題001
  6
Continuous
 62
     4
100
AcDbMText
 10
63.144243032094
 20
2288.96134291632
 30
0.0
 40
3.136
 41
0.0
 71
     7
 72
     5
  1
{\fＭＳ ゴシック|b0|i0|c128|p49;\W1.0;(8.7)}
  7
MTSTANDARD1
 73
     1
 44
0.8
  0
POINT
  5
D6
330
CB
100
AcDbEntity
  8
DEFPOINTS
  6
Continuous
 62
     4
100
AcDbPoint
 10
71.1055194303
 20
2310.9355314696
 30
0.0
  0
POINT
  5
D7
330
CB
100
AcDbEntity
  8
DEFPOINTS
  6
Continuous
 62
     4
100
AcDbPoint
 10
62.4340168152
 20
2324.4128817388
 30
0.0
  0
POINT
  5
D8
330
CB
100
AcDbEntity
  8
DEFPOINTS
  6
Continuous
 62
     4
100
AcDbPoint
 10
62.4340168152
 20
2288.4355314696
 30
0.0
  0
ENDBLK
  5
CD
330
CB
100
AcDbEntity
  8
0
100
AcDbBlockEnd
  0
BLOCK
  5
102
330
101
100
AcDbEntity
  8
0
100
AcDbBlockBegin
  2
_D2
 70
     0
 10
0.0
 20
0.0
 30
0.0
  3
_D2
  1

  0
LINE
  5
104
330
101
100
AcDbEntity
  8
無題001
  6
Continuous
 62
     4
100
AcDbLine
 10
181.1055194303
 20
2280.4355314696
 30
0.0
 11
62.4340168152
 21
2280.4355314696
 31
0.0
  0
INSERT
  5
105
330
101
100
AcDbEntity
  8
無題001
  6
Continuous
 62
     4
100
AcDbBlockReference
  2
_OPEN30
 10
181.1055194303
 20
2280.4355314696
 30
0.0
 41
1.969615506024411
 42
1.969615506024411
 43
1.969615506024411
  0
INSERT
  5
106
330
101
100
AcDbEntity
  8
無題001
  6
Continuous
 62
     4
100
AcDbBlockReference
  2
_OPEN30
 10
62.4340168152
 20
2280.4355314696
 30
0.0
 41
1.969615506024418
 42
1.969615506024418
 43
1.969615506024418
 50
180.0
  0
LINE
  5
107
330
101
100
AcDbEntity
  8
無題001
  6
Continuous
 62
     4
100
AcDbLine
 10
181.1055194303
 20
2323.9355314696
 30
0.0
 11
181.1055194303
 21
2279.4355314696
 31
0.0
  0
LINE
  5
108
330
101
100
AcDbEntity
  8
無題001
  6
Continuous
 62
     4
100
AcDbLine
 10
62.4340168152
 20
2324.4128817388
 30
0.0
 11
62.4340168152
 21
2279.4355314696
 31
0.0
  0
MTEXT
  5
109
330
101
100
AcDbEntity
  8
無題001
  6
Continuous
 62
     4
100
AcDbMText
 10
117.84976812275
 20
2281.1379954696
 30
0.0
 40
3.136
 41
0.0
 71
     7
 72
     5
  1
{\fＭＳ ゴシック|b0|i0|c128|p49;\W1.0;118.7}
  7
MTSTANDARD1
 73
     1
 44
0.8
  0
POINT
  5
10A
330
101
100
AcDbEntity
  8
DEFPOINTS
  6
Continuous
 62
     4
100
AcDbPoint
 10
181.1055194303
 20
2323.9355314696
 30
0.0
  0
POINT
  5
10B
330
101
100
AcDbEntity
  8
DEFPOINTS
  6
Continuous
 62
     4
100
AcDbPoint
 10
62.4340168152
 20
2324.4128817388
 30
0.0
  0
POINT
  5
10C
330
101
100
AcDbEntity
  8
DEFPOINTS
  6
Continuous
 62
     4
100
AcDbPoint
 10
62.4340168152
 20
2280.4355314696
 30
0.0
  0
ENDBLK
  5
103
330
101
100
AcDbEntity
  8
0
100
AcDbBlockEnd
  0
BLOCK
  5
134
330
133
100
AcDbEntity
  8
0
100
AcDbBlockBegin
  2
_D3
 70
     0
 10
0.0
 20
0.0
 30
0.0
  3
_D3
  1

  0
LINE
  5
136
330
133
100
AcDbEntity
  8
無題001
  6
Continuous
 62
     4
100
AcDbLine
 10
169.1055194303
 20
2288.4355314696
 30
0.0
 11
181.1055194303
 21
2288.4355314696
 31
0.0
  0
INSERT
  5
137
330
133
100
AcDbEntity
  8
無題001
  6
Continuous
 62
     4
100
AcDbBlockReference
  2
_OPEN30
 10
169.1055194303
 20
2288.4355314696
 30
0.0
 41
1.969615506024411
 42
1.969615506024411
 43
1.969615506024411
 50
180.0
  0
INSERT
  5
138
330
133
100
AcDbEntity
  8
無題001
  6
Continuous
 62
     4
100
AcDbBlockReference
  2
_OPEN30
 10
181.1055194303
 20
2288.4355314696
 30
0.0
 41
1.969615506024411
 42
1.969615506024411
 43
1.969615506024411
  0
LINE
  5
139
330
133
100
AcDbEntity
  8
無題001
  6
Continuous
 62
     4
100
AcDbLine
 10
169.1055194303
 20
2321.3355314696
 30
0.0
 11
169.1055194303
 21
2287.4355314696
 31
0.0
  0
LINE
  5
13A
330
133
100
AcDbEntity
  8
無題001
  6
Continuous
 62
     4
100
AcDbLine
 10
181.1055194303
 20
2323.9355314696
 30
0.0
 11
181.1055194303
 21
2287.4355314696
 31
0.0
  0
MTEXT
  5
13B
330
133
100
AcDbEntity
  8
無題001
  6
Continuous
 62
     4
100
AcDbMText
 10
173.5375194303
 20
2289.1379954696
 30
0.0
 40
3.136
 41
0.0
 71
     7
 72
     5
  1
{\fＭＳ ゴシック|b0|i0|c128|p49;\W1.0;12}
  7
MTSTANDARD1
 73
     1
 44
0.8
  0
POINT
  5
13C
330
133
100
AcDbEntity
  8
DEFPOINTS
  6
Continuous
 62
     4
100
AcDbPoint
 10
169.1055194303
 20
2321.3355314696
 30
0.0
  0
POINT
  5
13D
330
133
100
AcDbEntity
  8
DEFPOINTS
  6
Continuous
 62
     4
100
AcDbPoint
 10
181.1055194303
 20
2323.9355314696
 30
0.0
  0
POINT
  5
13E
330
133
100
AcDbEntity
  8
DEFPOINTS
  6
Continuous
 62
     4
100
AcDbPoint
 10
181.1055194303
 20
2288.4355314696
 30
0.0
  0
ENDBLK
  5
135
330
133
100
AcDbEntity
  8
0
100
AcDbBlockEnd
  0
BLOCK
  5
142
330
141
100
AcDbEntity
  8
0
100
AcDbBlockBegin
  2
BLK1
 70
     0
 10
146.6055194303
 20
2229.668466588382
 30
0.0
  3
BLK1
  1

  0
LINE
  5
144
330
141
100
AcDbEntity
  8
無題001
  6
Continuous
 62
     7
100
AcDbLine
 10
150.3941945649
 20
2234.668466588382
 30
0.0
 11
150.3941945649
 21
2233.357674543382
 31
0.0
  0
LINE
  5
145
330
141
100
AcDbEntity
  8
無題001
  6
Continuous
 62
     7
100
AcDbLine
 10
161.7055194303
 20
2234.168466588382
 30
0.0
 11
160.8236194789
 21
2234.168466588382
 31
0.0
  0
LINE
  5
146
330
141
100
AcDbEntity
  8
無題001
  6
Continuous
 62
     7
100
AcDbLine
 10
147.1055194303
 20
2233.668466588382
 30
0.0
 11
146.6055194303
 21
2233.668466588382
 31
0.0
  0
LINE
  5
147
330
141
100
AcDbEntity
  8
無題001
  6
Continuous
 62
     7
100
AcDbLine
 10
160.8236194789
 20
2234.668466588382
 30
0.0
 11
150.3941945649
 21
2234.668466588382
 31
0.0
  0
LINE
  5
148
330
141
100
AcDbEntity
  8
無題001
  6
Continuous
 62
     7
100
AcDbLine
 10
147.1055194303
 20
2234.168466588382
 30
0.0
 11
147.1055194303
 21
2233.357674543382
 31
0.0
  0
LINE
  5
149
330
141
100
AcDbEntity
  8
無題001
  6
Continuous
 62
     7
100
AcDbLine
 10
160.8236194789
 20
2233.357674543382
 30
0.0
 11
160.8236194789
 21
2234.668466588382
 31
0.0
  0
LINE
  5
14A
330
141
100
AcDbEntity
  8
無題001
  6
Continuous
 62
     7
100
AcDbLine
 10
146.6055194303
 20
2233.668466588382
 30
0.0
 11
146.6055194303
 21
2225.668466588382
 31
0.0
  0
LINE
  5
14B
330
141
100
AcDbEntity
  8
無題001
  6
Continuous
 62
     7
100
AcDbLine
 10
161.7055194303
 20
2233.357674543382
 30
0.0
 11
161.7055194303
 21
2234.668466588382
 31
0.0
  0
LINE
  5
14C
330
141
100
AcDbEntity
  8
無題001
  6
Continuous
 62
     7
100
AcDbLine
 10
150.1055194303
 20
2234.168466588382
 30
0.0
 11
147.1055194303
 21
2234.168466588382
 31
0.0
  0
LINE
  5
14D
330
141
100
AcDbEntity
  8
無題001
  6
Continuous
 62
     7
100
AcDbLine
 10
150.3941945649
 20
2234.668466588382
 30
0.0
 11
150.1055194303
 21
2234.168466588382
 31
0.0
  0
LINE
  5
14E
330
141
100
AcDbEntity
  8
無題001
  6
Continuous
 62
     7
100
AcDbLine
 10
161.7055194303
 20
2233.357674543382
 30
0.0
 11
161.7055194303
 21
2234.168466588382
 31
0.0
  0
LINE
  5
14F
330
141
100
AcDbEntity
  8
無題001
  6
Continuous
 62
     7
100
AcDbLine
 10
150.1055194303
 20
2234.168466588382
 30
0.0
 11
150.1055194303
 21
2233.357674543382
 31
0.0
  0
LINE
  5
150
330
141
100
AcDbEntity
  8
無題001
  6
Continuous
 62
     7
100
AcDbLine
 10
163.2055194303
 20
2233.357674543382
 30
0.0
 11
163.2055194303
 21
2234.668466588382
 31
0.0
  0
LINE
  5
151
330
141
100
AcDbEntity
  8
無題001
  6
Continuous
 62
     7
100
AcDbLine
 10
163.2055194303
 20
2234.668466588382
 30
0.0
 11
161.7055194303
 21
2234.668466588382
 31
0.0
  0
ENDBLK
  5
143
330
141
100
AcDbEntity
  8
0
100
AcDbBlockEnd
  0
BLOCK
  5
154
330
153
100
AcDbEntity
  8
0
100
AcDbBlockBegin
  2
_D4
 70
     0
 10
0.0
 20
0.0
 30
0.0
  3
_D4
  1

  0
LINE
  5
156
330
153
100
AcDbEntity
  8
無題001
  6
Continuous
 62
     4
100
AcDbLine
 10
191.1055194303
 20
2338.3355314696
 30
0.0
 11
191.1055194303
 21
2317.3355314696
 31
0.0
  0
INSERT
  5
157
330
153
100
AcDbEntity
  8
無題001
  6
Continuous
 62
     4
100
AcDbBlockReference
  2
_OPEN30
 10
191.1055194303
 20
2338.3355314696
 30
0.0
 41
1.969615506024638
 42
1.969615506024638
 43
1.969615506024638
 50
90.0
  0
INSERT
  5
158
330
153
100
AcDbEntity
  8
無題001
  6
Continuous
 62
     4
100
AcDbBlockReference
  2
_OPEN30
 10
191.1055194303
 20
2317.3355314696
 30
0.0
 41
1.969615506024638
 42
1.969615506024638
 43
1.969615506024638
 50
270.0
  0
LINE
  5
159
330
153
100
AcDbEntity
  8
無題001
  6
Continuous
 62
     4
100
AcDbLine
 10
165.1055194303
 20
2338.3355314696
 30
0.0
 11
192.1055194303
 21
2338.3355314696
 31
0.0
  0
LINE
  5
15A
330
153
100
AcDbEntity
  8
無題001
  6
Continuous
 62
     4
100
AcDbLine
 10
165.1055194303
 20
2317.3355314696
 30
0.0
 11
192.1055194303
 21
2317.3355314696
 31
0.0
  0
MTEXT
  5
15B
330
153
100
AcDbEntity
  8
無題001
  6
Continuous
 62
     4
100
AcDbMText
 10
190.4921265578776
 20
2325.104318566854
 30
0.0
 40
3.136
 41
0.0
 71
     7
 72
     5
  1
{\fＭＳ ゴシック|b0|i0|c128|p49;\W1.0;φ21}
  7
MTSTANDARD1
 11
0.0
 21
1.0
 31
0.0
 73
     1
 44
0.8
  0
POINT
  5
15C
330
153
100
AcDbEntity
  8
DEFPOINTS
  6
Continuous
 62
     4
100
AcDbPoint
 10
165.1055194303
 20
2338.3355314696
 30
0.0
  0
POINT
  5
15D
330
153
100
AcDbEntity
  8
DEFPOINTS
  6
Continuous
 62
     4
100
AcDbPoint
 10
165.1055194303
 20
2317.3355314696
 30
0.0
  0
POINT
  5
15E
330
153
100
AcDbEntity
  8
DEFPOINTS
  6
Continuous
 62
     4
100
AcDbPoint
 10
191.1055194303
 20
2317.3355314696
 30
0.0
  0
ENDBLK
  5
155
330
153
100
AcDbEntity
  8
0
100
AcDbBlockEnd
  0
BLOCK
  5
1D8
330
1D7
100
AcDbEntity
  8
0
100
AcDbBlockBegin
  2
_D5
 70
     0
 10
0.0
 20
0.0
 30
0.0
  3
_D5
  1

  0
LINE
  5
1DA
330
1D7
100
AcDbEntity
  8
無題001
  6
Continuous
 62
     4
100
AcDbLine
 10
32.9340168152
 20
2349.0855314696
 30
0.0
 11
32.9340168152
 21
2306.5855314696
 31
0.0
  0
INSERT
  5
1DB
330
1D7
100
AcDbEntity
  8
無題001
  6
Continuous
 62
     4
100
AcDbBlockReference
  2
_OPEN30
 10
32.9340168152
 20
2349.0855314696
 30
0.0
 41
1.969615506024638
 42
1.969615506024638
 43
1.969615506024638
 50
90.0
  0
INSERT
  5
1DC
330
1D7
100
AcDbEntity
  8
無題001
  6
Continuous
 62
     4
100
AcDbBlockReference
  2
_OPEN30
 10
32.9340168152
 20
2306.5855314696
 30
0.0
 41
1.969615506024638
 42
1.969615506024638
 43
1.969615506024638
 50
270.0
  0
LINE
  5
1DD
330
1D7
100
AcDbEntity
  8
無題001
  6
Continuous
 62
     4
100
AcDbLine
 10
77.9069411788
 20
2349.0855314696
 30
0.0
 11
31.9340168152
 21
2349.0855314696
 31
0.0
  0
LINE
  5
1DE
330
1D7
100
AcDbEntity
  8
無題001
  6
Continuous
 62
     4
100
AcDbLine
 10
77.9069411788
 20
2306.5855314696
 30
0.0
 11
31.9340168152
 21
2306.5855314696
 31
0.0
  0
MTEXT
  5
1DF
330
1D7
100
AcDbEntity
  8
無題001
  6
Continuous
 62
     4
100
AcDbMText
 10
32.2315528152
 20
2323.1315314696
 30
0.0
 40
3.136
 41
0.0
 71
     7
 72
     5
  1
{\fＭＳ ゴシック|b0|i0|c128|p49;\W1.0;φ42.5}
  7
MTSTANDARD1
 11
0.0
 21
1.0
 31
0.0
 73
     1
 44
0.8
  0
POINT
  5
1E0
330
1D7
100
AcDbEntity
  8
DEFPOINTS
  6
Continuous
 62
     4
100
AcDbPoint
 10
77.9069411788
 20
2349.0855314696
 30
0.0
  0
POINT
  5
1E1
330
1D7
100
AcDbEntity
  8
DEFPOINTS
  6
Continuous
 62
     4
100
AcDbPoint
 10
77.9069411788
 20
2306.5855314696
 30
0.0
  0
POINT
  5
1E2
330
1D7
100
AcDbEntity
  8
DEFPOINTS
  6
Continuous
 62
     4
100
AcDbPoint
 10
32.9340168152
 20
2306.5855314696
 30
0.0
  0
ENDBLK
  5
1D9
330
1D7
100
AcDbEntity
  8
0
100
AcDbBlockEnd
  0
BLOCK
  5
1E6
330
1E5
100
AcDbEntity
  8
0
100
AcDbBlockBegin
  2
_D6
 70
     0
 10
0.0
 20
0.0
 30
0.0
  3
_D6
  1

  0
LINE
  5
1E8
330
1E5
100
AcDbEntity
  8
無題001
  6
Continuous
 62
     4
100
AcDbLine
 10
25.4340168152
 20
2355.2355314696
 30
0.0
 11
25.4340168152
 21
2300.4355314696
 31
0.0
  0
INSERT
  5
1E9
330
1E5
100
AcDbEntity
  8
無題001
  6
Continuous
 62
     4
100
AcDbBlockReference
  2
_OPEN30
 10
25.4340168152
 20
2355.2355314696
 30
0.0
 41
1.969615506024638
 42
1.969615506024638
 43
1.969615506024638
 50
90.0
  0
INSERT
  5
1EA
330
1E5
100
AcDbEntity
  8
無題001
  6
Continuous
 62
     4
100
AcDbBlockReference
  2
_OPEN30
 10
25.4340168152
 20
2300.4355314696
 30
0.0
 41
1.969615506024638
 42
1.969615506024638
 43
1.969615506024638
 50
270.0
  0
LINE
  5
1EB
330
1E5
100
AcDbEntity
  8
無題001
  6
Continuous
 62
     4
100
AcDbLine
 10
90.8055194303
 20
2355.2355314696
 30
0.0
 11
24.4340168152
 21
2355.2355314696
 31
0.0
  0
LINE
  5
1EC
330
1E5
100
AcDbEntity
  8
無題001
  6
Continuous
 62
     4
100
AcDbLine
 10
90.8055194303
 20
2300.4355314696
 30
0.0
 11
24.4340168152
 21
2300.4355314696
 31
0.0
  0
MTEXT
  5
1ED
330
1E5
100
AcDbEntity
  8
無題001
  6
Continuous
 62
     4
100
AcDbMText
 10
24.7315528152
 20
2321.615346344544
 30
0.0
 40
3.136
 41
0.0
 71
     7
 72
     5
  1
{\fＭＳ ゴシック|b0|i0|c128|p49;\W1.0;φ54.8}
  7
MTSTANDARD1
 11
0.0
 21
1.0
 31
0.0
 73
     1
 44
0.8
  0
POINT
  5
1EE
330
1E5
100
AcDbEntity
  8
DEFPOINTS
  6
Continuous
 62
     4
100
AcDbPoint
 10
90.8055194303
 20
2355.2355314696
 30
0.0
  0
POINT
  5
1EF
330
1E5
100
AcDbEntity
  8
DEFPOINTS
  6
Continuous
 62
     4
100
AcDbPoint
 10
90.8055194303
 20
2300.4355314696
 30
0.0
  0
POINT
  5
1F0
330
1E5
100
AcDbEntity
  8
DEFPOINTS
  6
Continuous
 62
     4
100
AcDbPoint
 10
25.4340168152
 20
2300.4355314696
 30
0.0
  0
ENDBLK
  5
1E7
330
1E5
100
AcDbEntity
  8
0
100
AcDbBlockEnd
  0
BLOCK
  5
1F4
330
1F3
100
AcDbEntity
  8
0
100
AcDbBlockBegin
  2
_D7
 70
     0
 10
0.0
 20
0.0
 30
0.0
  3
_D7
  1

  0
LINE
  5
1F6
330
1F3
100
AcDbEntity
  8
無題001
  6
Continuous
 62
     4
100
AcDbLine
 10
120.134446772
 20
2347.8355314696
 30
0.0
 11
120.134446772
 21
2307.8355314696
 31
0.0
  0
INSERT
  5
1F7
330
1F3
100
AcDbEntity
  8
無題001
  6
Continuous
 62
     4
100
AcDbBlockReference
  2
_OPEN30
 10
120.134446772
 20
2347.8355314696
 30
0.0
 41
1.969615506024638
 42
1.969615506024638
 43
1.969615506024638
 50
90.0
  0
INSERT
  5
1F8
330
1F3
100
AcDbEntity
  8
無題001
  6
Continuous
 62
     4
100
AcDbBlockReference
  2
_OPEN30
 10
120.134446772
 20
2307.8355314696
 30
0.0
 41
1.969615506024638
 42
1.969615506024638
 43
1.969615506024638
 50
270.0
  0
LINE
  5
1F9
330
1F3
100
AcDbEntity
  8
無題001
  6
Continuous
 62
     4
100
AcDbLine
 10
115.4055194303
 20
2347.8355314696
 30
0.0
 11
121.134446772
 21
2347.8355314696
 31
0.0
  0
LINE
  5
1FA
330
1F3
100
AcDbEntity
  8
無題001
  6
Continuous
 62
     4
100
AcDbLine
 10
115.4055194303
 20
2307.8355314696
 30
0.0
 11
121.134446772
 21
2307.8355314696
 31
0.0
  0
MTEXT
  5
1FB
330
1F3
100
AcDbEntity
  8
無題001
  6
Continuous
 62
     4
100
AcDbMText
 10
119.6147688302016
 20
2321.726999259501
 30
0.0
 40
3.136
 41
0.0
 71
     7
 72
     5
  1
{\fＭＳ ゴシック|b0|i0|c128|p49;\W1.0;φ40{\H0.70x;\A2\S 0^ -0.025;}}
  7
MTSTANDARD1
 11
0.0
 21
1.0
 31
0.0
 73
     1
 44
0.8
  0
POINT
  5
1FC
330
1F3
100
AcDbEntity
  8
DEFPOINTS
  6
Continuous
 62
     4
100
AcDbPoint
 10
115.4055194303
 20
2347.8355314696
 30
0.0
  0
POINT
  5
1FD
330
1F3
100
AcDbEntity
  8
DEFPOINTS
  6
Continuous
 62
     4
100
AcDbPoint
 10
115.4055194303
 20
2307.8355314696
 30
0.0
  0
POINT
  5
1FE
330
1F3
100
AcDbEntity
  8
DEFPOINTS
  6
Continuous
 62
     4
100
AcDbPoint
 10
120.134446772
 20
2307.8355314696
 30
0.0
  0
ENDBLK
  5
1F5
330
1F3
100
AcDbEntity
  8
0
100
AcDbBlockEnd
  0
BLOCK
  5
204
330
203
100
AcDbEntity
  8
0
100
AcDbBlockBegin
  2
BLK2
 70
     0
 10
146.6055194303
 20
2321.0247394241
 30
0.0
  3
BLK2
  1

  0
LINE
  5
206
330
203
100
AcDbEntity
  8
無題001
  6
Continuous
 62
     7
100
AcDbLine
 10
150.3941945649
 20
2325.0247394241
 30
0.0
 11
150.3941945649
 21
2317.0247394241
 31
0.0
  0
LINE
  5
207
330
203
100
AcDbEntity
  8
無題001
  6
Continuous
 62
     7
100
AcDbLine
 10
147.1055194303
 20
2317.5247394241
 30
0.0
 11
150.1055194303
 21
2317.5247394241
 31
0.0
  0
LINE
  5
208
330
203
100
AcDbEntity
  8
無題001
  6
Continuous
 62
     7
100
AcDbLine
 10
159.7055194303
 20
2324.5247394241
 30
0.0
 11
158.8236194789
 21
2324.5247394241
 31
0.0
  0
LINE
  5
209
330
203
100
AcDbEntity
  8
無題001
  6
Continuous
 62
     7
100
AcDbLine
 10
147.1055194303
 20
2324.0247394241
 30
0.0
 11
146.6055194303
 21
2324.0247394241
 31
0.0
  0
LINE
  5
20A
330
203
100
AcDbEntity
  8
無題001
  6
Continuous
 62
     7
100
AcDbLine
 10
150.3941945649
 20
2317.0247394241
 30
0.0
 11
158.8236194789
 21
2317.0247394241
 31
0.0
  0
LINE
  5
20B
330
203
100
AcDbEntity
  8
無題001
  6
Continuous
 62
     7
100
AcDbLine
 10
158.8236194789
 20
2325.0247394241
 30
0.0
 11
150.3941945649
 21
2325.0247394241
 31
0.0
  0
LINE
  5
20C
330
203
100
AcDbEntity
  8
無題001
  6
Continuous
 62
     7
100
AcDbLine
 10
147.1055194303
 20
2324.5247394241
 30
0.0
 11
147.1055194303
 21
2317.5247394241
 31
0.0
  0
LINE
  5
20D
330
203
100
AcDbEntity
  8
無題001
  6
Continuous
 62
     7
100
AcDbLine
 10
158.8236194789
 20
2317.0247394241
 30
0.0
 11
158.8236194789
 21
2325.0247394241
 31
0.0
  0
LINE
  5
20E
330
203
100
AcDbEntity
  8
無題001
  6
Continuous
 62
     7
100
AcDbLine
 10
159.7055194303
 20
2317.0247394241
 30
0.0
 11
161.2055194303
 21
2317.0247394241
 31
0.0
  0
LINE
  5
20F
330
203
100
AcDbEntity
  8
無題001
  6
Continuous
 62
     7
100
AcDbLine
 10
146.6055194303
 20
2324.0247394241
 30
0.0
 11
146.6055194303
 21
2318.0247394241
 31
0.0
  0
LINE
  5
210
330
203
100
AcDbEntity
  8
無題001
  6
Continuous
 62
     7
100
AcDbLine
 10
158.8236194789
 20
2317.5247394241
 30
0.0
 11
159.7055194303
 21
2317.5247394241
 31
0.0
  0
LINE
  5
211
330
203
100
AcDbEntity
  8
無題001
  6
Continuous
 62
     7
100
AcDbLine
 10
159.7055194303
 20
2317.0247394241
 30
0.0
 11
159.7055194303
 21
2325.0247394241
 31
0.0
  0
LINE
  5
212
330
203
100
AcDbEntity
  8
無題001
  6
Continuous
 62
     7
100
AcDbLine
 10
150.1055194303
 20
2324.5247394241
 30
0.0
 11
147.1055194303
 21
2324.5247394241
 31
0.0
  0
LINE
  5
213
330
203
100
AcDbEntity
  8
無題001
  6
Continuous
 62
     7
100
AcDbLine
 10
150.3941945649
 20
2325.0247394241
 30
0.0
 11
150.1055194303
 21
2324.5247394241
 31
0.0
  0
LINE
  5
214
330
203
100
AcDbEntity
  8
無題001
  6
Continuous
 62
     7
100
AcDbLine
 10
159.7055194303
 20
2317.5247394241
 30
0.0
 11
159.7055194303
 21
2324.5247394241
 31
0.0
  0
LINE
  5
215
330
203
100
AcDbEntity
  8
無題001
  6
Continuous
 62
     7
100
AcDbLine
 10
150.1055194303
 20
2324.5247394241
 30
0.0
 11
150.1055194303
 21
2317.5247394241
 31
0.0
  0
LINE
  5
216
330
203
100
AcDbEntity
  8
無題001
  6
Continuous
 62
     7
100
AcDbLine
 10
150.1055194303
 20
2317.5247394241
 30
0.0
 11
150.3941945649
 21
2317.0247394241
 31
0.0
  0
LINE
  5
217
330
203
100
AcDbEntity
  8
無題001
  6
Continuous
 62
     7
100
AcDbLine
 10
161.2055194303
 20
2317.0247394241
 30
0.0
 11
161.2055194303
 21
2325.0247394241
 31
0.0
  0
LINE
  5
218
330
203
100
AcDbEntity
  8
無題001
  6
Continuous
 62
     7
100
AcDbLine
 10
161.2055194303
 20
2325.0247394241
 30
0.0
 11
159.7055194303
 21
2325.0247394241
 31
0.0
  0
LINE
  5
219
330
203
100
AcDbEntity
  8
無題001
  6
CENTER
 62
     1
100
AcDbLine
 10
144.6055194303
 20
2321.0247394241
 30
0.0
 11
163.2055194303
 21
2321.0247394241
 31
0.0
  0
LINE
  5
21A
330
203
100
AcDbEntity
  8
無題001
  6
Continuous
 62
     7
100
AcDbLine
 10
147.1055194303
 20
2318.0247394241
 30
0.0
 11
146.6055194303
 21
2318.0247394241
 31
0.0
  0
ENDBLK
  5
205
330
203
100
AcDbEntity
  8
0
100
AcDbBlockEnd
  0
BLOCK
  5
249
330
248
100
AcDbEntity
  8
0
100
AcDbBlockBegin
  2
BLK3
 70
     0
 10
146.6055194303
 20
2334.6463235145
 30
0.0
  3
BLK3
  1

  0
LINE
  5
24B
330
248
100
AcDbEntity
  8
無題001
  6
Continuous
 62
     7
100
AcDbLine
 10
150.3941945649
 20
2339.6463235145
 30
0.0
 11
150.3941945649
 21
2338.3355314696
 31
0.0
  0
LINE
  5
24C
330
248
100
AcDbEntity
  8
無題001
  6
Continuous
 62
     7
100
AcDbLine
 10
161.7055194303
 20
2339.1463235145
 30
0.0
 11
160.8236194789
 21
2339.1463235145
 31
0.0
  0
LINE
  5
24D
330
248
100
AcDbEntity
  8
無題001
  6
Continuous
 62
     7
100
AcDbLine
 10
147.1055194303
 20
2338.6463235145
 30
0.0
 11
146.6055194303
 21
2338.6463235145
 31
0.0
  0
LINE
  5
24E
330
248
100
AcDbEntity
  8
無題001
  6
Continuous
 62
     7
100
AcDbLine
 10
160.8236194789
 20
2339.6463235145
 30
0.0
 11
150.3941945649
 21
2339.6463235145
 31
0.0
  0
LINE
  5
24F
330
248
100
AcDbEntity
  8
無題001
  6
Continuous
 62
     7
100
AcDbLine
 10
147.1055194303
 20
2339.1463235145
 30
0.0
 11
147.1055194303
 21
2338.3355314696
 31
0.0
  0
LINE
  5
250
330
248
100
AcDbEntity
  8
無題001
  6
Continuous
 62
     7
100
AcDbLine
 10
160.8236194789
 20
2338.3355314696
 30
0.0
 11
160.8236194789
 21
2339.6463235145
 31
0.0
  0
LINE
  5
251
330
248
100
AcDbEntity
  8
無題001
  6
Continuous
 62
     7
100
AcDbLine
 10
146.6055194303
 20
2338.6463235145
 30
0.0
 11
146.6055194303
 21
2330.6463235145
 31
0.0
  0
LINE
  5
252
330
248
100
AcDbEntity
  8
無題001
  6
Continuous
 62
     7
100
AcDbLine
 10
161.7055194303
 20
2338.3355314696
 30
0.0
 11
161.7055194303
 21
2339.6463235145
 31
0.0
  0
LINE
  5
253
330
248
100
AcDbEntity
  8
無題001
  6
Continuous
 62
     7
100
AcDbLine
 10
150.1055194303
 20
2339.1463235145
 30
0.0
 11
147.1055194303
 21
2339.1463235145
 31
0.0
  0
LINE
  5
254
330
248
100
AcDbEntity
  8
無題001
  6
Continuous
 62
     7
100
AcDbLine
 10
150.3941945649
 20
2339.6463235145
 30
0.0
 11
150.1055194303
 21
2339.1463235145
 31
0.0
  0
LINE
  5
255
330
248
100
AcDbEntity
  8
無題001
  6
Continuous
 62
     7
100
AcDbLine
 10
161.7055194303
 20
2338.3355314696
 30
0.0
 11
161.7055194303
 21
2339.1463235145
 31
0.0
  0
LINE
  5
256
330
248
100
AcDbEntity
  8
無題001
  6
Continuous
 62
     7
100
AcDbLine
 10
150.1055194303
 20
2339.1463235145
 30
0.0
 11
150.1055194303
 21
2338.3355314696
 31
0.0
  0
LINE
  5
257
330
248
100
AcDbEntity
  8
無題001
  6
Continuous
 62
     7
100
AcDbLine
 10
163.2055194303
 20
2338.3355314696
 30
0.0
 11
163.2055194303
 21
2339.6463235145
 31
0.0
  0
LINE
  5
258
330
248
100
AcDbEntity
  8
無題001
  6
Continuous
 62
     7
100
AcDbLine
 10
163.2055194303
 20
2339.6463235145
 30
0.0
 11
161.7055194303
 21
2339.6463235145
 31
0.0
  0
ENDBLK
  5
24A
330
248
100
AcDbEntity
  8
0
100
AcDbBlockEnd
  0
BLOCK
  5
2F0
330
2EF
100
AcDbEntity
  8
0
100
AcDbBlockBegin
  2
_D8
 70
     0
 10
0.0
 20
0.0
 30
0.0
  3
_D8
  1

  0
LINE
  5
2F2
330
2EF
100
AcDbEntity
  8
無題001
  6
Continuous
 62
     4
100
AcDbLine
 10
40.4340168152
 20
2333.2355314696
 30
0.0
 11
40.4340168152
 21
2322.4355314696
 31
0.0
  0
INSERT
  5
2F3
330
2EF
100
AcDbEntity
  8
無題001
  6
Continuous
 62
     4
100
AcDbBlockReference
  2
_OPEN30
 10
40.4340168152
 20
2333.2355314696
 30
0.0
 41
1.969615506024638
 42
1.969615506024638
 43
1.969615506024638
 50
90.0
  0
INSERT
  5
2F4
330
2EF
100
AcDbEntity
  8
無題001
  6
Continuous
 62
     4
100
AcDbBlockReference
  2
_OPEN30
 10
40.4340168152
 20
2322.4355314696
 30
0.0
 41
1.969615506024638
 42
1.969615506024638
 43
1.969615506024638
 50
270.0
  0
LINE
  5
2F5
330
2EF
100
AcDbEntity
  8
無題001
  6
Continuous
 62
     4
100
AcDbLine
 10
65.1268371382
 20
2333.2355314696
 30
0.0
 11
39.4340168152
 21
2333.2355314696
 31
0.0
  0
LINE
  5
2F6
330
2EF
100
AcDbEntity
  8
無題001
  6
Continuous
 62
     4
100
AcDbLine
 10
65.1268371382
 20
2322.4355314696
 30
0.0
 11
39.4340168152
 21
2322.4355314696
 31
0.0
  0
MTEXT
  5
2F7
330
2EF
100
AcDbEntity
  8
無題001
  6
Continuous
 62
     4
100
AcDbMText
 10
39.7315528152
 20
2323.1315314696
 30
0.0
 40
3.136
 41
0.0
 71
     7
 72
     5
  1
{\fＭＳ ゴシック|b0|i0|c128|p49;\W1.0;φ10.8}
  7
MTSTANDARD1
 11
0.0
 21
1.0
 31
0.0
 73
     1
 44
0.8
  0
POINT
  5
2F8
330
2EF
100
AcDbEntity
  8
DEFPOINTS
  6
Continuous
 62
     4
100
AcDbPoint
 10
65.1268371382
 20
2333.2355314696
 30
0.0
  0
POINT
  5
2F9
330
2EF
100
AcDbEntity
  8
DEFPOINTS
  6
Continuous
 62
     4
100
AcDbPoint
 10
65.1268371382
 20
2322.4355314696
 30
0.0
  0
POINT
  5
2FA
330
2EF
100
AcDbEntity
  8
DEFPOINTS
  6
Continuous
 62
     4
100
AcDbPoint
 10
40.4340168152
 20
2322.4355314696
 30
0.0
  0
ENDBLK
  5
2F1
330
2EF
100
AcDbEntity
  8
0
100
AcDbBlockEnd
  0
BLOCK
  5
2FE
330
2FD
100
AcDbEntity
  8
0
100
AcDbBlockBegin
  2
_D9
 70
     0
 10
0.0
 20
0.0
 30
0.0
  3
_D9
  1

  0
LINE
  5
300
330
2FD
100
AcDbEntity
  8
無題001
  6
Continuous
 62
     4
100
AcDbLine
 10
-41.1743211532
 20
2290.6985649734
 30
0.0
 11
-31.1743211531
 21
2290.6985649734
 31
0.0
  0
INSERT
  5
301
330
2FD
100
AcDbEntity
  8
無題001
  6
Continuous
 62
     4
100
AcDbBlockReference
  2
_OPEN30
 10
-41.1743211532
 20
2290.6985649734
 30
0.0
 41
1.969615506024418
 42
1.969615506024418
 43
1.969615506024418
 50
180.0
  0
INSERT
  5
302
330
2FD
100
AcDbEntity
  8
無題001
  6
Continuous
 62
     4
100
AcDbBlockReference
  2
_OPEN30
 10
-31.1743211531
 20
2290.6985649734
 30
0.0
 41
1.969615506024414
 42
1.969615506024414
 43
1.969615506024414
  0
LINE
  5
303
330
2FD
100
AcDbEntity
  8
無題001
  6
Continuous
 62
     4
100
AcDbLine
 10
-41.1743211532
 20
2325.7959236642
 30
0.0
 11
-41.1743211532
 21
2289.6985649734
 31
0.0
  0
LINE
  5
304
330
2FD
100
AcDbEntity
  8
無題001
  6
Continuous
 62
     4
100
AcDbLine
 10
-31.1743211531
 20
2325.7959236642
 30
0.0
 11
-31.1743211531
 21
2289.6985649734
 31
0.0
  0
MTEXT
  5
305
330
2FD
100
AcDbEntity
  8
無題001
  6
Continuous
 62
     4
100
AcDbMText
 10
-37.74232115314999
 20
2291.4010289734
 30
0.0
 40
3.136
 41
0.0
 71
     7
 72
     5
  1
{\fＭＳ ゴシック|b0|i0|c128|p49;\W1.0;10}
  7
MTSTANDARD1
 73
     1
 44
0.8
  0
POINT
  5
306
330
2FD
100
AcDbEntity
  8
DEFPOINTS
  6
Continuous
 62
     4
100
AcDbPoint
 10
-41.1743211532
 20
2325.7959236642
 30
0.0
  0
POINT
  5
307
330
2FD
100
AcDbEntity
  8
DEFPOINTS
  6
Continuous
 62
     4
100
AcDbPoint
 10
-31.1743211531
 20
2325.7959236642
 30
0.0
  0
POINT
  5
308
330
2FD
100
AcDbEntity
  8
DEFPOINTS
  6
Continuous
 62
     4
100
AcDbPoint
 10
-31.1743211531
 20
2290.6985649734
 30
0.0
  0
ENDBLK
  5
2FF
330
2FD
100
AcDbEntity
  8
0
100
AcDbBlockEnd
  0
BLOCK
  5
30B
330
30A
100
AcDbEntity
  8
0
100
AcDbBlockBegin
  2
_D10
 70
     0
 10
0.0
 20
0.0
 30
0.0
  3
_D10
  1

  0
ARC
  5
30D
330
30A
100
AcDbEntity
  8
無題001
  6
Continuous
 62
     4
100
AcDbCircle
 10
-36.1743211532
 20
2327.8355314882
 30
0.0
 40
30.73351019827416
100
AcDbArc
 50
67.50000001154473
 51
89.99999999980552
  0
INSERT
  5
30E
330
30A
100
AcDbEntity
  8
無題001
  6
Continuous
 62
     4
100
AcDbBlockReference
  2
_OPEN30
 10
-24.41311598761817
 20
2356.229592524982
 30
0.0
 41
1.969615506024422
 42
1.969615506024422
 43
1.969615506024422
 50
337.500000011544
  0
INSERT
  5
30F
330
30A
100
AcDbEntity
  8
無題001
  6
Continuous
 62
     4
100
AcDbBlockReference
  2
_OPEN30
 10
-36.17432115309568
 20
2358.569041686475
 30
0.0
 41
1.969615506024418
 42
1.969615506024418
 43
1.969615506024418
 50
179.9999999998148
  0
LINE
  5
310
330
30A
100
AcDbEntity
  8
無題001
  6
Continuous
 62
     4
100
AcDbLine
 10
-25.1147699839
 20
2354.5356499301
 30
0.0
 11
-24.03043255543922
 21
2357.153472057571
 31
0.0
  0
MTEXT
  5
311
330
30A
100
AcDbEntity
  8
無題001
  6
Continuous
 62
     4
100
AcDbMText
 10
-27.86661248365752
 20
2360.07451718836
 30
0.0
 40
3.136
 41
0.0
 71
     7
 72
     5
  1
{\fＭＳ ゴシック|b0|i0|c128|p49;\W1.0;22.5°}
  7
MTSTANDARD1
 11
0.9150973438048497
 21
-0.4032329988496832
 31
0.0
 73
     1
 44
0.8
  0
POINT
  5
312
330
30A
100
AcDbEntity
  8
DEFPOINTS
  6
Continuous
 62
     4
100
AcDbPoint
 10
-25.1147699839
 20
2354.5356499301
 30
0.0
  0
POINT
  5
313
330
30A
100
AcDbEntity
  8
DEFPOINTS
  6
Continuous
 62
     4
100
AcDbPoint
 10
-36.1743211531
 20
2357.2969393537
 30
0.0
  0
POINT
  5
314
330
30A
100
AcDbEntity
  8
DEFPOINTS
  6
Continuous
 62
     4
100
AcDbPoint
 10
-36.1743211532
 20
2327.8355314882
 30
0.0
  0
POINT
  5
315
330
30A
100
AcDbEntity
  8
DEFPOINTS
  6
Continuous
 62
     4
100
AcDbPoint
 10
-30.17851075491838
 20
2357.978505906384
 30
0.0
  0
ENDBLK
  5
30C
330
30A
100
AcDbEntity
  8
0
100
AcDbBlockEnd
  0
BLOCK
  5
319
330
318
100
AcDbEntity
  8
0
100
AcDbBlockBegin
  2
_D11
 70
     0
 10
0.0
 20
0.0
 30
0.0
  3
_D11
  1

  0
ARC
  5
31B
330
318
100
AcDbEntity
  8
無題001
  6
Continuous
 62
     4
100
AcDbCircle
 10
-36.1743211668
 20
2327.8355314552
 30
0.0
 40
30.7335102338904
100
AcDbArc
 50
22.50000001748722
 51
67.50000001171479
  0
INSERT
  5
31C
330
318
100
AcDbEntity
  8
無題001
  6
Continuous
 62
     4
100
AcDbBlockReference
  2
_OPEN30
 10
-7.780260103072123
 20
2339.596736648799
 30
0.0
 41
1.969615506024176
 42
1.969615506024176
 43
1.969615506024176
 50
292.5000000174902
  0
INSERT
  5
31D
330
318
100
AcDbEntity
  8
無題001
  6
Continuous
 62
     4
100
AcDbBlockReference
  2
_OPEN30
 10
-24.41311598767267
 20
2356.229592524922
 30
0.0
 41
1.969615506024399
 42
1.969615506024399
 43
1.969615506024399
 50
157.5000000117156
  0
LINE
  5
31E
330
318
100
AcDbEntity
  8
無題001
  6
Continuous
 62
     4
100
AcDbLine
 10
-9.4742026975
 20
2338.8950826517
 30
0.0
 11
-6.85638057067762
 21
2339.979420081446
 31
0.0
  0
LINE
  5
31F
330
318
100
AcDbEntity
  8
無題001
  6
Continuous
 62
     4
100
AcDbLine
 10
-25.3390231402
 20
2353.9942549185
 30
0.0
 11
-24.03043255549649
 21
2357.153472057512
 31
0.0
  0
MTEXT
  5
320
330
318
100
AcDbEntity
  8
無題001
  6
Continuous
 62
     4
100
AcDbMText
 10
-16.16321748467796
 20
2352.281608880201
 30
0.0
 40
3.136
 41
0.0
 71
     7
 72
     5
  1
{\fＭＳ ゴシック|b0|i0|c128|p49;\W1.0;45°}
  7
MTSTANDARD1
 11
0.7071067813658183
 21
-0.7071067810072766
 31
0.0
 73
     1
 44
0.8
  0
POINT
  5
321
330
318
100
AcDbEntity
  8
DEFPOINTS
  6
Continuous
 62
     4
100
AcDbPoint
 10
-9.4742026975
 20
2338.8950826517
 30
0.0
  0
POINT
  5
322
330
318
100
AcDbEntity
  8
DEFPOINTS
  6
Continuous
 62
     4
100
AcDbPoint
 10
-25.3390231402
 20
2353.9942549185
 30
0.0
  0
POINT
  5
323
330
318
100
AcDbEntity
  8
DEFPOINTS
  6
Continuous
 62
     4
100
AcDbPoint
 10
-36.1743211668
 20
2327.8355314552
 30
0.0
  0
POINT
  5
324
330
318
100
AcDbEntity
  8
DEFPOINTS
  6
Continuous
 62
     4
100
AcDbPoint
 10
-14.442447676288
 20
2349.567404956788
 30
0.0
  0
ENDBLK
  5
31A
330
318
100
AcDbEntity
  8
0
100
AcDbBlockEnd
  0
BLOCK
  5
358
330
357
100
AcDbEntity
  8
0
100
AcDbBlockBegin
  2
_D12
 70
     0
 10
0.0
 20
0.0
 30
0.0
  3
_D12
  1

  0
LINE
  5
35A
330
357
100
AcDbEntity
  8
無題001
  6
ByBlock
 62
     4
100
AcDbLine
 10
97.6055194303
 20
2288.4355314696
 30
0.0
 11
71.1055194303
 21
2288.4355314696
 31
0.0
  0
INSERT
  5
35B
330
357
100
AcDbEntity
  8
無題001
  6
ByBlock
 62
     4
100
AcDbBlockReference
  2
_OPEN30
 10
97.6055194303
 20
2288.4355314696
 30
0.0
 41
1.969615506024411
 42
1.969615506024411
 43
1.969615506024411
  0
INSERT
  5
35C
330
357
100
AcDbEntity
  8
無題001
  6
ByBlock
 62
     4
100
AcDbBlockReference
  2
_OPEN30
 10
71.1055194303
 20
2288.4355314696
 30
0.0
 41
1.969615506024411
 42
1.969615506024411
 43
1.969615506024411
 50
180.0
  0
LINE
  5
35D
330
357
100
AcDbEntity
  8
無題001
  6
ByBlock
 62
     4
100
AcDbLine
 10
97.6055194303
 20
2300.9355314696
 30
0.0
 11
97.60551943029999
 21
2287.4355314696
 31
0.0
  0
LINE
  5
35E
330
357
100
AcDbEntity
  8
無題001
  6
ByBlock
 62
     4
100
AcDbLine
 10
71.1055194303
 20
2310.8355314696
 30
0.0
 11
71.1055194303
 21
2287.4355314696
 31
0.0
  0
MTEXT
  5
35F
330
357
100
AcDbEntity
  8
無題001
  6
Continuous
 62
     4
100
AcDbMText
 10
81.21951943030001
 20
2289.2195314696
 30
0.0
 40
3.136
 41
0.0
 71
     7
 72
     5
  1
{\fＭＳ ゴシック|b0|i0|c128|p49;\W1.0;26.5}
  7
MTSTANDARD1
 73
     1
 44
0.7435825892857143
  0
POINT
  5
360
330
357
100
AcDbEntity
  8
DEFPOINTS
  6
ByBlock
 62
     4
100
AcDbPoint
 10
97.6055194303
 20
2300.9355314696
 30
0.0
  0
POINT
  5
361
330
357
100
AcDbEntity
  8
DEFPOINTS
  6
ByBlock
 62
     4
100
AcDbPoint
 10
71.1055194303
 20
2310.8355314696
 30
0.0
  0
POINT
  5
362
330
357
100
AcDbEntity
  8
DEFPOINTS
  6
ByBlock
 62
     4
100
AcDbPoint
 10
71.1055194303
 20
2288.4355314696
 30
0.0
  0
ENDBLK
  5
359
330
357
100
AcDbEntity
  8
0
100
AcDbBlockEnd
  0
BLOCK
  5
366
330
365
100
AcDbEntity
  8
0
100
AcDbBlockBegin
  2
_D13
 70
     0
 10
0.0
 20
0.0
 30
0.0
  3
_D13
  1

  0
LINE
  5
368
330
365
100
AcDbEntity
  8
無題001
  6
ByBlock
 62
     4
100
AcDbLine
 10
97.6055194303
 20
2288.4355314696
 30
0.0
 11
169.1055194303
 21
2288.4355314696
 31
0.0
  0
INSERT
  5
369
330
365
100
AcDbEntity
  8
無題001
  6
ByBlock
 62
     4
100
AcDbBlockReference
  2
_OPEN30
 10
97.6055194303
 20
2288.4355314696
 30
0.0
 41
1.969615506024411
 42
1.969615506024411
 43
1.969615506024411
 50
180.0
  0
INSERT
  5
36A
330
365
100
AcDbEntity
  8
無題001
  6
ByBlock
 62
     4
100
AcDbBlockReference
  2
_OPEN30
 10
169.1055194303
 20
2288.4355314696
 30
0.0
 41
1.969615506024411
 42
1.969615506024411
 43
1.969615506024411
  0
LINE
  5
36B
330
365
100
AcDbEntity
  8
無題001
  6
ByBlock
 62
     4
100
AcDbLine
 10
97.6055194303
 20
2300.9355314696
 30
0.0
 11
97.60551943029999
 21
2287.4355314696
 31
0.0
  0
LINE
  5
36C
330
365
100
AcDbEntity
  8
無題001
  6
ByBlock
 62
     4
100
AcDbLine
 10
169.1055194303
 20
2321.3355314696
 30
0.0
 11
169.1055194303
 21
2287.4355314696
 31
0.0
  0
MTEXT
  5
36D
330
365
100
AcDbEntity
  8
無題001
  6
Continuous
 62
     4
100
AcDbMText
 10
130.2195194303
 20
2289.2195314696
 30
0.0
 40
3.136
 41
0.0
 71
     7
 72
     5
  1
{\fＭＳ ゴシック|b0|i0|c128|p49;\W1.0;71.5}
  7
MTSTANDARD1
 73
     1
 44
0.7435825892857143
  0
POINT
  5
36E
330
365
100
AcDbEntity
  8
DEFPOINTS
  6
ByBlock
 62
     4
100
AcDbPoint
 10
97.6055194303
 20
2300.9355314696
 30
0.0
  0
POINT
  5
36F
330
365
100
AcDbEntity
  8
DEFPOINTS
  6
ByBlock
 62
     4
100
AcDbPoint
 10
169.1055194303
 20
2321.3355314696
 30
0.0
  0
POINT
  5
370
330
365
100
AcDbEntity
  8
DEFPOINTS
  6
ByBlock
 62
     4
100
AcDbPoint
 10
169.1055194303
 20
2288.4355314696
 30
0.0
  0
ENDBLK
  5
367
330
365
100
AcDbEntity
  8
0
100
AcDbBlockEnd
  0
BLOCK
  5
373
330
372
100
AcDbEntity
  8
0
100
AcDbBlockBegin
  2
_D14
 70
     0
 10
0.0
 20
0.0
 30
0.0
  3
_D14
  1

  0
LINE
  5
375
330
372
100
AcDbEntity
  8
無題001
  6
ByBlock
 62
     4
100
AcDbLine
 10
-76.41377848549935
 20
2319.067043732669
 30
0.0
 11
-58.42765716399934
 21
2362.489381760169
 31
0.0
  0
INSERT
  5
376
330
372
100
AcDbEntity
  8
無題001
  6
ByBlock
 62
     4
100
AcDbBlockReference
  2
_OPEN30
 10
-76.41377848549935
 20
2319.067043732669
 30
0.0
 41
1.969615506024339
 42
1.969615506024339
 43
1.969615506024339
 50
247.4999999993675
  0
INSERT
  5
377
330
372
100
AcDbEntity
  8
無題001
  6
ByBlock
 62
     4
100
AcDbBlockReference
  2
_OPEN30
 10
-58.42765716399934
 20
2362.489381760169
 30
0.0
 41
1.969615506024337
 42
1.969615506024337
 43
1.969615506024337
 50
67.49999999936766
  0
LINE
  5
378
330
372
100
AcDbEntity
  8
無題001
  6
ByBlock
 62
     4
100
AcDbLine
 10
-45.1673818139
 20
2306.1243624556
 30
0.0
 11
-77.33765801800641
 21
2319.449727165045
 31
0.0
  0
LINE
  5
379
330
372
100
AcDbEntity
  8
無題001
  6
ByBlock
 62
     4
100
AcDbLine
 10
-27.1812604924
 20
2349.5467004831
 30
0.0
 11
-59.35153669650641
 21
2362.872065192544
 31
0.0
  0
MTEXT
  5
37A
330
372
100
AcDbEntity
  8
無題001
  6
Continuous
 62
     4
100
AcDbMText
 10
-69.64515843314595
 20
2337.456628789974
 30
0.0
 40
3.136
 41
0.0
 71
     7
 72
     5
  1
{\fＭＳ ゴシック|b0|i0|c128|p49;\W1.0;PCD47}
  7
MTSTANDARD1
 11
0.3826834323752706
 21
0.9238795325070694
 31
0.0
 73
     1
 44
0.7435825892857143
  0
POINT
  5
37B
330
372
100
AcDbEntity
  8
DEFPOINTS
  6
ByBlock
 62
     4
100
AcDbPoint
 10
-45.1673818139
 20
2306.1243624556
 30
0.0
  0
POINT
  5
37C
330
372
100
AcDbEntity
  8
DEFPOINTS
  6
ByBlock
 62
     4
100
AcDbPoint
 10
-27.1812604924
 20
2349.5467004831
 30
0.0
  0
POINT
  5
37D
330
372
100
AcDbEntity
  8
DEFPOINTS
  6
ByBlock
 62
     4
100
AcDbPoint
 10
-58.42765716399934
 20
2362.489381760169
 30
0.0
  0
ENDBLK
  5
374
330
372
100
AcDbEntity
  8
0
100
AcDbBlockEnd
  0
ENDSEC
  0
SECTION
  2
ENTITIES
  0
INSERT
  5
C6
330
1F
100
AcDbEntity
  8
無題001
  6
Continuous
 62
     7
100
AcDbBlockReference
  2
BLK0
 10
146.6055194303
 20
2216.046882497882
 30
0.0
  0
LINE
  5
C7
330
1F
100
AcDbEntity
  8
無題001
  6
Continuous
 62
     7
100
AcDbLine
 10
65.1268371382
 20
2323.4355316782
 30
0.0
 11
65.1268371382
 21
2332.2355316782
 31
0.0
  0
LINE
  5
C8
330
1F
100
AcDbEntity
  8
無題001
  6
Continuous
 62
     4
100
AcDbLine
 10
69.0340168152
 20
2329.875139275
 30
0.0
 11
66.3340168152
 21
2325.7959236641
 31
0.0
  0
LINE
  5
C9
330
1F
100
AcDbEntity
  8
無題001
  6
Continuous
 62
     4
100
AcDbLine
 10
69.0340168152
 20
2325.7959236641
 30
0.0
 11
66.3340168152
 21
2329.875139275
 31
0.0
  0
LINE
  5
CA
330
1F
100
AcDbEntity
  8
無題001
  6
Continuous
 62
   251
100
AcDbLine
 10
66.3340168152
 20
2329.875139275
 30
0.0
 11
69.0340168152
 21
2329.875139275
 31
0.0
  0
DIMENSION
  5
DB
330
1F
100
AcDbEntity
  8
無題001
  6
Continuous
 62
     4
100
AcDbDimension
  2
_D1
 10
62.4340168152
 20
2288.4355314696
 30
0.0
 11
67.064243032094
 21
2290.52934291632
 31
0.0
 70
   160
  1
(<>)
 71
     5
 42
-1.0
 52
90.0
  3
DIMSTYEX_1
100
AcDbAlignedDimension
 13
71.1055194303
 23
2310.9355314696
 33
0.0
 14
62.4340168152
 24
2324.4128817388
 34
0.0
 50
180.0
100
AcDbRotatedDimension
1001
ACAD
1000
DSTYLE
1002
{
1070
   343
1005
85
1070
   344
1005
85
1070
   271
1070
     1
1070
    43
1040
0.0
1070
   173
1070
     1
1070
   272
1070
     1
1070
   279
1070
     2
1070
   340
1005
D9
1070
   140
1040
2.809856
1002
}
  0
LINE
  5
DC
330
1F
100
AcDbEntity
  8
無題001
  6
Continuous
 62
     7
100
AcDbLine
 10
66.1840168152
 20
2333.2355314696
 30
0.0
 11
65.1268371382
 21
2333.2355314696
 31
0.0
  0
ARC
  5
DD
330
1F
100
AcDbEntity
  8
無題001
  6
Continuous
 62
     7
100
AcDbCircle
 10
65.1268371382
 20
2323.4355314696
 30
0.0
 40
1.0
100
AcDbArc
 50
240.0000000001035
 51
270.0
  0
ARC
  5
DE
330
1F
100
AcDbEntity
  8
無題001
  6
Continuous
 62
     7
100
AcDbCircle
 10
65.1268371382
 20
2332.2355314696
 30
0.0
 40
1.0
100
AcDbArc
 50
90.0
 51
119.9999999998965
  0
LINE
  5
DF
330
1F
100
AcDbEntity
  8
無題001
  6
PHANTOM
 62
     3
100
AcDbLine
 10
68.8840168152
 20
2322.4355314696
 30
0.0
 11
69.0340168152
 21
2322.5855314696
 31
0.0
  0
LINE
  5
E0
330
1F
100
AcDbEntity
  8
無題001
  6
Continuous
 62
     7
100
AcDbLine
 10
62.4340168152
 20
2324.4128817388
 30
0.0
 11
62.4340168152
 21
2331.2581812004
 31
0.0
  0
LINE
  5
E1
330
1F
100
AcDbEntity
  8
無題001
  6
Continuous
 62
     7
100
AcDbLine
 10
69.0340168152
 20
2322.5855314696
 30
0.0
 11
69.1840168152
 21
2322.4355314696
 31
0.0
  0
LINE
  5
E2
330
1F
100
AcDbEntity
  8
無題001
  6
Continuous
 62
     7
100
AcDbLine
 10
66.3340168152
 20
2333.0855314696
 30
0.0
 11
66.3340168152
 21
2322.5855314696
 31
0.0
  0
LINE
  5
E3
330
1F
100
AcDbEntity
  8
無題001
  6
PHANTOM
 62
     3
100
AcDbLine
 10
68.8840168152
 20
2322.4355314696
 30
0.0
 11
66.4840168152
 21
2322.4355314696
 31
0.0
  0
LINE
  5
E4
330
1F
100
AcDbEntity
  8
無題001
  6
Continuous
 62
     7
100
AcDbLine
 10
66.1840168152
 20
2322.4355314696
 30
0.0
 11
65.1268371382
 21
2322.4355314696
 31
0.0
  0
LINE
  5
E5
330
1F
100
AcDbEntity
  8
無題001
  6
Continuous
 62
     7
100
AcDbLine
 10
69.0340168152
 20
2333.0855314696
 30
0.0
 11
69.0340168152
 21
2322.5855314696
 31
0.0
  0
LINE
  5
E6
330
1F
100
AcDbEntity
  8
無題001
  6
Continuous
 62
     7
100
AcDbLine
 10
62.9340168152
 20
2323.546856335
 30
0.0
 11
64.6268371382
 21
2322.5695060658
 31
0.0
  0
LINE
  5
E7
330
1F
100
AcDbEntity
  8
無題001
  6
PHANTOM
 62
     3
100
AcDbLine
 10
66.3340168152
 20
2322.5855314696
 30
0.0
 11
66.4840168152
 21
2322.4355314696
 31
0.0
  0
LINE
  5
E8
330
1F
100
AcDbEntity
  8
無題001
  6
Continuous
 62
     7
100
AcDbLine
 10
69.6055194303
 20
2333.2355314696
 30
0.0
 11
69.1788882002
 21
2333.2355314696
 31
0.0
  0
LINE
  5
E9
330
1F
100
AcDbEntity
  8
無題001
  6
Continuous
 62
     7
100
AcDbLine
 10
66.3340168152
 20
2332.8355314696
 30
0.0
 11
69.0340168152
 21
2332.8355314696
 31
0.0
  0
LINE
  5
EA
330
1F
100
AcDbEntity
  8
無題001
  6
Continuous
 62
     7
100
AcDbLine
 10
66.1840168152
 20
2333.2355314696
 30
0.0
 11
66.3340168152
 21
2333.0855314696
 31
0.0
  0
ARC
  5
EB
330
1F
100
AcDbEntity
  8
無題001
  6
Continuous
 62
     7
100
AcDbCircle
 10
63.4340168152
 20
2324.4128817388
 30
0.0
 40
1.0
100
AcDbArc
 50
179.9999999959875
 51
240.0000000001039
  0
ARC
  5
EC
330
1F
100
AcDbEntity
  8
無題001
  6
Continuous
 62
     7
100
AcDbCircle
 10
63.4340168152
 20
2331.2581812004
 30
0.0
 40
1.0
100
AcDbArc
 50
119.9999999998961
 51
180.0000000040125
  0
LINE
  5
ED
330
1F
100
AcDbEntity
  8
無題001
  6
Continuous
 62
     7
100
AcDbLine
 10
66.1840168152
 20
2322.4355314696
 30
0.0
 11
66.3340168152
 21
2322.5855314696
 31
0.0
  0
LINE
  5
EE
330
1F
100
AcDbEntity
  8
無題001
  6
PHANTOM
 62
     3
100
AcDbLine
 10
66.3340168152
 20
2333.0855314696
 30
0.0
 11
66.4840168152
 21
2333.2355314696
 31
0.0
  0
LINE
  5
EF
330
1F
100
AcDbEntity
  8
無題001
  6
Continuous
 62
     7
100
AcDbLine
 10
62.9340168152
 20
2332.1242066042
 30
0.0
 11
64.6268371382
 21
2333.1015568734
 31
0.0
  0
LINE
  5
F0
330
1F
100
AcDbEntity
  8
無題001
  6
Continuous
 62
     7
100
AcDbLine
 10
66.3340168152
 20
2322.8355314696
 30
0.0
 11
69.0340168152
 21
2322.8355314696
 31
0.0
  0
LINE
  5
F1
330
1F
100
AcDbEntity
  8
無題001
  6
Continuous
 62
     7
100
AcDbLine
 10
69.6055194303
 20
2322.4355314696
 30
0.0
 11
69.1788882002
 21
2322.4355314696
 31
0.0
  0
LINE
  5
F2
330
1F
100
AcDbEntity
  8
無題001
  6
PHANTOM
 62
     3
100
AcDbLine
 10
68.8840168152
 20
2333.2355314696
 30
0.0
 11
66.4840168152
 21
2333.2355314696
 31
0.0
  0
LINE
  5
F3
330
1F
100
AcDbEntity
  8
無題001
  6
Continuous
 62
     7
100
AcDbLine
 10
69.0340168152
 20
2333.0855314696
 30
0.0
 11
69.1840168152
 21
2333.2355314696
 31
0.0
  0
LINE
  5
F4
330
1F
100
AcDbEntity
  8
無題001
  6
PHANTOM
 62
     3
100
AcDbLine
 10
68.8840168152
 20
2333.2355314696
 30
0.0
 11
69.0340168152
 21
2333.0855314696
 31
0.0
  0
LINE
  5
F5
330
1F
100
AcDbEntity
  8
無題001
  6
CENTER
 62
     1
100
AcDbLine
 10
43.4340168152
 20
2327.8355314696
 30
0.0
 11
183.1055194303
 21
2327.8355314696
 31
0.0
  0
LINE
  5
F6
330
1F
100
AcDbEntity
  8
無題001
  6
Continuous
 62
   251
100
AcDbLine
 10
66.3340168152
 20
2325.7959236641
 30
0.0
 11
69.0340168152
 21
2325.7959236641
 31
0.0
  0
LINE
  5
F7
330
1F
100
AcDbEntity
  8
無題001
  6
Continuous
 62
     7
100
AcDbLine
 10
121.8055194303
 20
2347.8355314696
 30
0.0
 11
122.1055194303
 21
2347.5355314696
 31
0.0
  0
LINE
  5
F8
330
1F
100
AcDbEntity
  8
無題001
  6
Continuous
 62
     7
100
AcDbLine
 10
115.1055194303
 20
2347.5355314696
 30
0.0
 11
115.4055194303
 21
2347.8355314696
 31
0.0
  0
LINE
  5
F9
330
1F
100
AcDbEntity
  8
無題001
  6
Continuous
 62
     7
100
AcDbLine
 10
121.8055194303
 20
2347.8355314696
 30
0.0
 11
115.4055194303
 21
2347.8355314696
 31
0.0
  0
LINE
  5
FA
330
1F
100
AcDbEntity
  8
無題001
  6
Continuous
 62
     7
100
AcDbLine
 10
115.4055194303
 20
2307.8355314696
 30
0.0
 11
121.8055194303
 21
2307.8355314696
 31
0.0
  0
LINE
  5
FB
330
1F
100
AcDbEntity
  8
無題001
  6
Continuous
 62
     7
100
AcDbLine
 10
122.1055194303
 20
2308.1355314696
 30
0.0
 11
121.8055194303
 21
2307.8355314696
 31
0.0
  0
LINE
  5
FC
330
1F
100
AcDbEntity
  8
無題001
  6
Continuous
 62
     7
100
AcDbLine
 10
122.1055194303
 20
2347.5355314696
 30
0.0
 11
122.1055194303
 21
2308.1355314696
 31
0.0
  0
LINE
  5
FD
330
1F
100
AcDbEntity
  8
無題001
  6
Continuous
 62
     7
100
AcDbLine
 10
115.1055194303
 20
2308.1355314696
 30
0.0
 11
115.1055194303
 21
2347.5355314696
 31
0.0
  0
LINE
  5
FE
330
1F
100
AcDbEntity
  8
無題001
  6
Continuous
 62
     7
100
AcDbLine
 10
114.8055194303
 20
2347.8355314696
 30
0.0
 11
115.1055194303
 21
2347.5355314696
 31
0.0
  0
LINE
  5
FF
330
1F
100
AcDbEntity
  8
無題001
  6
Continuous
 62
     7
100
AcDbLine
 10
97.6055194303
 20
2347.8355314696
 30
0.0
 11
114.8055194303
 21
2347.8355314696
 31
0.0
  0
LINE
  5
100
330
1F
100
AcDbEntity
  8
無題001
  6
Continuous
 62
     7
100
AcDbLine
 10
97.6055194303
 20
2307.8355314696
 30
0.0
 11
114.8055194303
 21
2307.8355314696
 31
0.0
  0
DIMENSION
  5
10D
330
1F
100
AcDbEntity
  8
無題001
  6
Continuous
 62
     4
100
AcDbDimension
  2
_D2
 10
62.4340168152
 20
2280.4355314696
 30
0.0
 11
121.76976812275
 21
2282.7059954696
 31
0.0
 70
   160
 71
     5
 42
-1.0
 52
90.0
  3
DIMSTYEX_1
100
AcDbAlignedDimension
 13
181.1055194303
 23
2323.9355314696
 33
0.0
 14
62.4340168152
 24
2324.4128817388
 34
0.0
 50
180.0
100
AcDbRotatedDimension
1001
ACAD
1000
DSTYLE
1002
{
1070
   343
1005
85
1070
   344
1005
85
1070
   271
1070
     1
1070
    43
1040
0.0
1070
   173
1070
     1
1070
   272
1070
     1
1070
   279
1070
     2
1070
   340
1005
D9
1070
   140
1040
2.809856
1002
}
  0
LINE
  5
10E
330
1F
100
AcDbEntity
  8
無題001
  6
Continuous
 62
     7
100
AcDbLine
 10
136.3055194303
 20
2347.8355314696
 30
0.0
 11
136.6055194303
 21
2347.5355314696
 31
0.0
  0
LINE
  5
10F
330
1F
100
AcDbEntity
  8
無題001
  6
Continuous
 62
     7
100
AcDbLine
 10
122.1055194303
 20
2347.5355314696
 30
0.0
 11
122.4055194303
 21
2347.8355314696
 31
0.0
  0
LINE
  5
110
330
1F
100
AcDbEntity
  8
無題001
  6
Continuous
 62
     7
100
AcDbLine
 10
136.3055194303
 20
2347.8355314696
 30
0.0
 11
122.4055194303
 21
2347.8355314696
 31
0.0
  0
LINE
  5
111
330
1F
100
AcDbEntity
  8
無題001
  6
Continuous
 62
     7
100
AcDbLine
 10
122.4055194303
 20
2307.8355314696
 30
0.0
 11
122.1055194303
 21
2308.1355314696
 31
0.0
  0
LINE
  5
112
330
1F
100
AcDbEntity
  8
無題001
  6
Continuous
 62
     7
100
AcDbLine
 10
122.4055194303
 20
2307.8355314696
 30
0.0
 11
136.3055194303
 21
2307.8355314696
 31
0.0
  0
LINE
  5
113
330
1F
100
AcDbEntity
  8
無題001
  6
Continuous
 62
     7
100
AcDbLine
 10
122.1055194303
 20
2308.1355314696
 30
0.0
 11
122.1055194303
 21
2347.5355314696
 31
0.0
  0
LINE
  5
114
330
1F
100
AcDbEntity
  8
無題001
  6
Continuous
 62
     7
100
AcDbLine
 10
136.6055194303
 20
2308.1355314696
 30
0.0
 11
136.3055194303
 21
2307.8355314696
 31
0.0
  0
LINE
  5
115
330
1F
100
AcDbEntity
  8
無題001
  6
Continuous
 62
     7
100
AcDbLine
 10
136.6055194303
 20
2347.5355314696
 30
0.0
 11
136.6055194303
 21
2308.1355314696
 31
0.0
  0
LINE
  5
116
330
1F
100
AcDbEntity
  8
無題001
  6
Continuous
 62
     7
100
AcDbLine
 10
136.8055194303
 20
2307.9355314696
 30
0.0
 11
136.6055194303
 21
2308.1355314696
 31
0.0
  0
LINE
  5
117
330
1F
100
AcDbEntity
  8
無題001
  6
Continuous
 62
     7
100
AcDbLine
 10
165.1055194303
 20
2233.357674543382
 30
0.0
 11
169.1055194303
 21
2229.357674543382
 31
0.0
  0
LINE
  5
118
330
1F
100
AcDbEntity
  8
無題001
  6
Continuous
 62
     7
100
AcDbLine
 10
169.1055194303
 20
2229.357674543382
 30
0.0
 11
169.1055194303
 21
2216.357674543382
 31
0.0
  0
LINE
  5
119
330
1F
100
AcDbEntity
  8
無題001
  6
Continuous
 62
     7
100
AcDbLine
 10
146.6055194303
 20
2233.357674543382
 30
0.0
 11
165.1055194303
 21
2233.357674543382
 31
0.0
  0
LINE
  5
11A
330
1F
100
AcDbEntity
  8
無題001
  6
Continuous
 62
     7
100
AcDbLine
 10
146.6055194303
 20
2308.9355314696
 30
0.0
 11
145.6055194303
 21
2307.9355314696
 31
0.0
  0
LINE
  5
11B
330
1F
100
AcDbEntity
  8
無題001
  6
Continuous
 62
     7
100
AcDbLine
 10
145.6055194303
 20
2347.7355314696
 30
0.0
 11
146.6055194303
 21
2346.7355314696
 31
0.0
  0
LINE
  5
11C
330
1F
100
AcDbEntity
  8
無題001
  6
Continuous
 62
     7
100
AcDbLine
 10
136.8055194303
 20
2307.9355314696
 30
0.0
 11
145.6055194303
 21
2307.9355314696
 31
0.0
  0
LINE
  5
11D
330
1F
100
AcDbEntity
  8
無題001
  6
Continuous
 62
     7
100
AcDbLine
 10
136.8055194303
 20
2347.7355314696
 30
0.0
 11
145.6055194303
 21
2347.7355314696
 31
0.0
  0
LINE
  5
11E
330
1F
100
AcDbEntity
  8
無題001
  6
Continuous
 62
     7
100
AcDbLine
 10
136.6055194303
 20
2347.5355314696
 30
0.0
 11
136.6055194303
 21
2308.1355314696
 31
0.0
  0
LINE
  5
11F
330
1F
100
AcDbEntity
  8
無題001
  6
Continuous
 62
     7
100
AcDbLine
 10
161.2055194303
 20
2215.166676160082
 30
0.0
 11
167.914521047
 21
2215.166676160082
 31
0.0
  0
LINE
  5
120
330
1F
100
AcDbEntity
  8
無題001
  6
Continuous
 62
     7
100
AcDbLine
 10
136.6055194303
 20
2347.5355314696
 30
0.0
 11
136.8055194303
 21
2347.7355314696
 31
0.0
  0
LINE
  5
121
330
1F
100
AcDbEntity
  8
無題001
  6
Continuous
 62
     7
100
AcDbLine
 10
146.6055194303
 20
2308.9355314696
 30
0.0
 11
146.6055194303
 21
2346.7355314696
 31
0.0
  0
LINE
  5
122
330
1F
100
AcDbEntity
  8
無題001
  6
Continuous
 62
     7
100
AcDbLine
 10
169.1055194303
 20
2216.357674543382
 30
0.0
 11
165.1055194303
 21
2212.357674543382
 31
0.0
  0
LINE
  5
123
330
1F
100
AcDbEntity
  8
無題001
  6
Continuous
 62
     7
100
AcDbLine
 10
146.6055194303
 20
2212.357674543382
 30
0.0
 11
150.2147586938
 21
2212.357674543382
 31
0.0
  0
LINE
  5
124
330
1F
100
AcDbEntity
  8
無題001
  6
Continuous
 62
     7
100
AcDbLine
 10
158.8236194789
 20
2212.357674543382
 30
0.0
 11
159.7055194303
 21
2212.357674543382
 31
0.0
  0
LINE
  5
125
330
1F
100
AcDbEntity
  8
無題001
  6
Continuous
 62
     7
100
AcDbLine
 10
161.2055194303
 20
2212.357674543382
 30
0.0
 11
165.1055194303
 21
2212.357674543382
 31
0.0
  0
LINE
  5
126
330
1F
100
AcDbEntity
  8
無題001
  6
Continuous
 62
     7
100
AcDbLine
 10
145.6055194303
 20
2307.9355314696
 30
0.0
 11
145.6055194303
 21
2347.7355314696
 31
0.0
  0
LINE
  5
127
330
1F
100
AcDbEntity
  8
無題001
  6
Continuous
 62
     7
100
AcDbLine
 10
165.1055194303
 20
2221.413485319982
 30
0.0
 11
165.1055194303
 21
2233.357674543382
 31
0.0
  0
LINE
  5
128
330
1F
100
AcDbEntity
  8
無題001
  6
Continuous
 62
     7
100
AcDbLine
 10
146.6055194303
 20
2221.413485319982
 30
0.0
 11
169.1055194303
 21
2221.413485319982
 31
0.0
  0
LINE
  5
129
330
1F
100
AcDbEntity
  8
無題001
  6
Continuous
 62
     7
100
AcDbLine
 10
165.1055194303
 20
2212.357674543382
 30
0.0
 11
165.1055194303
 21
2215.166676160082
 31
0.0
  0
LINE
  5
12A
330
1F
100
AcDbEntity
  8
無題001
  6
Continuous
 62
     7
100
AcDbLine
 10
171.1055194303
 20
2228.557674543382
 30
0.0
 11
171.1055194303
 21
2217.157674543382
 31
0.0
  0
LINE
  5
12B
330
1F
100
AcDbEntity
  8
無題001
  6
Continuous
 62
     7
100
AcDbLine
 10
171.1055194303
 20
2228.857674543382
 30
0.0
 11
171.1055194303
 21
2216.857674543382
 31
0.0
  0
LINE
  5
12C
330
1F
100
AcDbEntity
  8
無題001
  6
Continuous
 62
     7
100
AcDbLine
 10
169.4055194303
 20
2229.357674543382
 30
0.0
 11
170.6055194303
 21
2229.357674543382
 31
0.0
  0
LINE
  5
12D
330
1F
100
AcDbEntity
  8
無題001
  6
Continuous
 62
     7
100
AcDbLine
 10
169.4055194303
 20
2216.357674543382
 30
0.0
 11
170.6055194303
 21
2216.357674543382
 31
0.0
  0
LINE
  5
12E
330
1F
100
AcDbEntity
  8
無題001
  6
Continuous
 62
     7
100
AcDbLine
 10
170.6055194303
 20
2229.357674543382
 30
0.0
 11
171.1055194303
 21
2228.857674543382
 31
0.0
  0
LINE
  5
12F
330
1F
100
AcDbEntity
  8
無題001
  6
Continuous
 62
     7
100
AcDbLine
 10
171.1055194303
 20
2216.857674543382
 30
0.0
 11
170.6055194303
 21
2216.357674543382
 31
0.0
  0
LINE
  5
130
330
1F
100
AcDbEntity
  8
無題001
  6
Continuous
 62
     7
100
AcDbLine
 10
169.1055194303
 20
2229.057674543382
 30
0.0
 11
169.4055194303
 21
2229.357674543382
 31
0.0
  0
LINE
  5
131
330
1F
100
AcDbEntity
  8
無題001
  6
Continuous
 62
     7
100
AcDbLine
 10
169.1055194303
 20
2216.657674543382
 30
0.0
 11
169.4055194303
 21
2216.357674543382
 31
0.0
  0
LINE
  5
132
330
1F
100
AcDbEntity
  8
無題001
  6
Continuous
 62
     7
100
AcDbLine
 10
169.1055194303
 20
2228.857674543382
 30
0.0
 11
169.1055194303
 21
2216.857674543382
 31
0.0
  0
DIMENSION
  5
140
330
1F
100
AcDbEntity
  8
無題001
  6
Continuous
 62
     4
100
AcDbDimension
  2
_D3
 10
181.1055194303
 20
2288.4355314696
 30
0.0
 11
175.1055194303
 21
2290.7059954696
 31
0.0
 70
   160
 71
     5
 42
-1.0
 52
90.0
  3
DIMSTYEX_2
100
AcDbAlignedDimension
 13
169.1055194303
 23
2321.3355314696
 33
0.0
 14
181.1055194303
 24
2323.9355314696
 34
0.0
100
AcDbRotatedDimension
1001
ACAD
1000
DSTYLE
1002
{
1070
   343
1005
85
1070
   344
1005
85
1070
    43
1040
0.0
1070
   173
1070
     1
1070
   272
1070
     3
1070
   279
1070
     2
1070
   340
1005
D9
1070
   140
1040
2.809856
1002
}
  0
INSERT
  5
152
330
1F
100
AcDbEntity
  8
無題001
  6
Continuous
 62
     7
100
AcDbBlockReference
  2
BLK1
 10
146.6055194303
 20
2229.668466588382
 30
0.0
  0
DIMENSION
  5
160
330
1F
100
AcDbEntity
  8
無題001
  6
Continuous
 62
     4
100
AcDbDimension
  2
_D4
 10
191.1055194303
 20
2317.3355314696
 30
0.0
 11
188.9241265578776
 21
2328.240318566854
 31
0.0
 70
   160
  1
φ<>
 71
     5
 42
-1.0
 52
90.0
  3
DIMSTYEX_3
100
AcDbAlignedDimension
 13
165.1055194303
 23
2338.3355314696
 33
0.0
 14
165.1055194303
 24
2317.3355314696
 34
0.0
 50
-90.0
100
AcDbRotatedDimension
1001
ACAD
1000
DSTYLE
1002
{
1070
   343
1005
85
1070
   344
1005
85
1070
    43
1040
20.0
1070
   173
1070
     1
1070
   272
1070
     3
1070
   279
1070
     2
1070
   340
1005
D9
1070
   140
1040
2.809856
1002
}
  0
LINE
  5
161
330
1F
100
AcDbEntity
  8
無題001
  6
Continuous
 62
     7
100
AcDbLine
 10
114.8055194303
 20
2307.8355314696
 30
0.0
 11
115.1055194303
 21
2308.1355314696
 31
0.0
  0
LINE
  5
162
330
1F
100
AcDbEntity
  8
無題001
  6
Continuous
 62
     7
100
AcDbLine
 10
115.4055194303
 20
2307.8355314696
 30
0.0
 11
115.1055194303
 21
2308.1355314696
 31
0.0
  0
LINE
  5
163
330
1F
100
AcDbEntity
  8
無題001
  6
Continuous
 62
     7
100
AcDbLine
 10
52.4340168152
 20
2328.8355314696
 30
0.0
 11
52.4340168152
 21
2326.8355314696
 31
0.0
  0
LINE
  5
164
330
1F
100
AcDbEntity
  8
無題001
  6
Continuous
 62
     7
100
AcDbLine
 10
62.4340168152
 20
2325.8355314696
 30
0.0
 11
58.4340168152
 21
2325.8355314696
 31
0.0
  0
LINE
  5
165
330
1F
100
AcDbEntity
  8
無題001
  6
Continuous
 62
     7
100
AcDbLine
 10
52.4340168152
 20
2326.8355314696
 30
0.0
 11
58.4340168152
 21
2325.8355314696
 31
0.0
  0
LINE
  5
166
330
1F
100
AcDbEntity
  8
無題001
  6
Continuous
 62
     7
100
AcDbLine
 10
58.4340168152
 20
2329.8355314696
 30
0.0
 11
62.4340168152
 21
2329.8355314696
 31
0.0
  0
LINE
  5
167
330
1F
100
AcDbEntity
  8
無題001
  6
Continuous
 62
     7
100
AcDbLine
 10
45.4340168152
 20
2328.5355314696
 30
0.0
 11
45.4340168152
 21
2327.1355314696
 31
0.0
  0
LINE
  5
168
330
1F
100
AcDbEntity
  8
無題001
  6
Continuous
 62
     7
100
AcDbLine
 10
45.7340168152
 20
2326.8355314696
 30
0.0
 11
52.4340168152
 21
2326.8355314696
 31
0.0
  0
ARC
  5
169
330
1F
100
AcDbEntity
  8
無題001
  6
Continuous
 62
     7
100
AcDbCircle
 10
45.7340168152
 20
2328.5355314696
 30
0.0
 40
0.3
100
AcDbArc
 50
90.0
 51
179.9999999960049
  0
LINE
  5
16A
330
1F
100
AcDbEntity
  8
無題001
  6
Continuous
 62
     7
100
AcDbLine
 10
45.7340168152
 20
2328.8355314696
 30
0.0
 11
52.4340168152
 21
2328.8355314696
 31
0.0
  0
LINE
  5
16B
330
1F
100
AcDbEntity
  8
無題001
  6
Continuous
 62
     7
100
AcDbLine
 10
52.4340168152
 20
2328.8355314696
 30
0.0
 11
58.4340168152
 21
2329.8355314696
 31
0.0
  0
LINE
  5
16C
330
1F
100
AcDbEntity
  8
無題001
  6
Continuous
 62
     7
100
AcDbLine
 10
58.4340168152
 20
2329.8355314696
 30
0.0
 11
58.4340168152
 21
2325.8355314696
 31
0.0
  0
ARC
  5
16D
330
1F
100
AcDbEntity
  8
無題001
  6
Continuous
 62
     7
100
AcDbCircle
 10
45.7340168152
 20
2327.1355314696
 30
0.0
 40
0.3
100
AcDbArc
 50
179.9999999960049
 51
270.0
  0
LINE
  5
16E
330
1F
100
AcDbEntity
  8
無題001
  6
Continuous
 62
     4
100
AcDbLine
 10
73.4126991073
 20
2326.6355314696
 30
0.0
 11
74.7983397533
 21
2326.6355314696
 31
0.0
  0
LINE
  5
16F
330
1F
100
AcDbEntity
  8
無題001
  6
Continuous
 62
     4
100
AcDbLine
 10
75.4911600764
 20
2327.8355314696
 30
0.0
 11
74.7983397533
 21
2329.0355314696
 31
0.0
  0
LINE
  5
170
330
1F
100
AcDbEntity
  8
無題001
  6
Continuous
 62
     4
100
AcDbLine
 10
74.7983397533
 20
2326.6355314696
 30
0.0
 11
75.4911600764
 21
2327.8355314696
 31
0.0
  0
LINE
  5
171
330
1F
100
AcDbEntity
  8
無題001
  6
Continuous
 62
     4
100
AcDbLine
 10
73.4126991073
 20
2329.0355314696
 30
0.0
 11
72.7198787842
 21
2327.8355314696
 31
0.0
  0
CIRCLE
  5
172
330
1F
100
AcDbEntity
  8
無題001
  6
Continuous
 62
     7
100
AcDbCircle
 10
74.1055194303
 20
2327.8355314696
 30
0.0
 40
3.0
  0
LINE
  5
173
330
1F
100
AcDbEntity
  8
無題001
  6
Continuous
 62
     4
100
AcDbLine
 10
72.7198787842
 20
2327.8355314696
 30
0.0
 11
73.4126991073
 21
2326.6355314696
 31
0.0
  0
LINE
  5
174
330
1F
100
AcDbEntity
  8
無題001
  6
Continuous
 62
     4
100
AcDbLine
 10
74.7983397533
 20
2329.0355314696
 30
0.0
 11
73.4126991073
 21
2329.0355314696
 31
0.0
  0
LINE
  5
175
330
1F
100
AcDbEntity
  8
無題001
  6
CENTER
 62
     1
100
AcDbLine
 10
74.1055194303
 20
2322.8355314696
 30
0.0
 11
74.1055194303
 21
2332.8355314696
 31
0.0
  0
LINE
  5
176
330
1F
100
AcDbEntity
  8
無題001
  6
Continuous
 62
     7
100
AcDbLine
 10
69.6055194303
 20
2334.3355314696
 30
0.0
 11
71.1055194303
 21
2335.8355314696
 31
0.0
  0
LINE
  5
177
330
1F
100
AcDbEntity
  8
無題001
  6
Continuous
 62
     7
100
AcDbLine
 10
69.6055194303
 20
2321.3355314696
 30
0.0
 11
69.6055194303
 21
2334.3355314696
 31
0.0
  0
LINE
  5
178
330
1F
100
AcDbEntity
  8
無題001
  6
Continuous
 62
     7
100
AcDbLine
 10
69.6055194303
 20
2321.3355314696
 30
0.0
 11
71.1055194303
 21
2319.8355314696
 31
0.0
  0
LINE
  5
179
330
1F
100
AcDbEntity
  8
無題001
  6
Continuous
 62
     7
100
AcDbLine
 10
71.1055194303
 20
2344.8355314696
 30
0.0
 11
71.1055194303
 21
2310.8355314696
 31
0.0
  0
LINE
  5
17A
330
1F
100
AcDbEntity
  8
無題001
  6
Continuous
 62
     7
100
AcDbLine
 10
90.8055194303
 20
2355.2355314696
 30
0.0
 11
97.1055194303
 21
2355.2355314696
 31
0.0
  0
LINE
  5
17B
330
1F
100
AcDbEntity
  8
無題001
  6
Continuous
 62
     7
100
AcDbLine
 10
97.6055194303
 20
2354.7355314696
 30
0.0
 11
97.6055194303
 21
2300.9355314696
 31
0.0
  0
LINE
  5
17C
330
1F
100
AcDbEntity
  8
無題001
  6
Continuous
 62
     7
100
AcDbLine
 10
97.1055194303
 20
2300.4355314696
 30
0.0
 11
90.8055194303
 21
2300.4355314696
 31
0.0
  0
LINE
  5
17D
330
1F
100
AcDbEntity
  8
無題001
  6
Continuous
 62
     7
100
AcDbLine
 10
89.6055194303
 20
2301.6355314696
 30
0.0
 11
89.6055194303
 21
2354.0355314696
 31
0.0
  0
ARC
  5
17E
330
1F
100
AcDbEntity
  8
無題001
  6
Continuous
 62
     7
100
AcDbCircle
 10
74.1055194303
 20
2327.8355314696
 30
0.0
 40
3.0
100
AcDbArc
 50
270.0
 51
90.0
  0
LINE
  5
17F
330
1F
100
AcDbEntity
  8
無題001
  6
Continuous
 62
     7
100
AcDbLine
 10
74.1055194303
 20
2330.8355314696
 30
0.0
 11
71.4055194303
 21
2330.8355314696
 31
0.0
  0
LINE
  5
180
330
1F
100
AcDbEntity
  8
無題001
  6
Continuous
 62
     7
100
AcDbLine
 10
71.4055194303
 20
2324.8355314696
 30
0.0
 11
74.1055194303
 21
2324.8355314696
 31
0.0
  0
LINE
  5
181
330
1F
100
AcDbEntity
  8
無題001
  6
Continuous
 62
     7
100
AcDbLine
 10
71.4055194303
 20
2324.8355314696
 30
0.0
 11
71.4055194303
 21
2326.5278617865
 31
0.0
  0
LINE
  5
182
330
1F
100
AcDbEntity
  8
無題001
  6
Continuous
 62
     7
100
AcDbLine
 10
71.4055194303
 20
2329.1432011526
 30
0.0
 11
71.4055194303
 21
2330.8355314696
 31
0.0
  0
LINE
  5
183
330
1F
100
AcDbEntity
  8
無題001
  6
Continuous
 62
     7
100
AcDbLine
 10
90.8055194303
 20
2355.2355314696
 30
0.0
 11
89.6055194303
 21
2354.0355314696
 31
0.0
  0
LINE
  5
184
330
1F
100
AcDbEntity
  8
無題001
  6
Continuous
 62
     7
100
AcDbLine
 10
89.6055194303
 20
2301.6355314696
 30
0.0
 11
90.8055194303
 21
2300.4355314696
 31
0.0
  0
LINE
  5
185
330
1F
100
AcDbEntity
  8
無題001
  6
Continuous
 62
     7
100
AcDbLine
 10
97.1055194303
 20
2355.2355314696
 30
0.0
 11
97.6055194303
 21
2354.7355314696
 31
0.0
  0
LINE
  5
186
330
1F
100
AcDbEntity
  8
無題001
  6
Continuous
 62
     7
100
AcDbLine
 10
97.6055194303
 20
2300.9355314696
 30
0.0
 11
97.1055194303
 21
2300.4355314696
 31
0.0
  0
LINE
  5
187
330
1F
100
AcDbEntity
  8
無題001
  6
Continuous
 62
     7
100
AcDbLine
 10
71.1055194303
 20
2344.8355314696
 30
0.0
 11
77.9069411788
 21
2349.0855314696
 31
0.0
  0
LINE
  5
188
330
1F
100
AcDbEntity
  8
無題001
  6
Continuous
 62
     7
100
AcDbLine
 10
77.9069411788
 20
2349.0855314696
 30
0.0
 11
89.6055194303
 21
2349.0855314696
 31
0.0
  0
LINE
  5
189
330
1F
100
AcDbEntity
  8
無題001
  6
Continuous
 62
     7
100
AcDbLine
 10
71.1055194303
 20
2310.8355314696
 30
0.0
 11
77.9069411788
 21
2306.5855314696
 31
0.0
  0
LINE
  5
18A
330
1F
100
AcDbEntity
  8
無題001
  6
Continuous
 62
     7
100
AcDbLine
 10
77.9069411788
 20
2306.5855314696
 30
0.0
 11
89.6055194303
 21
2306.5855314696
 31
0.0
  0
LINE
  5
18B
330
1F
100
AcDbEntity
  8
無題001
  6
Continuous
 62
     7
100
AcDbLine
 10
77.9069411788
 20
2349.0855314696
 30
0.0
 11
77.9069411788
 21
2306.5855314696
 31
0.0
  0
LINE
  5
18C
330
1F
100
AcDbEntity
  8
無題001
  6
HIDDEN
 62
     4
100
AcDbLine
 10
-31.1743211531
 20
2329.875139275
 30
0.0
 11
-31.1743211531
 21
2325.7959236641
 31
0.0
  0
CIRCLE
  5
18D
330
1F
100
AcDbEntity
  8
無題001
  6
Continuous
 62
     7
100
AcDbCircle
 10
-25.9212728259
 20
2317.5824831424
 30
0.0
 40
1.5
  0
CIRCLE
  5
18E
330
1F
100
AcDbEntity
  8
無題001
  6
Continuous
 62
     7
100
AcDbCircle
 10
-25.9212728259
 20
2317.5824831424
 30
0.0
 40
3.0
  0
CIRCLE
  5
18F
330
1F
100
AcDbEntity
  8
無題001
  6
Continuous
 62
     4
100
AcDbCircle
 10
-25.9212728259
 20
2338.0885797968
 30
0.0
 40
3.25
  0
CIRCLE
  5
190
330
1F
100
AcDbEntity
  8
無題001
  6
Continuous
 62
     7
100
AcDbCircle
 10
-25.9212728259
 20
2338.0885797968
 30
0.0
 40
3.0
  0
CIRCLE
  5
191
330
1F
100
AcDbEntity
  8
無題001
  6
Continuous
 62
     7
100
AcDbCircle
 10
-25.9212728259
 20
2338.0885797968
 30
0.0
 40
1.5
  0
LINE
  5
192
330
1F
100
AcDbEntity
  8
無題001
  6
CENTER
 62
     1
100
AcDbLine
 10
-0.7743211528
 20
2327.8355314696
 30
0.0
 11
-65.5743211528
 21
2327.8355314696
 31
0.0
  0
LINE
  5
193
330
1F
100
AcDbEntity
  8
無題001
  6
CENTER
 62
     1
100
AcDbLine
 10
-36.1743211531
 20
2362.2355314693
 30
0.0
 11
-36.1743211532
 21
2298.4355314693
 31
0.0
  0
LINE
  5
194
330
1F
100
AcDbEntity
  8
無題001
  6
Continuous
 62
     7
100
AcDbLine
 10
-18.8743211531
 20
2330.8355314696
 30
0.0
 11
-18.8743211531
 21
2324.8355314696
 31
0.0
  0
CIRCLE
  5
195
330
1F
100
AcDbEntity
  8
無題001
  6
Continuous
 62
     4
100
AcDbCircle
 10
-25.9212728259
 20
2317.5824831424
 30
0.0
 40
3.25
  0
CIRCLE
  5
196
330
1F
100
AcDbEntity
  8
無題001
  6
Continuous
 62
     7
100
AcDbCircle
 10
-46.4273694803
 20
2317.5824831424
 30
0.0
 40
1.5
  0
CIRCLE
  5
197
330
1F
100
AcDbEntity
  8
無題001
  6
Continuous
 62
     7
100
AcDbCircle
 10
-46.4273694803
 20
2317.5824831424
 30
0.0
 40
3.0
  0
CIRCLE
  5
198
330
1F
100
AcDbEntity
  8
無題001
  6
Continuous
 62
     4
100
AcDbCircle
 10
-46.4273694803
 20
2338.0885797968
 30
0.0
 40
3.25
  0
CIRCLE
  5
199
330
1F
100
AcDbEntity
  8
無題001
  6
Continuous
 62
     7
100
AcDbCircle
 10
-46.4273694803
 20
2338.0885797968
 30
0.0
 40
3.0
  0
CIRCLE
  5
19A
330
1F
100
AcDbEntity
  8
無題001
  6
Continuous
 62
     7
100
AcDbCircle
 10
-46.4273694803
 20
2338.0885797968
 30
0.0
 40
1.5
  0
CIRCLE
  5
19B
330
1F
100
AcDbEntity
  8
無題001
  6
Continuous
 62
     4
100
AcDbCircle
 10
-46.4273694803
 20
2317.5824831424
 30
0.0
 40
3.25
  0
CIRCLE
  5
19C
330
1F
100
AcDbEntity
  8
無題001
  6
Continuous
 62
     7
100
AcDbCircle
 10
-36.1743211531
 20
2327.8355314696
 30
0.0
 40
5.4
  0
CIRCLE
  5
19D
330
1F
100
AcDbEntity
  8
無題001
  6
Continuous
 62
     7
100
AcDbCircle
 10
-36.1743211531
 20
2327.8355314696
 30
0.0
 40
6.5
  0
CIRCLE
  5
19E
330
1F
100
AcDbEntity
  8
無題001
  6
Continuous
 62
     7
100
AcDbCircle
 10
-36.1743211531
 20
2327.8355314696
 30
0.0
 40
8.0
  0
LINE
  5
19F
330
1F
100
AcDbEntity
  8
無題001
  6
HIDDEN
 62
     4
100
AcDbLine
 10
-38.2139289586
 20
2332.8355314696
 30
0.0
 11
-34.1347133477
 21
2332.8355314696
 31
0.0
  0
LINE
  5
1A0
330
1F
100
AcDbEntity
  8
無題001
  6
HIDDEN
 62
     4
100
AcDbLine
 10
-41.1743211532
 20
2325.7959236641
 30
0.0
 11
-41.1743211532
 21
2329.875139275
 31
0.0
  0
LINE
  5
1A1
330
1F
100
AcDbEntity
  8
無題001
  6
HIDDEN
 62
     4
100
AcDbLine
 10
-34.1347133477
 20
2322.8355314696
 30
0.0
 11
-38.2139289586
 21
2322.8355314696
 31
0.0
  0
LINE
  5
1A2
330
1F
100
AcDbEntity
  8
無題001
  6
DASHED
 62
     4
100
AcDbLine
 10
-31.1743211531
 20
2329.875139275
 30
0.0
 11
-31.1743211531
 21
2325.7959236641
 31
0.0
  0
LINE
  5
1A3
330
1F
100
AcDbEntity
  8
無題001
  6
DASHED
 62
     4
100
AcDbLine
 10
-38.2139289586
 20
2332.8355314696
 30
0.0
 11
-34.1347133477
 21
2332.8355314696
 31
0.0
  0
LINE
  5
1A4
330
1F
100
AcDbEntity
  8
無題001
  6
DASHED
 62
     4
100
AcDbLine
 10
-41.1743211532
 20
2325.7959236641
 30
0.0
 11
-41.1743211532
 21
2329.875139275
 31
0.0
  0
LINE
  5
1A5
330
1F
100
AcDbEntity
  8
無題001
  6
DASHED
 62
     4
100
AcDbLine
 10
-34.1347133477
 20
2322.8355314696
 30
0.0
 11
-38.2139289586
 21
2322.8355314696
 31
0.0
  0
LINE
  5
1A6
330
1F
100
AcDbEntity
  8
無題001
  6
DASHED
 62
     4
100
AcDbLine
 10
-31.1743211531
 20
2329.875139275
 30
0.0
 11
-31.1743211531
 21
2325.7959236641
 31
0.0
  0
LINE
  5
1A7
330
1F
100
AcDbEntity
  8
無題001
  6
DASHED
 62
     4
100
AcDbLine
 10
-38.2139289586
 20
2332.8355314696
 30
0.0
 11
-34.1347133477
 21
2332.8355314696
 31
0.0
  0
LINE
  5
1A8
330
1F
100
AcDbEntity
  8
無題001
  6
DASHED
 62
     4
100
AcDbLine
 10
-41.1743211532
 20
2325.7959236641
 30
0.0
 11
-41.1743211532
 21
2329.875139275
 31
0.0
  0
LINE
  5
1A9
330
1F
100
AcDbEntity
  8
無題001
  6
DASHED
 62
     4
100
AcDbLine
 10
-34.1347133477
 20
2322.8355314696
 30
0.0
 11
-38.2139289586
 21
2322.8355314696
 31
0.0
  0
LINE
  5
1AA
330
1F
100
AcDbEntity
  8
無題001
  6
DASHED
 62
     4
100
AcDbLine
 10
-31.1743211531
 20
2329.875139275
 30
0.0
 11
-31.1743211531
 21
2325.7959236641
 31
0.0
  0
LINE
  5
1AB
330
1F
100
AcDbEntity
  8
無題001
  6
DASHED
 62
     4
100
AcDbLine
 10
-38.2139289586
 20
2332.8355314696
 30
0.0
 11
-34.1347133477
 21
2332.8355314696
 31
0.0
  0
LINE
  5
1AC
330
1F
100
AcDbEntity
  8
無題001
  6
DASHED
 62
     4
100
AcDbLine
 10
-41.1743211532
 20
2325.7959236641
 30
0.0
 11
-41.1743211532
 21
2329.875139275
 31
0.0
  0
CIRCLE
  5
1AD
330
1F
100
AcDbEntity
  8
無題001
  6
Continuous
 62
     4
100
AcDbCircle
 10
-36.1743211531
 20
2327.8355314696
 30
0.0
 40
4.0
  0
CIRCLE
  5
1AE
330
1F
100
AcDbEntity
  8
無題001
  6
Continuous
 62
     7
100
AcDbCircle
 10
-36.1743211532
 20
2327.8355314695
 30
0.0
 40
0.9999999999
  0
CIRCLE
  5
1AF
330
1F
100
AcDbEntity
  8
無題001
  6
Continuous
 62
     7
100
AcDbCircle
 10
-36.1743211532
 20
2327.8355314695
 30
0.0
 40
1.9999999999
  0
ARC
  5
1B0
330
1F
100
AcDbEntity
  8
無題001
  6
Continuous
 62
     7
100
AcDbCircle
 10
-36.1743211532
 20
2327.8355314696
 30
0.0
 40
17.0
100
AcDbArc
 50
52.79010291190018
 51
127.4160438222001
  0
ARC
  5
1B1
330
1F
100
AcDbEntity
  8
無題001
  6
Continuous
 62
     7
100
AcDbCircle
 10
-36.1743211532
 20
2327.8355314696
 30
0.0
 40
17.0
100
AcDbArc
 50
142.5839561776005
 51
217.4160438224997
  0
ARC
  5
1B2
330
1F
100
AcDbEntity
  8
無題001
  6
Continuous
 62
     7
100
AcDbCircle
 10
-36.1743211532
 20
2327.8355314696
 30
0.0
 40
17.0
100
AcDbArc
 50
232.5839561779996
 51
307.4160438220004
  0
ARC
  5
1B3
330
1F
100
AcDbEntity
  8
無題001
  6
Continuous
 62
     7
100
AcDbCircle
 10
-36.1743211532
 20
2327.8355314696
 30
0.0
 40
17.0
100
AcDbArc
 50
322.5839561782996
 51
37.41604382179941
  0
ARC
  5
1B4
330
1F
100
AcDbEntity
  8
無題001
  6
Continuous
 62
     7
100
AcDbCircle
 10
-36.1743211532
 20
2327.8355314696
 30
0.0
 40
21.25
100
AcDbArc
 50
72.58934980279992
 51
107.4106501957001
  0
ARC
  5
1B5
330
1F
100
AcDbEntity
  8
無題001
  6
Continuous
 62
     7
100
AcDbCircle
 10
-36.1743211532
 20
2327.8355314696
 30
0.0
 40
21.25
100
AcDbArc
 50
117.5893498032998
 51
152.4106501964001
  0
ARC
  5
1B6
330
1F
100
AcDbEntity
  8
無題001
  6
Continuous
 62
     7
100
AcDbCircle
 10
-36.1743211532
 20
2327.8355314696
 30
0.0
 40
21.25
100
AcDbArc
 50
162.5893498034004
 51
197.4106501970004
  0
ARC
  5
1B7
330
1F
100
AcDbEntity
  8
無題001
  6
Continuous
 62
     7
100
AcDbCircle
 10
-36.1743211532
 20
2327.8355314696
 30
0.0
 40
21.25
100
AcDbArc
 50
207.5893498029996
 51
242.4106501971998
  0
ARC
  5
1B8
330
1F
100
AcDbEntity
  8
無題001
  6
Continuous
 62
     7
100
AcDbCircle
 10
-36.1743211532
 20
2327.8355314696
 30
0.0
 40
21.25
100
AcDbArc
 50
252.5893498022999
 51
287.4106501969001
  0
ARC
  5
1B9
330
1F
100
AcDbEntity
  8
無題001
  6
Continuous
 62
     7
100
AcDbCircle
 10
-36.1743211532
 20
2327.8355314696
 30
0.0
 40
21.25
100
AcDbArc
 50
297.5893498018
 51
331.4842458254996
  0
CIRCLE
  5
1BA
330
1F
100
AcDbEntity
  8
無題001
  6
Continuous
 62
     7
100
AcDbCircle
 10
-57.8854901671
 20
2318.8424708091
 30
0.0
 40
1.75
  0
CIRCLE
  5
1BB
330
1F
100
AcDbEntity
  8
無題001
  6
Continuous
 62
     7
100
AcDbCircle
 10
-57.8854901671
 20
2318.8424708091
 30
0.0
 40
3.0
  0
CIRCLE
  5
1BC
330
1F
100
AcDbEntity
  8
無題001
  6
Continuous
 62
     7
100
AcDbCircle
 10
-45.1673818139
 20
2306.1243624556
 30
0.0
 40
1.75
  0
CIRCLE
  5
1BD
330
1F
100
AcDbEntity
  8
無題001
  6
Continuous
 62
     7
100
AcDbCircle
 10
-45.1673818139
 20
2306.1243624556
 30
0.0
 40
3.0
  0
CIRCLE
  5
1BE
330
1F
100
AcDbEntity
  8
無題001
  6
Continuous
 62
     7
100
AcDbCircle
 10
-27.1812604929
 20
2306.1243624554
 30
0.0
 40
1.75
  0
CIRCLE
  5
1BF
330
1F
100
AcDbEntity
  8
無題001
  6
Continuous
 62
     7
100
AcDbCircle
 10
-27.1812604929
 20
2306.1243624554
 30
0.0
 40
3.0
  0
CIRCLE
  5
1C0
330
1F
100
AcDbEntity
  8
無題001
  6
Continuous
 62
     7
100
AcDbCircle
 10
-27.1812604924
 20
2349.5467004831
 30
0.0
 40
1.75
  0
CIRCLE
  5
1C1
330
1F
100
AcDbEntity
  8
無題001
  6
Continuous
 62
     7
100
AcDbCircle
 10
-27.1812604924
 20
2349.5467004831
 30
0.0
 40
3.0
  0
CIRCLE
  5
1C2
330
1F
100
AcDbEntity
  8
無題001
  6
Continuous
 62
     7
100
AcDbCircle
 10
-45.1673818134
 20
2349.5467004833
 30
0.0
 40
1.75
  0
CIRCLE
  5
1C3
330
1F
100
AcDbEntity
  8
無題001
  6
Continuous
 62
     7
100
AcDbCircle
 10
-45.1673818134
 20
2349.5467004833
 30
0.0
 40
3.0
  0
CIRCLE
  5
1C4
330
1F
100
AcDbEntity
  8
無題001
  6
Continuous
 62
     7
100
AcDbCircle
 10
-57.8854901669
 20
2336.8285921301
 30
0.0
 40
1.75
  0
CIRCLE
  5
1C5
330
1F
100
AcDbEntity
  8
無題001
  6
Continuous
 62
     7
100
AcDbCircle
 10
-57.8854901669
 20
2336.8285921301
 30
0.0
 40
3.0
  0
LINE
  5
1C6
330
1F
100
AcDbEntity
  8
無題001
  6
Continuous
 62
     7
100
AcDbLine
 10
-18.8743211531
 20
2330.8355314696
 30
0.0
 11
-15.1371516665
 21
2330.8355314696
 31
0.0
  0
LINE
  5
1C7
330
1F
100
AcDbEntity
  8
無題001
  6
Continuous
 62
     7
100
AcDbLine
 10
-18.8743211531
 20
2324.8355314696
 30
0.0
 11
-15.1371516665
 21
2324.8355314696
 31
0.0
  0
CIRCLE
  5
1C8
330
1F
100
AcDbEntity
  8
無題001
  6
Continuous
 62
     7
100
AcDbCircle
 10
-36.1743211528
 20
2327.8355314693
 30
0.0
 40
27.4
  0
ARC
  5
1C9
330
1F
100
AcDbEntity
  8
無題001
  6
Continuous
 62
     7
100
AcDbCircle
 10
-36.1743211526
 20
2327.8355314694
 30
0.0
 40
21.2499999997
100
AcDbArc
 50
28.51575417399966
 51
62.41065019770026
  0
ARC
  5
1CA
330
1F
100
AcDbEntity
  8
無題001
  6
Continuous
 62
     7
100
AcDbCircle
 10
-36.1743211526
 20
2327.8355314694
 30
0.0
 40
21.2499999997
100
AcDbArc
 50
343.5157541735002
 51
16.48424582599981
  0
CIRCLE
  5
1CB
330
1F
100
AcDbEntity
  8
無題001
  6
Continuous
 62
     7
100
AcDbCircle
 10
-14.4631521389
 20
2336.8285921299
 30
0.0
 40
3.25
  0
CIRCLE
  5
1CC
330
1F
100
AcDbEntity
  8
無題001
  6
Continuous
 62
     7
100
AcDbCircle
 10
-14.4631521389
 20
2336.8285921299
 30
0.0
 40
1.75
  0
CIRCLE
  5
1CD
330
1F
100
AcDbEntity
  8
無題001
  6
Continuous
 62
     7
100
AcDbCircle
 10
-14.463152139
 20
2318.8424708085
 30
0.0
 40
3.25
  0
CIRCLE
  5
1CE
330
1F
100
AcDbEntity
  8
無題001
  6
Continuous
 62
     7
100
AcDbCircle
 10
-14.463152139
 20
2318.8424708085
 30
0.0
 40
1.75
  0
ARC
  5
1CF
330
1F
100
AcDbEntity
  8
無題001
  6
Continuous
 62
     7
100
AcDbCircle
 10
-18.4743211531
 20
2326.4855314696
 30
0.0
 40
1.65
100
AcDbArc
 50
270.0
 51
0.0
  0
LINE
  5
1D0
330
1F
100
AcDbEntity
  8
無題001
  6
Continuous
 62
     7
100
AcDbLine
 10
-16.8243211531
 20
2329.1855314696
 30
0.0
 11
-16.8243211531
 21
2326.4855314696
 31
0.0
  0
LINE
  5
1D1
330
1F
100
AcDbEntity
  8
無題001
  6
Continuous
 62
     7
100
AcDbLine
 10
-18.8743211531
 20
2325.3355314696
 30
0.0
 11
-18.8743211531
 21
2330.3355314696
 31
0.0
  0
LINE
  5
1D2
330
1F
100
AcDbEntity
  8
無題001
  6
Continuous
 62
     7
100
AcDbLine
 10
-18.8743211531
 20
2330.3355314696
 30
0.0
 11
-18.4743211531
 21
2330.3355314696
 31
0.0
  0
LINE
  5
1D3
330
1F
100
AcDbEntity
  8
無題001
  6
Continuous
 62
     7
100
AcDbLine
 10
-18.4743211531
 20
2330.3355314696
 30
0.0
 11
-18.4743211531
 21
2325.3355314696
 31
0.0
  0
ARC
  5
1D4
330
1F
100
AcDbEntity
  8
無題001
  6
Continuous
 62
     7
100
AcDbCircle
 10
-18.4743211531
 20
2329.1855314696
 30
0.0
 40
1.65
100
AcDbArc
 50
0.0
 51
90.00000000400006
  0
LINE
  5
1D5
330
1F
100
AcDbEntity
  8
無題001
  6
Continuous
 62
     7
100
AcDbLine
 10
-18.4743211531
 20
2325.3355314696
 30
0.0
 11
-18.8743211531
 21
2325.3355314696
 31
0.0
  0
LINE
  5
1D6
330
1F
100
AcDbEntity
  8
無題001
  6
Continuous
 62
     7
100
AcDbLine
 10
-18.4743211531
 20
2330.8355314696
 30
0.0
 11
-18.4743211531
 21
2324.8355314696
 31
0.0
  0
DIMENSION
  5
1E4
330
1F
100
AcDbEntity
  8
無題001
  6
Continuous
 62
     4
100
AcDbDimension
  2
_D5
 10
32.9340168152
 20
2306.5855314696
 30
0.0
 11
30.66355281520001
 21
2327.8355314696
 31
0.0
 70
   160
  1
φ<>
 71
     5
 42
-1.0
 52
90.0
  3
DIMSTYEX_4
100
AcDbAlignedDimension
 13
77.9069411788
 23
2349.0855314696
 33
0.0
 14
77.9069411788
 24
2306.5855314696
 34
0.0
 50
-90.0
100
AcDbRotatedDimension
1001
ACAD
1000
DSTYLE
1002
{
1070
   343
1005
85
1070
   344
1005
85
1070
    43
1040
8.499999999999996
1070
   173
1070
     1
1070
   272
1070
     3
1070
   279
1070
     2
1070
   340
1005
D9
1070
   140
1040
2.809856
1002
}
  0
DIMENSION
  5
1F2
330
1F
100
AcDbEntity
  8
無題001
  6
Continuous
 62
     4
100
AcDbDimension
  2
_D6
 10
25.4340168152
 20
2300.4355314696
 30
0.0
 11
23.1635528152
 21
2326.319346344544
 31
0.0
 70
   160
  1
φ<>
 71
     5
 42
-1.0
 52
90.0
  3
DIMSTYEX_5
100
AcDbAlignedDimension
 13
90.8055194303
 23
2355.2355314696
 33
0.0
 14
90.8055194303
 24
2300.4355314696
 34
0.0
 50
-90.0
100
AcDbRotatedDimension
1001
ACAD
1000
DSTYLE
1002
{
1070
   343
1005
85
1070
   344
1005
85
1070
    43
1040
16.99999999999999
1070
   173
1070
     1
1070
   272
1070
     3
1070
   279
1070
     2
1070
   340
1005
D9
1070
   140
1040
2.809856
1002
}
  0
DIMENSION
  5
1FF
330
1F
100
AcDbEntity
  8
無題001
  6
Continuous
 62
     4
100
AcDbDimension
  2
_D7
 10
120.134446772
 20
2307.8355314696
 30
0.0
 11
117.1122408302016
 21
2328.155799259501
 31
0.0
 70
   160
  1
φ<>{\H0.70x;\A2\S 0^ -0.025;}
 71
     5
 42
-1.0
 52
90.0
  3
DIMSTYEX_2
100
AcDbAlignedDimension
 13
115.4055194303
 23
2347.8355314696
 33
0.0
 14
115.4055194303
 24
2307.8355314696
 34
0.0
 50
-90.0
100
AcDbRotatedDimension
1001
ACAD
1000
DSTYLE
1002
{
1070
   343
1005
85
1070
   344
1005
85
1070
    43
1040
0.0
1070
   173
1070
     1
1070
   272
1070
     3
1070
   279
1070
     2
1070
   340
1005
D9
1070
   140
1040
2.809856
1002
}
  0
LINE
  5
200
330
1F
100
AcDbEntity
  8
無題001
  6
Continuous
 62
     7
100
AcDbLine
 10
90.8055194303
 20
2300.4355314696
 30
0.0
 11
90.8055194303
 21
2355.2355314696
 31
0.0
  0
MTEXT
  5
201
330
1F
100
AcDbEntity
  8
無題001
  6
Continuous
 62
     4
100
AcDbMText
 10
-13.59491273223784
 20
2363.133048281959
 30
0.0
 40
3.136
 41
0.0
 71
     7
 72
     5
  1
{\fＭＳ ゴシック|b0|i0|c128|p49;\W1.0;8-M3ボルト用ザグリ穴\P（45°等配）}
  7
MTSTANDARD1
 73
     1
 44
0.9239477040816327
  0
LEADER
  5
202
330
1F
100
AcDbEntity
  8
無題001
  6
Continuous
 62
     4
100
AcDbLeader
  3
Standard
 76
     3
 10
-25.0578822525
 20
2351.6659609321
 30
0.0
 10
-13.59491273223784
 20
2363.133048281959
 30
0.0
 10
16.8852757266
 20
2363.133048281959
 30
0.0
1001
ACAD
1000
DSTYLE
1002
{
1070
   176
1070
     0
1002
}
  0
INSERT
  5
21B
330
1F
100
AcDbEntity
  8
無題001
  6
Continuous
 62
     7
100
AcDbBlockReference
  2
BLK2
 10
146.6055194303
 20
2321.0247394241
 30
0.0
  0
LINE
  5
21C
330
1F
100
AcDbEntity
  8
無題001
  6
CENTER2
 62
     1
100
AcDbLine
 10
131.9198811794603
 20
2222.857674543382
 30
0.0
 11
219.5055110303006
 21
2222.857674543382
 31
0.0
  0
LINE
  5
21D
330
1F
100
AcDbEntity
  8
無題001
  6
Continuous
 62
     7
100
AcDbLine
 10
165.1055194303
 20
2338.3355314696
 30
0.0
 11
169.1055194303
 21
2334.3355314696
 31
0.0
  0
LINE
  5
21E
330
1F
100
AcDbEntity
  8
無題001
  6
Continuous
 62
     7
100
AcDbLine
 10
169.1055194303
 20
2334.3355314696
 30
0.0
 11
169.1055194303
 21
2321.3355314696
 31
0.0
  0
LINE
  5
21F
330
1F
100
AcDbEntity
  8
無題001
  6
Continuous
 62
     7
100
AcDbLine
 10
146.6055194303
 20
2338.3355314696
 30
0.0
 11
165.1055194303
 21
2338.3355314696
 31
0.0
  0
LINE
  5
220
330
1F
100
AcDbEntity
  8
無題001
  6
Continuous
 62
     7
100
AcDbLine
 10
161.2055194303
 20
2320.1445330863
 30
0.0
 11
167.914521047
 21
2320.1445330863
 31
0.0
  0
LINE
  5
221
330
1F
100
AcDbEntity
  8
無題001
  6
Continuous
 62
     7
100
AcDbLine
 10
169.1055194303
 20
2321.3355314696
 30
0.0
 11
165.1055194303
 21
2317.3355314696
 31
0.0
  0
LINE
  5
222
330
1F
100
AcDbEntity
  8
無題001
  6
Continuous
 62
     7
100
AcDbLine
 10
146.6055194303
 20
2317.3355314696
 30
0.0
 11
150.2147586938
 21
2317.3355314696
 31
0.0
  0
LINE
  5
223
330
1F
100
AcDbEntity
  8
無題001
  6
Continuous
 62
     7
100
AcDbLine
 10
158.8236194789
 20
2317.3355314696
 30
0.0
 11
159.7055194303
 21
2317.3355314696
 31
0.0
  0
LINE
  5
224
330
1F
100
AcDbEntity
  8
無題001
  6
Continuous
 62
     7
100
AcDbLine
 10
161.2055194303
 20
2317.3355314696
 30
0.0
 11
165.1055194303
 21
2317.3355314696
 31
0.0
  0
LINE
  5
225
330
1F
100
AcDbEntity
  8
無題001
  6
Continuous
 62
     7
100
AcDbLine
 10
165.1055194303
 20
2326.3913422461
 30
0.0
 11
165.1055194303
 21
2338.3355314696
 31
0.0
  0
LINE
  5
226
330
1F
100
AcDbEntity
  8
無題001
  6
Continuous
 62
     7
100
AcDbLine
 10
146.6055194303
 20
2326.3913422461
 30
0.0
 11
169.1055194303
 21
2326.3913422461
 31
0.0
  0
LINE
  5
227
330
1F
100
AcDbEntity
  8
無題001
  6
Continuous
 62
     7
100
AcDbLine
 10
165.1055194303
 20
2317.3355314696
 30
0.0
 11
165.1055194303
 21
2320.1445330863
 31
0.0
  0
LINE
  5
228
330
1F
100
AcDbEntity
  8
無題001
  6
Continuous
 62
     7
100
AcDbLine
 10
171.1055194303
 20
2333.5355314696
 30
0.0
 11
171.1055194303
 21
2322.1355314696
 31
0.0
  0
LINE
  5
229
330
1F
100
AcDbEntity
  8
無題001
  6
Continuous
 62
     7
100
AcDbLine
 10
181.1055194303
 20
2331.7355314643
 30
0.0
 11
181.1055194303
 21
2323.9355314643
 31
0.0
  0
LINE
  5
22A
330
1F
100
AcDbEntity
  8
無題001
  6
Continuous
 62
     7
100
AcDbLine
 10
171.3055194303
 20
2333.7355314696
 30
0.0
 11
179.1055194303
 21
2333.7355314696
 31
0.0
  0
LINE
  5
22B
330
1F
100
AcDbEntity
  8
無題001
  6
Continuous
 62
     7
100
AcDbLine
 10
171.3055194303
 20
2321.9355314696
 30
0.0
 11
179.1055194303
 21
2321.9355314696
 31
0.0
  0
LINE
  5
22C
330
1F
100
AcDbEntity
  8
無題001
  6
Continuous
 62
     7
100
AcDbLine
 10
179.1055194303
 20
2332.8676126367
 30
0.0
 11
179.1055194303
 21
2333.7355314696
 31
0.0
  0
ELLIPSE
  5
22D
330
1F
100
AcDbEntity
  8
無題001
  6
Continuous
 62
     7
100
AcDbEllipse
 10
179.1055194303
 20
2331.891817029
 30
0.0
 11
5.975024837745415E-17
 21
0.9757956076650771
 31
0.0
210
0.0
220
0.0
230
1.0
 40
0.5124023884
 41
3.141592653589793
 42
6.283185307179586
  0
ELLIPSE
  5
22E
330
1F
100
AcDbEntity
  8
無題001
  6
Continuous
 62
     7
100
AcDbEllipse
 10
174.1055194303
 20
2331.891817029
 30
0.0
 11
1.6583123951782
 21
-4.061693933482726E-16
 31
0.0
210
0.0
220
0.0
230
1.0
 40
0.5884268914
 41
1.570796326794897
 42
4.71238898038469
  0
ELLIPSE
  5
22F
330
1F
100
AcDbEntity
  8
無題001
  6
Continuous
 62
     7
100
AcDbEllipse
 10
174.1055194303
 20
2327.8355314696
 30
0.0
 11
1.658312395178342
 21
-4.061693933483075E-16
 31
0.0
210
0.0
220
0.0
230
1.0
 40
0.8322484435
 41
1.570796326794897
 42
4.71238898038469
  0
ELLIPSE
  5
230
330
1F
100
AcDbEntity
  8
無題001
  6
Continuous
 62
     7
100
AcDbEllipse
 10
179.1055194303
 20
2327.8355314696
 30
0.0
 11
-4.546872269085431E-13
 21
1.380127909670136
 31
0.0
210
0.0
220
0.0
230
1.0
 40
0.362285261
 41
3.141592653589793
 42
6.283185307179586
  0
LINE
  5
231
330
1F
100
AcDbEntity
  8
無題001
  6
Continuous
 62
     7
100
AcDbLine
 10
174.1055194303
 20
2330.9160214214
 30
0.0
 11
179.1055194303
 21
2330.915817029
 31
0.0
  0
LINE
  5
232
330
1F
100
AcDbEntity
  8
無題001
  6
Continuous
 62
     7
100
AcDbLine
 10
174.1055194303
 20
2332.8676126367
 30
0.0
 11
179.1055194303
 21
2332.8676126367
 31
0.0
  0
LINE
  5
233
330
1F
100
AcDbEntity
  8
無題001
  6
Continuous
 62
     7
100
AcDbLine
 10
174.1055194303
 20
2329.2156593792
 30
0.0
 11
179.1055194303
 21
2329.2156593792
 31
0.0
  0
LINE
  5
234
330
1F
100
AcDbEntity
  8
無題001
  6
Continuous
 62
     7
100
AcDbLine
 10
179.1055194303
 20
2326.4554035599
 30
0.0
 11
174.1055194303
 21
2326.4554035599
 31
0.0
  0
LINE
  5
235
330
1F
100
AcDbEntity
  8
無題001
  6
Continuous
 62
     7
100
AcDbLine
 10
179.10551943
 20
2329.2156593792
 30
0.0
 11
179.1055194303
 21
2330.915817029
 31
0.0
  0
ELLIPSE
  5
236
330
1F
100
AcDbEntity
  8
無題001
  6
Continuous
 62
     7
100
AcDbEllipse
 10
179.1055194303
 20
2323.7792459101
 30
0.0
 11
-2.877971057041999E-14
 21
-0.9757956076650771
 31
0.0
210
0.0
220
0.0
230
1.0
 40
0.5124023884
 41
0.0
 42
3.141592653589793
  0
ELLIPSE
  5
237
330
1F
100
AcDbEntity
  8
無題001
  6
Continuous
 62
     7
100
AcDbEllipse
 10
174.1055194303
 20
2323.7792459101
 30
0.0
 11
-1.6583123951782
 21
2.030846966741363E-16
 31
0.0
210
0.0
220
0.0
230
1.0
 40
0.5884268914
 41
4.712388980384707
 42
7.8539816339745
  0
LINE
  5
238
330
1F
100
AcDbEntity
  8
無題001
  6
Continuous
 62
     7
100
AcDbLine
 10
174.1055194303
 20
2324.7550415178
 30
0.0
 11
179.1055194303
 21
2324.7552459101
 31
0.0
  0
LINE
  5
239
330
1F
100
AcDbEntity
  8
無題001
  6
Continuous
 62
     7
100
AcDbLine
 10
174.1055194303
 20
2322.8034503025
 30
0.0
 11
179.1055194303
 21
2322.8034503025
 31
0.0
  0
LINE
  5
23A
330
1F
100
AcDbEntity
  8
無題001
  6
Continuous
 62
     7
100
AcDbLine
 10
179.1055194303
 20
2324.7550415178
 30
0.0
 11
179.1055194303
 21
2326.4554035599
 31
0.0
  0
LINE
  5
23B
330
1F
100
AcDbEntity
  8
無題001
  6
Continuous
 62
     7
100
AcDbLine
 10
179.1055194303
 20
2321.9355314696
 30
0.0
 11
179.1055194303
 21
2322.8034503025
 31
0.0
  0
LINE
  5
23C
330
1F
100
AcDbEntity
  8
無題001
  6
Continuous
 62
     7
100
AcDbLine
 10
179.1055194303
 20
2333.7355314696
 30
0.0
 11
181.1055194303
 21
2331.7355314696
 31
0.0
  0
LINE
  5
23D
330
1F
100
AcDbEntity
  8
無題001
  6
Continuous
 62
     7
100
AcDbLine
 10
181.1055194303
 20
2323.9355314696
 30
0.0
 11
179.1055194303
 21
2321.9355314696
 31
0.0
  0
LINE
  5
23E
330
1F
100
AcDbEntity
  8
無題001
  6
Continuous
 62
     7
100
AcDbLine
 10
171.1055194303
 20
2333.5355314696
 30
0.0
 11
171.3055194303
 21
2333.7355314696
 31
0.0
  0
LINE
  5
23F
330
1F
100
AcDbEntity
  8
無題001
  6
Continuous
 62
     7
100
AcDbLine
 10
171.1055194303
 20
2322.1355314696
 30
0.0
 11
171.3055194303
 21
2321.9355314696
 31
0.0
  0
LINE
  5
240
330
1F
100
AcDbEntity
  8
無題001
  6
Continuous
 62
     7
100
AcDbLine
 10
171.1055194303
 20
2333.8355314696
 30
0.0
 11
171.1055194303
 21
2321.8355314696
 31
0.0
  0
LINE
  5
241
330
1F
100
AcDbEntity
  8
無題001
  6
Continuous
 62
     7
100
AcDbLine
 10
169.4055194303
 20
2334.3355314696
 30
0.0
 11
170.6055194303
 21
2334.3355314696
 31
0.0
  0
LINE
  5
242
330
1F
100
AcDbEntity
  8
無題001
  6
Continuous
 62
     7
100
AcDbLine
 10
169.4055194303
 20
2321.3355314696
 30
0.0
 11
170.6055194303
 21
2321.3355314696
 31
0.0
  0
LINE
  5
243
330
1F
100
AcDbEntity
  8
無題001
  6
Continuous
 62
     7
100
AcDbLine
 10
170.6055194303
 20
2334.3355314696
 30
0.0
 11
171.1055194303
 21
2333.8355314696
 31
0.0
  0
LINE
  5
244
330
1F
100
AcDbEntity
  8
無題001
  6
Continuous
 62
     7
100
AcDbLine
 10
171.1055194303
 20
2321.8355314696
 30
0.0
 11
170.6055194303
 21
2321.3355314696
 31
0.0
  0
LINE
  5
245
330
1F
100
AcDbEntity
  8
無題001
  6
Continuous
 62
     7
100
AcDbLine
 10
169.1055194303
 20
2334.0355314696
 30
0.0
 11
169.4055194303
 21
2334.3355314696
 31
0.0
  0
LINE
  5
246
330
1F
100
AcDbEntity
  8
無題001
  6
Continuous
 62
     7
100
AcDbLine
 10
169.1055194303
 20
2321.6355314696
 30
0.0
 11
169.4055194303
 21
2321.3355314696
 31
0.0
  0
LINE
  5
247
330
1F
100
AcDbEntity
  8
無題001
  6
Continuous
 62
     7
100
AcDbLine
 10
169.1055194303
 20
2333.8355314696
 30
0.0
 11
169.1055194303
 21
2321.8355314696
 31
0.0
  0
INSERT
  5
259
330
1F
100
AcDbEntity
  8
無題001
  6
Continuous
 62
     7
100
AcDbBlockReference
  2
BLK3
 10
146.6055194303
 20
2334.6463235145
 30
0.0
  0
LINE
  5
25A
330
1F
100
AcDbEntity
  8
無題001
  6
Continuous
 62
     7
100
AcDbLine
 10
197.1055120303
 20
2225.657598643382
 30
0.0
 11
196.1055120303
 21
2225.657598643382
 31
0.0
  0
LINE
  5
25B
330
1F
100
AcDbEntity
  8
無題001
  6
Continuous
 62
     7
100
AcDbLine
 10
197.1055120303
 20
2220.057598743382
 30
0.0
 11
196.1055120303
 21
2220.057598743382
 31
0.0
  0
LINE
  5
25C
330
1F
100
AcDbEntity
  8
無題001
  6
Continuous
 62
     7
100
AcDbLine
 10
196.1055120303
 20
2225.657598643382
 30
0.0
 11
196.1055120303
 21
2223.357613753381
 31
0.0
  0
LINE
  5
25D
330
1F
100
AcDbEntity
  8
無題001
  6
Continuous
 62
     7
100
AcDbLine
 10
196.1055120303
 20
2222.357613723382
 30
0.0
 11
196.1055120303
 21
2220.057598743382
 31
0.0
  0
LINE
  5
25E
330
1F
100
AcDbEntity
  8
無題001
  6
Continuous
 62
     7
100
AcDbLine
 10
196.1055120303
 20
2225.457618643381
 30
0.0
 11
195.3056120303
 21
2225.457618643381
 31
0.0
  0
LINE
  5
25F
330
1F
100
AcDbEntity
  8
無題001
  6
Continuous
 62
     7
100
AcDbLine
 10
196.1055120303
 20
2224.857608743382
 30
0.0
 11
195.3056120303
 21
2224.857608743382
 31
0.0
  0
LINE
  5
260
330
1F
100
AcDbEntity
  8
無題001
  6
Continuous
 62
     7
100
AcDbLine
 10
195.3056120303
 20
2223.357613753381
 30
0.0
 11
196.1055120303
 21
2223.357613753381
 31
0.0
  0
LINE
  5
261
330
1F
100
AcDbEntity
  8
無題001
  6
Continuous
 62
     7
100
AcDbLine
 10
195.3056120303
 20
2222.357613723382
 30
0.0
 11
196.1055120303
 21
2222.357613723382
 31
0.0
  0
LINE
  5
262
330
1F
100
AcDbEntity
  8
無題001
  6
Continuous
 62
     7
100
AcDbLine
 10
196.1055120303
 20
2220.857608743382
 30
0.0
 11
195.3056120303
 21
2220.857608743382
 31
0.0
  0
LINE
  5
263
330
1F
100
AcDbEntity
  8
無題001
  6
Continuous
 62
     7
100
AcDbLine
 10
196.1055120303
 20
2220.257608843382
 30
0.0
 11
195.3056120303
 21
2220.257608843382
 31
0.0
  0
LINE
  5
264
330
1F
100
AcDbEntity
  8
無題001
  6
Continuous
 62
     7
100
AcDbLine
 10
197.9056100303
 20
2220.857608743382
 30
0.0
 11
197.1055120303
 21
2220.857608743382
 31
0.0
  0
LINE
  5
265
330
1F
100
AcDbEntity
  8
無題001
  6
Continuous
 62
     7
100
AcDbLine
 10
199.7055120303
 20
2220.857608743382
 30
0.0
 11
198.9056100303
 21
2220.857608743382
 31
0.0
  0
LINE
  5
266
330
1F
100
AcDbEntity
  8
無題001
  6
Continuous
 62
     7
100
AcDbLine
 10
201.5056110303
 20
2220.857608743382
 30
0.0
 11
200.7055120303
 21
2220.857608743382
 31
0.0
  0
LINE
  5
267
330
1F
100
AcDbEntity
  8
無題001
  6
Continuous
 62
     7
100
AcDbLine
 10
197.9056100303
 20
2224.857608743382
 30
0.0
 11
197.1055120303
 21
2224.857608743382
 31
0.0
  0
LINE
  5
268
330
1F
100
AcDbEntity
  8
無題001
  6
Continuous
 62
     7
100
AcDbLine
 10
199.7055120303
 20
2224.857608743382
 30
0.0
 11
198.9056100303
 21
2224.857608743382
 31
0.0
  0
LINE
  5
269
330
1F
100
AcDbEntity
  8
無題001
  6
Continuous
 62
     7
100
AcDbLine
 10
201.5056110303
 20
2224.857608743382
 30
0.0
 11
200.7055120303
 21
2224.857608743382
 31
0.0
  0
LINE
  5
26A
330
1F
100
AcDbEntity
  8
無題001
  6
Continuous
 62
     7
100
AcDbLine
 10
195.3055130303
 20
2225.857648743382
 30
0.0
 11
195.3055130303
 21
2219.857648743382
 31
0.0
  0
LINE
  5
26B
330
1F
100
AcDbEntity
  8
無題001
  6
Continuous
 62
     7
100
AcDbLine
 10
188.5055410303
 20
2219.357648743382
 30
0.0
 11
188.5055410303
 21
2226.357648743382
 31
0.0
  0
LINE
  5
26C
330
1F
100
AcDbEntity
  8
無題001
  6
Continuous
 62
     7
100
AcDbLine
 10
188.5055410303
 20
2226.357648743382
 30
0.0
 11
193.9055120303
 21
2226.357648743382
 31
0.0
  0
LINE
  5
26D
330
1F
100
AcDbEntity
  8
無題001
  6
Continuous
 62
     7
100
AcDbLine
 10
188.5055410303
 20
2219.357648743382
 30
0.0
 11
193.9055120303
 21
2219.357648743382
 31
0.0
  0
LINE
  5
26E
330
1F
100
AcDbEntity
  8
無題001
  6
Continuous
 62
     7
100
AcDbLine
 10
194.6055120303
 20
2226.107648743382
 30
0.0
 11
194.6055120303
 21
2219.607648743382
 31
0.0
  0
LINE
  5
26F
330
1F
100
AcDbEntity
  8
無題001
  6
Continuous
 62
     7
100
AcDbLine
 10
193.9055120303
 20
2226.357648743382
 30
0.0
 11
193.9055120303
 21
2219.357648743382
 31
0.0
  0
LINE
  5
270
330
1F
100
AcDbEntity
  8
無題001
  6
Continuous
 62
     7
100
AcDbLine
 10
195.3055130303
 20
2225.857648743382
 30
0.0
 11
194.6055120303
 21
2225.857648743382
 31
0.0
  0
LINE
  5
271
330
1F
100
AcDbEntity
  8
無題001
  6
Continuous
 62
     7
100
AcDbLine
 10
194.6055120303
 20
2226.107648743382
 30
0.0
 11
193.9055120303
 21
2226.107648743382
 31
0.0
  0
LINE
  5
272
330
1F
100
AcDbEntity
  8
無題001
  6
Continuous
 62
     7
100
AcDbLine
 10
195.3055130303
 20
2219.857648743382
 30
0.0
 11
194.6055120303
 21
2219.857648743382
 31
0.0
  0
LINE
  5
273
330
1F
100
AcDbEntity
  8
無題001
  6
Continuous
 62
     7
100
AcDbLine
 10
194.6055120303
 20
2219.607648743382
 30
0.0
 11
193.9055120303
 21
2219.607648743382
 31
0.0
  0
LINE
  5
274
330
1F
100
AcDbEntity
  8
無題001
  6
Continuous
 62
     7
100
AcDbLine
 10
181.0055410303
 20
2225.857608743382
 30
0.0
 11
180.0055440103
 21
2225.857608743382
 31
0.0
  0
LINE
  5
275
330
1F
100
AcDbEntity
  8
無題001
  6
Continuous
 62
     7
100
AcDbLine
 10
181.0055410303
 20
2219.857608743382
 30
0.0
 11
180.0055440103
 21
2219.857608743382
 31
0.0
  0
LINE
  5
276
330
1F
100
AcDbEntity
  8
無題001
  6
Continuous
 62
     7
100
AcDbLine
 10
179.1056110303
 20
2218.357608743382
 30
0.0
 11
171.3055312303
 21
2218.357608743382
 31
0.0
  0
LINE
  5
277
330
1F
100
AcDbEntity
  8
無題001
  6
Continuous
 62
     7
100
AcDbLine
 10
180.0055440103
 20
2218.557628543382
 30
0.0
 11
180.0055440103
 21
2222.857582943382
 31
0.0
  0
LINE
  5
278
330
1F
100
AcDbEntity
  8
無題001
  6
Continuous
 62
     7
100
AcDbLine
 10
179.1056109575
 20
2218.357609143382
 30
0.0
 11
180.0055439503
 21
2218.557629043381
 31
0.0
  0
LINE
  5
279
330
1F
100
AcDbEntity
  8
無題001
  6
Continuous
 62
     7
100
AcDbLine
 10
179.1056110303
 20
2218.357608743382
 30
0.0
 11
179.1056110303
 21
2222.857613443382
 31
0.0
  0
LINE
  5
27A
330
1F
100
AcDbEntity
  8
無題001
  6
Continuous
 62
     7
100
AcDbLine
 10
179.1056110303
 20
2227.357648743382
 30
0.0
 11
171.3055312303
 21
2227.357648743382
 31
0.0
  0
LINE
  5
27B
330
1F
100
AcDbEntity
  8
無題001
  6
Continuous
 62
     7
100
AcDbLine
 10
180.0055440103
 20
2227.157628943381
 30
0.0
 11
180.0055440103
 21
2222.857674543382
 31
0.0
  0
LINE
  5
27C
330
1F
100
AcDbEntity
  8
無題001
  6
Continuous
 62
     7
100
AcDbLine
 10
179.1056109575
 20
2227.357648343382
 30
0.0
 11
180.0055439503
 21
2227.157628443382
 31
0.0
  0
LINE
  5
27D
330
1F
100
AcDbEntity
  8
無題001
  6
Continuous
 62
     7
100
AcDbLine
 10
179.1056110303
 20
2227.357648743382
 30
0.0
 11
179.1056110303
 21
2222.857644043382
 31
0.0
  0
LINE
  5
27E
330
1F
100
AcDbEntity
  8
無題001
  6
Continuous
 62
     7
100
AcDbLine
 10
188.5055114303
 20
2219.357648743382
 30
0.0
 11
188.5055114303
 21
2226.357648743382
 31
0.0
  0
LINE
  5
27F
330
1F
100
AcDbEntity
  8
無題001
  6
Continuous
 62
     7
100
AcDbLine
 10
185.5055110303
 20
2218.907628743382
 30
0.0
 11
185.5055110303
 21
2226.807628743381
 31
0.0
  0
LINE
  5
280
330
1F
100
AcDbEntity
  8
無題001
  6
Continuous
 62
     7
100
AcDbLine
 10
186.5055110303
 20
2227.057628543382
 30
0.0
 11
186.5055110303
 21
2218.657628943381
 31
0.0
  0
LINE
  5
281
330
1F
100
AcDbEntity
  8
無題001
  6
Continuous
 62
     7
100
AcDbLine
 10
181.0055410303
 20
2227.057628543382
 30
0.0
 11
181.0055410303
 21
2218.657628943381
 31
0.0
  0
LINE
  5
282
330
1F
100
AcDbEntity
  8
無題001
  6
Continuous
 62
     7
100
AcDbLine
 10
186.5055105303
 20
2227.057628543382
 30
0.0
 11
188.5055410303
 21
2226.357648543382
 31
0.0
  0
LINE
  5
283
330
1F
100
AcDbEntity
  8
無題001
  6
Continuous
 62
     7
100
AcDbLine
 10
184.7055208303
 20
2218.907628743382
 30
0.0
 11
184.7055208303
 21
2226.807628743381
 31
0.0
  0
LINE
  5
284
330
1F
100
AcDbEntity
  8
無題001
  6
Continuous
 62
     7
100
AcDbLine
 10
183.9055111303
 20
2218.907628743382
 30
0.0
 11
183.9055111303
 21
2226.807628743381
 31
0.0
  0
LINE
  5
285
330
1F
100
AcDbEntity
  8
無題001
  6
Continuous
 62
     7
100
AcDbLine
 10
183.1055211303
 20
2218.907628743382
 30
0.0
 11
183.1055211303
 21
2226.807628743381
 31
0.0
  0
LINE
  5
286
330
1F
100
AcDbEntity
  8
無題001
  6
Continuous
 62
     7
100
AcDbLine
 10
182.3055309303
 20
2218.907628743382
 30
0.0
 11
182.3055309303
 21
2226.807628743381
 31
0.0
  0
LINE
  5
287
330
1F
100
AcDbEntity
  8
無題001
  6
Continuous
 62
     7
100
AcDbLine
 10
181.5055110303
 20
2218.907628743382
 30
0.0
 11
181.5055110303
 21
2226.807628743381
 31
0.0
  0
LINE
  5
288
330
1F
100
AcDbEntity
  8
無題001
  6
Continuous
 62
     7
100
AcDbLine
 10
186.5055114303
 20
2218.657628943381
 30
0.0
 11
188.5055410303
 21
2219.357648743382
 31
0.0
  0
LINE
  5
289
330
1F
100
AcDbEntity
  8
無題001
  6
Continuous
 62
     7
100
AcDbLine
 10
185.5555021303
 20
2227.057628543382
 30
0.0
 11
185.5055119303
 21
2226.807629243382
 31
0.0
  0
LINE
  5
28A
330
1F
100
AcDbEntity
  8
無題001
  6
Continuous
 62
     7
100
AcDbLine
 10
184.6555115303
 20
2227.057628543382
 30
0.0
 11
184.7055213303
 21
2226.807629043381
 31
0.0
  0
LINE
  5
28B
330
1F
100
AcDbEntity
  8
無題001
  6
Continuous
 62
     7
100
AcDbLine
 10
183.9555213303
 20
2227.057628543382
 30
0.0
 11
183.9055115303
 21
2226.807629043381
 31
0.0
  0
LINE
  5
28C
330
1F
100
AcDbEntity
  8
無題001
  6
Continuous
 62
     7
100
AcDbLine
 10
183.0555317303
 20
2227.057629043381
 30
0.0
 11
183.1055218303
 21
2226.807629043381
 31
0.0
  0
LINE
  5
28D
330
1F
100
AcDbEntity
  8
無題001
  6
Continuous
 62
     7
100
AcDbLine
 10
182.3555214303
 20
2227.057629043381
 30
0.0
 11
182.3055312303
 21
2226.807629043381
 31
0.0
  0
LINE
  5
28E
330
1F
100
AcDbEntity
  8
無題001
  6
Continuous
 62
     7
100
AcDbLine
 10
181.4555213303
 20
2227.057628543382
 30
0.0
 11
181.5055110303
 21
2226.807629043381
 31
0.0
  0
LINE
  5
28F
330
1F
100
AcDbEntity
  8
無題001
  6
Continuous
 62
     7
100
AcDbLine
 10
185.5555021303
 20
2218.657628943381
 30
0.0
 11
185.5055119303
 21
2218.907628243382
 31
0.0
  0
LINE
  5
290
330
1F
100
AcDbEntity
  8
無題001
  6
Continuous
 62
     7
100
AcDbLine
 10
184.6555115303
 20
2218.657628943381
 30
0.0
 11
184.7055213303
 21
2218.907628443382
 31
0.0
  0
LINE
  5
291
330
1F
100
AcDbEntity
  8
無題001
  6
Continuous
 62
     7
100
AcDbLine
 10
183.9555213303
 20
2218.657628943381
 30
0.0
 11
183.9055115303
 21
2218.907628443382
 31
0.0
  0
LINE
  5
292
330
1F
100
AcDbEntity
  8
無題001
  6
Continuous
 62
     7
100
AcDbLine
 10
183.0555317303
 20
2218.657628443382
 30
0.0
 11
183.1055218303
 21
2218.907628443382
 31
0.0
  0
LINE
  5
293
330
1F
100
AcDbEntity
  8
無題001
  6
Continuous
 62
     7
100
AcDbLine
 10
182.3555214303
 20
2218.657628443382
 30
0.0
 11
182.3055312303
 21
2218.907628443382
 31
0.0
  0
LINE
  5
294
330
1F
100
AcDbEntity
  8
無題001
  6
Continuous
 62
     7
100
AcDbLine
 10
181.4555213303
 20
2218.657628943381
 30
0.0
 11
181.5055110303
 21
2218.907628443382
 31
0.0
  0
LINE
  5
295
330
1F
100
AcDbEntity
  8
無題001
  6
Continuous
 62
     7
100
AcDbLine
 10
202.5055110303
 20
2225.357578643382
 30
0.0
 11
202.5055110303
 21
2220.357608743382
 31
0.0
  0
LINE
  5
296
330
1F
100
AcDbEntity
  8
無題001
  6
Continuous
 62
     7
100
AcDbLine
 10
202.2055120303
 20
2225.657598643382
 30
0.0
 11
201.5055110303
 21
2225.657598643382
 31
0.0
  0
LINE
  5
297
330
1F
100
AcDbEntity
  8
無題001
  6
Continuous
 62
     7
100
AcDbLine
 10
200.7055120303
 20
2225.657598643382
 30
0.0
 11
199.7055120303
 21
2225.657598643382
 31
0.0
  0
LINE
  5
298
330
1F
100
AcDbEntity
  8
無題001
  6
Continuous
 62
     7
100
AcDbLine
 10
198.9056100303
 20
2225.657598643382
 30
0.0
 11
197.9056100303
 21
2225.657598643382
 31
0.0
  0
LINE
  5
299
330
1F
100
AcDbEntity
  8
無題001
  6
Continuous
 62
     7
100
AcDbLine
 10
201.5055110303
 20
2225.657598643382
 30
0.0
 11
201.5055110303
 21
2223.357613753381
 31
0.0
  0
LINE
  5
29A
330
1F
100
AcDbEntity
  8
無題001
  6
Continuous
 62
     7
100
AcDbLine
 10
201.5055110303
 20
2222.357613723382
 30
0.0
 11
201.5055110303
 21
2220.057598743382
 31
0.0
  0
LINE
  5
29B
330
1F
100
AcDbEntity
  8
無題001
  6
Continuous
 62
     7
100
AcDbLine
 10
200.7055120303
 20
2225.657598643382
 30
0.0
 11
200.7055120303
 21
2223.357613753381
 31
0.0
  0
LINE
  5
29C
330
1F
100
AcDbEntity
  8
無題001
  6
Continuous
 62
     7
100
AcDbLine
 10
200.7055120303
 20
2222.357613723382
 30
0.0
 11
200.7055120303
 21
2220.057598743382
 31
0.0
  0
LINE
  5
29D
330
1F
100
AcDbEntity
  8
無題001
  6
Continuous
 62
     7
100
AcDbLine
 10
199.7055120303
 20
2225.657598643382
 30
0.0
 11
199.7055120303
 21
2223.357613753381
 31
0.0
  0
LINE
  5
29E
330
1F
100
AcDbEntity
  8
無題001
  6
Continuous
 62
     7
100
AcDbLine
 10
199.7055120303
 20
2222.357613723382
 30
0.0
 11
199.7055120303
 21
2220.057598743382
 31
0.0
  0
LINE
  5
29F
330
1F
100
AcDbEntity
  8
無題001
  6
Continuous
 62
     7
100
AcDbLine
 10
198.9056100303
 20
2225.657598643382
 30
0.0
 11
198.9056100303
 21
2223.357613753381
 31
0.0
  0
LINE
  5
2A0
330
1F
100
AcDbEntity
  8
無題001
  6
Continuous
 62
     7
100
AcDbLine
 10
198.9056100303
 20
2222.357613723382
 30
0.0
 11
198.9056100303
 21
2220.057598743382
 31
0.0
  0
LINE
  5
2A1
330
1F
100
AcDbEntity
  8
無題001
  6
Continuous
 62
     7
100
AcDbLine
 10
197.9056100303
 20
2225.657598643382
 30
0.0
 11
197.9056100303
 21
2223.357613753381
 31
0.0
  0
LINE
  5
2A2
330
1F
100
AcDbEntity
  8
無題001
  6
Continuous
 62
     7
100
AcDbLine
 10
197.9056100303
 20
2222.357613723382
 30
0.0
 11
197.9056100303
 21
2220.057598743382
 31
0.0
  0
LINE
  5
2A3
330
1F
100
AcDbEntity
  8
無題001
  6
Continuous
 62
     7
100
AcDbLine
 10
197.1055120303
 20
2225.657598643382
 30
0.0
 11
197.1055120303
 21
2223.357613753381
 31
0.0
  0
LINE
  5
2A4
330
1F
100
AcDbEntity
  8
無題001
  6
Continuous
 62
     7
100
AcDbLine
 10
197.1055120303
 20
2222.357613723382
 30
0.0
 11
197.1055120303
 21
2220.057598743382
 31
0.0
  0
LINE
  5
2A5
330
1F
100
AcDbEntity
  8
無題001
  6
Continuous
 62
     7
100
AcDbLine
 10
202.2055120303
 20
2220.057598743382
 30
0.0
 11
201.5055110303
 21
2220.057598743382
 31
0.0
  0
LINE
  5
2A6
330
1F
100
AcDbEntity
  8
無題001
  6
Continuous
 62
     7
100
AcDbLine
 10
200.7055120303
 20
2220.057598743382
 30
0.0
 11
199.7055120303
 21
2220.057598743382
 31
0.0
  0
LINE
  5
2A7
330
1F
100
AcDbEntity
  8
無題001
  6
Continuous
 62
     7
100
AcDbLine
 10
198.9056100303
 20
2220.057598743382
 30
0.0
 11
197.9056100303
 21
2220.057598743382
 31
0.0
  0
LINE
  5
2A8
330
1F
100
AcDbEntity
  8
無題001
  6
Continuous
 62
     7
100
AcDbLine
 10
197.1055120303
 20
2223.357613753381
 30
0.0
 11
197.9056100303
 21
2223.357613753381
 31
0.0
  0
LINE
  5
2A9
330
1F
100
AcDbEntity
  8
無題001
  6
Continuous
 62
     7
100
AcDbLine
 10
198.9056100303
 20
2223.357613753381
 30
0.0
 11
199.7055120303
 21
2223.357613753381
 31
0.0
  0
LINE
  5
2AA
330
1F
100
AcDbEntity
  8
無題001
  6
Continuous
 62
     7
100
AcDbLine
 10
200.7055120303
 20
2223.357613753381
 30
0.0
 11
201.5055110303
 21
2223.357613753381
 31
0.0
  0
LINE
  5
2AB
330
1F
100
AcDbEntity
  8
無題001
  6
Continuous
 62
     7
100
AcDbLine
 10
197.1055120303
 20
2222.357613723382
 30
0.0
 11
197.9056100303
 21
2222.357613723382
 31
0.0
  0
LINE
  5
2AC
330
1F
100
AcDbEntity
  8
無題001
  6
Continuous
 62
     7
100
AcDbLine
 10
198.9056100303
 20
2222.357613723382
 30
0.0
 11
199.7055120303
 21
2222.357613723382
 31
0.0
  0
LINE
  5
2AD
330
1F
100
AcDbEntity
  8
無題001
  6
Continuous
 62
     7
100
AcDbLine
 10
200.7055120303
 20
2222.357613723382
 30
0.0
 11
201.5055110303
 21
2222.357613723382
 31
0.0
  0
LINE
  5
2AE
330
1F
100
AcDbEntity
  8
無題001
  6
Continuous
 62
     7
100
AcDbLine
 10
201.5055110303
 20
2225.457618643381
 30
0.0
 11
200.7055120303
 21
2225.457618643381
 31
0.0
  0
LINE
  5
2AF
330
1F
100
AcDbEntity
  8
無題001
  6
Continuous
 62
     7
100
AcDbLine
 10
199.7055120303
 20
2225.457618643381
 30
0.0
 11
198.9056100303
 21
2225.457618643381
 31
0.0
  0
LINE
  5
2B0
330
1F
100
AcDbEntity
  8
無題001
  6
Continuous
 62
     7
100
AcDbLine
 10
197.9056100303
 20
2225.457618643381
 30
0.0
 11
197.1055120303
 21
2225.457618643381
 31
0.0
  0
LINE
  5
2B1
330
1F
100
AcDbEntity
  8
無題001
  6
Continuous
 62
     7
100
AcDbLine
 10
201.5055110303
 20
2220.257608843382
 30
0.0
 11
200.7055120303
 21
2220.257608843382
 31
0.0
  0
LINE
  5
2B2
330
1F
100
AcDbEntity
  8
無題001
  6
Continuous
 62
     7
100
AcDbLine
 10
199.7055120303
 20
2220.257608843382
 30
0.0
 11
198.9056100303
 21
2220.257608843382
 31
0.0
  0
LINE
  5
2B3
330
1F
100
AcDbEntity
  8
無題001
  6
Continuous
 62
     7
100
AcDbLine
 10
197.9056100303
 20
2220.257608843382
 30
0.0
 11
197.1055120303
 21
2220.257608843382
 31
0.0
  0
LINE
  5
2B4
330
1F
100
AcDbEntity
  8
無題001
  6
Continuous
 62
     7
100
AcDbLine
 10
185.5055110303
 20
2226.807628743381
 30
0.0
 11
184.7055208303
 21
2226.807628743381
 31
0.0
  0
LINE
  5
2B5
330
1F
100
AcDbEntity
  8
無題001
  6
Continuous
 62
     7
100
AcDbLine
 10
183.9055411303
 20
2226.807628743381
 30
0.0
 11
183.1055211303
 21
2226.807628743381
 31
0.0
  0
LINE
  5
2B6
330
1F
100
AcDbEntity
  8
無題001
  6
Continuous
 62
     7
100
AcDbLine
 10
182.3055309303
 20
2226.807628743381
 30
0.0
 11
181.5055110303
 21
2226.807628743381
 31
0.0
  0
LINE
  5
2B7
330
1F
100
AcDbEntity
  8
無題001
  6
Continuous
 62
     7
100
AcDbLine
 10
186.5055110303
 20
2227.057628543382
 30
0.0
 11
185.5555011303
 21
2227.057628543382
 31
0.0
  0
LINE
  5
2B8
330
1F
100
AcDbEntity
  8
無題001
  6
Continuous
 62
     7
100
AcDbLine
 10
184.6555111303
 20
2227.057628543382
 30
0.0
 11
183.9555208303
 21
2227.057628543382
 31
0.0
  0
LINE
  5
2B9
330
1F
100
AcDbEntity
  8
無題001
  6
Continuous
 62
     7
100
AcDbLine
 10
183.0555309303
 20
2227.057628543382
 30
0.0
 11
182.3555211303
 21
2227.057628543382
 31
0.0
  0
LINE
  5
2BA
330
1F
100
AcDbEntity
  8
無題001
  6
Continuous
 62
     7
100
AcDbLine
 10
181.4555210303
 20
2227.057628543382
 30
0.0
 11
181.0055410303
 21
2227.057628543382
 31
0.0
  0
LINE
  5
2BB
330
1F
100
AcDbEntity
  8
無題001
  6
Continuous
 62
     7
100
AcDbLine
 10
171.1055194303
 20
2218.557626643382
 30
0.0
 11
171.3055293303
 21
2218.357606843382
 31
0.0
  0
LINE
  5
2BC
330
1F
100
AcDbEntity
  8
無題001
  6
Continuous
 62
     7
100
AcDbLine
 10
171.1055194303
 20
2227.157630843382
 30
0.0
 11
171.3055293303
 21
2227.357650643381
 31
0.0
  0
LINE
  5
2BD
330
1F
100
AcDbEntity
  8
無題001
  6
Continuous
 62
     7
100
AcDbLine
 10
185.5055110303
 20
2218.907628743382
 30
0.0
 11
184.7055208303
 21
2218.907628743382
 31
0.0
  0
LINE
  5
2BE
330
1F
100
AcDbEntity
  8
無題001
  6
Continuous
 62
     7
100
AcDbLine
 10
183.9055411303
 20
2218.907628743382
 30
0.0
 11
183.1055211303
 21
2218.907628743382
 31
0.0
  0
LINE
  5
2BF
330
1F
100
AcDbEntity
  8
無題001
  6
Continuous
 62
     7
100
AcDbLine
 10
182.3055309303
 20
2218.907628743382
 30
0.0
 11
181.5055110303
 21
2218.907628743382
 31
0.0
  0
LINE
  5
2C0
330
1F
100
AcDbEntity
  8
無題001
  6
Continuous
 62
     7
100
AcDbLine
 10
186.5055110303
 20
2218.657628943381
 30
0.0
 11
185.5555011303
 21
2218.657628943381
 31
0.0
  0
LINE
  5
2C1
330
1F
100
AcDbEntity
  8
無題001
  6
Continuous
 62
     7
100
AcDbLine
 10
184.6555111303
 20
2218.657628943381
 30
0.0
 11
183.9555208303
 21
2218.657628943381
 31
0.0
  0
LINE
  5
2C2
330
1F
100
AcDbEntity
  8
無題001
  6
Continuous
 62
     7
100
AcDbLine
 10
183.0555309303
 20
2218.657628943381
 30
0.0
 11
182.3555211303
 21
2218.657628943381
 31
0.0
  0
LINE
  5
2C3
330
1F
100
AcDbEntity
  8
無題001
  6
Continuous
 62
     7
100
AcDbLine
 10
181.4555210303
 20
2218.657628943381
 30
0.0
 11
181.0055410303
 21
2218.657628943381
 31
0.0
  0
LINE
  5
2C4
330
1F
100
AcDbEntity
  8
無題001
  6
Continuous
 62
     7
100
AcDbLine
 10
185.5055110303
 20
2218.907628743382
 30
0.0
 11
184.7055208303
 21
2218.907628743382
 31
0.0
  0
LINE
  5
2C5
330
1F
100
AcDbEntity
  8
無題001
  6
Continuous
 62
     7
100
AcDbLine
 10
183.9055411303
 20
2218.907628743382
 30
0.0
 11
183.1055211303
 21
2218.907628743382
 31
0.0
  0
LINE
  5
2C6
330
1F
100
AcDbEntity
  8
無題001
  6
Continuous
 62
     7
100
AcDbLine
 10
182.3055309303
 20
2218.907628743382
 30
0.0
 11
181.5055110303
 21
2218.907628743382
 31
0.0
  0
LINE
  5
2C7
330
1F
100
AcDbEntity
  8
無題001
  6
Continuous
 62
     7
100
AcDbLine
 10
186.5055110303
 20
2218.657628943381
 30
0.0
 11
185.5555011303
 21
2218.657628943381
 31
0.0
  0
LINE
  5
2C8
330
1F
100
AcDbEntity
  8
無題001
  6
Continuous
 62
     7
100
AcDbLine
 10
184.6555111303
 20
2218.657628943381
 30
0.0
 11
183.9555208303
 21
2218.657628943381
 31
0.0
  0
LINE
  5
2C9
330
1F
100
AcDbEntity
  8
無題001
  6
Continuous
 62
     7
100
AcDbLine
 10
183.0555309303
 20
2218.657628943381
 30
0.0
 11
182.3555211303
 21
2218.657628943381
 31
0.0
  0
LINE
  5
2CA
330
1F
100
AcDbEntity
  8
無題001
  6
Continuous
 62
     7
100
AcDbLine
 10
181.4555210303
 20
2218.657628943381
 30
0.0
 11
181.0055410303
 21
2218.657628943381
 31
0.0
  0
CIRCLE
  5
2CB
330
1F
100
AcDbEntity
  8
無題001
  6
Continuous
 62
     7
100
AcDbCircle
 10
191.2055110303
 20
2222.857644043382
 30
0.0
 40
2.5
  0
ARC
  5
2CC
330
1F
100
AcDbEntity
  8
無題001
  6
Continuous
 62
     7
100
AcDbCircle
 10
202.2055120303
 20
2220.357608743382
 30
0.0
 40
0.29999995
100
AcDbArc
 50
270.0000199999989
 51
0.0
  0
ARC
  5
2CD
330
1F
100
AcDbEntity
  8
無題001
  6
Continuous
 62
     7
100
AcDbCircle
 10
202.2055120303
 20
2225.357578643382
 30
0.0
 40
0.29999924
100
AcDbArc
 50
0.0
 51
89.99998199999752
  0
CIRCLE
  5
2CE
330
1F
100
AcDbEntity
  8
無題001
  6
Continuous
 62
     7
100
AcDbCircle
 10
179.1056110303
 20
2222.857628743382
 30
0.0
 40
0.5
  0
LINE
  5
2CF
330
1F
100
AcDbEntity
  8
無題001
  6
Continuous
 62
     7
100
AcDbLine
 10
146.6055194303
 20
2203.957674543381
 30
0.0
 11
145.6055194303
 21
2202.957674543381
 31
0.0
  0
LINE
  5
2D0
330
1F
100
AcDbEntity
  8
無題001
  6
Continuous
 62
     7
100
AcDbLine
 10
145.6055194303
 20
2242.757674543382
 30
0.0
 11
146.6055194303
 21
2241.757674543382
 31
0.0
  0
LINE
  5
2D1
330
1F
100
AcDbEntity
  8
無題001
  6
Continuous
 62
     7
100
AcDbLine
 10
138.9198811794603
 20
2202.957674543382
 30
0.0
 11
145.6055194303
 21
2202.957674543381
 31
0.0
  0
LINE
  5
2D2
330
1F
100
AcDbEntity
  8
無題001
  6
Continuous
 62
     7
100
AcDbLine
 10
146.6055194303
 20
2203.957674543381
 30
0.0
 11
146.6055194303
 21
2241.757674543382
 31
0.0
  0
LINE
  5
2D3
330
1F
100
AcDbEntity
  8
無題001
  6
Continuous
 62
     7
100
AcDbLine
 10
145.6055194303
 20
2202.957674543381
 30
0.0
 11
145.6055194303
 21
2242.757674543382
 31
0.0
  0
LINE
  5
2D4
330
1F
100
AcDbEntity
  8
無題001
  6
Continuous
 62
     7
100
AcDbLine
 10
138.9198811794603
 20
2242.757674543381
 30
0.0
 11
145.6055194303
 21
2242.757674543382
 31
0.0
  0
CIRCLE
  5
2D5
330
1F
100
AcDbEntity
  8
無題001
  6
CENTER
 62
     1
100
AcDbCircle
 10
-36.1743211322
 20
2327.8355314696
 30
0.0
 40
14.5000000148
  0
CIRCLE
  5
2D6
330
1F
100
AcDbEntity
  8
無題001
  6
CENTER
 62
     1
100
AcDbCircle
 10
-36.1743211321
 20
2327.8355314696
 30
0.0
 40
23.5000000192
  0
LINE
  5
2D7
330
1F
100
AcDbEntity
  8
無題001
  6
CENTER
 62
     1
100
AcDbLine
 10
-62.8744396327
 20
2338.8950826598
 30
0.0
 11
-53.9590021449
 21
2335.2021875315
 31
0.0
  0
LINE
  5
2D8
330
1F
100
AcDbEntity
  8
無題001
  6
CENTER
 62
     1
100
AcDbLine
 10
-18.3896401887
 20
2320.4688753789
 30
0.0
 11
-9.4742027009
 21
2316.7759802506
 31
0.0
  0
LINE
  5
2D9
330
1F
100
AcDbEntity
  8
無題001
  6
CENTER
 62
     1
100
AcDbLine
 10
-62.8744396361
 20
2316.7759802587
 30
0.0
 11
-53.9590021472
 21
2320.4688753843
 31
0.0
  0
LINE
  5
2DA
330
1F
100
AcDbEntity
  8
無題001
  6
CENTER
 62
     1
100
AcDbLine
 10
-18.3896401865
 20
2335.2021875261
 30
0.0
 11
-9.4742026975
 21
2338.8950826517
 31
0.0
  0
LINE
  5
2DB
330
1F
100
AcDbEntity
  8
無題001
  6
CENTER
 62
     1
100
AcDbLine
 10
-47.2338723392
 20
2354.5356499345
 30
0.0
 11
-43.5409772216
 21
2345.6202124422
 31
0.0
  0
LINE
  5
2DC
330
1F
100
AcDbEntity
  8
無題001
  6
CENTER
 62
     1
100
AcDbLine
 10
-28.807665112
 20
2310.0508504682
 30
0.0
 11
-25.1147699945
 21
2301.1354129759
 31
0.0
  0
LINE
  5
2DD
330
1F
100
AcDbEntity
  8
無題001
  6
CENTER
 62
     1
100
AcDbLine
 10
-47.2338723497
 20
2301.1354129803
 30
0.0
 11
-43.5409772287
 21
2310.0508504711
 31
0.0
  0
LINE
  5
2DE
330
1F
100
AcDbEntity
  8
無題001
  6
CENTER
 62
     1
100
AcDbLine
 10
-28.807665105
 20
2345.6202124393
 30
0.0
 11
-25.1147699839
 21
2354.5356499301
 31
0.0
  0
LINE
  5
2DF
330
1F
100
AcDbEntity
  8
無題001
  6
CENTER
 62
     1
100
AcDbLine
 10
-49.8645208429
 20
2341.5257311592
 30
0.0
 11
-43.0686122697
 21
2334.7298225862
 31
0.0
  0
LINE
  5
2E0
330
1F
100
AcDbEntity
  8
無題001
  6
CENTER
 62
     1
100
AcDbLine
 10
-29.2800300138
 20
2320.9412403336
 30
0.0
 11
-22.6712728259
 21
2314.3324831432
 31
0.0
  0
LINE
  5
2E1
330
1F
100
AcDbEntity
  8
無題001
  6
CENTER
 62
     1
100
AcDbLine
 10
-49.7861266902
 20
2314.2237259309
 30
0.0
 11
-43.0686122693
 21
2320.9412403526
 31
0.0
  0
LINE
  5
2E2
330
1F
100
AcDbEntity
  8
無題001
  6
CENTER
 62
     1
100
AcDbLine
 10
-29.2800300153
 20
2334.7298226072
 30
0.0
 11
-22.6712728259
 21
2341.338579797
 31
0.0
  0
LINE
  5
2E3
330
1F
100
AcDbEntity
  8
無題001
  6
PHANTOM
 62
     1
100
AcDbLine
 10
88.1055194303
 20
2351.3355314696
 30
0.0
 11
99.1055194303
 21
2351.3355314696
 31
0.0
  0
LINE
  5
2E4
330
1F
100
AcDbEntity
  8
無題001
  6
HIDDEN
 62
     1
100
AcDbLine
 10
89.9055194303
 20
2354.3355314696
 30
0.0
 11
92.8055194303
 21
2354.3355314696
 31
0.0
  0
LINE
  5
2E5
330
1F
100
AcDbEntity
  8
無題001
  6
HIDDEN
 62
     1
100
AcDbLine
 10
92.8055194303
 20
2354.3355314696
 30
0.0
 11
92.8055194303
 21
2348.3355314696
 31
0.0
  0
LINE
  5
2E6
330
1F
100
AcDbEntity
  8
無題001
  6
HIDDEN
 62
     1
100
AcDbLine
 10
92.8055194303
 20
2348.3355314696
 30
0.0
 11
76.706690282
 21
2348.3355314696
 31
0.0
  0
LINE
  5
2E7
330
1F
100
AcDbEntity
  8
無題001
  6
HIDDEN
 62
     1
100
AcDbLine
 10
92.8055194303
 20
2353.0855314696
 30
0.0
 11
97.6055194303
 21
2353.0855314696
 31
0.0
  0
LINE
  5
2E8
330
1F
100
AcDbEntity
  8
無題001
  6
HIDDEN
 62
     1
100
AcDbLine
 10
97.6055194303
 20
2349.5855314696
 30
0.0
 11
92.8055194303
 21
2349.5855314696
 31
0.0
  0
LINE
  5
2E9
330
1F
100
AcDbEntity
  8
無題001
  6
HIDDEN
 62
     1
100
AcDbLine
 10
89.9055194303
 20
2301.3355314696
 30
0.0
 11
92.8055194303
 21
2301.3355314696
 31
0.0
  0
LINE
  5
2EA
330
1F
100
AcDbEntity
  8
無題001
  6
HIDDEN
 62
     1
100
AcDbLine
 10
92.8055194303
 20
2301.3355314696
 30
0.0
 11
92.8055194303
 21
2307.3355314696
 31
0.0
  0
LINE
  5
2EB
330
1F
100
AcDbEntity
  8
無題001
  6
HIDDEN
 62
     1
100
AcDbLine
 10
92.8055194303
 20
2307.3355314696
 30
0.0
 11
76.706690282
 21
2307.3355314696
 31
0.0
  0
LINE
  5
2EC
330
1F
100
AcDbEntity
  8
無題001
  6
HIDDEN
 62
     1
100
AcDbLine
 10
92.8055194303
 20
2302.5855314696
 30
0.0
 11
97.6055194303
 21
2302.5855314696
 31
0.0
  0
LINE
  5
2ED
330
1F
100
AcDbEntity
  8
無題001
  6
HIDDEN
 62
     1
100
AcDbLine
 10
97.6055194303
 20
2306.0855314696
 30
0.0
 11
92.8055194303
 21
2306.0855314696
 31
0.0
  0
LINE
  5
2EE
330
1F
100
AcDbEntity
  8
無題001
  6
PHANTOM
 62
     1
100
AcDbLine
 10
88.1055194303
 20
2304.3355314696
 30
0.0
 11
99.1055194303
 21
2304.3355314696
 31
0.0
  0
DIMENSION
  5
2FC
330
1F
100
AcDbEntity
  8
無題001
  6
Continuous
 62
     4
100
AcDbDimension
  2
_D8
 10
40.4340168152
 20
2322.4355314696
 30
0.0
 11
38.16355281520001
 21
2327.8355314696
 31
0.0
 70
   160
  1
φ<>
 71
     5
 42
-1.0
 52
90.0
  3
DIMSTYEX_6
100
AcDbAlignedDimension
 13
65.1268371382
 23
2333.2355314696
 33
0.0
 14
65.1268371382
 24
2322.4355314696
 34
0.0
 50
-90.0
100
AcDbRotatedDimension
1001
ACAD
1000
DSTYLE
1002
{
1070
   343
1005
85
1070
   344
1005
85
1070
    43
1040
8.0
1070
   173
1070
     1
1070
   272
1070
     3
1070
   279
1070
     2
1070
   340
1005
D9
1070
   140
1040
2.809856
1002
}
  0
DIMENSION
  5
309
330
1F
100
AcDbEntity
  8
無題001
  6
Continuous
 62
     4
100
AcDbDimension
  2
_D9
 10
-31.1743211531
 20
2290.6985649734
 30
0.0
 11
-36.17432115315
 21
2292.9690289734
 31
0.0
 70
   160
 71
     5
 42
-1.0
 52
90.0
  3
DIMSTYEX_2
100
AcDbAlignedDimension
 13
-41.1743211532
 23
2325.7959236642
 33
0.0
 14
-31.1743211531
 24
2325.7959236642
 34
0.0
100
AcDbRotatedDimension
1001
ACAD
1000
DSTYLE
1002
{
1070
   343
1005
85
1070
   344
1005
85
1070
    43
1040
0.0
1070
   173
1070
     1
1070
   272
1070
     3
1070
   279
1070
     2
1070
   340
1005
D9
1070
   140
1040
2.809856
1002
}
  0
DIMENSION
  5
317
330
1F
100
AcDbEntity
  8
無題001
  6
Continuous
 62
     4
100
AcDbDimension
  2
_D10
 10
-24.35057732655746
 20
2356.203607401616
 30
0.0
 11
-22.9297252362032
 21
2359.612581796857
 31
0.0
 70
   165
 71
     5
 42
-1.0
  3
DIMSTYEX_7
100
AcDb3PointAngularDimension
 13
-25.1147699839
 23
2354.5356499301
 33
0.0
 14
-36.1743211531
 24
2357.2969393537
 34
0.0
 15
-36.1743211532
 25
2327.8355314882
 35
0.0
1001
ACAD
1000
DSTYLE
1002
{
1070
   343
1005
85
1070
   344
1005
85
1070
    43
1040
0.0
1070
   173
1070
     1
1070
    76
1070
     1
1070
   272
1070
     3
1070
   279
1070
     2
1070
   340
1005
D9
1070
   140
1040
2.809856
1002
}
  0
DIMENSION
  5
325
330
1F
100
AcDbEntity
  8
無題001
  6
Continuous
 62
     4
100
AcDbDimension
  2
_D11
 10
-14.44244767626226
 20
2349.567404956762
 30
0.0
 11
-12.83698718569534
 21
2351.172865448144
 31
0.0
 70
   165
 71
     5
 42
-1.0
  3
DIMSTYEX_2
100
AcDb3PointAngularDimension
 13
-9.4742026975
 23
2338.8950826517
 33
0.0
 14
-25.3390231402
 24
2353.9942549185
 34
0.0
 15
-36.1743211668
 25
2327.8355314552
 35
0.0
1001
ACAD
1000
DSTYLE
1002
{
1070
   343
1005
85
1070
   344
1005
85
1070
    43
1040
0.0
1070
   173
1070
     1
1070
   272
1070
     3
1070
   279
1070
     2
1070
   340
1005
D9
1070
   140
1040
2.809856
1002
}
  0
MTEXT
  5
327
330
1F
100
AcDbEntity
  8
無題001
  6
Continuous
 62
     7
100
AcDbMText
 10
54.75791503670319
 20
2264.013375571165
 30
0.0
 40
8.0
 41
0.0
 71
     7
 72
     5
  1
{\fＭＳ ゴシック|b0|i0|c128|p49;\W1.0;ABT-1600}
  7
MTSTANDARD2
 73
     1
 44
0.703125
  0
LINE
  5
328
330
1F
100
AcDbEntity
  8
0
  6
Continuous
 62
     7
100
AcDbLine
 10
216.2854068979608
 20
2220.857674543381
 30
0.0
 11
202.5055110303009
 21
2220.857674543381
 31
0.0
  0
LINE
  5
329
330
1F
100
AcDbEntity
  8
0
  6
Continuous
 62
     7
100
AcDbLine
 10
216.8783190627755
 20
2224.857674543381
 30
0.0
 11
202.5055110302991
 21
2224.857674543381
 31
0.0
  0
LINE
  5
32A
330
1F
100
AcDbEntity
  8
0
  6
CENTER2
 62
     1
100
AcDbLine
 10
219.505511030303
 20
2247.857674543382
 30
0.0
 11
202.5055110303028
 21
2247.857674543383
 31
0.0
  0
SPLINE
  5
32B
330
1F
100
AcDbEntity
  8
0
  6
Continuous
 62
     4
100
AcDbSpline
210
0.0
220
0.0
230
1.0
 70
     8
 71
     3
 72
    14
 73
    10
 74
     0
 42
0.0
 43
0.0
 40
0.0
 40
0.0
 40
0.0
 40
0.0
 40
1.0
 40
1.0
 40
1.0
 40
2.0
 40
2.0
 40
2.0
 40
3.0
 40
3.0
 40
3.0
 40
3.0
 10
215.796629432049
 20
2227.401456110539
 30
0.0
 10
215.796629432049
 20
2227.401456110539
 30
0.0
 10
217.0067058820578
 20
2225.031362666478
 30
0.0
 10
217.088168793043
 20
2223.940732405285
 30
0.0
 10
217.1696317040282
 20
2222.850102144092
 30
0.0
 10
216.1998773252576
 20
2221.947553925839
 30
0.0
 10
216.2854068979607
 20
2220.857674543382
 30
0.0
 10
216.3709364706635
 20
2219.767795160924
 30
0.0
 10
217.6013462292608
 20
2217.401456110539
 30
0.0
 10
217.6013462292608
 20
2217.401456110539
 30
0.0
  0
SPLINE
  5
32C
330
1F
100
AcDbEntity
  8
0
  6
Continuous
 62
     4
100
AcDbSpline
210
0.0
220
0.0
230
1.0
 70
     8
 71
     3
 72
    14
 73
    10
 74
     0
 42
0.0
 43
0.0
 40
0.0
 40
0.0
 40
0.0
 40
0.0
 40
1.0
 40
1.0
 40
1.0
 40
2.0
 40
2.0
 40
2.0
 40
3.0
 40
3.0
 40
3.0
 40
3.0
 10
217.087575668316
 20
2227.401456110539
 30
0.0
 10
217.087575668316
 20
2227.401456110539
 30
0.0
 10
218.2976521183248
 20
2225.031362666478
 30
0.0
 10
218.37911502931
 20
2223.940732405285
 30
0.0
 10
218.4605779402953
 20
2222.850102144092
 30
0.0
 10
217.4908235615246
 20
2221.947553925839
 30
0.0
 10
217.5763531342277
 20
2220.857674543382
 30
0.0
 10
217.6618827069306
 20
2219.767795160924
 30
0.0
 10
218.8922924655278
 20
2217.401456110539
 30
0.0
 10
218.8922924655278
 20
2217.401456110539
 30
0.0
  0
SPLINE
  5
32D
330
1F
100
AcDbEntity
  8
0
  6
Continuous
 62
     4
100
AcDbSpline
210
0.0
220
0.0
230
1.0
 70
     8
 71
     3
 72
    14
 73
    10
 74
     0
 42
0.0
 43
0.0
 40
0.0
 40
0.0
 40
0.0
 40
0.0
 40
1.0
 40
1.0
 40
1.0
 40
2.0
 40
2.0
 40
2.0
 40
3.0
 40
3.0
 40
3.0
 40
3.0
 10
215.7167361541882
 20
2242.857674543382
 30
0.0
 10
215.7167361541882
 20
2242.857674543382
 30
0.0
 10
216.9268126041967
 20
2245.227767987443
 30
0.0
 10
217.0082755151822
 20
2246.318398248636
 30
0.0
 10
217.0897384261674
 20
2247.409028509829
 30
0.0
 10
216.119984047397
 20
2248.311576728082
 30
0.0
 10
216.2055136200999
 20
2249.40145611054
 30
0.0
 10
216.2910431928029
 20
2250.491335492997
 30
0.0
 10
217.5214529514004
 20
2252.857674543382
 30
0.0
 10
217.5214529514004
 20
2252.857674543382
 30
0.0
  0
SPLINE
  5
32E
330
1F
100
AcDbEntity
  8
0
  6
Continuous
 62
     4
100
AcDbSpline
210
0.0
220
0.0
230
1.0
 70
     8
 71
     3
 72
    14
 73
    10
 74
     0
 42
0.0
 43
0.0
 40
0.0
 40
0.0
 40
0.0
 40
0.0
 40
1.0
 40
1.0
 40
1.0
 40
2.0
 40
2.0
 40
2.0
 40
3.0
 40
3.0
 40
3.0
 40
3.0
 10
217.0076823904552
 20
2242.857674543382
 30
0.0
 10
217.0076823904552
 20
2242.857674543382
 30
0.0
 10
218.2177588404639
 20
2245.227767987443
 30
0.0
 10
218.2992217514494
 20
2246.318398248636
 30
0.0
 10
218.3806846624346
 20
2247.409028509829
 30
0.0
 10
217.410930283664
 20
2248.311576728082
 30
0.0
 10
217.4964598563669
 20
2249.401456110539
 30
0.0
 10
217.5819894290699
 20
2250.491335492997
 30
0.0
 10
218.8123991876674
 20
2252.857674543382
 30
0.0
 10
218.8123991876674
 20
2252.857674543382
 30
0.0
  0
LINE
  5
32F
330
1F
100
AcDbEntity
  8
0
  6
CENTER2
 62
     1
100
AcDbLine
 10
222.5055110303006
 20
2225.857674543379
 30
0.0
 11
222.5055110303003
 21
2244.857674543382
 31
0.0
  0
ARC
  5
330
330
1F
100
AcDbEntity
  8
0
  6
CENTER2
 62
     1
100
AcDbCircle
 10
219.5055110303006
 20
2225.857674543379
 30
0.0
 40
3.0
100
AcDbArc
 50
270.0
 51
0.0
  0
ARC
  5
331
330
1F
100
AcDbEntity
  8
0
  6
CENTER2
 62
     1
100
AcDbCircle
 10
219.5055110303027
 20
2244.857674543382
 30
0.0
 40
3.0
100
AcDbArc
 50
0.0
 51
89.99999999999567
  0
LINE
  5
332
330
1F
100
AcDbEntity
  8
0
  6
Continuous
 62
     7
100
AcDbLine
 10
202.5055110303028
 20
2250.057674543383
 30
0.0
 11
216.339310956653
 21
2250.057674543383
 31
0.0
  0
LINE
  5
333
330
1F
100
AcDbEntity
  8
0
  6
Continuous
 62
     7
100
AcDbLine
 10
202.5055110303028
 20
2245.657674543383
 30
0.0
 11
216.8767397646208
 21
2245.657674543383
 31
0.0
  0
LINE
  5
334
330
1F
100
AcDbEntity
  8
0
  6
Continuous
 62
     7
100
AcDbLine
 10
202.5055110303028
 20
2250.057674543383
 30
0.0
 11
202.5055110303028
 21
2245.657674543383
 31
0.0
  0
LINE
  5
335
330
1F
100
AcDbEntity
  8
0
  6
Continuous
 62
     7
100
AcDbLine
 10
202.5055110303028
 20
2248.927674543383
 30
0.0
 11
198.5055110303028
 21
2248.927674543383
 31
0.0
  0
LINE
  5
336
330
1F
100
AcDbEntity
  8
0
  6
Continuous
 62
     7
100
AcDbLine
 10
202.5055110303028
 20
2248.047674543383
 30
0.0
 11
198.5055110303028
 21
2248.047674543383
 31
0.0
  0
LINE
  5
337
330
1F
100
AcDbEntity
  8
0
  6
Continuous
 62
     7
100
AcDbLine
 10
202.5055110303028
 20
2247.167674543383
 30
0.0
 11
198.5055110303028
 21
2247.167674543383
 31
0.0
  0
LINE
  5
338
330
1F
100
AcDbEntity
  8
0
  6
Continuous
 62
     7
100
AcDbLine
 10
202.5055110303028
 20
2246.287674543383
 30
0.0
 11
199.4053408026409
 21
2246.287674543383
 31
0.0
  0
ARC
  5
339
330
1F
100
AcDbEntity
  8
0
  6
Continuous
 62
     7
100
AcDbCircle
 10
198.5147471423574
 20
2278.673578710329
 30
0.0
 40
29.74590560085391
100
AcDbArc
 50
258.3449543710839
 51
269.982209644062
  0
ARC
  5
33A
330
1F
100
AcDbEntity
  8
0
  6
Continuous
 62
     7
100
AcDbCircle
 10
198.5147471423572
 20
2277.793578710329
 30
0.0
 40
29.74590560085391
100
AcDbArc
 50
258.344954371084
 51
269.9822096440618
  0
LINE
  5
33B
330
1F
100
AcDbEntity
  8
0
  6
Continuous
 62
     7
100
AcDbLine
 10
202.5055110303028
 20
2248.047674543383
 30
0.0
 11
198.5055110303028
 21
2248.047674543383
 31
0.0
  0
ARC
  5
33C
330
1F
100
AcDbEntity
  8
0
  6
Continuous
 62
     7
100
AcDbCircle
 10
198.5147471428124
 20
2217.421770376437
 30
0.0
 40
29.74590560085391
100
AcDbArc
 50
90.0177903559382
 51
101.655045628916
  0
ARC
  5
33D
330
1F
100
AcDbEntity
  8
0
  6
Continuous
 62
     7
100
AcDbCircle
 10
198.5147471428114
 20
2218.301770376437
 30
0.0
 40
29.74590560085391
100
AcDbArc
 50
90.0177903559382
 51
101.6550456289163
  0
LINE
  5
33E
330
1F
100
AcDbEntity
  8
0
  6
Continuous
 62
     7
100
AcDbLine
 10
192.5055110303028
 20
2249.540985599442
 30
0.0
 11
192.5055110303028
 21
2248.660985599442
 31
0.0
  0
LINE
  5
33F
330
1F
100
AcDbEntity
  8
0
  6
Continuous
 62
     7
100
AcDbLine
 10
192.5055110303028
 20
2247.43436348723
 30
0.0
 11
192.5055110303028
 21
2246.55436348723
 31
0.0
  0
ARC
  5
340
330
1F
100
AcDbEntity
  8
0
  6
Continuous
 62
     7
100
AcDbCircle
 10
200.8429120470953
 20
2230.146867676233
 30
0.0
 40
16.20469862124925
100
AcDbArc
 50
95.08958479694994
 51
114.4565230876403
  0
ARC
  5
341
330
1F
100
AcDbEntity
  8
0
  6
Continuous
 62
     7
100
AcDbCircle
 10
200.8429120470955
 20
2231.216867676233
 30
0.0
 40
16.20469862124925
100
AcDbArc
 50
100.1557060270972
 51
114.456523087641
  0
LINE
  5
342
330
1F
100
AcDbEntity
  8
0
  6
Continuous
 62
     7
100
AcDbLine
 10
194.1341241861653
 20
2245.967610804718
 30
0.0
 11
194.1341241861653
 21
2244.897610804719
 31
0.0
  0
ARC
  5
343
330
1F
100
AcDbEntity
  8
0
  6
Continuous
 62
     7
100
AcDbCircle
 10
196.8861339864949
 20
2278.775529420758
 30
0.0
 40
29.74590560085391
100
AcDbArc
 50
254.9344649400289
 51
261.5313581035642
  0
ARC
  5
344
330
1F
100
AcDbEntity
  8
0
  6
Continuous
 62
     7
100
AcDbCircle
 10
196.8861339864949
 20
2278.284144820917
 30
0.0
 40
29.74590560085391
100
AcDbArc
 50
254.9344649400289
 51
261.5313581035642
  0
ARC
  5
345
330
1F
100
AcDbEntity
  8
0
  6
Continuous
 62
     7
100
AcDbCircle
 10
196.8861339869488
 20
2217.866611372125
 30
0.0
 40
29.74590560085391
100
AcDbArc
 50
98.46864189731991
 51
105.0655350608767
  0
ARC
  5
346
330
1F
100
AcDbEntity
  8
0
  6
Continuous
 62
     7
100
AcDbCircle
 10
196.8861339869488
 20
2217.365825862998
 30
0.0
 40
29.74590560085391
100
AcDbArc
 50
98.46864189731991
 51
105.0655350608769
  0
ARC
  5
347
330
1F
100
AcDbEntity
  8
0
  6
Continuous
 62
     7
100
AcDbCircle
 10
199.3134397555455
 20
2230.324234389461
 30
0.0
 40
16.20469862124925
100
AcDbArc
 50
108.6398329530668
 51
122.8455784213511
  0
ARC
  5
348
330
1F
100
AcDbEntity
  8
0
  6
Continuous
 62
     7
100
AcDbCircle
 10
199.3134397555455
 20
2229.74847061591
 30
0.0
 40
16.20469862124925
100
AcDbArc
 50
108.6398329530663
 51
122.8455784213502
  0
LINE
  5
349
330
1F
100
AcDbEntity
  8
0
  6
Continuous
 62
     7
100
AcDbLine
 10
189.1544680238377
 20
2250.052015682762
 30
0.0
 11
189.1544680238377
 21
2249.560631082921
 31
0.0
  0
LINE
  5
34A
330
1F
100
AcDbEntity
  8
0
  6
Continuous
 62
     7
100
AcDbLine
 10
189.1544680238377
 20
2246.590125109998
 30
0.0
 11
189.1544680238377
 21
2246.089339600871
 31
0.0
  0
LINE
  5
34B
330
1F
100
AcDbEntity
  8
0
  6
Continuous
 62
     7
100
AcDbLine
 10
190.5243887264245
 20
2243.93837554537
 30
0.0
 11
190.5243887264245
 21
2243.36261177182
 31
0.0
  0
MTEXT
  5
34C
330
1F
100
AcDbEntity
  8
0
  6
Continuous
 62
     4
100
AcDbMText
 10
191.257661533147
 20
2258.341674543382
 30
0.0
 40
3.5
 41
0.0
 71
     7
 72
     5
  1
{\fＭＳ ゴシック|b0|i0|c128|p49;\W1.0;センサ用ケーブル：５ｍ}
  7
MTSTANDARD
 73
     1
 44
0.8035714285714286
  0
LINE
  5
34D
330
1F
100
AcDbEntity
  8
0
  6
Continuous
 62
     4
100
AcDbLine
 10
189.1544680238377
 20
2257.557674543382
 30
0.0
 11
230.632661533147
 21
2257.557674543382
 31
0.0
  0
LINE
  5
34E
330
1F
100
AcDbEntity
  8
0
  6
ByBlock
 62
     4
100
AcDbLine
 10
189.1544680238377
 20
2257.557674543382
 30
0.0
 11
192.1088912828743
 21
2257.036730010381
 31
0.0
  0
LINE
  5
34F
330
1F
100
AcDbEntity
  8
0
  6
ByBlock
 62
     4
100
AcDbLine
 10
189.1544680238377
 20
2257.557674543382
 30
0.0
 11
192.1088912828743
 21
2258.078619076383
 31
0.0
  0
LINE
  5
350
330
1F
100
AcDbEntity
  8
0
  6
Continuous
 62
     4
100
AcDbLine
 10
189.1544680238377
 20
2250.052015682762
 30
0.0
 11
189.1544680238376
 21
2258.557674543382
 31
0.0
  0
HATCH
  5
351
330
1F
100
AcDbEntity
  8
0
  6
Continuous
 62
     4
100
AcDbHatch
 10
0.0
 20
0.0
 30
0.0
210
0.0
220
0.0
230
1.0
  2
_U
 70
     0
 71
     0
 91
        2
 92
        2
 72
     0
 73
     1
 93
       13
 10
216.339310956653
 20
2250.057674543383
 10
202.5055110303028
 20
2250.057674543383
 10
202.5055110303028
 20
2247.857674543383
 10
216.6064893812188
 20
2247.857674543382
 10
216.5177312507552
 20
2248.058810480181
 10
216.4328236682153
 20
2248.260612615081
 10
216.3556111609001
 20
2248.463766107831
 10
216.2899382561105
 20
2248.66895611818
 10
216.2396494811477
 20
2248.876867805878
 10
216.2085893633125
 20
2249.088186330674
 10
216.200602429906
 20
2249.303596852317
 10
216.2196798831559
 20
2249.528097277881
 10
216.2671753989984
 20
2249.780594102205
 97
        0
 92
        2
 72
     0
 73
     1
 93
       13
 10
216.6064893812188
 20
2247.857674543382
 10
202.5055110303028
 20
2247.857674543382
 10
202.5055110303028
 20
2245.657674543383
 10
216.8767397646208
 20
2245.657674543383
 10
216.9475105932422
 20
2245.935019661294
 10
216.9941051961023
 20
2246.187875880393
 10
217.0127576697582
 20
2246.412611070481
 10
217.0045030809718
 20
2246.627980933433
 10
216.9732690739213
 20
2246.839235507792
 10
216.9228865519356
 20
2247.04705752192
 10
216.8571864183437
 20
2247.252129704182
 10
216.7799995764743
 20
2247.455134782937
 10
216.6951569296564
 20
2247.65675548655
 97
        0
 75
     0
 76
     0
 52
45.0
 41
1.0
 77
     0
 78
     1
 53
45.0
 43
0.0
 44
0.0
 45
-0.7071067811865476
 46
0.7071067811865476
 79
     0
 98
        1
 10
0.0
 20
0.0
  0
HATCH
  5
352
330
1F
100
AcDbEntity
  8
0
  6
Continuous
 62
     4
100
AcDbHatch
 10
0.0
 20
0.0
 30
0.0
210
0.0
220
0.0
230
1.0
  2
_U
 70
     0
 71
     0
 91
        2
 92
        2
 72
     0
 73
     1
 93
       13
 10
216.8783190627755
 20
2224.857674543381
 10
202.5055110303005
 20
2224.857674543381
 10
202.5055110303005
 20
2222.857674543383
 10
216.8802627971186
 20
2222.857674543383
 10
216.9454525470087
 20
2223.032597381664
 10
217.0016506806086
 20
2223.209137764069
 10
217.0464417035319
 20
2223.387726112198
 10
217.0774101213917
 20
2223.56879284765
 10
217.0921404398018
 20
2223.752768392025
 10
217.0882171643756
 20
2223.940083166924
 10
217.0632764733447
 20
2224.141283070231
 10
217.0182670433829
 20
2224.364029243899
 10
216.9557581462233
 20
2224.604200255432
 97
        0
 92
        2
 72
     0
 73
     1
 93
       10
 10
216.8802627971186
 20
2222.857674543383
 10
202.5055110303005
 20
2222.857674543382
 10
202.5055110303009
 20
2220.857674543381
 10
216.2854068979607
 20
2220.857674543382
 10
216.2873061996328
 20
2221.158079219068
 10
216.3340231865004
 20
2221.450535200987
 10
216.4152832699448
 20
2221.736873627405
 10
216.5208118613474
 20
2222.018925636588
 10
216.6403343720897
 20
2222.298522366802
 10
216.7635762135529
 20
2222.577494956311
 97
        0
 75
     0
 76
     0
 52
45.0
 41
1.0
 77
     0
 78
     1
 53
45.0
 43
0.0
 44
0.0
 45
-0.7071067811865476
 46
0.7071067811865476
 79
     0
 98
        1
 10
0.0
 20
0.0
  0
MTEXT
  5
354
330
1F
100
AcDbEntity
  8
0
  6
Continuous
 62
     4
100
AcDbMText
 10
129.1055194303
 20
2252.057674543382
 30
0.0
 40
5.0
 41
0.0
 71
     7
 72
     5
  1
{\fＭＳ ゴシック|b0|i0|c128|p49;\W1.0;回転速度検知を\P使用する場合}
  7
MTSTANDARD3
 73
     1
 44
0.75
  0
LINE
  5
355
330
1F
100
AcDbEntity
  8
0
  6
PHANTOM2
 62
     4
100
AcDbLine
 10
138.9198811794603
 20
2247.857674543385
 30
0.0
 11
138.9198811794603
 21
2197.857674543383
 31
0.0
  0
LINE
  5
356
330
1F
100
AcDbEntity
  8
0
  6
PHANTOM2
 62
     4
100
AcDbLine
 10
136.9198811794603
 20
2197.857674543383
 30
0.0
 11
136.9198811794603
 21
2247.857674543385
 31
0.0
  0
DIMENSION
  5
364
330
1F
100
AcDbEntity
  8
無題001
  6
ByBlock
 62
     4
100
AcDbDimension
  2
_D12
 10
71.1055194303
 20
2288.4355314696
 30
0.0
 11
84.3555194303
 21
2290.7875314696
 31
0.0
 70
   160
 71
     5
 42
-1.0
 52
90.0
  3
DIMSTYEX_8
100
AcDbAlignedDimension
 13
97.6055194303
 23
2300.9355314696
 33
0.0
 14
71.1055194303
 24
2310.8355314696
 34
0.0
 50
180.0
100
AcDbRotatedDimension
1001
ACAD
1000
DSTYLE
1002
{
1070
   343
1005
85
1070
   344
1005
85
1070
    43
1040
0.0
1070
   173
1070
     1
1070
   272
1070
     3
1070
   340
1005
D9
1070
   140
1040
2.809856
1002
}
  0
DIMENSION
  5
371
330
1F
100
AcDbEntity
  8
無題001
  6
ByBlock
 62
     4
100
AcDbDimension
  2
_D13
 10
169.1055194303
 20
2288.4355314696
 30
0.0
 11
133.3555194303
 21
2290.7875314696
 31
0.0
 70
   160
 71
     5
 42
-1.0
 52
90.0
  3
DIMSTYEX_8
100
AcDbAlignedDimension
 13
97.6055194303
 23
2300.9355314696
 33
0.0
 14
169.1055194303
 24
2321.3355314696
 34
0.0
100
AcDbRotatedDimension
1001
ACAD
1000
DSTYLE
1002
{
1070
   343
1005
85
1070
   344
1005
85
1070
    43
1040
0.0
1070
   173
1070
     1
1070
   272
1070
     3
1070
   340
1005
D9
1070
   140
1040
2.809856
1002
}
  0
DIMENSION
  5
37E
330
1F
100
AcDbEntity
  8
無題001
  6
ByBlock
 62
     4
100
AcDbDimension
  2
_D14
 10
-58.42765716399934
 20
2362.489381760169
 30
0.0
 11
-69.59368248520596
 21
2341.678284179366
 31
0.0
 70
   161
  1
PCD<>
 71
     5
 42
-1.0
 52
90.0
  3
DIMSTYEX_8
100
AcDbAlignedDimension
 13
-45.1673818139
 23
2306.1243624556
 33
0.0
 14
-27.1812604924
 24
2349.5467004831
 34
0.0
1001
ACAD
1000
DSTYLE
1002
{
1070
   343
1005
85
1070
   344
1005
85
1070
    43
1040
0.0
1070
   173
1070
     1
1070
   272
1070
     3
1070
   340
1005
D9
1070
   140
1040
2.809856
1002
}
  0
ENDSEC
  0
SECTION
  2
OBJECTS
  0
DICTIONARY
  5
C
330
0
100
AcDbDictionary
281
     1
  3
ACAD_GROUP
350
D
  3
ACAD_LAYOUT
350
1A
  3
ACAD_MATERIAL
350
43
  3
ACAD_MLEADERSTYLE
350
6B
  3
ACAD_MLINESTYLE
350
17
  3
ACAD_PLOTSETTINGS
350
19
  3
ACAD_PLOTSTYLENAME
350
E
  3
ACAD_SCALELIST
350
47
  3
ACAD_TABLESTYLE
350
69
  3
ACAD_VISUALSTYLE
350
2A
  3
AcDbVariableDictionary
350
38E
  3
DWGPROPS
350
395
  0
DICTIONARY
  5
396
330
8
100
AcDbDictionary
280
     1
281
     1
  3
ACAD_XREC_ROUNDTRIP
360
397
  0
DICTIONARY
  5
D
102
{ACAD_REACTORS
330
C
102
}
330
C
100
AcDbDictionary
281
     1
  0
DICTIONARY
  5
1A
102
{ACAD_REACTORS
330
C
102
}
330
C
100
AcDbDictionary
281
     1
  3
Layout1
350
1E
  3
Model
350
22
  0
DICTIONARY
  5
43
102
{ACAD_REACTORS
330
C
102
}
330
C
100
AcDbDictionary
281
     1
  3
ByBlock
350
45
  3
ByLayer
350
44
  3
Global
350
46
  0
DICTIONARY
  5
6B
102
{ACAD_REACTORS
330
C
102
}
330
C
100
AcDbDictionary
281
     1
  3
Standard
350
6C
  0
DICTIONARY
  5
17
102
{ACAD_REACTORS
330
C
102
}
330
C
100
AcDbDictionary
281
     1
  3
Standard
350
18
  0
DICTIONARY
  5
19
102
{ACAD_REACTORS
330
C
102
}
330
C
100
AcDbDictionary
281
     1
  0
ACDBDICTIONARYWDFLT
  5
E
102
{ACAD_REACTORS
330
C
102
}
330
C
100
AcDbDictionary
281
     1
  3
Normal
350
F
100
AcDbDictionaryWithDefault
340
F
  0
DICTIONARY
  5
47
102
{ACAD_REACTORS
330
C
102
}
330
C
100
AcDbDictionary
281
     1
  3
A0
350
48
  3
A1
350
49
  3
A2
350
4A
  3
A3
350
4B
  3
A4
350
4C
  3
A5
350
4D
  3
A6
350
4E
  3
A7
350
4F
  3
A8
350
50
  3
A9
350
51
  3
B0
350
52
  3
B1
350
53
  3
B2
350
54
  3
B3
350
55
  3
B4
350
56
  3
B5
350
57
  3
B6
350
58
  3
B7
350
59
  3
B8
350
5A
  3
B9
350
5B
  3
C0
350
5C
  3
C1
350
5D
  3
C2
350
5E
  3
C3
350
5F
  3
C4
350
60
  3
C5
350
61
  3
C6
350
62
  3
C7
350
63
  3
C8
350
64
  3
C9
350
65
  3
D0
350
66
  3
D1
350
67
  3
D2
350
68
  0
DICTIONARY
  5
69
102
{ACAD_REACTORS
330
C
102
}
330
C
100
AcDbDictionary
281
     1
  3
Standard
350
6A
  0
DICTIONARY
  5
2A
102
{ACAD_REACTORS
330
C
102
}
330
C
100
AcDbDictionary
281
     1
  3
2dWireframe
350
2F
  3
Basic
350
32
  3
Brighten
350
36
  3
ColorChange
350
3A
  3
Conceptual
350
34
  3
Dim
350
35
  3
EdgeColorOff
350
3D
  3
Facepattern
350
39
  3
Flat
350
2B
  3
FlatWithEdges
350
2C
  3
Gouraud
350
2D
  3
GouraudWithEdges
350
2E
  3
Hidden
350
31
  3
JitterOff
350
3B
  3
Linepattern
350
38
  3
OverhangOff
350
3C
  3
Realistic
350
33
  3
Shaded
350
42
  3
Shaded with edges
350
41
  3
Shades of Gray
350
3E
  3
Sketchy
350
3F
  3
Thicken
350
37
  3
Wireframe
350
30
  3
X-Ray
350
40
  0
DICTIONARY
  5
38E
102
{ACAD_REACTORS
330
C
102
}
330
C
100
AcDbDictionary
281
     1
  3
CANNOSCALE
350
398
  3
CMLEADERSTYLE
350
390
  3
CTABLESTYLE
350
38F
  3
DIMASSOC
350
393
  3
HIDETEXT
350
394
  3
MSLTSCALE
350
399
  0
XRECORD
  5
395
102
{ACAD_REACTORS
330
C
102
}
330
C
100
AcDbXrecord
280
     1
  1
DWGPROPS COOKIE
  2

  3

  4

  6

  7

  8
000855
  9

300
=
301
=
302
=
303
=
304
=
305
=
306
=
307
=
308
=
309
=
 40
0.0
 41
5565253.0
 42
2459780.183150636
  1

 90
        0
  0
XRECORD
  5
397
102
{ACAD_REACTORS
330
396
102
}
330
396
100
AcDbXrecord
280
     1
102
VTR_0.000_0.000_1.000_1.000_VISUALSTYLE
340
2F
102
VTR_0.000_0.000_1.000_1.000_GRIDDISPLAY
 70
     3
102
VTR_0.000_0.000_1.000_1.000_GRIDMAJOR
 70
     5
102
VTR_0.000_0.000_1.000_1.000_DEFAULTLIGHTING
280
     1
102
VTR_0.000_0.000_1.000_1.000_DEFAULTLIGHTINGTYPE
 70
     1
102
VTR_0.000_0.000_1.000_1.000_BRIGHTNESS
141
0.0
102
VTR_0.000_0.000_1.000_1.000_CONTRAST
142
0.0
  0
LAYOUT
  5
1E
102
{ACAD_REACTORS
330
1A
102
}
330
1A
100
AcDbPlotSettings
  1

  2
none_device
  4

  6

 40
0.0
 41
0.0
 42
0.0
 43
0.0
 44
0.0
 45
0.0
 46
0.0
 47
0.0
 48
0.0
 49
0.0
140
0.0
141
0.0
142
1.0
143
1.0
 70
   688
 72
     0
 73
     0
 74
     5
  7

 75
    16
147
1.0
148
0.0
149
0.0
100
AcDbLayout
  1
Layout1
 70
     1
 71
     1
 10
0.0
 20
0.0
 11
12.0
 21
9.0
 12
0.0
 22
0.0
 32
0.0
 14
1.000000000000000E+20
 24
1.000000000000000E+20
 34
1.000000000000000E+20
 15
-1.000000000000000E+20
 25
-1.000000000000000E+20
 35
-1.000000000000000E+20
146
0.0
 13
0.0
 23
0.0
 33
0.0
 16
1.0
 26
0.0
 36
0.0
 17
0.0
 27
1.0
 37
0.0
 76
     0
330
1B
  0
LAYOUT
  5
22
102
{ACAD_REACTORS
330
1A
102
}
330
1A
100
AcDbPlotSettings
  1

  2
none_device
  4
Letter_(8.50_x_11.00_Inches)
  6

 40
6.35
 41
6.35
 42
6.35000508
 43
6.35000508
 44
215.9
 45
279.4
 46
0.0
 47
0.0
 48
0.0
 49
0.0
140
0.0
141
0.0
142
1.0
143
1.0
 70
  1712
 72
     0
 73
     0
 74
     0
  7

 75
     0
147
1.0
148
0.0
149
0.0
100
AcDbLayout
  1
Model
 70
     1
 71
     0
 10
-77.33765801800641
 20
2197.857674543383
 11
230.632661533147
 21
2370.905048281959
 12
-27.0931479332116
 22
2481.060073401526
 32
0.0
 14
-77.33765801800641
 24
2197.857674543383
 34
0.0
 15
230.632661533147
 25
2370.905048281959
 35
0.0
146
0.0
 13
0.0
 23
0.0
 33
0.0
 16
1.0
 26
0.0
 36
0.0
 17
0.0
 27
1.0
 37
0.0
 76
     0
330
1F
331
29
  0
MATERIAL
  5
45
102
{ACAD_REACTORS
330
43
102
}
102
{ACAD_XDICTIONARY
360
3CC
102
}
330
43
100
AcDbMaterial
  1
ByBlock
  0
MATERIAL
  5
44
102
{ACAD_REACTORS
330
43
102
}
102
{ACAD_XDICTIONARY
360
3CA
102
}
330
43
100
AcDbMaterial
  1
ByLayer
  0
MATERIAL
  5
46
102
{ACAD_REACTORS
330
43
102
}
102
{ACAD_XDICTIONARY
360
3CE
102
}
330
43
100
AcDbMaterial
  1
Global
  0
MLEADERSTYLE
  5
6C
102
{ACAD_REACTORS
330
6B
102
}
102
{ACAD_XDICTIONARY
360
3D1
102
}
330
6B
100
AcDbMLeaderStyle
170
     2
171
     1
172
     0
 90
        2
 40
0.0
 41
0.0
173
     1
 91
-1056964608
340
14
 92
       -2
290
     1
 42
0.09
291
     1
 43
0.36
  3
Standard
341
0
 44
0.18
300

342
11
174
     1
178
     6
175
     1
176
     0
 93
-1056964608
 45
0.18
292
     0
297
     0
 46
0.18
343
0
 94
-1056964608
 47
1.0
 49
1.0
140
1.0
293
     1
141
0.0
294
     1
177
     0
142
1.0
295
     0
296
     0
143
0.125
1001
ACAD_MLEADERVER
1070
     2
  0
MLINESTYLE
  5
18
102
{ACAD_REACTORS
330
17
102
}
330
17
100
AcDbMlineStyle
  2
Standard
 70
     0
  3

 62
   256
 51
90.0
 52
90.0
 71
     2
 49
0.5
 62
   256
  6
BYLAYER
 49
-0.5
 62
   256
  6
BYLAYER
  0
ACDBPLACEHOLDER
  5
F
102
{ACAD_REACTORS
330
E
102
}
330
E
  0
SCALE
  5
48
102
{ACAD_REACTORS
330
47
102
}
330
47
100
AcDbScale
 70
     0
300
1:1
140
1.0
141
1.0
290
     1
  0
SCALE
  5
49
102
{ACAD_REACTORS
330
47
102
}
330
47
100
AcDbScale
 70
     0
300
1:2
140
1.0
141
2.0
290
     0
  0
SCALE
  5
4A
102
{ACAD_REACTORS
330
47
102
}
330
47
100
AcDbScale
 70
     0
300
1:4
140
1.0
141
4.0
290
     0
  0
SCALE
  5
4B
102
{ACAD_REACTORS
330
47
102
}
330
47
100
AcDbScale
 70
     0
300
1:5
140
1.0
141
5.0
290
     0
  0
SCALE
  5
4C
102
{ACAD_REACTORS
330
47
102
}
330
47
100
AcDbScale
 70
     0
300
1:8
140
1.0
141
8.0
290
     0
  0
SCALE
  5
4D
102
{ACAD_REACTORS
330
47
102
}
330
47
100
AcDbScale
 70
     0
300
1:10
140
1.0
141
10.0
290
     0
  0
SCALE
  5
4E
102
{ACAD_REACTORS
330
47
102
}
330
47
100
AcDbScale
 70
     0
300
1:16
140
1.0
141
16.0
290
     0
  0
SCALE
  5
4F
102
{ACAD_REACTORS
330
47
102
}
330
47
100
AcDbScale
 70
     0
300
1:20
140
1.0
141
20.0
290
     0
  0
SCALE
  5
50
102
{ACAD_REACTORS
330
47
102
}
330
47
100
AcDbScale
 70
     0
300
1:30
140
1.0
141
30.0
290
     0
  0
SCALE
  5
51
102
{ACAD_REACTORS
330
47
102
}
330
47
100
AcDbScale
 70
     0
300
1:40
140
1.0
141
40.0
290
     0
  0
SCALE
  5
52
102
{ACAD_REACTORS
330
47
102
}
330
47
100
AcDbScale
 70
     0
300
1:50
140
1.0
141
50.0
290
     0
  0
SCALE
  5
53
102
{ACAD_REACTORS
330
47
102
}
330
47
100
AcDbScale
 70
     0
300
1:100
140
1.0
141
100.0
290
     0
  0
SCALE
  5
54
102
{ACAD_REACTORS
330
47
102
}
330
47
100
AcDbScale
 70
     0
300
2:1
140
2.0
141
1.0
290
     0
  0
SCALE
  5
55
102
{ACAD_REACTORS
330
47
102
}
330
47
100
AcDbScale
 70
     0
300
4:1
140
4.0
141
1.0
290
     0
  0
SCALE
  5
56
102
{ACAD_REACTORS
330
47
102
}
330
47
100
AcDbScale
 70
     0
300
8:1
140
8.0
141
1.0
290
     0
  0
SCALE
  5
57
102
{ACAD_REACTORS
330
47
102
}
330
47
100
AcDbScale
 70
     0
300
10:1
140
10.0
141
1.0
290
     0
  0
SCALE
  5
58
102
{ACAD_REACTORS
330
47
102
}
330
47
100
AcDbScale
 70
     0
300
100:1
140
100.0
141
1.0
290
     0
  0
SCALE
  5
59
102
{ACAD_REACTORS
330
47
102
}
330
47
100
AcDbScale
 70
     0
300
1/128" = 1'-0"
140
0.0078125
141
12.0
290
     0
  0
SCALE
  5
5A
102
{ACAD_REACTORS
330
47
102
}
330
47
100
AcDbScale
 70
     0
300
1/64" = 1'-0"
140
0.015625
141
12.0
290
     0
  0
SCALE
  5
5B
102
{ACAD_REACTORS
330
47
102
}
330
47
100
AcDbScale
 70
     0
300
1/32" = 1'-0"
140
0.03125
141
12.0
290
     0
  0
SCALE
  5
5C
102
{ACAD_REACTORS
330
47
102
}
330
47
100
AcDbScale
 70
     0
300
1/16" = 1'-0"
140
0.0625
141
12.0
290
     0
  0
SCALE
  5
5D
102
{ACAD_REACTORS
330
47
102
}
330
47
100
AcDbScale
 70
     0
300
3/32" = 1'-0"
140
0.09375
141
12.0
290
     0
  0
SCALE
  5
5E
102
{ACAD_REACTORS
330
47
102
}
330
47
100
AcDbScale
 70
     0
300
1/8" = 1'-0"
140
0.125
141
12.0
290
     0
  0
SCALE
  5
5F
102
{ACAD_REACTORS
330
47
102
}
330
47
100
AcDbScale
 70
     0
300
3/16" = 1'-0"
140
0.1875
141
12.0
290
     0
  0
SCALE
  5
60
102
{ACAD_REACTORS
330
47
102
}
330
47
100
AcDbScale
 70
     0
300
1/4" = 1'-0"
140
0.25
141
12.0
290
     0
  0
SCALE
  5
61
102
{ACAD_REACTORS
330
47
102
}
330
47
100
AcDbScale
 70
     0
300
3/8" = 1'-0"
140
0.375
141
12.0
290
     0
  0
SCALE
  5
62
102
{ACAD_REACTORS
330
47
102
}
330
47
100
AcDbScale
 70
     0
300
1/2" = 1'-0"
140
0.5
141
12.0
290
     0
  0
SCALE
  5
63
102
{ACAD_REACTORS
330
47
102
}
330
47
100
AcDbScale
 70
     0
300
3/4" = 1'-0"
140
0.75
141
12.0
290
     0
  0
SCALE
  5
64
102
{ACAD_REACTORS
330
47
102
}
330
47
100
AcDbScale
 70
     0
300
1" = 1'-0"
140
1.0
141
12.0
290
     0
  0
SCALE
  5
65
102
{ACAD_REACTORS
330
47
102
}
330
47
100
AcDbScale
 70
     0
300
1-1/2" = 1'-0"
140
1.5
141
12.0
290
     0
  0
SCALE
  5
66
102
{ACAD_REACTORS
330
47
102
}
330
47
100
AcDbScale
 70
     0
300
3" = 1'-0"
140
3.0
141
12.0
290
     0
  0
SCALE
  5
67
102
{ACAD_REACTORS
330
47
102
}
330
47
100
AcDbScale
 70
     0
300
6" = 1'-0"
140
6.0
141
12.0
290
     0
  0
SCALE
  5
68
102
{ACAD_REACTORS
330
47
102
}
330
47
100
AcDbScale
 70
     0
300
1'-0" = 1'-0"
140
12.0
141
12.0
290
     0
  0
TABLESTYLE
  5
6A
102
{ACAD_REACTORS
330
69
102
}
330
69
100
AcDbTableStyle
  3
Standard
 70
     0
 71
     0
 40
0.06
 41
0.06
280
     0
281
     0
  7
Standard
140
0.18
170
     2
 62
     0
 63
   257
283
     0
274
    -2
284
     1
 64
     0
275
    -2
285
     1
 65
     0
276
    -2
286
     1
 66
     0
277
    -2
287
     1
 67
     0
278
    -2
288
     1
 68
     0
279
    -2
289
     1
 69
     0
  7
Standard
140
0.25
170
     5
 62
     0
 63
   257
283
     0
274
    -2
284
     1
 64
     0
275
    -2
285
     1
 65
     0
276
    -2
286
     1
 66
     0
277
    -2
287
     1
 67
     0
278
    -2
288
     1
 68
     0
279
    -2
289
     1
 69
     0
  7
Standard
140
0.18
170
     5
 62
     0
 63
   257
283
     0
274
    -2
284
     1
 64
     0
275
    -2
285
     1
 65
     0
276
    -2
286
     1
 66
     0
277
    -2
287
     1
 67
     0
278
    -2
288
     1
 68
     0
279
    -2
289
     1
 69
     0
  0
VISUALSTYLE
  5
2F
102
{ACAD_REACTORS
330
2A
102
}
102
{ACAD_XDICTIONARY
360
3A2
102
}
330
2A
100
AcDbVisualStyle
  2
2dWireframe
 70
     4
 71
     0
 72
     2
 73
     0
 90
        0
 40
0.6
 41
30.0
 62
     5
 63
     7
 74
     1
 91
        4
 64
     7
 65
   257
 75
     1
175
     1
 42
1.0
 92
        0
 66
   257
 43
1.0
 76
     1
 77
     6
 78
     2
 67
     7
 79
     5
170
     0
171
     0
290
     0
174
     0
 93
        1
 44
0.0
173
     0
291
     0
 45
0.0
1001
ACAD
1000
AcDbSavedByObjectVersion
1070
     0
  0
VISUALSTYLE
  5
32
102
{ACAD_REACTORS
330
2A
102
}
102
{ACAD_XDICTIONARY
360
3A8
102
}
330
2A
100
AcDbVisualStyle
  2
Basic
 70
     7
 71
     1
 72
     0
 73
     1
 90
        0
 40
0.6
 41
30.0
 62
     5
 63
     7
 74
     0
 91
        4
 64
     7
 65
   257
 75
     1
175
     1
 42
1.0
 92
        8
 66
     7
 43
1.0
 76
     1
 77
     6
 78
     2
 67
     7
 79
     5
170
     0
171
     0
290
     0
174
     0
 93
        1
 44
0.0
173
     0
291
     1
 45
0.0
1001
ACAD
1000
AcDbSavedByObjectVersion
1070
     0
  0
VISUALSTYLE
  5
36
102
{ACAD_REACTORS
330
2A
102
}
102
{ACAD_XDICTIONARY
360
3B0
102
}
330
2A
100
AcDbVisualStyle
  2
Brighten
 70
    12
 71
     2
 72
     2
 73
     0
 90
        0
 40
0.6
 41
30.0
 62
     5
 63
     7
 74
     1
 91
        4
 64
     7
 65
   257
 75
     1
175
     1
 42
1.0
 92
        8
 66
     7
 43
1.0
 76
     1
 77
     6
 78
     2
 67
     7
 79
     5
170
     0
171
     0
290
     0
174
     0
 93
        1
 44
50.0
173
     0
291
     1
 45
0.0
1001
ACAD
1000
AcDbSavedByObjectVersion
1070
     0
  0
VISUALSTYLE
  5
3A
102
{ACAD_REACTORS
330
2A
102
}
102
{ACAD_XDICTIONARY
360
3B8
102
}
330
2A
100
AcDbVisualStyle
  2
ColorChange
 70
    16
 71
     2
 72
     2
 73
     3
 90
        0
 40
0.6
 41
30.0
 62
     5
 63
     8
 74
     1
 91
        4
 64
     7
 65
   257
 75
     1
175
     1
 42
1.0
 92
        8
 66
     8
 43
1.0
 76
     1
 77
     6
 78
     2
 67
     7
 79
     5
170
     0
171
     0
290
     0
174
     0
 93
        1
 44
0.0
173
     0
291
     1
 45
0.0
1001
ACAD
1000
AcDbSavedByObjectVersion
1070
     0
  0
VISUALSTYLE
  5
34
102
{ACAD_REACTORS
330
2A
102
}
102
{ACAD_XDICTIONARY
360
3AC
102
}
330
2A
100
AcDbVisualStyle
  2
Conceptual
 70
     9
 71
     3
 72
     2
 73
     0
 90
        0
 40
0.6
 41
30.0
 62
     5
 63
     7
 74
     2
 91
        2
 64
     7
 65
   257
 75
     1
175
     1
 42
179.0
 92
        8
 66
     7
 43
1.0
 76
     1
 77
     6
 78
     2
 67
     7
 79
     3
170
     0
171
     0
290
     0
174
     0
 93
        1
 44
0.0
173
     0
291
     0
 45
0.0
1001
ACAD
1000
AcDbSavedByObjectVersion
1070
     0
  0
VISUALSTYLE
  5
35
102
{ACAD_REACTORS
330
2A
102
}
102
{ACAD_XDICTIONARY
360
3AE
102
}
330
2A
100
AcDbVisualStyle
  2
Dim
 70
    11
 71
     2
 72
     2
 73
     0
 90
        0
 40
0.6
 41
30.0
 62
     5
 63
     7
 74
     1
 91
        4
 64
     7
 65
   257
 75
     1
175
     1
 42
1.0
 92
        8
 66
     7
 43
1.0
 76
     1
 77
     6
 78
     2
 67
     7
 79
     5
170
     0
171
     0
290
     0
174
     0
 93
        1
 44
-50.0
173
     0
291
     1
 45
0.0
1001
ACAD
1000
AcDbSavedByObjectVersion
1070
     0
  0
VISUALSTYLE
  5
3D
102
{ACAD_REACTORS
330
2A
102
}
102
{ACAD_XDICTIONARY
360
3BE
102
}
330
2A
100
AcDbVisualStyle
  2
EdgeColorOff
 70
    22
 71
     2
 72
     2
 73
     0
 90
        0
 40
0.6
 41
30.0
 62
     5
 63
     7
 74
     1
 91
        4
 64
     7
 65
   257
 75
     1
175
     1
 42
1.0
 92
        8
 66
     7
 43
1.0
 76
     1
 77
     6
 78
     2
 67
     7
 79
     5
170
     0
171
     0
290
     0
174
     0
 93
        1
 44
0.0
173
     0
291
     1
 45
0.0
1001
ACAD
1000
AcDbSavedByObjectVersion
1070
     0
  0
VISUALSTYLE
  5
39
102
{ACAD_REACTORS
330
2A
102
}
102
{ACAD_XDICTIONARY
360
3B6
102
}
330
2A
100
AcDbVisualStyle
  2
Facepattern
 70
    15
 71
     2
 72
     2
 73
     0
 90
        0
 40
0.6
 41
30.0
 62
     5
 63
     7
 74
     1
 91
        4
 64
     7
 65
   257
 75
     1
175
     1
 42
1.0
 92
        8
 66
     7
 43
1.0
 76
     1
 77
     6
 78
     2
 67
     7
 79
     5
170
     0
171
     0
290
     0
174
     0
 93
        1
 44
0.0
173
     0
291
     1
 45
0.0
1001
ACAD
1000
AcDbSavedByObjectVersion
1070
     0
  0
VISUALSTYLE
  5
2B
102
{ACAD_REACTORS
330
2A
102
}
102
{ACAD_XDICTIONARY
360
39A
102
}
330
2A
100
AcDbVisualStyle
  2
Flat
 70
     0
 71
     2
 72
     1
 73
     1
 90
        2
 40
0.6
 41
30.0
 62
     5
 63
     7
 74
     0
 91
        0
 64
     7
 65
   257
 75
     1
175
     1
 42
1.0
 92
        8
 66
     7
 43
1.0
 76
     1
 77
     6
 78
     2
 67
     7
 79
     5
170
     0
171
     0
290
     0
174
     0
 93
       13
 44
0.0
173
     0
291
     1
 45
0.0
1001
ACAD
1000
AcDbSavedByObjectVersion
1070
     0
  0
VISUALSTYLE
  5
2C
102
{ACAD_REACTORS
330
2A
102
}
102
{ACAD_XDICTIONARY
360
39C
102
}
330
2A
100
AcDbVisualStyle
  2
FlatWithEdges
 70
     1
 71
     2
 72
     1
 73
     1
 90
        2
 40
0.6
 41
30.0
 62
     5
 63
     7
 74
     1
 91
        0
 64
     7
 65
   257
 75
     1
175
     1
 42
1.0
 92
        0
 66
   257
 43
1.0
 76
     1
 77
     6
 78
     2
 67
     7
 79
     5
170
     0
171
     0
290
     0
174
     0
 93
       13
 44
0.0
173
     0
291
     1
 45
0.0
1001
ACAD
1000
AcDbSavedByObjectVersion
1070
     0
  0
VISUALSTYLE
  5
2D
102
{ACAD_REACTORS
330
2A
102
}
102
{ACAD_XDICTIONARY
360
39E
102
}
330
2A
100
AcDbVisualStyle
  2
Gouraud
 70
     2
 71
     2
 72
     2
 73
     1
 90
        2
 40
0.6
 41
30.0
 62
     5
 63
     7
 74
     0
 91
        0
 64
     7
 65
   257
 75
     1
175
     1
 42
1.0
 92
        0
 66
     7
 43
1.0
 76
     1
 77
     6
 78
     2
 67
     7
 79
     5
170
     0
171
     0
290
     0
174
     0
 93
       13
 44
0.0
173
     0
291
     1
 45
0.0
1001
ACAD
1000
AcDbSavedByObjectVersion
1070
     0
  0
VISUALSTYLE
  5
2E
102
{ACAD_REACTORS
330
2A
102
}
102
{ACAD_XDICTIONARY
360
3A0
102
}
330
2A
100
AcDbVisualStyle
  2
GouraudWithEdges
 70
     3
 71
     2
 72
     2
 73
     1
 90
        2
 40
0.6
 41
30.0
 62
     5
 63
     7
 74
     1
 91
        0
 64
     7
 65
   257
 75
     1
175
     1
 42
1.0
 92
        0
 66
   257
 43
1.0
 76
     1
 77
     6
 78
     2
 67
     7
 79
     5
170
     0
171
     0
290
     0
174
     0
 93
       13
 44
0.0
173
     0
291
     1
 45
0.0
1001
ACAD
1000
AcDbSavedByObjectVersion
1070
     0
  0
VISUALSTYLE
  5
31
102
{ACAD_REACTORS
330
2A
102
}
102
{ACAD_XDICTIONARY
360
3A6
102
}
330
2A
100
AcDbVisualStyle
  2
Hidden
 70
     6
 71
     1
 72
     2
 73
     2
 90
        0
 40
0.6
 41
30.0
 62
     5
 63
     7
 74
     2
 91
        2
 64
     7
 65
   257
 75
     2
175
     1
 42
40.0
 92
        0
 66
   257
 43
1.0
 76
     1
 77
     6
 78
     2
 67
     7
 79
     3
170
     0
171
     0
290
     0
174
     0
 93
        1
 44
0.0
173
     0
291
     0
 45
0.0
1001
ACAD
1000
AcDbSavedByObjectVersion
1070
     0
  0
VISUALSTYLE
  5
3B
102
{ACAD_REACTORS
330
2A
102
}
102
{ACAD_XDICTIONARY
360
3BA
102
}
330
2A
100
AcDbVisualStyle
  2
JitterOff
 70
    20
 71
     2
 72
     2
 73
     0
 90
        0
 40
0.6
 41
30.0
 62
     5
 63
     7
 74
     1
 91
        4
 64
     7
 65
   257
 75
     1
175
     1
 42
1.0
 92
       10
 66
     7
 43
1.0
 76
     1
 77
     6
 78
     2
 67
     7
 79
     5
170
     0
171
     0
290
     0
174
     0
 93
        1
 44
0.0
173
     0
291
     1
 45
0.0
1001
ACAD
1000
AcDbSavedByObjectVersion
1070
     0
  0
VISUALSTYLE
  5
38
102
{ACAD_REACTORS
330
2A
102
}
102
{ACAD_XDICTIONARY
360
3B4
102
}
330
2A
100
AcDbVisualStyle
  2
Linepattern
 70
    14
 71
     2
 72
     2
 73
     0
 90
        0
 40
0.6
 41
30.0
 62
     5
 63
     7
 74
     1
 91
        4
 64
     7
 65
   257
 75
     7
175
     7
 42
1.0
 92
        8
 66
     7
 43
1.0
 76
     1
 77
     6
 78
     2
 67
     7
 79
     5
170
     0
171
     0
290
     0
174
     0
 93
        1
 44
0.0
173
     0
291
     1
 45
0.0
1001
ACAD
1000
AcDbSavedByObjectVersion
1070
     0
  0
VISUALSTYLE
  5
3C
102
{ACAD_REACTORS
330
2A
102
}
102
{ACAD_XDICTIONARY
360
3BC
102
}
330
2A
100
AcDbVisualStyle
  2
OverhangOff
 70
    21
 71
     2
 72
     2
 73
     0
 90
        0
 40
0.6
 41
30.0
 62
     5
 63
     7
 74
     1
 91
        4
 64
     7
 65
   257
 75
     1
175
     1
 42
1.0
 92
        9
 66
     7
 43
1.0
 76
     1
 77
     6
 78
     2
 67
     7
 79
     5
170
     0
171
     0
290
     0
174
     0
 93
        1
 44
0.0
173
     0
291
     1
 45
0.0
1001
ACAD
1000
AcDbSavedByObjectVersion
1070
     0
  0
VISUALSTYLE
  5
33
102
{ACAD_REACTORS
330
2A
102
}
102
{ACAD_XDICTIONARY
360
3AA
102
}
330
2A
100
AcDbVisualStyle
  2
Realistic
 70
     8
 71
     2
 72
     3
 73
     0
 90
        2
 40
0.6
 41
30.0
 62
     5
 63
     7
 74
     0
 91
        0
 64
     7
 65
   257
 75
     1
175
     1
 42
1.0
 92
        8
 66
   257
 43
1.0
 76
     1
 77
     6
 78
     2
 67
     7
 79
     3
170
     0
171
     0
290
     0
174
     0
 93
       13
 44
0.0
173
     0
291
     0
 45
0.0
1001
ACAD
1000
AcDbSavedByObjectVersion
1070
     0
  0
VISUALSTYLE
  5
42
102
{ACAD_REACTORS
330
2A
102
}
102
{ACAD_XDICTIONARY
360
3C8
102
}
330
2A
100
AcDbVisualStyle
  2
Shaded
 70
    27
 71
     2
 72
     2
 73
     1
 90
        2
 40
0.6
 41
30.0
 62
     5
 63
     7
 74
     0
 91
        4
 64
     7
 65
   257
 75
     1
175
     1
 42
1.0
 92
        8
 66
   257
 43
1.0
 76
     1
 77
     6
 78
     2
 67
     8
 79
     3
170
     0
171
     0
290
     0
174
     0
 93
        5
 44
0.0
173
     0
291
     0
 45
0.0
1001
ACAD
1000
AcDbSavedByObjectVersion
1070
     0
  0
VISUALSTYLE
  5
41
102
{ACAD_REACTORS
330
2A
102
}
102
{ACAD_XDICTIONARY
360
3C6
102
}
330
2A
100
AcDbVisualStyle
  2
Shaded with edges
 70
    26
 71
     2
 72
     2
 73
     1
 90
        2
 40
0.6
 41
30.0
 62
     5
 63
     7
 74
     1
 91
       10
 64
     7
 65
   257
 75
     2
175
     1
 42
1.0
 92
        8
 66
   257
 43
1.0
 76
     1
 77
     6
 78
     2
 67
     7
 79
     3
170
     0
171
     0
290
     0
174
     0
 93
        5
 44
0.0
173
     0
291
     0
 45
0.0
1001
ACAD
1000
AcDbSavedByObjectVersion
1070
     0
  0
VISUALSTYLE
  5
3E
102
{ACAD_REACTORS
330
2A
102
}
102
{ACAD_XDICTIONARY
360
3C0
102
}
330
2A
100
AcDbVisualStyle
  2
Shades of Gray
 70
    23
 71
     2
 72
     2
 73
     3
 90
        0
 40
0.6
 41
30.0
 62
     5
 63
     7
 74
     2
 91
        2
 64
     7
 65
     7
 75
     1
175
     1
 42
40.0
 92
        8
 66
     7
 43
1.0
 76
     1
 77
     6
 78
     2
 67
     7
 79
     3
170
     0
171
     0
290
     0
174
     0
 93
        1
 44
0.0
173
     0
291
     0
 45
0.0
1001
ACAD
1000
AcDbSavedByObjectVersion
1070
     0
  0
VISUALSTYLE
  5
3F
102
{ACAD_REACTORS
330
2A
102
}
102
{ACAD_XDICTIONARY
360
3C2
102
}
330
2A
100
AcDbVisualStyle
  2
Sketchy
 70
    24
 71
     1
 72
     2
 73
     2
 90
        0
 40
0.6
 41
30.0
 62
     5
 63
     7
 74
     2
 91
        2
 64
     7
 65
     7
 75
     1
175
     1
 42
40.0
 92
       11
 66
     7
 43
1.0
 76
     1
 77
     6
 78
     2
 67
     7
 79
     6
170
     0
171
     0
290
     0
174
     0
 93
        1
 44
0.0
173
     0
291
     0
 45
0.0
1001
ACAD
1000
AcDbSavedByObjectVersion
1070
     0
  0
VISUALSTYLE
  5
37
102
{ACAD_REACTORS
330
2A
102
}
102
{ACAD_XDICTIONARY
360
3B2
102
}
330
2A
100
AcDbVisualStyle
  2
Thicken
 70
    13
 71
     2
 72
     2
 73
     0
 90
        0
 40
0.6
 41
30.0
 62
     5
 63
     7
 74
     1
 91
        4
 64
     7
 65
   257
 75
     1
175
     1
 42
1.0
 92
       12
 66
     7
 43
1.0
 76
     1
 77
     6
 78
     2
 67
     7
 79
     5
170
     0
171
     0
290
     0
174
     0
 93
        1
 44
0.0
173
     0
291
     1
 45
0.0
1001
ACAD
1000
AcDbSavedByObjectVersion
1070
     0
  0
VISUALSTYLE
  5
30
102
{ACAD_REACTORS
330
2A
102
}
102
{ACAD_XDICTIONARY
360
3A4
102
}
330
2A
100
AcDbVisualStyle
  2
Wireframe
 70
     5
 71
     0
 72
     2
 73
     0
 90
        0
 40
0.6
 41
30.0
 62
     5
 63
     7
 74
     1
 91
        4
 64
     7
 65
   257
 75
     1
175
     1
 42
1.0
 92
        0
 66
   257
 43
1.0
 76
     1
 77
     6
 78
     2
 67
     7
 79
     3
170
     0
171
     0
290
     0
174
     0
 93
        1
 44
0.0
173
     0
291
     0
 45
0.0
1001
ACAD
1000
AcDbSavedByObjectVersion
1070
     0
  0
VISUALSTYLE
  5
40
102
{ACAD_REACTORS
330
2A
102
}
102
{ACAD_XDICTIONARY
360
3C4
102
}
330
2A
100
AcDbVisualStyle
  2
X-Ray
 70
    25
 71
     2
 72
     2
 73
     1
 90
        1
 40
0.5
 41
30.0
 62
     5
 63
     7
 74
     1
 91
        0
 64
     7
 65
   257
 75
     1
175
     1
 42
1.0
 92
        8
 66
     7
 43
1.0
 76
     1
 77
     6
 78
     2
 67
     7
 79
     3
170
     0
171
     0
290
     0
174
     0
 93
       13
 44
0.0
173
     0
291
     0
 45
0.0
1001
ACAD
1000
AcDbSavedByObjectVersion
1070
     0
  0
DICTIONARYVAR
  5
398
102
{ACAD_REACTORS
330
38E
102
}
330
38E
100
DictionaryVariables
280
     0
  1
1:1
  0
DICTIONARYVAR
  5
390
102
{ACAD_REACTORS
330
38E
102
}
330
38E
100
DictionaryVariables
280
     0
  1
Standard
  0
DICTIONARYVAR
  5
38F
102
{ACAD_REACTORS
330
38E
102
}
330
38E
100
DictionaryVariables
280
     0
  1
Standard
  0
DICTIONARYVAR
  5
393
102
{ACAD_REACTORS
330
38E
102
}
330
38E
100
DictionaryVariables
280
     0
  1
2
  0
DICTIONARYVAR
  5
394
102
{ACAD_REACTORS
330
38E
102
}
330
38E
100
DictionaryVariables
280
     0
  1
1
  0
DICTIONARYVAR
  5
399
102
{ACAD_REACTORS
330
38E
102
}
330
38E
100
DictionaryVariables
280
     0
  1
1
  0
DICTIONARY
  5
3CC
330
45
100
AcDbDictionary
280
     1
281
     1
  3
ACAD_XREC_ROUNDTRIP
360
3CD
  0
DICTIONARY
  5
3CA
330
44
100
AcDbDictionary
280
     1
281
     1
  3
ACAD_XREC_ROUNDTRIP
360
3CB
  0
DICTIONARY
  5
3CE
330
46
100
AcDbDictionary
280
     1
281
     1
  3
ACAD_XREC_ROUNDTRIP
360
3CF
  0
DICTIONARY
  5
3D1
330
6C
100
AcDbDictionary
280
     1
281
     1
  3
ACAD_XREC_ROUNDTRIP
360
3D2
  0
DICTIONARY
  5
3A2
330
2F
100
AcDbDictionary
280
     1
281
     1
  3
ACAD_XREC_ROUNDTRIP
360
3A3
  0
DICTIONARY
  5
3A8
330
32
100
AcDbDictionary
280
     1
281
     1
  3
ACAD_XREC_ROUNDTRIP
360
3A9
  0
DICTIONARY
  5
3B0
330
36
100
AcDbDictionary
280
     1
281
     1
  3
ACAD_XREC_ROUNDTRIP
360
3B1
  0
DICTIONARY
  5
3B8
330
3A
100
AcDbDictionary
280
     1
281
     1
  3
ACAD_XREC_ROUNDTRIP
360
3B9
  0
DICTIONARY
  5
3AC
330
34
100
AcDbDictionary
280
     1
281
     1
  3
ACAD_XREC_ROUNDTRIP
360
3AD
  0
DICTIONARY
  5
3AE
330
35
100
AcDbDictionary
280
     1
281
     1
  3
ACAD_XREC_ROUNDTRIP
360
3AF
  0
DICTIONARY
  5
3BE
330
3D
100
AcDbDictionary
280
     1
281
     1
  3
ACAD_XREC_ROUNDTRIP
360
3BF
  0
DICTIONARY
  5
3B6
330
39
100
AcDbDictionary
280
     1
281
     1
  3
ACAD_XREC_ROUNDTRIP
360
3B7
  0
DICTIONARY
  5
39A
330
2B
100
AcDbDictionary
280
     1
281
     1
  3
ACAD_XREC_ROUNDTRIP
360
39B
  0
DICTIONARY
  5
39C
330
2C
100
AcDbDictionary
280
     1
281
     1
  3
ACAD_XREC_ROUNDTRIP
360
39D
  0
DICTIONARY
  5
39E
330
2D
100
AcDbDictionary
280
     1
281
     1
  3
ACAD_XREC_ROUNDTRIP
360
39F
  0
DICTIONARY
  5
3A0
330
2E
100
AcDbDictionary
280
     1
281
     1
  3
ACAD_XREC_ROUNDTRIP
360
3A1
  0
DICTIONARY
  5
3A6
330
31
100
AcDbDictionary
280
     1
281
     1
  3
ACAD_XREC_ROUNDTRIP
360
3A7
  0
DICTIONARY
  5
3BA
330
3B
100
AcDbDictionary
280
     1
281
     1
  3
ACAD_XREC_ROUNDTRIP
360
3BB
  0
DICTIONARY
  5
3B4
330
38
100
AcDbDictionary
280
     1
281
     1
  3
ACAD_XREC_ROUNDTRIP
360
3B5
  0
DICTIONARY
  5
3BC
330
3C
100
AcDbDictionary
280
     1
281
     1
  3
ACAD_XREC_ROUNDTRIP
360
3BD
  0
DICTIONARY
  5
3AA
330
33
100
AcDbDictionary
280
     1
281
     1
  3
ACAD_XREC_ROUNDTRIP
360
3AB
  0
DICTIONARY
  5
3C8
330
42
100
AcDbDictionary
280
     1
281
     1
  3
ACAD_XREC_ROUNDTRIP
360
3C9
  0
DICTIONARY
  5
3C6
330
41
100
AcDbDictionary
280
     1
281
     1
  3
ACAD_XREC_ROUNDTRIP
360
3C7
  0
DICTIONARY
  5
3C0
330
3E
100
AcDbDictionary
280
     1
281
     1
  3
ACAD_XREC_ROUNDTRIP
360
3C1
  0
DICTIONARY
  5
3C2
330
3F
100
AcDbDictionary
280
     1
281
     1
  3
ACAD_XREC_ROUNDTRIP
360
3C3
  0
DICTIONARY
  5
3B2
330
37
100
AcDbDictionary
280
     1
281
     1
  3
ACAD_XREC_ROUNDTRIP
360
3B3
  0
DICTIONARY
  5
3A4
330
30
100
AcDbDictionary
280
     1
281
     1
  3
ACAD_XREC_ROUNDTRIP
360
3A5
  0
DICTIONARY
  5
3C4
330
40
100
AcDbDictionary
280
     1
281
     1
  3
ACAD_XREC_ROUNDTRIP
360
3C5
  0
XRECORD
  5
3CD
102
{ACAD_REACTORS
330
3CC
102
}
330
3CC
100
AcDbXrecord
280
     1
102
MATERIAL
148
0.0
149
0.0
149
0.0
 93
        0
 94
      127
282
     0
 72
     1
 77
     1
171
     1
175
     1
179
     1
273
     0
  0
XRECORD
  5
3CB
102
{ACAD_REACTORS
330
3CA
102
}
330
3CA
100
AcDbXrecord
280
     1
102
MATERIAL
148
0.0
149
0.0
149
0.0
 93
        0
 94
      127
282
     0
 72
     1
 77
     1
171
     1
175
     1
179
     1
273
     0
  0
XRECORD
  5
3CF
102
{ACAD_REACTORS
330
3CE
102
}
330
3CE
100
AcDbXrecord
280
     1
102
MATERIAL
148
0.0
149
0.0
149
0.0
 93
        0
 94
      127
282
     0
 72
     1
 77
     1
171
     1
175
     1
179
     1
273
     0
  0
XRECORD
  5
3D2
102
{ACAD_REACTORS
330
3D1
102
}
330
3D1
100
AcDbXrecord
280
     1
102
ACAD_ROUNDTRIP_2010_MLEADER_STYLE
  0
XRECORD
  5
3A3
102
{ACAD_REACTORS
330
3A2
102
}
330
3A2
100
AcDbXrecord
280
     1
102
RTVSPropertyOp0
 70
     1
102
RTVSPropertyOp1
 70
     1
102
RTVSPropertyOp2
 70
     1
102
RTVSPropertyOp3
 70
     1
102
RTVSPropertyOp4
 70
     1
102
RTVSPropertyOp5
 70
     1
102
RTVSPropertyOp6
 70
     1
102
RTVSPropertyOp7
 70
     1
102
RTVSPropertyOp8
 70
     1
102
RTVSPropertyOp9
 70
     1
102
RTVSPropertyOp10
 70
     1
102
RTVSPropertyOp11
 70
     1
102
RTVSPropertyOp12
 70
     1
102
RTVSPropertyOp13
 70
     1
102
RTVSPropertyOp14
 70
     1
102
RTVSPropertyOp15
 70
     1
102
RTVSPropertyOp16
 70
     1
102
RTVSPropertyOp17
 70
     1
102
RTVSPropertyOp18
 70
     1
102
RTVSPropertyOp19
 70
     1
102
RTVSPropertyOp20
 70
     1
102
RTVSPropertyOp21
 70
     1
102
RTVSPropertyOp22
 70
     1
102
RTVSPropertyOp23
 70
     1
102
RTVSPropertyOp24
 70
     1
102
RTVSPropertyOp25
 70
     1
102
RTVSPropertyOp26
 70
     1
102
RTVSPropertyOp27
 70
     1
102
RTVSPropertyOp28
 70
     1
102
RTVSPropertyOp29
 70
     1
102
RTVSPropertyOp30
 70
     1
102
RTVSPropertyOp31
 70
     1
102
RTVSPropertyOp32
 70
     1
102
RTVSPropertyOp33
 70
     1
102
RTVSPropertyOp34
 70
     1
102
RTVSPropertyOp35
 70
     1
102
RTVSPropertyOp36
 70
     1
102
RTVSPropertyOp37
 70
     1
102
RTVSPropertyOp38
 70
     1
102
RTVSPropertyOp39
 70
     1
102
RTVSPropertyOp40
 70
     1
102
RTVSPropertyOp41
 70
     1
102
RTVSPropertyOp42
 70
     1
102
RTVSPropertyOp43
 70
     1
102
RTVSPropertyOp44
 70
     1
102
RTVSPropertyOp45
 70
     1
102
RTVSPropertyOp46
 70
     1
102
RTVSPropertyOp47
 70
     1
102
RTVSPropertyOp48
 70
     1
102
RTVSPropertyOp49
 70
     1
102
RTVSPropertyOp50
 70
     1
102
RTVSPropertyOp51
 70
     0
102
RTVSPropertyOp52
 70
     0
102
RTVSPropertyOp53
 70
     1
102
RTVSPropertyOp54
 70
     1
102
RTVSPropertyOp55
 70
     1
102
RTVSPropertyOp56
 70
     1
102
RTVSPropertyOp57
 70
     1
102
RTVSPost2010Prop28
280
     1
102
RTVSPost2010PropOp28
 70
     1
102
RTVSPost2010Prop29
280
     1
102
RTVSPost2010PropOp29
 70
     1
102
RTVSPost2010Prop30
280
     0
102
RTVSPost2010PropOp30
 70
     1
102
RTVSPost2010Prop31
280
     0
102
RTVSPost2010PropOp31
 70
     1
102
RTVSPost2010Prop32
280
     0
102
RTVSPost2010PropOp32
 70
     1
102
RTVSPost2010Prop33
280
     0
102
RTVSPost2010PropOp33
 70
     1
102
RTVSPost2010Prop34
280
     0
102
RTVSPost2010PropOp34
 70
     1
102
RTVSPost2010Prop35
280
     0
102
RTVSPost2010PropOp35
 70
     1
102
RTVSPost2010Prop36
280
     0
102
RTVSPost2010PropOp36
 70
     1
102
RTVSPost2010Prop37
 90
       50
102
RTVSPost2010PropOp37
 70
     1
102
RTVSPost2010Prop38
140
0.0
102
RTVSPost2010PropOp38
 70
     1
102
RTVSPost2010Prop39
140
1.0
102
RTVSPost2010PropOp39
 70
     1
102
RTVSPost2010Prop40
 90
        0
102
RTVSPost2010PropOp40
 70
     1
102
RTVSPost2010Prop41ColorIndex
 90
       18
102
RTVSPost2010Prop41ColorRGB
 90
        0
102
RTVSPost2010PropOp41
 70
     1
102
RTVSPost2010Prop42
 90
       50
102
RTVSPost2010PropOp42
 70
     1
102
RTVSPost2010Prop43
 90
        3
102
RTVSPost2010PropOp43
 70
     1
102
RTVSPost2010Prop44ColorIndex
 90
        5
102
RTVSPost2010Prop44ColorRGB
 90
      255
102
RTVSPost2010PropOp44
 70
     1
102
RTVSPost2010Prop45
280
     0
102
RTVSPost2010PropOp45
 70
     1
102
RTVSPost2010Prop46
 90
       50
102
RTVSPost2010PropOp46
 70
     1
102
RTVSPost2010Prop47
 90
       50
102
RTVSPost2010PropOp47
 70
     1
102
RTVSPost2010Prop48
 90
       50
102
RTVSPost2010PropOp48
 70
     1
102
RTVSPost2010Prop49
280
     0
102
RTVSPost2010PropOp49
 70
     1
102
RTVSPost2010Prop50
 90
       50
102
RTVSPost2010PropOp50
 70
     1
102
RTVSPost2010Prop51ColorIndex
 90
      256
102
RTVSPost2010Prop51ColorRGB
 90
-16777216
102
RTVSPost2010PropOp51
 70
     0
102
RTVSPost2010Prop52
140
1.0
102
RTVSPost2010PropOp52
 70
     0
102
RTVSPost2010Prop53
 90
        2
102
RTVSPost2010PropOp53
 70
     1
102
RTVSPost2010Prop54
  1
strokes_ogs.tif
102
RTVSPost2010PropOp54
 70
     1
102
RTVSPost2010Prop55
280
     0
102
RTVSPost2010PropOp55
 70
     1
102
RTVSPost2010Prop56
140
1.0
102
RTVSPost2010PropOp56
 70
     1
102
RTVSPost2010Prop57
140
1.0
102
RTVSPost2010PropOp57
 70
     1
  0
XRECORD
  5
3A9
102
{ACAD_REACTORS
330
3A8
102
}
330
3A8
100
AcDbXrecord
280
     1
102
RTVSPropertyOp0
 70
     1
102
RTVSPropertyOp1
 70
     1
102
RTVSPropertyOp2
 70
     1
102
RTVSPropertyOp3
 70
     1
102
RTVSPropertyOp4
 70
     1
102
RTVSPropertyOp5
 70
     1
102
RTVSPropertyOp6
 70
     1
102
RTVSPropertyOp7
 70
     1
102
RTVSPropertyOp8
 70
     1
102
RTVSPropertyOp9
 70
     1
102
RTVSPropertyOp10
 70
     1
102
RTVSPropertyOp11
 70
     1
102
RTVSPropertyOp12
 70
     1
102
RTVSPropertyOp13
 70
     1
102
RTVSPropertyOp14
 70
     1
102
RTVSPropertyOp15
 70
     1
102
RTVSPropertyOp16
 70
     1
102
RTVSPropertyOp17
 70
     1
102
RTVSPropertyOp18
 70
     1
102
RTVSPropertyOp19
 70
     1
102
RTVSPropertyOp20
 70
     1
102
RTVSPropertyOp21
 70
     1
102
RTVSPropertyOp22
 70
     1
102
RTVSPropertyOp23
 70
     1
102
RTVSPropertyOp24
 70
     1
102
RTVSPropertyOp25
 70
     1
102
RTVSPropertyOp26
 70
     1
102
RTVSPropertyOp27
 70
     1
102
RTVSPropertyOp28
 70
     1
102
RTVSPropertyOp29
 70
     1
102
RTVSPropertyOp30
 70
     1
102
RTVSPropertyOp31
 70
     1
102
RTVSPropertyOp32
 70
     1
102
RTVSPropertyOp33
 70
     1
102
RTVSPropertyOp34
 70
     1
102
RTVSPropertyOp35
 70
     1
102
RTVSPropertyOp36
 70
     1
102
RTVSPropertyOp37
 70
     1
102
RTVSPropertyOp38
 70
     1
102
RTVSPropertyOp39
 70
     1
102
RTVSPropertyOp40
 70
     1
102
RTVSPropertyOp41
 70
     1
102
RTVSPropertyOp42
 70
     1
102
RTVSPropertyOp43
 70
     1
102
RTVSPropertyOp44
 70
     1
102
RTVSPropertyOp45
 70
     1
102
RTVSPropertyOp46
 70
     1
102
RTVSPropertyOp47
 70
     1
102
RTVSPropertyOp48
 70
     1
102
RTVSPropertyOp49
 70
     1
102
RTVSPropertyOp50
 70
     1
102
RTVSPropertyOp51
 70
     0
102
RTVSPropertyOp52
 70
     0
102
RTVSPropertyOp53
 70
     1
102
RTVSPropertyOp54
 70
     1
102
RTVSPropertyOp55
 70
     1
102
RTVSPropertyOp56
 70
     1
102
RTVSPropertyOp57
 70
     1
102
RTVSPost2010Prop28
280
     0
102
RTVSPost2010PropOp28
 70
     1
102
RTVSPost2010Prop29
280
     1
102
RTVSPost2010PropOp29
 70
     1
102
RTVSPost2010Prop30
280
     1
102
RTVSPost2010PropOp30
 70
     1
102
RTVSPost2010Prop31
280
     0
102
RTVSPost2010PropOp31
 70
     1
102
RTVSPost2010Prop32
280
     0
102
RTVSPost2010PropOp32
 70
     1
102
RTVSPost2010Prop33
280
     0
102
RTVSPost2010PropOp33
 70
     1
102
RTVSPost2010Prop34
280
     0
102
RTVSPost2010PropOp34
 70
     1
102
RTVSPost2010Prop35
280
     0
102
RTVSPost2010PropOp35
 70
     1
102
RTVSPost2010Prop36
280
     0
102
RTVSPost2010PropOp36
 70
     1
102
RTVSPost2010Prop37
 90
       50
102
RTVSPost2010PropOp37
 70
     1
102
RTVSPost2010Prop38
140
0.0
102
RTVSPost2010PropOp38
 70
     1
102
RTVSPost2010Prop39
140
1.0
102
RTVSPost2010PropOp39
 70
     1
102
RTVSPost2010Prop40
 90
        0
102
RTVSPost2010PropOp40
 70
     1
102
RTVSPost2010Prop41ColorIndex
 90
       18
102
RTVSPost2010Prop41ColorRGB
 90
        0
102
RTVSPost2010PropOp41
 70
     1
102
RTVSPost2010Prop42
 90
       50
102
RTVSPost2010PropOp42
 70
     1
102
RTVSPost2010Prop43
 90
        3
102
RTVSPost2010PropOp43
 70
     1
102
RTVSPost2010Prop44ColorIndex
 90
        5
102
RTVSPost2010Prop44ColorRGB
 90
      255
102
RTVSPost2010PropOp44
 70
     1
102
RTVSPost2010Prop45
280
     0
102
RTVSPost2010PropOp45
 70
     1
102
RTVSPost2010Prop46
 90
       50
102
RTVSPost2010PropOp46
 70
     1
102
RTVSPost2010Prop47
 90
       50
102
RTVSPost2010PropOp47
 70
     1
102
RTVSPost2010Prop48
 90
       50
102
RTVSPost2010PropOp48
 70
     1
102
RTVSPost2010Prop49
280
     0
102
RTVSPost2010PropOp49
 70
     1
102
RTVSPost2010Prop50
 90
       50
102
RTVSPost2010PropOp50
 70
     1
102
RTVSPost2010Prop51ColorIndex
 90
      256
102
RTVSPost2010Prop51ColorRGB
 90
-16777216
102
RTVSPost2010PropOp51
 70
     0
102
RTVSPost2010Prop52
140
1.0
102
RTVSPost2010PropOp52
 70
     0
102
RTVSPost2010Prop53
 90
        2
102
RTVSPost2010PropOp53
 70
     1
102
RTVSPost2010Prop54
  1
strokes_ogs.tif
102
RTVSPost2010PropOp54
 70
     1
102
RTVSPost2010Prop55
280
     0
102
RTVSPost2010PropOp55
 70
     1
102
RTVSPost2010Prop56
140
1.0
102
RTVSPost2010PropOp56
 70
     1
102
RTVSPost2010Prop57
140
1.0
102
RTVSPost2010PropOp57
 70
     1
  0
XRECORD
  5
3B1
102
{ACAD_REACTORS
330
3B0
102
}
330
3B0
100
AcDbXrecord
280
     1
102
RTVSPropertyOp0
 70
     1
102
RTVSPropertyOp1
 70
     1
102
RTVSPropertyOp2
 70
     1
102
RTVSPropertyOp3
 70
     1
102
RTVSPropertyOp4
 70
     1
102
RTVSPropertyOp5
 70
     1
102
RTVSPropertyOp6
 70
     1
102
RTVSPropertyOp7
 70
     1
102
RTVSPropertyOp8
 70
     1
102
RTVSPropertyOp9
 70
     1
102
RTVSPropertyOp10
 70
     1
102
RTVSPropertyOp11
 70
     1
102
RTVSPropertyOp12
 70
     1
102
RTVSPropertyOp13
 70
     1
102
RTVSPropertyOp14
 70
     1
102
RTVSPropertyOp15
 70
     1
102
RTVSPropertyOp16
 70
     1
102
RTVSPropertyOp17
 70
     1
102
RTVSPropertyOp18
 70
     1
102
RTVSPropertyOp19
 70
     1
102
RTVSPropertyOp20
 70
     1
102
RTVSPropertyOp21
 70
     1
102
RTVSPropertyOp22
 70
     1
102
RTVSPropertyOp23
 70
     1
102
RTVSPropertyOp24
 70
     1
102
RTVSPropertyOp25
 70
     1
102
RTVSPropertyOp26
 70
     1
102
RTVSPropertyOp27
 70
     1
102
RTVSPropertyOp28
 70
     1
102
RTVSPropertyOp29
 70
     1
102
RTVSPropertyOp30
 70
     1
102
RTVSPropertyOp31
 70
     1
102
RTVSPropertyOp32
 70
     1
102
RTVSPropertyOp33
 70
     1
102
RTVSPropertyOp34
 70
     1
102
RTVSPropertyOp35
 70
     1
102
RTVSPropertyOp36
 70
     1
102
RTVSPropertyOp37
 70
     1
102
RTVSPropertyOp38
 70
     1
102
RTVSPropertyOp39
 70
     1
102
RTVSPropertyOp40
 70
     1
102
RTVSPropertyOp41
 70
     1
102
RTVSPropertyOp42
 70
     1
102
RTVSPropertyOp43
 70
     1
102
RTVSPropertyOp44
 70
     1
102
RTVSPropertyOp45
 70
     1
102
RTVSPropertyOp46
 70
     1
102
RTVSPropertyOp47
 70
     1
102
RTVSPropertyOp48
 70
     1
102
RTVSPropertyOp49
 70
     1
102
RTVSPropertyOp50
 70
     1
102
RTVSPropertyOp51
 70
     0
102
RTVSPropertyOp52
 70
     0
102
RTVSPropertyOp53
 70
     1
102
RTVSPropertyOp54
 70
     1
102
RTVSPropertyOp55
 70
     1
102
RTVSPropertyOp56
 70
     1
102
RTVSPropertyOp57
 70
     1
102
RTVSPost2010Prop28
280
     0
102
RTVSPost2010PropOp28
 70
     1
102
RTVSPost2010Prop29
280
     1
102
RTVSPost2010PropOp29
 70
     1
102
RTVSPost2010Prop30
280
     1
102
RTVSPost2010PropOp30
 70
     1
102
RTVSPost2010Prop31
280
     0
102
RTVSPost2010PropOp31
 70
     1
102
RTVSPost2010Prop32
280
     0
102
RTVSPost2010PropOp32
 70
     1
102
RTVSPost2010Prop33
280
     0
102
RTVSPost2010PropOp33
 70
     1
102
RTVSPost2010Prop34
280
     0
102
RTVSPost2010PropOp34
 70
     1
102
RTVSPost2010Prop35
280
     0
102
RTVSPost2010PropOp35
 70
     1
102
RTVSPost2010Prop36
280
     0
102
RTVSPost2010PropOp36
 70
     1
102
RTVSPost2010Prop37
 90
       50
102
RTVSPost2010PropOp37
 70
     1
102
RTVSPost2010Prop38
140
0.0
102
RTVSPost2010PropOp38
 70
     1
102
RTVSPost2010Prop39
140
1.0
102
RTVSPost2010PropOp39
 70
     1
102
RTVSPost2010Prop40
 90
        0
102
RTVSPost2010PropOp40
 70
     1
102
RTVSPost2010Prop41ColorIndex
 90
       18
102
RTVSPost2010Prop41ColorRGB
 90
        0
102
RTVSPost2010PropOp41
 70
     1
102
RTVSPost2010Prop42
 90
       50
102
RTVSPost2010PropOp42
 70
     1
102
RTVSPost2010Prop43
 90
        3
102
RTVSPost2010PropOp43
 70
     1
102
RTVSPost2010Prop44ColorIndex
 90
        5
102
RTVSPost2010Prop44ColorRGB
 90
      255
102
RTVSPost2010PropOp44
 70
     1
102
RTVSPost2010Prop45
280
     0
102
RTVSPost2010PropOp45
 70
     1
102
RTVSPost2010Prop46
 90
       50
102
RTVSPost2010PropOp46
 70
     1
102
RTVSPost2010Prop47
 90
       50
102
RTVSPost2010PropOp47
 70
     1
102
RTVSPost2010Prop48
 90
       50
102
RTVSPost2010PropOp48
 70
     1
102
RTVSPost2010Prop49
280
     0
102
RTVSPost2010PropOp49
 70
     1
102
RTVSPost2010Prop50
 90
       50
102
RTVSPost2010PropOp50
 70
     1
102
RTVSPost2010Prop51ColorIndex
 90
      256
102
RTVSPost2010Prop51ColorRGB
 90
-16777216
102
RTVSPost2010PropOp51
 70
     0
102
RTVSPost2010Prop52
140
1.0
102
RTVSPost2010PropOp52
 70
     0
102
RTVSPost2010Prop53
 90
        2
102
RTVSPost2010PropOp53
 70
     1
102
RTVSPost2010Prop54
  1
strokes_ogs.tif
102
RTVSPost2010PropOp54
 70
     1
102
RTVSPost2010Prop55
280
     0
102
RTVSPost2010PropOp55
 70
     1
102
RTVSPost2010Prop56
140
1.0
102
RTVSPost2010PropOp56
 70
     1
102
RTVSPost2010Prop57
140
1.0
102
RTVSPost2010PropOp57
 70
     1
  0
XRECORD
  5
3B9
102
{ACAD_REACTORS
330
3B8
102
}
330
3B8
100
AcDbXrecord
280
     1
102
RTVSPropertyOp0
 70
     1
102
RTVSPropertyOp1
 70
     1
102
RTVSPropertyOp2
 70
     1
102
RTVSPropertyOp3
 70
     1
102
RTVSPropertyOp4
 70
     1
102
RTVSPropertyOp5
 70
     1
102
RTVSPropertyOp6
 70
     1
102
RTVSPropertyOp7
 70
     1
102
RTVSPropertyOp8
 70
     1
102
RTVSPropertyOp9
 70
     1
102
RTVSPropertyOp10
 70
     1
102
RTVSPropertyOp11
 70
     1
102
RTVSPropertyOp12
 70
     1
102
RTVSPropertyOp13
 70
     1
102
RTVSPropertyOp14
 70
     1
102
RTVSPropertyOp15
 70
     1
102
RTVSPropertyOp16
 70
     1
102
RTVSPropertyOp17
 70
     1
102
RTVSPropertyOp18
 70
     1
102
RTVSPropertyOp19
 70
     1
102
RTVSPropertyOp20
 70
     1
102
RTVSPropertyOp21
 70
     1
102
RTVSPropertyOp22
 70
     1
102
RTVSPropertyOp23
 70
     1
102
RTVSPropertyOp24
 70
     1
102
RTVSPropertyOp25
 70
     1
102
RTVSPropertyOp26
 70
     1
102
RTVSPropertyOp27
 70
     1
102
RTVSPropertyOp28
 70
     1
102
RTVSPropertyOp29
 70
     1
102
RTVSPropertyOp30
 70
     1
102
RTVSPropertyOp31
 70
     1
102
RTVSPropertyOp32
 70
     1
102
RTVSPropertyOp33
 70
     1
102
RTVSPropertyOp34
 70
     1
102
RTVSPropertyOp35
 70
     1
102
RTVSPropertyOp36
 70
     1
102
RTVSPropertyOp37
 70
     1
102
RTVSPropertyOp38
 70
     1
102
RTVSPropertyOp39
 70
     1
102
RTVSPropertyOp40
 70
     1
102
RTVSPropertyOp41
 70
     1
102
RTVSPropertyOp42
 70
     1
102
RTVSPropertyOp43
 70
     1
102
RTVSPropertyOp44
 70
     1
102
RTVSPropertyOp45
 70
     1
102
RTVSPropertyOp46
 70
     1
102
RTVSPropertyOp47
 70
     1
102
RTVSPropertyOp48
 70
     1
102
RTVSPropertyOp49
 70
     1
102
RTVSPropertyOp50
 70
     1
102
RTVSPropertyOp51
 70
     0
102
RTVSPropertyOp52
 70
     0
102
RTVSPropertyOp53
 70
     1
102
RTVSPropertyOp54
 70
     1
102
RTVSPropertyOp55
 70
     1
102
RTVSPropertyOp56
 70
     1
102
RTVSPropertyOp57
 70
     1
102
RTVSPost2010Prop28
280
     0
102
RTVSPost2010PropOp28
 70
     1
102
RTVSPost2010Prop29
280
     1
102
RTVSPost2010PropOp29
 70
     1
102
RTVSPost2010Prop30
280
     1
102
RTVSPost2010PropOp30
 70
     1
102
RTVSPost2010Prop31
280
     0
102
RTVSPost2010PropOp31
 70
     1
102
RTVSPost2010Prop32
280
     0
102
RTVSPost2010PropOp32
 70
     1
102
RTVSPost2010Prop33
280
     0
102
RTVSPost2010PropOp33
 70
     1
102
RTVSPost2010Prop34
280
     0
102
RTVSPost2010PropOp34
 70
     1
102
RTVSPost2010Prop35
280
     0
102
RTVSPost2010PropOp35
 70
     1
102
RTVSPost2010Prop36
280
     0
102
RTVSPost2010PropOp36
 70
     1
102
RTVSPost2010Prop37
 90
       50
102
RTVSPost2010PropOp37
 70
     1
102
RTVSPost2010Prop38
140
0.0
102
RTVSPost2010PropOp38
 70
     1
102
RTVSPost2010Prop39
140
1.0
102
RTVSPost2010PropOp39
 70
     1
102
RTVSPost2010Prop40
 90
        0
102
RTVSPost2010PropOp40
 70
     1
102
RTVSPost2010Prop41ColorIndex
 90
       18
102
RTVSPost2010Prop41ColorRGB
 90
        0
102
RTVSPost2010PropOp41
 70
     1
102
RTVSPost2010Prop42
 90
       50
102
RTVSPost2010PropOp42
 70
     1
102
RTVSPost2010Prop43
 90
        3
102
RTVSPost2010PropOp43
 70
     1
102
RTVSPost2010Prop44ColorIndex
 90
        5
102
RTVSPost2010Prop44ColorRGB
 90
      255
102
RTVSPost2010PropOp44
 70
     1
102
RTVSPost2010Prop45
280
     0
102
RTVSPost2010PropOp45
 70
     1
102
RTVSPost2010Prop46
 90
       50
102
RTVSPost2010PropOp46
 70
     1
102
RTVSPost2010Prop47
 90
       50
102
RTVSPost2010PropOp47
 70
     1
102
RTVSPost2010Prop48
 90
       50
102
RTVSPost2010PropOp48
 70
     1
102
RTVSPost2010Prop49
280
     0
102
RTVSPost2010PropOp49
 70
     1
102
RTVSPost2010Prop50
 90
       50
102
RTVSPost2010PropOp50
 70
     1
102
RTVSPost2010Prop51ColorIndex
 90
      256
102
RTVSPost2010Prop51ColorRGB
 90
-16777216
102
RTVSPost2010PropOp51
 70
     0
102
RTVSPost2010Prop52
140
1.0
102
RTVSPost2010PropOp52
 70
     0
102
RTVSPost2010Prop53
 90
        2
102
RTVSPost2010PropOp53
 70
     1
102
RTVSPost2010Prop54
  1
strokes_ogs.tif
102
RTVSPost2010PropOp54
 70
     1
102
RTVSPost2010Prop55
280
     0
102
RTVSPost2010PropOp55
 70
     1
102
RTVSPost2010Prop56
140
1.0
102
RTVSPost2010PropOp56
 70
     1
102
RTVSPost2010Prop57
140
1.0
102
RTVSPost2010PropOp57
 70
     1
  0
XRECORD
  5
3AD
102
{ACAD_REACTORS
330
3AC
102
}
330
3AC
100
AcDbXrecord
280
     1
102
RTVSPropertyOp0
 70
     1
102
RTVSPropertyOp1
 70
     1
102
RTVSPropertyOp2
 70
     1
102
RTVSPropertyOp3
 70
     1
102
RTVSPropertyOp4
 70
     1
102
RTVSPropertyOp5
 70
     1
102
RTVSPropertyOp6
 70
     1
102
RTVSPropertyOp7
 70
     1
102
RTVSPropertyOp8
 70
     1
102
RTVSPropertyOp9
 70
     1
102
RTVSPropertyOp10
 70
     1
102
RTVSPropertyOp11
 70
     1
102
RTVSPropertyOp12
 70
     1
102
RTVSPropertyOp13
 70
     1
102
RTVSPropertyOp14
 70
     1
102
RTVSPropertyOp15
 70
     1
102
RTVSPropertyOp16
 70
     1
102
RTVSPropertyOp17
 70
     1
102
RTVSPropertyOp18
 70
     1
102
RTVSPropertyOp19
 70
     1
102
RTVSPropertyOp20
 70
     1
102
RTVSPropertyOp21
 70
     1
102
RTVSPropertyOp22
 70
     1
102
RTVSPropertyOp23
 70
     1
102
RTVSPropertyOp24
 70
     1
102
RTVSPropertyOp25
 70
     1
102
RTVSPropertyOp26
 70
     1
102
RTVSPropertyOp27
 70
     1
102
RTVSPropertyOp28
 70
     1
102
RTVSPropertyOp29
 70
     1
102
RTVSPropertyOp30
 70
     1
102
RTVSPropertyOp31
 70
     1
102
RTVSPropertyOp32
 70
     1
102
RTVSPropertyOp33
 70
     1
102
RTVSPropertyOp34
 70
     1
102
RTVSPropertyOp35
 70
     1
102
RTVSPropertyOp36
 70
     1
102
RTVSPropertyOp37
 70
     1
102
RTVSPropertyOp38
 70
     1
102
RTVSPropertyOp39
 70
     1
102
RTVSPropertyOp40
 70
     1
102
RTVSPropertyOp41
 70
     1
102
RTVSPropertyOp42
 70
     1
102
RTVSPropertyOp43
 70
     1
102
RTVSPropertyOp44
 70
     1
102
RTVSPropertyOp45
 70
     1
102
RTVSPropertyOp46
 70
     1
102
RTVSPropertyOp47
 70
     1
102
RTVSPropertyOp48
 70
     1
102
RTVSPropertyOp49
 70
     1
102
RTVSPropertyOp50
 70
     1
102
RTVSPropertyOp51
 70
     0
102
RTVSPropertyOp52
 70
     0
102
RTVSPropertyOp53
 70
     1
102
RTVSPropertyOp54
 70
     1
102
RTVSPropertyOp55
 70
     1
102
RTVSPropertyOp56
 70
     1
102
RTVSPropertyOp57
 70
     1
102
RTVSPost2010Prop28
280
     0
102
RTVSPost2010PropOp28
 70
     1
102
RTVSPost2010Prop29
280
     1
102
RTVSPost2010PropOp29
 70
     1
102
RTVSPost2010Prop30
280
     1
102
RTVSPost2010PropOp30
 70
     1
102
RTVSPost2010Prop31
280
     0
102
RTVSPost2010PropOp31
 70
     1
102
RTVSPost2010Prop32
280
     0
102
RTVSPost2010PropOp32
 70
     1
102
RTVSPost2010Prop33
280
     0
102
RTVSPost2010PropOp33
 70
     1
102
RTVSPost2010Prop34
280
     0
102
RTVSPost2010PropOp34
 70
     1
102
RTVSPost2010Prop35
280
     0
102
RTVSPost2010PropOp35
 70
     1
102
RTVSPost2010Prop36
280
     0
102
RTVSPost2010PropOp36
 70
     1
102
RTVSPost2010Prop37
 90
       50
102
RTVSPost2010PropOp37
 70
     1
102
RTVSPost2010Prop38
140
0.0
102
RTVSPost2010PropOp38
 70
     1
102
RTVSPost2010Prop39
140
1.0
102
RTVSPost2010PropOp39
 70
     1
102
RTVSPost2010Prop40
 90
        0
102
RTVSPost2010PropOp40
 70
     1
102
RTVSPost2010Prop41ColorIndex
 90
       18
102
RTVSPost2010Prop41ColorRGB
 90
        0
102
RTVSPost2010PropOp41
 70
     1
102
RTVSPost2010Prop42
 90
       50
102
RTVSPost2010PropOp42
 70
     1
102
RTVSPost2010Prop43
 90
        3
102
RTVSPost2010PropOp43
 70
     1
102
RTVSPost2010Prop44ColorIndex
 90
        5
102
RTVSPost2010Prop44ColorRGB
 90
      255
102
RTVSPost2010PropOp44
 70
     1
102
RTVSPost2010Prop45
280
     0
102
RTVSPost2010PropOp45
 70
     1
102
RTVSPost2010Prop46
 90
       50
102
RTVSPost2010PropOp46
 70
     1
102
RTVSPost2010Prop47
 90
       50
102
RTVSPost2010PropOp47
 70
     1
102
RTVSPost2010Prop48
 90
       50
102
RTVSPost2010PropOp48
 70
     1
102
RTVSPost2010Prop49
280
     0
102
RTVSPost2010PropOp49
 70
     1
102
RTVSPost2010Prop50
 90
       50
102
RTVSPost2010PropOp50
 70
     1
102
RTVSPost2010Prop51ColorIndex
 90
      256
102
RTVSPost2010Prop51ColorRGB
 90
-16777216
102
RTVSPost2010PropOp51
 70
     0
102
RTVSPost2010Prop52
140
1.0
102
RTVSPost2010PropOp52
 70
     0
102
RTVSPost2010Prop53
 90
        2
102
RTVSPost2010PropOp53
 70
     1
102
RTVSPost2010Prop54
  1
strokes_ogs.tif
102
RTVSPost2010PropOp54
 70
     1
102
RTVSPost2010Prop55
280
     0
102
RTVSPost2010PropOp55
 70
     1
102
RTVSPost2010Prop56
140
1.0
102
RTVSPost2010PropOp56
 70
     1
102
RTVSPost2010Prop57
140
1.0
102
RTVSPost2010PropOp57
 70
     1
  0
XRECORD
  5
3AF
102
{ACAD_REACTORS
330
3AE
102
}
330
3AE
100
AcDbXrecord
280
     1
102
RTVSPropertyOp0
 70
     1
102
RTVSPropertyOp1
 70
     1
102
RTVSPropertyOp2
 70
     1
102
RTVSPropertyOp3
 70
     1
102
RTVSPropertyOp4
 70
     1
102
RTVSPropertyOp5
 70
     1
102
RTVSPropertyOp6
 70
     1
102
RTVSPropertyOp7
 70
     1
102
RTVSPropertyOp8
 70
     1
102
RTVSPropertyOp9
 70
     1
102
RTVSPropertyOp10
 70
     1
102
RTVSPropertyOp11
 70
     1
102
RTVSPropertyOp12
 70
     1
102
RTVSPropertyOp13
 70
     1
102
RTVSPropertyOp14
 70
     1
102
RTVSPropertyOp15
 70
     1
102
RTVSPropertyOp16
 70
     1
102
RTVSPropertyOp17
 70
     1
102
RTVSPropertyOp18
 70
     1
102
RTVSPropertyOp19
 70
     1
102
RTVSPropertyOp20
 70
     1
102
RTVSPropertyOp21
 70
     1
102
RTVSPropertyOp22
 70
     1
102
RTVSPropertyOp23
 70
     1
102
RTVSPropertyOp24
 70
     1
102
RTVSPropertyOp25
 70
     1
102
RTVSPropertyOp26
 70
     1
102
RTVSPropertyOp27
 70
     1
102
RTVSPropertyOp28
 70
     1
102
RTVSPropertyOp29
 70
     1
102
RTVSPropertyOp30
 70
     1
102
RTVSPropertyOp31
 70
     1
102
RTVSPropertyOp32
 70
     1
102
RTVSPropertyOp33
 70
     1
102
RTVSPropertyOp34
 70
     1
102
RTVSPropertyOp35
 70
     1
102
RTVSPropertyOp36
 70
     1
102
RTVSPropertyOp37
 70
     1
102
RTVSPropertyOp38
 70
     1
102
RTVSPropertyOp39
 70
     1
102
RTVSPropertyOp40
 70
     1
102
RTVSPropertyOp41
 70
     1
102
RTVSPropertyOp42
 70
     1
102
RTVSPropertyOp43
 70
     1
102
RTVSPropertyOp44
 70
     1
102
RTVSPropertyOp45
 70
     1
102
RTVSPropertyOp46
 70
     1
102
RTVSPropertyOp47
 70
     1
102
RTVSPropertyOp48
 70
     1
102
RTVSPropertyOp49
 70
     1
102
RTVSPropertyOp50
 70
     1
102
RTVSPropertyOp51
 70
     0
102
RTVSPropertyOp52
 70
     0
102
RTVSPropertyOp53
 70
     1
102
RTVSPropertyOp54
 70
     1
102
RTVSPropertyOp55
 70
     1
102
RTVSPropertyOp56
 70
     1
102
RTVSPropertyOp57
 70
     1
102
RTVSPost2010Prop28
280
     0
102
RTVSPost2010PropOp28
 70
     1
102
RTVSPost2010Prop29
280
     1
102
RTVSPost2010PropOp29
 70
     1
102
RTVSPost2010Prop30
280
     1
102
RTVSPost2010PropOp30
 70
     1
102
RTVSPost2010Prop31
280
     0
102
RTVSPost2010PropOp31
 70
     1
102
RTVSPost2010Prop32
280
     0
102
RTVSPost2010PropOp32
 70
     1
102
RTVSPost2010Prop33
280
     0
102
RTVSPost2010PropOp33
 70
     1
102
RTVSPost2010Prop34
280
     0
102
RTVSPost2010PropOp34
 70
     1
102
RTVSPost2010Prop35
280
     0
102
RTVSPost2010PropOp35
 70
     1
102
RTVSPost2010Prop36
280
     0
102
RTVSPost2010PropOp36
 70
     1
102
RTVSPost2010Prop37
 90
       50
102
RTVSPost2010PropOp37
 70
     1
102
RTVSPost2010Prop38
140
0.0
102
RTVSPost2010PropOp38
 70
     1
102
RTVSPost2010Prop39
140
1.0
102
RTVSPost2010PropOp39
 70
     1
102
RTVSPost2010Prop40
 90
        0
102
RTVSPost2010PropOp40
 70
     1
102
RTVSPost2010Prop41ColorIndex
 90
       18
102
RTVSPost2010Prop41ColorRGB
 90
        0
102
RTVSPost2010PropOp41
 70
     1
102
RTVSPost2010Prop42
 90
       50
102
RTVSPost2010PropOp42
 70
     1
102
RTVSPost2010Prop43
 90
        3
102
RTVSPost2010PropOp43
 70
     1
102
RTVSPost2010Prop44ColorIndex
 90
        5
102
RTVSPost2010Prop44ColorRGB
 90
      255
102
RTVSPost2010PropOp44
 70
     1
102
RTVSPost2010Prop45
280
     0
102
RTVSPost2010PropOp45
 70
     1
102
RTVSPost2010Prop46
 90
       50
102
RTVSPost2010PropOp46
 70
     1
102
RTVSPost2010Prop47
 90
       50
102
RTVSPost2010PropOp47
 70
     1
102
RTVSPost2010Prop48
 90
       50
102
RTVSPost2010PropOp48
 70
     1
102
RTVSPost2010Prop49
280
     0
102
RTVSPost2010PropOp49
 70
     1
102
RTVSPost2010Prop50
 90
       50
102
RTVSPost2010PropOp50
 70
     1
102
RTVSPost2010Prop51ColorIndex
 90
      256
102
RTVSPost2010Prop51ColorRGB
 90
-16777216
102
RTVSPost2010PropOp51
 70
     0
102
RTVSPost2010Prop52
140
1.0
102
RTVSPost2010PropOp52
 70
     0
102
RTVSPost2010Prop53
 90
        2
102
RTVSPost2010PropOp53
 70
     1
102
RTVSPost2010Prop54
  1
strokes_ogs.tif
102
RTVSPost2010PropOp54
 70
     1
102
RTVSPost2010Prop55
280
     0
102
RTVSPost2010PropOp55
 70
     1
102
RTVSPost2010Prop56
140
1.0
102
RTVSPost2010PropOp56
 70
     1
102
RTVSPost2010Prop57
140
1.0
102
RTVSPost2010PropOp57
 70
     1
  0
XRECORD
  5
3BF
102
{ACAD_REACTORS
330
3BE
102
}
330
3BE
100
AcDbXrecord
280
     1
102
RTVSPropertyOp0
 70
     0
102
RTVSPropertyOp1
 70
     0
102
RTVSPropertyOp2
 70
     0
102
RTVSPropertyOp3
 70
     0
102
RTVSPropertyOp4
 70
     0
102
RTVSPropertyOp5
 70
     0
102
RTVSPropertyOp6
 70
     0
102
RTVSPropertyOp7
 70
     0
102
RTVSPropertyOp8
 70
     0
102
RTVSPropertyOp9
 70
     0
102
RTVSPropertyOp10
 70
     0
102
RTVSPropertyOp11
 70
     0
102
RTVSPropertyOp12
 70
     0
102
RTVSPropertyOp13
 70
     0
102
RTVSPropertyOp14
 70
     2
102
RTVSPropertyOp15
 70
     0
102
RTVSPropertyOp16
 70
     0
102
RTVSPropertyOp17
 70
     0
102
RTVSPropertyOp18
 70
     0
102
RTVSPropertyOp19
 70
     0
102
RTVSPropertyOp20
 70
     0
102
RTVSPropertyOp21
 70
     0
102
RTVSPropertyOp22
 70
     0
102
RTVSPropertyOp23
 70
     0
102
RTVSPropertyOp24
 70
     0
102
RTVSPropertyOp25
 70
     0
102
RTVSPropertyOp26
 70
     0
102
RTVSPropertyOp27
 70
     0
102
RTVSPropertyOp28
 70
     0
102
RTVSPropertyOp29
 70
     0
102
RTVSPropertyOp30
 70
     0
102
RTVSPropertyOp31
 70
     0
102
RTVSPropertyOp32
 70
     0
102
RTVSPropertyOp33
 70
     0
102
RTVSPropertyOp34
 70
     0
102
RTVSPropertyOp35
 70
     0
102
RTVSPropertyOp36
 70
     0
102
RTVSPropertyOp37
 70
     0
102
RTVSPropertyOp38
 70
     0
102
RTVSPropertyOp39
 70
     0
102
RTVSPropertyOp40
 70
     0
102
RTVSPropertyOp41
 70
     0
102
RTVSPropertyOp42
 70
     0
102
RTVSPropertyOp43
 70
     0
102
RTVSPropertyOp44
 70
     0
102
RTVSPropertyOp45
 70
     0
102
RTVSPropertyOp46
 70
     0
102
RTVSPropertyOp47
 70
     0
102
RTVSPropertyOp48
 70
     0
102
RTVSPropertyOp49
 70
     0
102
RTVSPropertyOp50
 70
     0
102
RTVSPropertyOp51
 70
     0
102
RTVSPropertyOp52
 70
     0
102
RTVSPropertyOp53
 70
     0
102
RTVSPropertyOp54
 70
     0
102
RTVSPropertyOp55
 70
     0
102
RTVSPropertyOp56
 70
     0
102
RTVSPropertyOp57
 70
     0
102
RTVSPost2010Prop28
280
     0
102
RTVSPost2010PropOp28
 70
     0
102
RTVSPost2010Prop29
280
     1
102
RTVSPost2010PropOp29
 70
     0
102
RTVSPost2010Prop30
280
     1
102
RTVSPost2010PropOp30
 70
     0
102
RTVSPost2010Prop31
280
     0
102
RTVSPost2010PropOp31
 70
     0
102
RTVSPost2010Prop32
280
     0
102
RTVSPost2010PropOp32
 70
     0
102
RTVSPost2010Prop33
280
     0
102
RTVSPost2010PropOp33
 70
     0
102
RTVSPost2010Prop34
280
     0
102
RTVSPost2010PropOp34
 70
     0
102
RTVSPost2010Prop35
280
     0
102
RTVSPost2010PropOp35
 70
     0
102
RTVSPost2010Prop36
280
     0
102
RTVSPost2010PropOp36
 70
     0
102
RTVSPost2010Prop37
 90
       50
102
RTVSPost2010PropOp37
 70
     0
102
RTVSPost2010Prop38
140
0.0
102
RTVSPost2010PropOp38
 70
     0
102
RTVSPost2010Prop39
140
1.0
102
RTVSPost2010PropOp39
 70
     0
102
RTVSPost2010Prop40
 90
        0
102
RTVSPost2010PropOp40
 70
     0
102
RTVSPost2010Prop41ColorIndex
 90
       18
102
RTVSPost2010Prop41ColorRGB
 90
        0
102
RTVSPost2010PropOp41
 70
     0
102
RTVSPost2010Prop42
 90
       50
102
RTVSPost2010PropOp42
 70
     0
102
RTVSPost2010Prop43
 90
        3
102
RTVSPost2010PropOp43
 70
     0
102
RTVSPost2010Prop44ColorIndex
 90
        5
102
RTVSPost2010Prop44ColorRGB
 90
      255
102
RTVSPost2010PropOp44
 70
     0
102
RTVSPost2010Prop45
280
     0
102
RTVSPost2010PropOp45
 70
     0
102
RTVSPost2010Prop46
 90
       50
102
RTVSPost2010PropOp46
 70
     0
102
RTVSPost2010Prop47
 90
       50
102
RTVSPost2010PropOp47
 70
     0
102
RTVSPost2010Prop48
 90
       50
102
RTVSPost2010PropOp48
 70
     0
102
RTVSPost2010Prop49
280
     0
102
RTVSPost2010PropOp49
 70
     0
102
RTVSPost2010Prop50
 90
       50
102
RTVSPost2010PropOp50
 70
     0
102
RTVSPost2010Prop51ColorIndex
 90
      256
102
RTVSPost2010Prop51ColorRGB
 90
-16777216
102
RTVSPost2010PropOp51
 70
     0
102
RTVSPost2010Prop52
140
1.0
102
RTVSPost2010PropOp52
 70
     0
102
RTVSPost2010Prop53
 90
        2
102
RTVSPost2010PropOp53
 70
     0
102
RTVSPost2010Prop54
  1
strokes_ogs.tif
102
RTVSPost2010PropOp54
 70
     0
102
RTVSPost2010Prop55
280
     0
102
RTVSPost2010PropOp55
 70
     0
102
RTVSPost2010Prop56
140
1.0
102
RTVSPost2010PropOp56
 70
     0
102
RTVSPost2010Prop57
140
1.0
102
RTVSPost2010PropOp57
 70
     0
  0
XRECORD
  5
3B7
102
{ACAD_REACTORS
330
3B6
102
}
330
3B6
100
AcDbXrecord
280
     1
102
RTVSPropertyOp0
 70
     1
102
RTVSPropertyOp1
 70
     1
102
RTVSPropertyOp2
 70
     1
102
RTVSPropertyOp3
 70
     1
102
RTVSPropertyOp4
 70
     1
102
RTVSPropertyOp5
 70
     1
102
RTVSPropertyOp6
 70
     1
102
RTVSPropertyOp7
 70
     1
102
RTVSPropertyOp8
 70
     1
102
RTVSPropertyOp9
 70
     1
102
RTVSPropertyOp10
 70
     1
102
RTVSPropertyOp11
 70
     1
102
RTVSPropertyOp12
 70
     1
102
RTVSPropertyOp13
 70
     1
102
RTVSPropertyOp14
 70
     1
102
RTVSPropertyOp15
 70
     1
102
RTVSPropertyOp16
 70
     1
102
RTVSPropertyOp17
 70
     1
102
RTVSPropertyOp18
 70
     1
102
RTVSPropertyOp19
 70
     1
102
RTVSPropertyOp20
 70
     1
102
RTVSPropertyOp21
 70
     1
102
RTVSPropertyOp22
 70
     1
102
RTVSPropertyOp23
 70
     1
102
RTVSPropertyOp24
 70
     1
102
RTVSPropertyOp25
 70
     1
102
RTVSPropertyOp26
 70
     1
102
RTVSPropertyOp27
 70
     1
102
RTVSPropertyOp28
 70
     1
102
RTVSPropertyOp29
 70
     1
102
RTVSPropertyOp30
 70
     1
102
RTVSPropertyOp31
 70
     1
102
RTVSPropertyOp32
 70
     1
102
RTVSPropertyOp33
 70
     1
102
RTVSPropertyOp34
 70
     1
102
RTVSPropertyOp35
 70
     1
102
RTVSPropertyOp36
 70
     1
102
RTVSPropertyOp37
 70
     1
102
RTVSPropertyOp38
 70
     1
102
RTVSPropertyOp39
 70
     1
102
RTVSPropertyOp40
 70
     1
102
RTVSPropertyOp41
 70
     1
102
RTVSPropertyOp42
 70
     1
102
RTVSPropertyOp43
 70
     1
102
RTVSPropertyOp44
 70
     1
102
RTVSPropertyOp45
 70
     1
102
RTVSPropertyOp46
 70
     1
102
RTVSPropertyOp47
 70
     1
102
RTVSPropertyOp48
 70
     1
102
RTVSPropertyOp49
 70
     1
102
RTVSPropertyOp50
 70
     1
102
RTVSPropertyOp51
 70
     0
102
RTVSPropertyOp52
 70
     0
102
RTVSPropertyOp53
 70
     1
102
RTVSPropertyOp54
 70
     1
102
RTVSPropertyOp55
 70
     1
102
RTVSPropertyOp56
 70
     1
102
RTVSPropertyOp57
 70
     1
102
RTVSPost2010Prop28
280
     0
102
RTVSPost2010PropOp28
 70
     1
102
RTVSPost2010Prop29
280
     1
102
RTVSPost2010PropOp29
 70
     1
102
RTVSPost2010Prop30
280
     1
102
RTVSPost2010PropOp30
 70
     1
102
RTVSPost2010Prop31
280
     0
102
RTVSPost2010PropOp31
 70
     1
102
RTVSPost2010Prop32
280
     0
102
RTVSPost2010PropOp32
 70
     1
102
RTVSPost2010Prop33
280
     0
102
RTVSPost2010PropOp33
 70
     1
102
RTVSPost2010Prop34
280
     0
102
RTVSPost2010PropOp34
 70
     1
102
RTVSPost2010Prop35
280
     0
102
RTVSPost2010PropOp35
 70
     1
102
RTVSPost2010Prop36
280
     0
102
RTVSPost2010PropOp36
 70
     1
102
RTVSPost2010Prop37
 90
       50
102
RTVSPost2010PropOp37
 70
     1
102
RTVSPost2010Prop38
140
0.0
102
RTVSPost2010PropOp38
 70
     1
102
RTVSPost2010Prop39
140
1.0
102
RTVSPost2010PropOp39
 70
     1
102
RTVSPost2010Prop40
 90
        0
102
RTVSPost2010PropOp40
 70
     1
102
RTVSPost2010Prop41ColorIndex
 90
       18
102
RTVSPost2010Prop41ColorRGB
 90
        0
102
RTVSPost2010PropOp41
 70
     1
102
RTVSPost2010Prop42
 90
       50
102
RTVSPost2010PropOp42
 70
     1
102
RTVSPost2010Prop43
 90
        3
102
RTVSPost2010PropOp43
 70
     1
102
RTVSPost2010Prop44ColorIndex
 90
        5
102
RTVSPost2010Prop44ColorRGB
 90
      255
102
RTVSPost2010PropOp44
 70
     1
102
RTVSPost2010Prop45
280
     0
102
RTVSPost2010PropOp45
 70
     1
102
RTVSPost2010Prop46
 90
       50
102
RTVSPost2010PropOp46
 70
     1
102
RTVSPost2010Prop47
 90
       50
102
RTVSPost2010PropOp47
 70
     1
102
RTVSPost2010Prop48
 90
       50
102
RTVSPost2010PropOp48
 70
     1
102
RTVSPost2010Prop49
280
     0
102
RTVSPost2010PropOp49
 70
     1
102
RTVSPost2010Prop50
 90
       50
102
RTVSPost2010PropOp50
 70
     1
102
RTVSPost2010Prop51ColorIndex
 90
      256
102
RTVSPost2010Prop51ColorRGB
 90
-16777216
102
RTVSPost2010PropOp51
 70
     0
102
RTVSPost2010Prop52
140
1.0
102
RTVSPost2010PropOp52
 70
     0
102
RTVSPost2010Prop53
 90
        2
102
RTVSPost2010PropOp53
 70
     1
102
RTVSPost2010Prop54
  1
strokes_ogs.tif
102
RTVSPost2010PropOp54
 70
     1
102
RTVSPost2010Prop55
280
     0
102
RTVSPost2010PropOp55
 70
     1
102
RTVSPost2010Prop56
140
1.0
102
RTVSPost2010PropOp56
 70
     1
102
RTVSPost2010Prop57
140
1.0
102
RTVSPost2010PropOp57
 70
     1
  0
XRECORD
  5
39B
102
{ACAD_REACTORS
330
39A
102
}
330
39A
100
AcDbXrecord
280
     1
102
RTVSPropertyOp0
 70
     1
102
RTVSPropertyOp1
 70
     1
102
RTVSPropertyOp2
 70
     1
102
RTVSPropertyOp3
 70
     1
102
RTVSPropertyOp4
 70
     1
102
RTVSPropertyOp5
 70
     1
102
RTVSPropertyOp6
 70
     1
102
RTVSPropertyOp7
 70
     1
102
RTVSPropertyOp8
 70
     1
102
RTVSPropertyOp9
 70
     1
102
RTVSPropertyOp10
 70
     1
102
RTVSPropertyOp11
 70
     1
102
RTVSPropertyOp12
 70
     1
102
RTVSPropertyOp13
 70
     1
102
RTVSPropertyOp14
 70
     1
102
RTVSPropertyOp15
 70
     1
102
RTVSPropertyOp16
 70
     1
102
RTVSPropertyOp17
 70
     1
102
RTVSPropertyOp18
 70
     1
102
RTVSPropertyOp19
 70
     1
102
RTVSPropertyOp20
 70
     1
102
RTVSPropertyOp21
 70
     1
102
RTVSPropertyOp22
 70
     1
102
RTVSPropertyOp23
 70
     1
102
RTVSPropertyOp24
 70
     1
102
RTVSPropertyOp25
 70
     1
102
RTVSPropertyOp26
 70
     1
102
RTVSPropertyOp27
 70
     1
102
RTVSPropertyOp28
 70
     1
102
RTVSPropertyOp29
 70
     1
102
RTVSPropertyOp30
 70
     1
102
RTVSPropertyOp31
 70
     1
102
RTVSPropertyOp32
 70
     1
102
RTVSPropertyOp33
 70
     1
102
RTVSPropertyOp34
 70
     1
102
RTVSPropertyOp35
 70
     1
102
RTVSPropertyOp36
 70
     1
102
RTVSPropertyOp37
 70
     1
102
RTVSPropertyOp38
 70
     1
102
RTVSPropertyOp39
 70
     1
102
RTVSPropertyOp40
 70
     1
102
RTVSPropertyOp41
 70
     1
102
RTVSPropertyOp42
 70
     1
102
RTVSPropertyOp43
 70
     1
102
RTVSPropertyOp44
 70
     1
102
RTVSPropertyOp45
 70
     1
102
RTVSPropertyOp46
 70
     1
102
RTVSPropertyOp47
 70
     1
102
RTVSPropertyOp48
 70
     1
102
RTVSPropertyOp49
 70
     1
102
RTVSPropertyOp50
 70
     1
102
RTVSPropertyOp51
 70
     0
102
RTVSPropertyOp52
 70
     0
102
RTVSPropertyOp53
 70
     1
102
RTVSPropertyOp54
 70
     1
102
RTVSPropertyOp55
 70
     1
102
RTVSPropertyOp56
 70
     1
102
RTVSPropertyOp57
 70
     1
102
RTVSPost2010Prop28
280
     0
102
RTVSPost2010PropOp28
 70
     1
102
RTVSPost2010Prop29
280
     1
102
RTVSPost2010PropOp29
 70
     1
102
RTVSPost2010Prop30
280
     1
102
RTVSPost2010PropOp30
 70
     1
102
RTVSPost2010Prop31
280
     0
102
RTVSPost2010PropOp31
 70
     1
102
RTVSPost2010Prop32
280
     0
102
RTVSPost2010PropOp32
 70
     1
102
RTVSPost2010Prop33
280
     0
102
RTVSPost2010PropOp33
 70
     1
102
RTVSPost2010Prop34
280
     0
102
RTVSPost2010PropOp34
 70
     1
102
RTVSPost2010Prop35
280
     0
102
RTVSPost2010PropOp35
 70
     1
102
RTVSPost2010Prop36
280
     0
102
RTVSPost2010PropOp36
 70
     1
102
RTVSPost2010Prop37
 90
       50
102
RTVSPost2010PropOp37
 70
     1
102
RTVSPost2010Prop38
140
0.0
102
RTVSPost2010PropOp38
 70
     1
102
RTVSPost2010Prop39
140
1.0
102
RTVSPost2010PropOp39
 70
     1
102
RTVSPost2010Prop40
 90
        0
102
RTVSPost2010PropOp40
 70
     1
102
RTVSPost2010Prop41ColorIndex
 90
       18
102
RTVSPost2010Prop41ColorRGB
 90
        0
102
RTVSPost2010PropOp41
 70
     1
102
RTVSPost2010Prop42
 90
       50
102
RTVSPost2010PropOp42
 70
     1
102
RTVSPost2010Prop43
 90
        3
102
RTVSPost2010PropOp43
 70
     1
102
RTVSPost2010Prop44ColorIndex
 90
        5
102
RTVSPost2010Prop44ColorRGB
 90
      255
102
RTVSPost2010PropOp44
 70
     1
102
RTVSPost2010Prop45
280
     0
102
RTVSPost2010PropOp45
 70
     1
102
RTVSPost2010Prop46
 90
       50
102
RTVSPost2010PropOp46
 70
     1
102
RTVSPost2010Prop47
 90
       50
102
RTVSPost2010PropOp47
 70
     1
102
RTVSPost2010Prop48
 90
       50
102
RTVSPost2010PropOp48
 70
     1
102
RTVSPost2010Prop49
280
     0
102
RTVSPost2010PropOp49
 70
     1
102
RTVSPost2010Prop50
 90
       50
102
RTVSPost2010PropOp50
 70
     1
102
RTVSPost2010Prop51ColorIndex
 90
      256
102
RTVSPost2010Prop51ColorRGB
 90
-16777216
102
RTVSPost2010PropOp51
 70
     0
102
RTVSPost2010Prop52
140
1.0
102
RTVSPost2010PropOp52
 70
     0
102
RTVSPost2010Prop53
 90
        2
102
RTVSPost2010PropOp53
 70
     1
102
RTVSPost2010Prop54
  1
strokes_ogs.tif
102
RTVSPost2010PropOp54
 70
     1
102
RTVSPost2010Prop55
280
     0
102
RTVSPost2010PropOp55
 70
     1
102
RTVSPost2010Prop56
140
1.0
102
RTVSPost2010PropOp56
 70
     1
102
RTVSPost2010Prop57
140
1.0
102
RTVSPost2010PropOp57
 70
     1
  0
XRECORD
  5
39D
102
{ACAD_REACTORS
330
39C
102
}
330
39C
100
AcDbXrecord
280
     1
102
RTVSPropertyOp0
 70
     1
102
RTVSPropertyOp1
 70
     1
102
RTVSPropertyOp2
 70
     1
102
RTVSPropertyOp3
 70
     1
102
RTVSPropertyOp4
 70
     1
102
RTVSPropertyOp5
 70
     1
102
RTVSPropertyOp6
 70
     1
102
RTVSPropertyOp7
 70
     1
102
RTVSPropertyOp8
 70
     1
102
RTVSPropertyOp9
 70
     1
102
RTVSPropertyOp10
 70
     1
102
RTVSPropertyOp11
 70
     1
102
RTVSPropertyOp12
 70
     1
102
RTVSPropertyOp13
 70
     1
102
RTVSPropertyOp14
 70
     1
102
RTVSPropertyOp15
 70
     1
102
RTVSPropertyOp16
 70
     1
102
RTVSPropertyOp17
 70
     1
102
RTVSPropertyOp18
 70
     1
102
RTVSPropertyOp19
 70
     1
102
RTVSPropertyOp20
 70
     1
102
RTVSPropertyOp21
 70
     1
102
RTVSPropertyOp22
 70
     1
102
RTVSPropertyOp23
 70
     1
102
RTVSPropertyOp24
 70
     1
102
RTVSPropertyOp25
 70
     1
102
RTVSPropertyOp26
 70
     1
102
RTVSPropertyOp27
 70
     1
102
RTVSPropertyOp28
 70
     1
102
RTVSPropertyOp29
 70
     1
102
RTVSPropertyOp30
 70
     1
102
RTVSPropertyOp31
 70
     1
102
RTVSPropertyOp32
 70
     1
102
RTVSPropertyOp33
 70
     1
102
RTVSPropertyOp34
 70
     1
102
RTVSPropertyOp35
 70
     1
102
RTVSPropertyOp36
 70
     1
102
RTVSPropertyOp37
 70
     1
102
RTVSPropertyOp38
 70
     1
102
RTVSPropertyOp39
 70
     1
102
RTVSPropertyOp40
 70
     1
102
RTVSPropertyOp41
 70
     1
102
RTVSPropertyOp42
 70
     1
102
RTVSPropertyOp43
 70
     1
102
RTVSPropertyOp44
 70
     1
102
RTVSPropertyOp45
 70
     1
102
RTVSPropertyOp46
 70
     1
102
RTVSPropertyOp47
 70
     1
102
RTVSPropertyOp48
 70
     1
102
RTVSPropertyOp49
 70
     1
102
RTVSPropertyOp50
 70
     1
102
RTVSPropertyOp51
 70
     0
102
RTVSPropertyOp52
 70
     0
102
RTVSPropertyOp53
 70
     1
102
RTVSPropertyOp54
 70
     1
102
RTVSPropertyOp55
 70
     1
102
RTVSPropertyOp56
 70
     1
102
RTVSPropertyOp57
 70
     1
102
RTVSPost2010Prop28
280
     0
102
RTVSPost2010PropOp28
 70
     1
102
RTVSPost2010Prop29
280
     1
102
RTVSPost2010PropOp29
 70
     1
102
RTVSPost2010Prop30
280
     1
102
RTVSPost2010PropOp30
 70
     1
102
RTVSPost2010Prop31
280
     0
102
RTVSPost2010PropOp31
 70
     1
102
RTVSPost2010Prop32
280
     0
102
RTVSPost2010PropOp32
 70
     1
102
RTVSPost2010Prop33
280
     0
102
RTVSPost2010PropOp33
 70
     1
102
RTVSPost2010Prop34
280
     0
102
RTVSPost2010PropOp34
 70
     1
102
RTVSPost2010Prop35
280
     0
102
RTVSPost2010PropOp35
 70
     1
102
RTVSPost2010Prop36
280
     0
102
RTVSPost2010PropOp36
 70
     1
102
RTVSPost2010Prop37
 90
       50
102
RTVSPost2010PropOp37
 70
     1
102
RTVSPost2010Prop38
140
0.0
102
RTVSPost2010PropOp38
 70
     1
102
RTVSPost2010Prop39
140
1.0
102
RTVSPost2010PropOp39
 70
     1
102
RTVSPost2010Prop40
 90
        0
102
RTVSPost2010PropOp40
 70
     1
102
RTVSPost2010Prop41ColorIndex
 90
       18
102
RTVSPost2010Prop41ColorRGB
 90
        0
102
RTVSPost2010PropOp41
 70
     1
102
RTVSPost2010Prop42
 90
       50
102
RTVSPost2010PropOp42
 70
     1
102
RTVSPost2010Prop43
 90
        3
102
RTVSPost2010PropOp43
 70
     1
102
RTVSPost2010Prop44ColorIndex
 90
        5
102
RTVSPost2010Prop44ColorRGB
 90
      255
102
RTVSPost2010PropOp44
 70
     1
102
RTVSPost2010Prop45
280
     0
102
RTVSPost2010PropOp45
 70
     1
102
RTVSPost2010Prop46
 90
       50
102
RTVSPost2010PropOp46
 70
     1
102
RTVSPost2010Prop47
 90
       50
102
RTVSPost2010PropOp47
 70
     1
102
RTVSPost2010Prop48
 90
       50
102
RTVSPost2010PropOp48
 70
     1
102
RTVSPost2010Prop49
280
     0
102
RTVSPost2010PropOp49
 70
     1
102
RTVSPost2010Prop50
 90
       50
102
RTVSPost2010PropOp50
 70
     1
102
RTVSPost2010Prop51ColorIndex
 90
      256
102
RTVSPost2010Prop51ColorRGB
 90
-16777216
102
RTVSPost2010PropOp51
 70
     0
102
RTVSPost2010Prop52
140
1.0
102
RTVSPost2010PropOp52
 70
     0
102
RTVSPost2010Prop53
 90
        2
102
RTVSPost2010PropOp53
 70
     1
102
RTVSPost2010Prop54
  1
strokes_ogs.tif
102
RTVSPost2010PropOp54
 70
     1
102
RTVSPost2010Prop55
280
     0
102
RTVSPost2010PropOp55
 70
     1
102
RTVSPost2010Prop56
140
1.0
102
RTVSPost2010PropOp56
 70
     1
102
RTVSPost2010Prop57
140
1.0
102
RTVSPost2010PropOp57
 70
     1
  0
XRECORD
  5
39F
102
{ACAD_REACTORS
330
39E
102
}
330
39E
100
AcDbXrecord
280
     1
102
RTVSPropertyOp0
 70
     1
102
RTVSPropertyOp1
 70
     1
102
RTVSPropertyOp2
 70
     1
102
RTVSPropertyOp3
 70
     1
102
RTVSPropertyOp4
 70
     1
102
RTVSPropertyOp5
 70
     1
102
RTVSPropertyOp6
 70
     1
102
RTVSPropertyOp7
 70
     1
102
RTVSPropertyOp8
 70
     1
102
RTVSPropertyOp9
 70
     1
102
RTVSPropertyOp10
 70
     1
102
RTVSPropertyOp11
 70
     1
102
RTVSPropertyOp12
 70
     1
102
RTVSPropertyOp13
 70
     1
102
RTVSPropertyOp14
 70
     1
102
RTVSPropertyOp15
 70
     1
102
RTVSPropertyOp16
 70
     1
102
RTVSPropertyOp17
 70
     1
102
RTVSPropertyOp18
 70
     1
102
RTVSPropertyOp19
 70
     1
102
RTVSPropertyOp20
 70
     1
102
RTVSPropertyOp21
 70
     1
102
RTVSPropertyOp22
 70
     1
102
RTVSPropertyOp23
 70
     1
102
RTVSPropertyOp24
 70
     1
102
RTVSPropertyOp25
 70
     1
102
RTVSPropertyOp26
 70
     1
102
RTVSPropertyOp27
 70
     1
102
RTVSPropertyOp28
 70
     1
102
RTVSPropertyOp29
 70
     1
102
RTVSPropertyOp30
 70
     1
102
RTVSPropertyOp31
 70
     1
102
RTVSPropertyOp32
 70
     1
102
RTVSPropertyOp33
 70
     1
102
RTVSPropertyOp34
 70
     1
102
RTVSPropertyOp35
 70
     1
102
RTVSPropertyOp36
 70
     1
102
RTVSPropertyOp37
 70
     1
102
RTVSPropertyOp38
 70
     1
102
RTVSPropertyOp39
 70
     1
102
RTVSPropertyOp40
 70
     1
102
RTVSPropertyOp41
 70
     1
102
RTVSPropertyOp42
 70
     1
102
RTVSPropertyOp43
 70
     1
102
RTVSPropertyOp44
 70
     1
102
RTVSPropertyOp45
 70
     1
102
RTVSPropertyOp46
 70
     1
102
RTVSPropertyOp47
 70
     1
102
RTVSPropertyOp48
 70
     1
102
RTVSPropertyOp49
 70
     1
102
RTVSPropertyOp50
 70
     1
102
RTVSPropertyOp51
 70
     0
102
RTVSPropertyOp52
 70
     0
102
RTVSPropertyOp53
 70
     1
102
RTVSPropertyOp54
 70
     1
102
RTVSPropertyOp55
 70
     1
102
RTVSPropertyOp56
 70
     1
102
RTVSPropertyOp57
 70
     1
102
RTVSPost2010Prop28
280
     0
102
RTVSPost2010PropOp28
 70
     1
102
RTVSPost2010Prop29
280
     1
102
RTVSPost2010PropOp29
 70
     1
102
RTVSPost2010Prop30
280
     1
102
RTVSPost2010PropOp30
 70
     1
102
RTVSPost2010Prop31
280
     0
102
RTVSPost2010PropOp31
 70
     1
102
RTVSPost2010Prop32
280
     0
102
RTVSPost2010PropOp32
 70
     1
102
RTVSPost2010Prop33
280
     0
102
RTVSPost2010PropOp33
 70
     1
102
RTVSPost2010Prop34
280
     0
102
RTVSPost2010PropOp34
 70
     1
102
RTVSPost2010Prop35
280
     0
102
RTVSPost2010PropOp35
 70
     1
102
RTVSPost2010Prop36
280
     0
102
RTVSPost2010PropOp36
 70
     1
102
RTVSPost2010Prop37
 90
       50
102
RTVSPost2010PropOp37
 70
     1
102
RTVSPost2010Prop38
140
0.0
102
RTVSPost2010PropOp38
 70
     1
102
RTVSPost2010Prop39
140
1.0
102
RTVSPost2010PropOp39
 70
     1
102
RTVSPost2010Prop40
 90
        0
102
RTVSPost2010PropOp40
 70
     1
102
RTVSPost2010Prop41ColorIndex
 90
       18
102
RTVSPost2010Prop41ColorRGB
 90
        0
102
RTVSPost2010PropOp41
 70
     1
102
RTVSPost2010Prop42
 90
       50
102
RTVSPost2010PropOp42
 70
     1
102
RTVSPost2010Prop43
 90
        3
102
RTVSPost2010PropOp43
 70
     1
102
RTVSPost2010Prop44ColorIndex
 90
        5
102
RTVSPost2010Prop44ColorRGB
 90
      255
102
RTVSPost2010PropOp44
 70
     1
102
RTVSPost2010Prop45
280
     0
102
RTVSPost2010PropOp45
 70
     1
102
RTVSPost2010Prop46
 90
       50
102
RTVSPost2010PropOp46
 70
     1
102
RTVSPost2010Prop47
 90
       50
102
RTVSPost2010PropOp47
 70
     1
102
RTVSPost2010Prop48
 90
       50
102
RTVSPost2010PropOp48
 70
     1
102
RTVSPost2010Prop49
280
     0
102
RTVSPost2010PropOp49
 70
     1
102
RTVSPost2010Prop50
 90
       50
102
RTVSPost2010PropOp50
 70
     1
102
RTVSPost2010Prop51ColorIndex
 90
      256
102
RTVSPost2010Prop51ColorRGB
 90
-16777216
102
RTVSPost2010PropOp51
 70
     0
102
RTVSPost2010Prop52
140
1.0
102
RTVSPost2010PropOp52
 70
     0
102
RTVSPost2010Prop53
 90
        2
102
RTVSPost2010PropOp53
 70
     1
102
RTVSPost2010Prop54
  1
strokes_ogs.tif
102
RTVSPost2010PropOp54
 70
     1
102
RTVSPost2010Prop55
280
     0
102
RTVSPost2010PropOp55
 70
     1
102
RTVSPost2010Prop56
140
1.0
102
RTVSPost2010PropOp56
 70
     1
102
RTVSPost2010Prop57
140
1.0
102
RTVSPost2010PropOp57
 70
     1
  0
XRECORD
  5
3A1
102
{ACAD_REACTORS
330
3A0
102
}
330
3A0
100
AcDbXrecord
280
     1
102
RTVSPropertyOp0
 70
     1
102
RTVSPropertyOp1
 70
     1
102
RTVSPropertyOp2
 70
     1
102
RTVSPropertyOp3
 70
     1
102
RTVSPropertyOp4
 70
     1
102
RTVSPropertyOp5
 70
     1
102
RTVSPropertyOp6
 70
     1
102
RTVSPropertyOp7
 70
     1
102
RTVSPropertyOp8
 70
     1
102
RTVSPropertyOp9
 70
     1
102
RTVSPropertyOp10
 70
     1
102
RTVSPropertyOp11
 70
     1
102
RTVSPropertyOp12
 70
     1
102
RTVSPropertyOp13
 70
     1
102
RTVSPropertyOp14
 70
     1
102
RTVSPropertyOp15
 70
     1
102
RTVSPropertyOp16
 70
     1
102
RTVSPropertyOp17
 70
     1
102
RTVSPropertyOp18
 70
     1
102
RTVSPropertyOp19
 70
     1
102
RTVSPropertyOp20
 70
     1
102
RTVSPropertyOp21
 70
     1
102
RTVSPropertyOp22
 70
     1
102
RTVSPropertyOp23
 70
     1
102
RTVSPropertyOp24
 70
     1
102
RTVSPropertyOp25
 70
     1
102
RTVSPropertyOp26
 70
     1
102
RTVSPropertyOp27
 70
     1
102
RTVSPropertyOp28
 70
     1
102
RTVSPropertyOp29
 70
     1
102
RTVSPropertyOp30
 70
     1
102
RTVSPropertyOp31
 70
     1
102
RTVSPropertyOp32
 70
     1
102
RTVSPropertyOp33
 70
     1
102
RTVSPropertyOp34
 70
     1
102
RTVSPropertyOp35
 70
     1
102
RTVSPropertyOp36
 70
     1
102
RTVSPropertyOp37
 70
     1
102
RTVSPropertyOp38
 70
     1
102
RTVSPropertyOp39
 70
     1
102
RTVSPropertyOp40
 70
     1
102
RTVSPropertyOp41
 70
     1
102
RTVSPropertyOp42
 70
     1
102
RTVSPropertyOp43
 70
     1
102
RTVSPropertyOp44
 70
     1
102
RTVSPropertyOp45
 70
     1
102
RTVSPropertyOp46
 70
     1
102
RTVSPropertyOp47
 70
     1
102
RTVSPropertyOp48
 70
     1
102
RTVSPropertyOp49
 70
     1
102
RTVSPropertyOp50
 70
     1
102
RTVSPropertyOp51
 70
     0
102
RTVSPropertyOp52
 70
     0
102
RTVSPropertyOp53
 70
     1
102
RTVSPropertyOp54
 70
     1
102
RTVSPropertyOp55
 70
     1
102
RTVSPropertyOp56
 70
     1
102
RTVSPropertyOp57
 70
     1
102
RTVSPost2010Prop28
280
     0
102
RTVSPost2010PropOp28
 70
     1
102
RTVSPost2010Prop29
280
     1
102
RTVSPost2010PropOp29
 70
     1
102
RTVSPost2010Prop30
280
     1
102
RTVSPost2010PropOp30
 70
     1
102
RTVSPost2010Prop31
280
     0
102
RTVSPost2010PropOp31
 70
     1
102
RTVSPost2010Prop32
280
     0
102
RTVSPost2010PropOp32
 70
     1
102
RTVSPost2010Prop33
280
     0
102
RTVSPost2010PropOp33
 70
     1
102
RTVSPost2010Prop34
280
     0
102
RTVSPost2010PropOp34
 70
     1
102
RTVSPost2010Prop35
280
     0
102
RTVSPost2010PropOp35
 70
     1
102
RTVSPost2010Prop36
280
     0
102
RTVSPost2010PropOp36
 70
     1
102
RTVSPost2010Prop37
 90
       50
102
RTVSPost2010PropOp37
 70
     1
102
RTVSPost2010Prop38
140
0.0
102
RTVSPost2010PropOp38
 70
     1
102
RTVSPost2010Prop39
140
1.0
102
RTVSPost2010PropOp39
 70
     1
102
RTVSPost2010Prop40
 90
        0
102
RTVSPost2010PropOp40
 70
     1
102
RTVSPost2010Prop41ColorIndex
 90
       18
102
RTVSPost2010Prop41ColorRGB
 90
        0
102
RTVSPost2010PropOp41
 70
     1
102
RTVSPost2010Prop42
 90
       50
102
RTVSPost2010PropOp42
 70
     1
102
RTVSPost2010Prop43
 90
        3
102
RTVSPost2010PropOp43
 70
     1
102
RTVSPost2010Prop44ColorIndex
 90
        5
102
RTVSPost2010Prop44ColorRGB
 90
      255
102
RTVSPost2010PropOp44
 70
     1
102
RTVSPost2010Prop45
280
     0
102
RTVSPost2010PropOp45
 70
     1
102
RTVSPost2010Prop46
 90
       50
102
RTVSPost2010PropOp46
 70
     1
102
RTVSPost2010Prop47
 90
       50
102
RTVSPost2010PropOp47
 70
     1
102
RTVSPost2010Prop48
 90
       50
102
RTVSPost2010PropOp48
 70
     1
102
RTVSPost2010Prop49
280
     0
102
RTVSPost2010PropOp49
 70
     1
102
RTVSPost2010Prop50
 90
       50
102
RTVSPost2010PropOp50
 70
     1
102
RTVSPost2010Prop51ColorIndex
 90
      256
102
RTVSPost2010Prop51ColorRGB
 90
-16777216
102
RTVSPost2010PropOp51
 70
     0
102
RTVSPost2010Prop52
140
1.0
102
RTVSPost2010PropOp52
 70
     0
102
RTVSPost2010Prop53
 90
        2
102
RTVSPost2010PropOp53
 70
     1
102
RTVSPost2010Prop54
  1
strokes_ogs.tif
102
RTVSPost2010PropOp54
 70
     1
102
RTVSPost2010Prop55
280
     0
102
RTVSPost2010PropOp55
 70
     1
102
RTVSPost2010Prop56
140
1.0
102
RTVSPost2010PropOp56
 70
     1
102
RTVSPost2010Prop57
140
1.0
102
RTVSPost2010PropOp57
 70
     1
  0
XRECORD
  5
3A7
102
{ACAD_REACTORS
330
3A6
102
}
330
3A6
100
AcDbXrecord
280
     1
102
RTVSPropertyOp0
 70
     1
102
RTVSPropertyOp1
 70
     1
102
RTVSPropertyOp2
 70
     1
102
RTVSPropertyOp3
 70
     1
102
RTVSPropertyOp4
 70
     1
102
RTVSPropertyOp5
 70
     1
102
RTVSPropertyOp6
 70
     1
102
RTVSPropertyOp7
 70
     1
102
RTVSPropertyOp8
 70
     1
102
RTVSPropertyOp9
 70
     1
102
RTVSPropertyOp10
 70
     1
102
RTVSPropertyOp11
 70
     1
102
RTVSPropertyOp12
 70
     1
102
RTVSPropertyOp13
 70
     1
102
RTVSPropertyOp14
 70
     1
102
RTVSPropertyOp15
 70
     1
102
RTVSPropertyOp16
 70
     1
102
RTVSPropertyOp17
 70
     1
102
RTVSPropertyOp18
 70
     1
102
RTVSPropertyOp19
 70
     1
102
RTVSPropertyOp20
 70
     1
102
RTVSPropertyOp21
 70
     1
102
RTVSPropertyOp22
 70
     1
102
RTVSPropertyOp23
 70
     1
102
RTVSPropertyOp24
 70
     1
102
RTVSPropertyOp25
 70
     1
102
RTVSPropertyOp26
 70
     1
102
RTVSPropertyOp27
 70
     1
102
RTVSPropertyOp28
 70
     1
102
RTVSPropertyOp29
 70
     1
102
RTVSPropertyOp30
 70
     1
102
RTVSPropertyOp31
 70
     1
102
RTVSPropertyOp32
 70
     1
102
RTVSPropertyOp33
 70
     1
102
RTVSPropertyOp34
 70
     1
102
RTVSPropertyOp35
 70
     1
102
RTVSPropertyOp36
 70
     1
102
RTVSPropertyOp37
 70
     1
102
RTVSPropertyOp38
 70
     1
102
RTVSPropertyOp39
 70
     1
102
RTVSPropertyOp40
 70
     1
102
RTVSPropertyOp41
 70
     1
102
RTVSPropertyOp42
 70
     1
102
RTVSPropertyOp43
 70
     1
102
RTVSPropertyOp44
 70
     1
102
RTVSPropertyOp45
 70
     1
102
RTVSPropertyOp46
 70
     1
102
RTVSPropertyOp47
 70
     1
102
RTVSPropertyOp48
 70
     1
102
RTVSPropertyOp49
 70
     1
102
RTVSPropertyOp50
 70
     1
102
RTVSPropertyOp51
 70
     0
102
RTVSPropertyOp52
 70
     0
102
RTVSPropertyOp53
 70
     1
102
RTVSPropertyOp54
 70
     1
102
RTVSPropertyOp55
 70
     1
102
RTVSPropertyOp56
 70
     1
102
RTVSPropertyOp57
 70
     1
102
RTVSPost2010Prop28
280
     0
102
RTVSPost2010PropOp28
 70
     1
102
RTVSPost2010Prop29
280
     1
102
RTVSPost2010PropOp29
 70
     1
102
RTVSPost2010Prop30
280
     1
102
RTVSPost2010PropOp30
 70
     1
102
RTVSPost2010Prop31
280
     0
102
RTVSPost2010PropOp31
 70
     1
102
RTVSPost2010Prop32
280
     0
102
RTVSPost2010PropOp32
 70
     1
102
RTVSPost2010Prop33
280
     0
102
RTVSPost2010PropOp33
 70
     1
102
RTVSPost2010Prop34
280
     0
102
RTVSPost2010PropOp34
 70
     1
102
RTVSPost2010Prop35
280
     0
102
RTVSPost2010PropOp35
 70
     1
102
RTVSPost2010Prop36
280
     0
102
RTVSPost2010PropOp36
 70
     1
102
RTVSPost2010Prop37
 90
       50
102
RTVSPost2010PropOp37
 70
     1
102
RTVSPost2010Prop38
140
0.0
102
RTVSPost2010PropOp38
 70
     1
102
RTVSPost2010Prop39
140
1.0
102
RTVSPost2010PropOp39
 70
     1
102
RTVSPost2010Prop40
 90
        0
102
RTVSPost2010PropOp40
 70
     1
102
RTVSPost2010Prop41ColorIndex
 90
       18
102
RTVSPost2010Prop41ColorRGB
 90
        0
102
RTVSPost2010PropOp41
 70
     1
102
RTVSPost2010Prop42
 90
       50
102
RTVSPost2010PropOp42
 70
     1
102
RTVSPost2010Prop43
 90
        3
102
RTVSPost2010PropOp43
 70
     1
102
RTVSPost2010Prop44ColorIndex
 90
        5
102
RTVSPost2010Prop44ColorRGB
 90
      255
102
RTVSPost2010PropOp44
 70
     1
102
RTVSPost2010Prop45
280
     0
102
RTVSPost2010PropOp45
 70
     1
102
RTVSPost2010Prop46
 90
       50
102
RTVSPost2010PropOp46
 70
     1
102
RTVSPost2010Prop47
 90
       50
102
RTVSPost2010PropOp47
 70
     1
102
RTVSPost2010Prop48
 90
       50
102
RTVSPost2010PropOp48
 70
     1
102
RTVSPost2010Prop49
280
     0
102
RTVSPost2010PropOp49
 70
     1
102
RTVSPost2010Prop50
 90
       50
102
RTVSPost2010PropOp50
 70
     1
102
RTVSPost2010Prop51ColorIndex
 90
      256
102
RTVSPost2010Prop51ColorRGB
 90
-16777216
102
RTVSPost2010PropOp51
 70
     0
102
RTVSPost2010Prop52
140
1.0
102
RTVSPost2010PropOp52
 70
     0
102
RTVSPost2010Prop53
 90
        2
102
RTVSPost2010PropOp53
 70
     1
102
RTVSPost2010Prop54
  1
strokes_ogs.tif
102
RTVSPost2010PropOp54
 70
     1
102
RTVSPost2010Prop55
280
     0
102
RTVSPost2010PropOp55
 70
     1
102
RTVSPost2010Prop56
140
1.0
102
RTVSPost2010PropOp56
 70
     1
102
RTVSPost2010Prop57
140
1.0
102
RTVSPost2010PropOp57
 70
     1
  0
XRECORD
  5
3BB
102
{ACAD_REACTORS
330
3BA
102
}
330
3BA
100
AcDbXrecord
280
     1
102
RTVSPropertyOp0
 70
     0
102
RTVSPropertyOp1
 70
     0
102
RTVSPropertyOp2
 70
     0
102
RTVSPropertyOp3
 70
     0
102
RTVSPropertyOp4
 70
     0
102
RTVSPropertyOp5
 70
     0
102
RTVSPropertyOp6
 70
     0
102
RTVSPropertyOp7
 70
     0
102
RTVSPropertyOp8
 70
     0
102
RTVSPropertyOp9
 70
     0
102
RTVSPropertyOp10
 70
     0
102
RTVSPropertyOp11
 70
     0
102
RTVSPropertyOp12
 70
     0
102
RTVSPropertyOp13
 70
     0
102
RTVSPropertyOp14
 70
     2
102
RTVSPropertyOp15
 70
     0
102
RTVSPropertyOp16
 70
     0
102
RTVSPropertyOp17
 70
     0
102
RTVSPropertyOp18
 70
     0
102
RTVSPropertyOp19
 70
     0
102
RTVSPropertyOp20
 70
     0
102
RTVSPropertyOp21
 70
     0
102
RTVSPropertyOp22
 70
     0
102
RTVSPropertyOp23
 70
     0
102
RTVSPropertyOp24
 70
     0
102
RTVSPropertyOp25
 70
     0
102
RTVSPropertyOp26
 70
     0
102
RTVSPropertyOp27
 70
     0
102
RTVSPropertyOp28
 70
     0
102
RTVSPropertyOp29
 70
     0
102
RTVSPropertyOp30
 70
     0
102
RTVSPropertyOp31
 70
     0
102
RTVSPropertyOp32
 70
     0
102
RTVSPropertyOp33
 70
     0
102
RTVSPropertyOp34
 70
     0
102
RTVSPropertyOp35
 70
     0
102
RTVSPropertyOp36
 70
     0
102
RTVSPropertyOp37
 70
     0
102
RTVSPropertyOp38
 70
     0
102
RTVSPropertyOp39
 70
     0
102
RTVSPropertyOp40
 70
     0
102
RTVSPropertyOp41
 70
     0
102
RTVSPropertyOp42
 70
     0
102
RTVSPropertyOp43
 70
     0
102
RTVSPropertyOp44
 70
     0
102
RTVSPropertyOp45
 70
     0
102
RTVSPropertyOp46
 70
     0
102
RTVSPropertyOp47
 70
     0
102
RTVSPropertyOp48
 70
     0
102
RTVSPropertyOp49
 70
     0
102
RTVSPropertyOp50
 70
     0
102
RTVSPropertyOp51
 70
     0
102
RTVSPropertyOp52
 70
     0
102
RTVSPropertyOp53
 70
     0
102
RTVSPropertyOp54
 70
     0
102
RTVSPropertyOp55
 70
     0
102
RTVSPropertyOp56
 70
     0
102
RTVSPropertyOp57
 70
     0
102
RTVSPost2010Prop28
280
     0
102
RTVSPost2010PropOp28
 70
     0
102
RTVSPost2010Prop29
280
     1
102
RTVSPost2010PropOp29
 70
     0
102
RTVSPost2010Prop30
280
     1
102
RTVSPost2010PropOp30
 70
     0
102
RTVSPost2010Prop31
280
     0
102
RTVSPost2010PropOp31
 70
     0
102
RTVSPost2010Prop32
280
     0
102
RTVSPost2010PropOp32
 70
     0
102
RTVSPost2010Prop33
280
     0
102
RTVSPost2010PropOp33
 70
     0
102
RTVSPost2010Prop34
280
     0
102
RTVSPost2010PropOp34
 70
     0
102
RTVSPost2010Prop35
280
     0
102
RTVSPost2010PropOp35
 70
     0
102
RTVSPost2010Prop36
280
     0
102
RTVSPost2010PropOp36
 70
     0
102
RTVSPost2010Prop37
 90
       50
102
RTVSPost2010PropOp37
 70
     0
102
RTVSPost2010Prop38
140
0.0
102
RTVSPost2010PropOp38
 70
     0
102
RTVSPost2010Prop39
140
1.0
102
RTVSPost2010PropOp39
 70
     0
102
RTVSPost2010Prop40
 90
        0
102
RTVSPost2010PropOp40
 70
     0
102
RTVSPost2010Prop41ColorIndex
 90
       18
102
RTVSPost2010Prop41ColorRGB
 90
        0
102
RTVSPost2010PropOp41
 70
     0
102
RTVSPost2010Prop42
 90
       50
102
RTVSPost2010PropOp42
 70
     0
102
RTVSPost2010Prop43
 90
        3
102
RTVSPost2010PropOp43
 70
     0
102
RTVSPost2010Prop44ColorIndex
 90
        5
102
RTVSPost2010Prop44ColorRGB
 90
      255
102
RTVSPost2010PropOp44
 70
     0
102
RTVSPost2010Prop45
280
     0
102
RTVSPost2010PropOp45
 70
     0
102
RTVSPost2010Prop46
 90
       50
102
RTVSPost2010PropOp46
 70
     0
102
RTVSPost2010Prop47
 90
       50
102
RTVSPost2010PropOp47
 70
     0
102
RTVSPost2010Prop48
 90
       50
102
RTVSPost2010PropOp48
 70
     0
102
RTVSPost2010Prop49
280
     0
102
RTVSPost2010PropOp49
 70
     0
102
RTVSPost2010Prop50
 90
       50
102
RTVSPost2010PropOp50
 70
     0
102
RTVSPost2010Prop51ColorIndex
 90
      256
102
RTVSPost2010Prop51ColorRGB
 90
-16777216
102
RTVSPost2010PropOp51
 70
     0
102
RTVSPost2010Prop52
140
1.0
102
RTVSPost2010PropOp52
 70
     0
102
RTVSPost2010Prop53
 90
        2
102
RTVSPost2010PropOp53
 70
     0
102
RTVSPost2010Prop54
  1
strokes_ogs.tif
102
RTVSPost2010PropOp54
 70
     0
102
RTVSPost2010Prop55
280
     0
102
RTVSPost2010PropOp55
 70
     0
102
RTVSPost2010Prop56
140
1.0
102
RTVSPost2010PropOp56
 70
     0
102
RTVSPost2010Prop57
140
1.0
102
RTVSPost2010PropOp57
 70
     0
  0
XRECORD
  5
3B5
102
{ACAD_REACTORS
330
3B4
102
}
330
3B4
100
AcDbXrecord
280
     1
102
RTVSPropertyOp0
 70
     1
102
RTVSPropertyOp1
 70
     1
102
RTVSPropertyOp2
 70
     1
102
RTVSPropertyOp3
 70
     1
102
RTVSPropertyOp4
 70
     1
102
RTVSPropertyOp5
 70
     1
102
RTVSPropertyOp6
 70
     1
102
RTVSPropertyOp7
 70
     1
102
RTVSPropertyOp8
 70
     1
102
RTVSPropertyOp9
 70
     1
102
RTVSPropertyOp10
 70
     1
102
RTVSPropertyOp11
 70
     1
102
RTVSPropertyOp12
 70
     1
102
RTVSPropertyOp13
 70
     1
102
RTVSPropertyOp14
 70
     1
102
RTVSPropertyOp15
 70
     1
102
RTVSPropertyOp16
 70
     1
102
RTVSPropertyOp17
 70
     1
102
RTVSPropertyOp18
 70
     1
102
RTVSPropertyOp19
 70
     1
102
RTVSPropertyOp20
 70
     1
102
RTVSPropertyOp21
 70
     1
102
RTVSPropertyOp22
 70
     1
102
RTVSPropertyOp23
 70
     1
102
RTVSPropertyOp24
 70
     1
102
RTVSPropertyOp25
 70
     1
102
RTVSPropertyOp26
 70
     1
102
RTVSPropertyOp27
 70
     1
102
RTVSPropertyOp28
 70
     1
102
RTVSPropertyOp29
 70
     1
102
RTVSPropertyOp30
 70
     1
102
RTVSPropertyOp31
 70
     1
102
RTVSPropertyOp32
 70
     1
102
RTVSPropertyOp33
 70
     1
102
RTVSPropertyOp34
 70
     1
102
RTVSPropertyOp35
 70
     1
102
RTVSPropertyOp36
 70
     1
102
RTVSPropertyOp37
 70
     1
102
RTVSPropertyOp38
 70
     1
102
RTVSPropertyOp39
 70
     1
102
RTVSPropertyOp40
 70
     1
102
RTVSPropertyOp41
 70
     1
102
RTVSPropertyOp42
 70
     1
102
RTVSPropertyOp43
 70
     1
102
RTVSPropertyOp44
 70
     1
102
RTVSPropertyOp45
 70
     1
102
RTVSPropertyOp46
 70
     1
102
RTVSPropertyOp47
 70
     1
102
RTVSPropertyOp48
 70
     1
102
RTVSPropertyOp49
 70
     1
102
RTVSPropertyOp50
 70
     1
102
RTVSPropertyOp51
 70
     0
102
RTVSPropertyOp52
 70
     0
102
RTVSPropertyOp53
 70
     1
102
RTVSPropertyOp54
 70
     1
102
RTVSPropertyOp55
 70
     1
102
RTVSPropertyOp56
 70
     1
102
RTVSPropertyOp57
 70
     1
102
RTVSPost2010Prop28
280
     0
102
RTVSPost2010PropOp28
 70
     1
102
RTVSPost2010Prop29
280
     1
102
RTVSPost2010PropOp29
 70
     1
102
RTVSPost2010Prop30
280
     1
102
RTVSPost2010PropOp30
 70
     1
102
RTVSPost2010Prop31
280
     0
102
RTVSPost2010PropOp31
 70
     1
102
RTVSPost2010Prop32
280
     0
102
RTVSPost2010PropOp32
 70
     1
102
RTVSPost2010Prop33
280
     0
102
RTVSPost2010PropOp33
 70
     1
102
RTVSPost2010Prop34
280
     0
102
RTVSPost2010PropOp34
 70
     1
102
RTVSPost2010Prop35
280
     0
102
RTVSPost2010PropOp35
 70
     1
102
RTVSPost2010Prop36
280
     0
102
RTVSPost2010PropOp36
 70
     1
102
RTVSPost2010Prop37
 90
       50
102
RTVSPost2010PropOp37
 70
     1
102
RTVSPost2010Prop38
140
0.0
102
RTVSPost2010PropOp38
 70
     1
102
RTVSPost2010Prop39
140
1.0
102
RTVSPost2010PropOp39
 70
     1
102
RTVSPost2010Prop40
 90
        0
102
RTVSPost2010PropOp40
 70
     1
102
RTVSPost2010Prop41ColorIndex
 90
       18
102
RTVSPost2010Prop41ColorRGB
 90
        0
102
RTVSPost2010PropOp41
 70
     1
102
RTVSPost2010Prop42
 90
       50
102
RTVSPost2010PropOp42
 70
     1
102
RTVSPost2010Prop43
 90
        3
102
RTVSPost2010PropOp43
 70
     1
102
RTVSPost2010Prop44ColorIndex
 90
        5
102
RTVSPost2010Prop44ColorRGB
 90
      255
102
RTVSPost2010PropOp44
 70
     1
102
RTVSPost2010Prop45
280
     0
102
RTVSPost2010PropOp45
 70
     1
102
RTVSPost2010Prop46
 90
       50
102
RTVSPost2010PropOp46
 70
     1
102
RTVSPost2010Prop47
 90
       50
102
RTVSPost2010PropOp47
 70
     1
102
RTVSPost2010Prop48
 90
       50
102
RTVSPost2010PropOp48
 70
     1
102
RTVSPost2010Prop49
280
     0
102
RTVSPost2010PropOp49
 70
     1
102
RTVSPost2010Prop50
 90
       50
102
RTVSPost2010PropOp50
 70
     1
102
RTVSPost2010Prop51ColorIndex
 90
      256
102
RTVSPost2010Prop51ColorRGB
 90
-16777216
102
RTVSPost2010PropOp51
 70
     0
102
RTVSPost2010Prop52
140
1.0
102
RTVSPost2010PropOp52
 70
     0
102
RTVSPost2010Prop53
 90
        2
102
RTVSPost2010PropOp53
 70
     1
102
RTVSPost2010Prop54
  1
strokes_ogs.tif
102
RTVSPost2010PropOp54
 70
     1
102
RTVSPost2010Prop55
280
     0
102
RTVSPost2010PropOp55
 70
     1
102
RTVSPost2010Prop56
140
1.0
102
RTVSPost2010PropOp56
 70
     1
102
RTVSPost2010Prop57
140
1.0
102
RTVSPost2010PropOp57
 70
     1
  0
XRECORD
  5
3BD
102
{ACAD_REACTORS
330
3BC
102
}
330
3BC
100
AcDbXrecord
280
     1
102
RTVSPropertyOp0
 70
     0
102
RTVSPropertyOp1
 70
     0
102
RTVSPropertyOp2
 70
     0
102
RTVSPropertyOp3
 70
     0
102
RTVSPropertyOp4
 70
     0
102
RTVSPropertyOp5
 70
     0
102
RTVSPropertyOp6
 70
     0
102
RTVSPropertyOp7
 70
     0
102
RTVSPropertyOp8
 70
     0
102
RTVSPropertyOp9
 70
     0
102
RTVSPropertyOp10
 70
     0
102
RTVSPropertyOp11
 70
     0
102
RTVSPropertyOp12
 70
     0
102
RTVSPropertyOp13
 70
     0
102
RTVSPropertyOp14
 70
     2
102
RTVSPropertyOp15
 70
     0
102
RTVSPropertyOp16
 70
     0
102
RTVSPropertyOp17
 70
     0
102
RTVSPropertyOp18
 70
     0
102
RTVSPropertyOp19
 70
     0
102
RTVSPropertyOp20
 70
     0
102
RTVSPropertyOp21
 70
     0
102
RTVSPropertyOp22
 70
     0
102
RTVSPropertyOp23
 70
     0
102
RTVSPropertyOp24
 70
     0
102
RTVSPropertyOp25
 70
     0
102
RTVSPropertyOp26
 70
     0
102
RTVSPropertyOp27
 70
     0
102
RTVSPropertyOp28
 70
     0
102
RTVSPropertyOp29
 70
     0
102
RTVSPropertyOp30
 70
     0
102
RTVSPropertyOp31
 70
     0
102
RTVSPropertyOp32
 70
     0
102
RTVSPropertyOp33
 70
     0
102
RTVSPropertyOp34
 70
     0
102
RTVSPropertyOp35
 70
     0
102
RTVSPropertyOp36
 70
     0
102
RTVSPropertyOp37
 70
     0
102
RTVSPropertyOp38
 70
     0
102
RTVSPropertyOp39
 70
     0
102
RTVSPropertyOp40
 70
     0
102
RTVSPropertyOp41
 70
     0
102
RTVSPropertyOp42
 70
     0
102
RTVSPropertyOp43
 70
     0
102
RTVSPropertyOp44
 70
     0
102
RTVSPropertyOp45
 70
     0
102
RTVSPropertyOp46
 70
     0
102
RTVSPropertyOp47
 70
     0
102
RTVSPropertyOp48
 70
     0
102
RTVSPropertyOp49
 70
     0
102
RTVSPropertyOp50
 70
     0
102
RTVSPropertyOp51
 70
     0
102
RTVSPropertyOp52
 70
     0
102
RTVSPropertyOp53
 70
     0
102
RTVSPropertyOp54
 70
     0
102
RTVSPropertyOp55
 70
     0
102
RTVSPropertyOp56
 70
     0
102
RTVSPropertyOp57
 70
     0
102
RTVSPost2010Prop28
280
     0
102
RTVSPost2010PropOp28
 70
     0
102
RTVSPost2010Prop29
280
     1
102
RTVSPost2010PropOp29
 70
     0
102
RTVSPost2010Prop30
280
     1
102
RTVSPost2010PropOp30
 70
     0
102
RTVSPost2010Prop31
280
     0
102
RTVSPost2010PropOp31
 70
     0
102
RTVSPost2010Prop32
280
     0
102
RTVSPost2010PropOp32
 70
     0
102
RTVSPost2010Prop33
280
     0
102
RTVSPost2010PropOp33
 70
     0
102
RTVSPost2010Prop34
280
     0
102
RTVSPost2010PropOp34
 70
     0
102
RTVSPost2010Prop35
280
     0
102
RTVSPost2010PropOp35
 70
     0
102
RTVSPost2010Prop36
280
     0
102
RTVSPost2010PropOp36
 70
     0
102
RTVSPost2010Prop37
 90
       50
102
RTVSPost2010PropOp37
 70
     0
102
RTVSPost2010Prop38
140
0.0
102
RTVSPost2010PropOp38
 70
     0
102
RTVSPost2010Prop39
140
1.0
102
RTVSPost2010PropOp39
 70
     0
102
RTVSPost2010Prop40
 90
        0
102
RTVSPost2010PropOp40
 70
     0
102
RTVSPost2010Prop41ColorIndex
 90
       18
102
RTVSPost2010Prop41ColorRGB
 90
        0
102
RTVSPost2010PropOp41
 70
     0
102
RTVSPost2010Prop42
 90
       50
102
RTVSPost2010PropOp42
 70
     0
102
RTVSPost2010Prop43
 90
        3
102
RTVSPost2010PropOp43
 70
     0
102
RTVSPost2010Prop44ColorIndex
 90
        5
102
RTVSPost2010Prop44ColorRGB
 90
      255
102
RTVSPost2010PropOp44
 70
     0
102
RTVSPost2010Prop45
280
     0
102
RTVSPost2010PropOp45
 70
     0
102
RTVSPost2010Prop46
 90
       50
102
RTVSPost2010PropOp46
 70
     0
102
RTVSPost2010Prop47
 90
       50
102
RTVSPost2010PropOp47
 70
     0
102
RTVSPost2010Prop48
 90
       50
102
RTVSPost2010PropOp48
 70
     0
102
RTVSPost2010Prop49
280
     0
102
RTVSPost2010PropOp49
 70
     0
102
RTVSPost2010Prop50
 90
       50
102
RTVSPost2010PropOp50
 70
     0
102
RTVSPost2010Prop51ColorIndex
 90
      256
102
RTVSPost2010Prop51ColorRGB
 90
-16777216
102
RTVSPost2010PropOp51
 70
     0
102
RTVSPost2010Prop52
140
1.0
102
RTVSPost2010PropOp52
 70
     0
102
RTVSPost2010Prop53
 90
        2
102
RTVSPost2010PropOp53
 70
     0
102
RTVSPost2010Prop54
  1
strokes_ogs.tif
102
RTVSPost2010PropOp54
 70
     0
102
RTVSPost2010Prop55
280
     0
102
RTVSPost2010PropOp55
 70
     0
102
RTVSPost2010Prop56
140
1.0
102
RTVSPost2010PropOp56
 70
     0
102
RTVSPost2010Prop57
140
1.0
102
RTVSPost2010PropOp57
 70
     0
  0
XRECORD
  5
3AB
102
{ACAD_REACTORS
330
3AA
102
}
330
3AA
100
AcDbXrecord
280
     1
102
RTVSPropertyOp0
 70
     1
102
RTVSPropertyOp1
 70
     1
102
RTVSPropertyOp2
 70
     1
102
RTVSPropertyOp3
 70
     1
102
RTVSPropertyOp4
 70
     1
102
RTVSPropertyOp5
 70
     1
102
RTVSPropertyOp6
 70
     1
102
RTVSPropertyOp7
 70
     1
102
RTVSPropertyOp8
 70
     1
102
RTVSPropertyOp9
 70
     1
102
RTVSPropertyOp10
 70
     1
102
RTVSPropertyOp11
 70
     1
102
RTVSPropertyOp12
 70
     1
102
RTVSPropertyOp13
 70
     1
102
RTVSPropertyOp14
 70
     1
102
RTVSPropertyOp15
 70
     1
102
RTVSPropertyOp16
 70
     1
102
RTVSPropertyOp17
 70
     1
102
RTVSPropertyOp18
 70
     1
102
RTVSPropertyOp19
 70
     1
102
RTVSPropertyOp20
 70
     1
102
RTVSPropertyOp21
 70
     1
102
RTVSPropertyOp22
 70
     1
102
RTVSPropertyOp23
 70
     1
102
RTVSPropertyOp24
 70
     1
102
RTVSPropertyOp25
 70
     1
102
RTVSPropertyOp26
 70
     1
102
RTVSPropertyOp27
 70
     1
102
RTVSPropertyOp28
 70
     1
102
RTVSPropertyOp29
 70
     1
102
RTVSPropertyOp30
 70
     1
102
RTVSPropertyOp31
 70
     1
102
RTVSPropertyOp32
 70
     1
102
RTVSPropertyOp33
 70
     1
102
RTVSPropertyOp34
 70
     1
102
RTVSPropertyOp35
 70
     1
102
RTVSPropertyOp36
 70
     1
102
RTVSPropertyOp37
 70
     1
102
RTVSPropertyOp38
 70
     1
102
RTVSPropertyOp39
 70
     1
102
RTVSPropertyOp40
 70
     1
102
RTVSPropertyOp41
 70
     1
102
RTVSPropertyOp42
 70
     1
102
RTVSPropertyOp43
 70
     1
102
RTVSPropertyOp44
 70
     1
102
RTVSPropertyOp45
 70
     1
102
RTVSPropertyOp46
 70
     1
102
RTVSPropertyOp47
 70
     1
102
RTVSPropertyOp48
 70
     1
102
RTVSPropertyOp49
 70
     1
102
RTVSPropertyOp50
 70
     1
102
RTVSPropertyOp51
 70
     0
102
RTVSPropertyOp52
 70
     0
102
RTVSPropertyOp53
 70
     1
102
RTVSPropertyOp54
 70
     1
102
RTVSPropertyOp55
 70
     1
102
RTVSPropertyOp56
 70
     1
102
RTVSPropertyOp57
 70
     1
102
RTVSPost2010Prop28
280
     0
102
RTVSPost2010PropOp28
 70
     1
102
RTVSPost2010Prop29
280
     1
102
RTVSPost2010PropOp29
 70
     1
102
RTVSPost2010Prop30
280
     1
102
RTVSPost2010PropOp30
 70
     1
102
RTVSPost2010Prop31
280
     0
102
RTVSPost2010PropOp31
 70
     1
102
RTVSPost2010Prop32
280
     0
102
RTVSPost2010PropOp32
 70
     1
102
RTVSPost2010Prop33
280
     0
102
RTVSPost2010PropOp33
 70
     1
102
RTVSPost2010Prop34
280
     0
102
RTVSPost2010PropOp34
 70
     1
102
RTVSPost2010Prop35
280
     0
102
RTVSPost2010PropOp35
 70
     1
102
RTVSPost2010Prop36
280
     0
102
RTVSPost2010PropOp36
 70
     1
102
RTVSPost2010Prop37
 90
       50
102
RTVSPost2010PropOp37
 70
     1
102
RTVSPost2010Prop38
140
0.0
102
RTVSPost2010PropOp38
 70
     1
102
RTVSPost2010Prop39
140
1.0
102
RTVSPost2010PropOp39
 70
     1
102
RTVSPost2010Prop40
 90
        0
102
RTVSPost2010PropOp40
 70
     1
102
RTVSPost2010Prop41ColorIndex
 90
       18
102
RTVSPost2010Prop41ColorRGB
 90
        0
102
RTVSPost2010PropOp41
 70
     1
102
RTVSPost2010Prop42
 90
       50
102
RTVSPost2010PropOp42
 70
     1
102
RTVSPost2010Prop43
 90
        3
102
RTVSPost2010PropOp43
 70
     1
102
RTVSPost2010Prop44ColorIndex
 90
        5
102
RTVSPost2010Prop44ColorRGB
 90
      255
102
RTVSPost2010PropOp44
 70
     1
102
RTVSPost2010Prop45
280
     0
102
RTVSPost2010PropOp45
 70
     1
102
RTVSPost2010Prop46
 90
       50
102
RTVSPost2010PropOp46
 70
     1
102
RTVSPost2010Prop47
 90
       50
102
RTVSPost2010PropOp47
 70
     1
102
RTVSPost2010Prop48
 90
       50
102
RTVSPost2010PropOp48
 70
     1
102
RTVSPost2010Prop49
280
     0
102
RTVSPost2010PropOp49
 70
     1
102
RTVSPost2010Prop50
 90
       50
102
RTVSPost2010PropOp50
 70
     1
102
RTVSPost2010Prop51ColorIndex
 90
      256
102
RTVSPost2010Prop51ColorRGB
 90
-16777216
102
RTVSPost2010PropOp51
 70
     0
102
RTVSPost2010Prop52
140
1.0
102
RTVSPost2010PropOp52
 70
     0
102
RTVSPost2010Prop53
 90
        2
102
RTVSPost2010PropOp53
 70
     1
102
RTVSPost2010Prop54
  1
strokes_ogs.tif
102
RTVSPost2010PropOp54
 70
     1
102
RTVSPost2010Prop55
280
     0
102
RTVSPost2010PropOp55
 70
     1
102
RTVSPost2010Prop56
140
1.0
102
RTVSPost2010PropOp56
 70
     1
102
RTVSPost2010Prop57
140
1.0
102
RTVSPost2010PropOp57
 70
     1
  0
XRECORD
  5
3C9
102
{ACAD_REACTORS
330
3C8
102
}
330
3C8
100
AcDbXrecord
280
     1
102
RTVSPropertyOp0
 70
     1
102
RTVSPropertyOp1
 70
     1
102
RTVSPropertyOp2
 70
     1
102
RTVSPropertyOp3
 70
     1
102
RTVSPropertyOp4
 70
     1
102
RTVSPropertyOp5
 70
     1
102
RTVSPropertyOp6
 70
     1
102
RTVSPropertyOp7
 70
     1
102
RTVSPropertyOp8
 70
     1
102
RTVSPropertyOp9
 70
     1
102
RTVSPropertyOp10
 70
     1
102
RTVSPropertyOp11
 70
     1
102
RTVSPropertyOp12
 70
     1
102
RTVSPropertyOp13
 70
     1
102
RTVSPropertyOp14
 70
     1
102
RTVSPropertyOp15
 70
     1
102
RTVSPropertyOp16
 70
     1
102
RTVSPropertyOp17
 70
     1
102
RTVSPropertyOp18
 70
     1
102
RTVSPropertyOp19
 70
     1
102
RTVSPropertyOp20
 70
     1
102
RTVSPropertyOp21
 70
     1
102
RTVSPropertyOp22
 70
     1
102
RTVSPropertyOp23
 70
     1
102
RTVSPropertyOp24
 70
     1
102
RTVSPropertyOp25
 70
     1
102
RTVSPropertyOp26
 70
     1
102
RTVSPropertyOp27
 70
     1
102
RTVSPropertyOp28
 70
     1
102
RTVSPropertyOp29
 70
     1
102
RTVSPropertyOp30
 70
     1
102
RTVSPropertyOp31
 70
     1
102
RTVSPropertyOp32
 70
     1
102
RTVSPropertyOp33
 70
     1
102
RTVSPropertyOp34
 70
     1
102
RTVSPropertyOp35
 70
     1
102
RTVSPropertyOp36
 70
     1
102
RTVSPropertyOp37
 70
     1
102
RTVSPropertyOp38
 70
     1
102
RTVSPropertyOp39
 70
     1
102
RTVSPropertyOp40
 70
     1
102
RTVSPropertyOp41
 70
     1
102
RTVSPropertyOp42
 70
     1
102
RTVSPropertyOp43
 70
     1
102
RTVSPropertyOp44
 70
     1
102
RTVSPropertyOp45
 70
     1
102
RTVSPropertyOp46
 70
     1
102
RTVSPropertyOp47
 70
     1
102
RTVSPropertyOp48
 70
     1
102
RTVSPropertyOp49
 70
     1
102
RTVSPropertyOp50
 70
     1
102
RTVSPropertyOp51
 70
     0
102
RTVSPropertyOp52
 70
     0
102
RTVSPropertyOp53
 70
     1
102
RTVSPropertyOp54
 70
     1
102
RTVSPropertyOp55
 70
     1
102
RTVSPropertyOp56
 70
     1
102
RTVSPropertyOp57
 70
     1
102
RTVSPost2010Prop28
280
     0
102
RTVSPost2010PropOp28
 70
     1
102
RTVSPost2010Prop29
280
     1
102
RTVSPost2010PropOp29
 70
     1
102
RTVSPost2010Prop30
280
     1
102
RTVSPost2010PropOp30
 70
     1
102
RTVSPost2010Prop31
280
     0
102
RTVSPost2010PropOp31
 70
     1
102
RTVSPost2010Prop32
280
     0
102
RTVSPost2010PropOp32
 70
     1
102
RTVSPost2010Prop33
280
     0
102
RTVSPost2010PropOp33
 70
     1
102
RTVSPost2010Prop34
280
     0
102
RTVSPost2010PropOp34
 70
     1
102
RTVSPost2010Prop35
280
     0
102
RTVSPost2010PropOp35
 70
     1
102
RTVSPost2010Prop36
280
     0
102
RTVSPost2010PropOp36
 70
     1
102
RTVSPost2010Prop37
 90
       50
102
RTVSPost2010PropOp37
 70
     1
102
RTVSPost2010Prop38
140
0.0
102
RTVSPost2010PropOp38
 70
     1
102
RTVSPost2010Prop39
140
1.0
102
RTVSPost2010PropOp39
 70
     1
102
RTVSPost2010Prop40
 90
        0
102
RTVSPost2010PropOp40
 70
     1
102
RTVSPost2010Prop41ColorIndex
 90
       18
102
RTVSPost2010Prop41ColorRGB
 90
        0
102
RTVSPost2010PropOp41
 70
     1
102
RTVSPost2010Prop42
 90
       50
102
RTVSPost2010PropOp42
 70
     1
102
RTVSPost2010Prop43
 90
        3
102
RTVSPost2010PropOp43
 70
     1
102
RTVSPost2010Prop44ColorIndex
 90
        5
102
RTVSPost2010Prop44ColorRGB
 90
      255
102
RTVSPost2010PropOp44
 70
     1
102
RTVSPost2010Prop45
280
     0
102
RTVSPost2010PropOp45
 70
     1
102
RTVSPost2010Prop46
 90
       50
102
RTVSPost2010PropOp46
 70
     1
102
RTVSPost2010Prop47
 90
       50
102
RTVSPost2010PropOp47
 70
     1
102
RTVSPost2010Prop48
 90
       50
102
RTVSPost2010PropOp48
 70
     1
102
RTVSPost2010Prop49
280
     0
102
RTVSPost2010PropOp49
 70
     1
102
RTVSPost2010Prop50
 90
       50
102
RTVSPost2010PropOp50
 70
     1
102
RTVSPost2010Prop51ColorIndex
 90
      256
102
RTVSPost2010Prop51ColorRGB
 90
-16777216
102
RTVSPost2010PropOp51
 70
     0
102
RTVSPost2010Prop52
140
1.0
102
RTVSPost2010PropOp52
 70
     0
102
RTVSPost2010Prop53
 90
        2
102
RTVSPost2010PropOp53
 70
     1
102
RTVSPost2010Prop54
  1
strokes_ogs.tif
102
RTVSPost2010PropOp54
 70
     1
102
RTVSPost2010Prop55
280
     0
102
RTVSPost2010PropOp55
 70
     1
102
RTVSPost2010Prop56
140
1.0
102
RTVSPost2010PropOp56
 70
     1
102
RTVSPost2010Prop57
140
1.0
102
RTVSPost2010PropOp57
 70
     1
  0
XRECORD
  5
3C7
102
{ACAD_REACTORS
330
3C6
102
}
330
3C6
100
AcDbXrecord
280
     1
102
RTVSPropertyOp0
 70
     1
102
RTVSPropertyOp1
 70
     1
102
RTVSPropertyOp2
 70
     1
102
RTVSPropertyOp3
 70
     1
102
RTVSPropertyOp4
 70
     1
102
RTVSPropertyOp5
 70
     1
102
RTVSPropertyOp6
 70
     1
102
RTVSPropertyOp7
 70
     1
102
RTVSPropertyOp8
 70
     1
102
RTVSPropertyOp9
 70
     1
102
RTVSPropertyOp10
 70
     1
102
RTVSPropertyOp11
 70
     1
102
RTVSPropertyOp12
 70
     1
102
RTVSPropertyOp13
 70
     1
102
RTVSPropertyOp14
 70
     1
102
RTVSPropertyOp15
 70
     1
102
RTVSPropertyOp16
 70
     1
102
RTVSPropertyOp17
 70
     1
102
RTVSPropertyOp18
 70
     1
102
RTVSPropertyOp19
 70
     1
102
RTVSPropertyOp20
 70
     1
102
RTVSPropertyOp21
 70
     1
102
RTVSPropertyOp22
 70
     1
102
RTVSPropertyOp23
 70
     1
102
RTVSPropertyOp24
 70
     1
102
RTVSPropertyOp25
 70
     1
102
RTVSPropertyOp26
 70
     1
102
RTVSPropertyOp27
 70
     1
102
RTVSPropertyOp28
 70
     1
102
RTVSPropertyOp29
 70
     1
102
RTVSPropertyOp30
 70
     1
102
RTVSPropertyOp31
 70
     1
102
RTVSPropertyOp32
 70
     1
102
RTVSPropertyOp33
 70
     1
102
RTVSPropertyOp34
 70
     1
102
RTVSPropertyOp35
 70
     1
102
RTVSPropertyOp36
 70
     1
102
RTVSPropertyOp37
 70
     1
102
RTVSPropertyOp38
 70
     1
102
RTVSPropertyOp39
 70
     1
102
RTVSPropertyOp40
 70
     1
102
RTVSPropertyOp41
 70
     1
102
RTVSPropertyOp42
 70
     1
102
RTVSPropertyOp43
 70
     1
102
RTVSPropertyOp44
 70
     1
102
RTVSPropertyOp45
 70
     1
102
RTVSPropertyOp46
 70
     1
102
RTVSPropertyOp47
 70
     1
102
RTVSPropertyOp48
 70
     1
102
RTVSPropertyOp49
 70
     1
102
RTVSPropertyOp50
 70
     1
102
RTVSPropertyOp51
 70
     0
102
RTVSPropertyOp52
 70
     0
102
RTVSPropertyOp53
 70
     1
102
RTVSPropertyOp54
 70
     1
102
RTVSPropertyOp55
 70
     1
102
RTVSPropertyOp56
 70
     1
102
RTVSPropertyOp57
 70
     1
102
RTVSPost2010Prop28
280
     0
102
RTVSPost2010PropOp28
 70
     1
102
RTVSPost2010Prop29
280
     1
102
RTVSPost2010PropOp29
 70
     1
102
RTVSPost2010Prop30
280
     1
102
RTVSPost2010PropOp30
 70
     1
102
RTVSPost2010Prop31
280
     0
102
RTVSPost2010PropOp31
 70
     1
102
RTVSPost2010Prop32
280
     0
102
RTVSPost2010PropOp32
 70
     1
102
RTVSPost2010Prop33
280
     0
102
RTVSPost2010PropOp33
 70
     1
102
RTVSPost2010Prop34
280
     0
102
RTVSPost2010PropOp34
 70
     1
102
RTVSPost2010Prop35
280
     0
102
RTVSPost2010PropOp35
 70
     1
102
RTVSPost2010Prop36
280
     0
102
RTVSPost2010PropOp36
 70
     1
102
RTVSPost2010Prop37
 90
       50
102
RTVSPost2010PropOp37
 70
     1
102
RTVSPost2010Prop38
140
0.0
102
RTVSPost2010PropOp38
 70
     1
102
RTVSPost2010Prop39
140
1.0
102
RTVSPost2010PropOp39
 70
     1
102
RTVSPost2010Prop40
 90
        0
102
RTVSPost2010PropOp40
 70
     1
102
RTVSPost2010Prop41ColorIndex
 90
       18
102
RTVSPost2010Prop41ColorRGB
 90
        0
102
RTVSPost2010PropOp41
 70
     1
102
RTVSPost2010Prop42
 90
       50
102
RTVSPost2010PropOp42
 70
     1
102
RTVSPost2010Prop43
 90
        3
102
RTVSPost2010PropOp43
 70
     1
102
RTVSPost2010Prop44ColorIndex
 90
        5
102
RTVSPost2010Prop44ColorRGB
 90
      255
102
RTVSPost2010PropOp44
 70
     1
102
RTVSPost2010Prop45
280
     0
102
RTVSPost2010PropOp45
 70
     1
102
RTVSPost2010Prop46
 90
       50
102
RTVSPost2010PropOp46
 70
     1
102
RTVSPost2010Prop47
 90
       50
102
RTVSPost2010PropOp47
 70
     1
102
RTVSPost2010Prop48
 90
       50
102
RTVSPost2010PropOp48
 70
     1
102
RTVSPost2010Prop49
280
     0
102
RTVSPost2010PropOp49
 70
     1
102
RTVSPost2010Prop50
 90
       50
102
RTVSPost2010PropOp50
 70
     1
102
RTVSPost2010Prop51ColorIndex
 90
      256
102
RTVSPost2010Prop51ColorRGB
 90
-16777216
102
RTVSPost2010PropOp51
 70
     0
102
RTVSPost2010Prop52
140
1.0
102
RTVSPost2010PropOp52
 70
     0
102
RTVSPost2010Prop53
 90
        2
102
RTVSPost2010PropOp53
 70
     1
102
RTVSPost2010Prop54
  1
strokes_ogs.tif
102
RTVSPost2010PropOp54
 70
     1
102
RTVSPost2010Prop55
280
     0
102
RTVSPost2010PropOp55
 70
     1
102
RTVSPost2010Prop56
140
1.0
102
RTVSPost2010PropOp56
 70
     1
102
RTVSPost2010Prop57
140
1.0
102
RTVSPost2010PropOp57
 70
     1
  0
XRECORD
  5
3C1
102
{ACAD_REACTORS
330
3C0
102
}
330
3C0
100
AcDbXrecord
280
     1
102
RTVSPropertyOp0
 70
     1
102
RTVSPropertyOp1
 70
     1
102
RTVSPropertyOp2
 70
     1
102
RTVSPropertyOp3
 70
     1
102
RTVSPropertyOp4
 70
     1
102
RTVSPropertyOp5
 70
     1
102
RTVSPropertyOp6
 70
     1
102
RTVSPropertyOp7
 70
     1
102
RTVSPropertyOp8
 70
     1
102
RTVSPropertyOp9
 70
     1
102
RTVSPropertyOp10
 70
     1
102
RTVSPropertyOp11
 70
     1
102
RTVSPropertyOp12
 70
     1
102
RTVSPropertyOp13
 70
     1
102
RTVSPropertyOp14
 70
     1
102
RTVSPropertyOp15
 70
     1
102
RTVSPropertyOp16
 70
     1
102
RTVSPropertyOp17
 70
     1
102
RTVSPropertyOp18
 70
     1
102
RTVSPropertyOp19
 70
     1
102
RTVSPropertyOp20
 70
     1
102
RTVSPropertyOp21
 70
     1
102
RTVSPropertyOp22
 70
     1
102
RTVSPropertyOp23
 70
     1
102
RTVSPropertyOp24
 70
     1
102
RTVSPropertyOp25
 70
     1
102
RTVSPropertyOp26
 70
     1
102
RTVSPropertyOp27
 70
     1
102
RTVSPropertyOp28
 70
     1
102
RTVSPropertyOp29
 70
     1
102
RTVSPropertyOp30
 70
     1
102
RTVSPropertyOp31
 70
     1
102
RTVSPropertyOp32
 70
     1
102
RTVSPropertyOp33
 70
     1
102
RTVSPropertyOp34
 70
     1
102
RTVSPropertyOp35
 70
     1
102
RTVSPropertyOp36
 70
     1
102
RTVSPropertyOp37
 70
     1
102
RTVSPropertyOp38
 70
     1
102
RTVSPropertyOp39
 70
     1
102
RTVSPropertyOp40
 70
     1
102
RTVSPropertyOp41
 70
     1
102
RTVSPropertyOp42
 70
     1
102
RTVSPropertyOp43
 70
     1
102
RTVSPropertyOp44
 70
     1
102
RTVSPropertyOp45
 70
     1
102
RTVSPropertyOp46
 70
     1
102
RTVSPropertyOp47
 70
     1
102
RTVSPropertyOp48
 70
     1
102
RTVSPropertyOp49
 70
     1
102
RTVSPropertyOp50
 70
     1
102
RTVSPropertyOp51
 70
     0
102
RTVSPropertyOp52
 70
     0
102
RTVSPropertyOp53
 70
     1
102
RTVSPropertyOp54
 70
     1
102
RTVSPropertyOp55
 70
     1
102
RTVSPropertyOp56
 70
     1
102
RTVSPropertyOp57
 70
     1
102
RTVSPost2010Prop28
280
     0
102
RTVSPost2010PropOp28
 70
     1
102
RTVSPost2010Prop29
280
     1
102
RTVSPost2010PropOp29
 70
     1
102
RTVSPost2010Prop30
280
     1
102
RTVSPost2010PropOp30
 70
     1
102
RTVSPost2010Prop31
280
     0
102
RTVSPost2010PropOp31
 70
     1
102
RTVSPost2010Prop32
280
     0
102
RTVSPost2010PropOp32
 70
     1
102
RTVSPost2010Prop33
280
     0
102
RTVSPost2010PropOp33
 70
     1
102
RTVSPost2010Prop34
280
     0
102
RTVSPost2010PropOp34
 70
     1
102
RTVSPost2010Prop35
280
     0
102
RTVSPost2010PropOp35
 70
     1
102
RTVSPost2010Prop36
280
     0
102
RTVSPost2010PropOp36
 70
     1
102
RTVSPost2010Prop37
 90
       50
102
RTVSPost2010PropOp37
 70
     1
102
RTVSPost2010Prop38
140
0.0
102
RTVSPost2010PropOp38
 70
     1
102
RTVSPost2010Prop39
140
1.0
102
RTVSPost2010PropOp39
 70
     1
102
RTVSPost2010Prop40
 90
        0
102
RTVSPost2010PropOp40
 70
     1
102
RTVSPost2010Prop41ColorIndex
 90
       18
102
RTVSPost2010Prop41ColorRGB
 90
        0
102
RTVSPost2010PropOp41
 70
     1
102
RTVSPost2010Prop42
 90
       50
102
RTVSPost2010PropOp42
 70
     1
102
RTVSPost2010Prop43
 90
        3
102
RTVSPost2010PropOp43
 70
     1
102
RTVSPost2010Prop44ColorIndex
 90
        5
102
RTVSPost2010Prop44ColorRGB
 90
      255
102
RTVSPost2010PropOp44
 70
     1
102
RTVSPost2010Prop45
280
     0
102
RTVSPost2010PropOp45
 70
     1
102
RTVSPost2010Prop46
 90
       50
102
RTVSPost2010PropOp46
 70
     1
102
RTVSPost2010Prop47
 90
       50
102
RTVSPost2010PropOp47
 70
     1
102
RTVSPost2010Prop48
 90
       50
102
RTVSPost2010PropOp48
 70
     1
102
RTVSPost2010Prop49
280
     0
102
RTVSPost2010PropOp49
 70
     1
102
RTVSPost2010Prop50
 90
       50
102
RTVSPost2010PropOp50
 70
     1
102
RTVSPost2010Prop51ColorIndex
 90
      256
102
RTVSPost2010Prop51ColorRGB
 90
-16777216
102
RTVSPost2010PropOp51
 70
     0
102
RTVSPost2010Prop52
140
1.0
102
RTVSPost2010PropOp52
 70
     0
102
RTVSPost2010Prop53
 90
        2
102
RTVSPost2010PropOp53
 70
     1
102
RTVSPost2010Prop54
  1
strokes_ogs.tif
102
RTVSPost2010PropOp54
 70
     1
102
RTVSPost2010Prop55
280
     0
102
RTVSPost2010PropOp55
 70
     1
102
RTVSPost2010Prop56
140
1.0
102
RTVSPost2010PropOp56
 70
     1
102
RTVSPost2010Prop57
140
1.0
102
RTVSPost2010PropOp57
 70
     1
  0
XRECORD
  5
3C3
102
{ACAD_REACTORS
330
3C2
102
}
330
3C2
100
AcDbXrecord
280
     1
102
RTVSPropertyOp0
 70
     1
102
RTVSPropertyOp1
 70
     1
102
RTVSPropertyOp2
 70
     1
102
RTVSPropertyOp3
 70
     1
102
RTVSPropertyOp4
 70
     1
102
RTVSPropertyOp5
 70
     1
102
RTVSPropertyOp6
 70
     1
102
RTVSPropertyOp7
 70
     1
102
RTVSPropertyOp8
 70
     1
102
RTVSPropertyOp9
 70
     1
102
RTVSPropertyOp10
 70
     1
102
RTVSPropertyOp11
 70
     1
102
RTVSPropertyOp12
 70
     1
102
RTVSPropertyOp13
 70
     1
102
RTVSPropertyOp14
 70
     1
102
RTVSPropertyOp15
 70
     1
102
RTVSPropertyOp16
 70
     1
102
RTVSPropertyOp17
 70
     1
102
RTVSPropertyOp18
 70
     1
102
RTVSPropertyOp19
 70
     1
102
RTVSPropertyOp20
 70
     1
102
RTVSPropertyOp21
 70
     1
102
RTVSPropertyOp22
 70
     1
102
RTVSPropertyOp23
 70
     1
102
RTVSPropertyOp24
 70
     1
102
RTVSPropertyOp25
 70
     1
102
RTVSPropertyOp26
 70
     1
102
RTVSPropertyOp27
 70
     1
102
RTVSPropertyOp28
 70
     1
102
RTVSPropertyOp29
 70
     1
102
RTVSPropertyOp30
 70
     1
102
RTVSPropertyOp31
 70
     1
102
RTVSPropertyOp32
 70
     1
102
RTVSPropertyOp33
 70
     1
102
RTVSPropertyOp34
 70
     1
102
RTVSPropertyOp35
 70
     1
102
RTVSPropertyOp36
 70
     1
102
RTVSPropertyOp37
 70
     1
102
RTVSPropertyOp38
 70
     1
102
RTVSPropertyOp39
 70
     1
102
RTVSPropertyOp40
 70
     1
102
RTVSPropertyOp41
 70
     1
102
RTVSPropertyOp42
 70
     1
102
RTVSPropertyOp43
 70
     1
102
RTVSPropertyOp44
 70
     1
102
RTVSPropertyOp45
 70
     1
102
RTVSPropertyOp46
 70
     1
102
RTVSPropertyOp47
 70
     1
102
RTVSPropertyOp48
 70
     1
102
RTVSPropertyOp49
 70
     1
102
RTVSPropertyOp50
 70
     1
102
RTVSPropertyOp51
 70
     0
102
RTVSPropertyOp52
 70
     0
102
RTVSPropertyOp53
 70
     1
102
RTVSPropertyOp54
 70
     1
102
RTVSPropertyOp55
 70
     1
102
RTVSPropertyOp56
 70
     1
102
RTVSPropertyOp57
 70
     1
102
RTVSPost2010Prop28
280
     0
102
RTVSPost2010PropOp28
 70
     1
102
RTVSPost2010Prop29
280
     1
102
RTVSPost2010PropOp29
 70
     1
102
RTVSPost2010Prop30
280
     1
102
RTVSPost2010PropOp30
 70
     1
102
RTVSPost2010Prop31
280
     0
102
RTVSPost2010PropOp31
 70
     1
102
RTVSPost2010Prop32
280
     0
102
RTVSPost2010PropOp32
 70
     1
102
RTVSPost2010Prop33
280
     0
102
RTVSPost2010PropOp33
 70
     1
102
RTVSPost2010Prop34
280
     0
102
RTVSPost2010PropOp34
 70
     1
102
RTVSPost2010Prop35
280
     0
102
RTVSPost2010PropOp35
 70
     1
102
RTVSPost2010Prop36
280
     0
102
RTVSPost2010PropOp36
 70
     1
102
RTVSPost2010Prop37
 90
       50
102
RTVSPost2010PropOp37
 70
     1
102
RTVSPost2010Prop38
140
0.0
102
RTVSPost2010PropOp38
 70
     1
102
RTVSPost2010Prop39
140
1.0
102
RTVSPost2010PropOp39
 70
     1
102
RTVSPost2010Prop40
 90
        0
102
RTVSPost2010PropOp40
 70
     1
102
RTVSPost2010Prop41ColorIndex
 90
       18
102
RTVSPost2010Prop41ColorRGB
 90
        0
102
RTVSPost2010PropOp41
 70
     1
102
RTVSPost2010Prop42
 90
       50
102
RTVSPost2010PropOp42
 70
     1
102
RTVSPost2010Prop43
 90
        3
102
RTVSPost2010PropOp43
 70
     1
102
RTVSPost2010Prop44ColorIndex
 90
        5
102
RTVSPost2010Prop44ColorRGB
 90
      255
102
RTVSPost2010PropOp44
 70
     1
102
RTVSPost2010Prop45
280
     0
102
RTVSPost2010PropOp45
 70
     1
102
RTVSPost2010Prop46
 90
       50
102
RTVSPost2010PropOp46
 70
     1
102
RTVSPost2010Prop47
 90
       50
102
RTVSPost2010PropOp47
 70
     1
102
RTVSPost2010Prop48
 90
       50
102
RTVSPost2010PropOp48
 70
     1
102
RTVSPost2010Prop49
280
     0
102
RTVSPost2010PropOp49
 70
     1
102
RTVSPost2010Prop50
 90
       50
102
RTVSPost2010PropOp50
 70
     1
102
RTVSPost2010Prop51ColorIndex
 90
      256
102
RTVSPost2010Prop51ColorRGB
 90
-16777216
102
RTVSPost2010PropOp51
 70
     0
102
RTVSPost2010Prop52
140
1.0
102
RTVSPost2010PropOp52
 70
     0
102
RTVSPost2010Prop53
 90
        2
102
RTVSPost2010PropOp53
 70
     1
102
RTVSPost2010Prop54
  1
strokes_ogs.tif
102
RTVSPost2010PropOp54
 70
     1
102
RTVSPost2010Prop55
280
     0
102
RTVSPost2010PropOp55
 70
     1
102
RTVSPost2010Prop56
140
1.0
102
RTVSPost2010PropOp56
 70
     1
102
RTVSPost2010Prop57
140
1.0
102
RTVSPost2010PropOp57
 70
     1
  0
XRECORD
  5
3B3
102
{ACAD_REACTORS
330
3B2
102
}
330
3B2
100
AcDbXrecord
280
     1
102
RTVSPropertyOp0
 70
     1
102
RTVSPropertyOp1
 70
     1
102
RTVSPropertyOp2
 70
     1
102
RTVSPropertyOp3
 70
     1
102
RTVSPropertyOp4
 70
     1
102
RTVSPropertyOp5
 70
     1
102
RTVSPropertyOp6
 70
     1
102
RTVSPropertyOp7
 70
     1
102
RTVSPropertyOp8
 70
     1
102
RTVSPropertyOp9
 70
     1
102
RTVSPropertyOp10
 70
     1
102
RTVSPropertyOp11
 70
     1
102
RTVSPropertyOp12
 70
     1
102
RTVSPropertyOp13
 70
     1
102
RTVSPropertyOp14
 70
     1
102
RTVSPropertyOp15
 70
     1
102
RTVSPropertyOp16
 70
     1
102
RTVSPropertyOp17
 70
     1
102
RTVSPropertyOp18
 70
     1
102
RTVSPropertyOp19
 70
     1
102
RTVSPropertyOp20
 70
     1
102
RTVSPropertyOp21
 70
     1
102
RTVSPropertyOp22
 70
     1
102
RTVSPropertyOp23
 70
     1
102
RTVSPropertyOp24
 70
     1
102
RTVSPropertyOp25
 70
     1
102
RTVSPropertyOp26
 70
     1
102
RTVSPropertyOp27
 70
     1
102
RTVSPropertyOp28
 70
     1
102
RTVSPropertyOp29
 70
     1
102
RTVSPropertyOp30
 70
     1
102
RTVSPropertyOp31
 70
     1
102
RTVSPropertyOp32
 70
     1
102
RTVSPropertyOp33
 70
     1
102
RTVSPropertyOp34
 70
     1
102
RTVSPropertyOp35
 70
     1
102
RTVSPropertyOp36
 70
     1
102
RTVSPropertyOp37
 70
     1
102
RTVSPropertyOp38
 70
     1
102
RTVSPropertyOp39
 70
     1
102
RTVSPropertyOp40
 70
     1
102
RTVSPropertyOp41
 70
     1
102
RTVSPropertyOp42
 70
     1
102
RTVSPropertyOp43
 70
     1
102
RTVSPropertyOp44
 70
     1
102
RTVSPropertyOp45
 70
     1
102
RTVSPropertyOp46
 70
     1
102
RTVSPropertyOp47
 70
     1
102
RTVSPropertyOp48
 70
     1
102
RTVSPropertyOp49
 70
     1
102
RTVSPropertyOp50
 70
     1
102
RTVSPropertyOp51
 70
     0
102
RTVSPropertyOp52
 70
     0
102
RTVSPropertyOp53
 70
     1
102
RTVSPropertyOp54
 70
     1
102
RTVSPropertyOp55
 70
     1
102
RTVSPropertyOp56
 70
     1
102
RTVSPropertyOp57
 70
     1
102
RTVSPost2010Prop28
280
     0
102
RTVSPost2010PropOp28
 70
     1
102
RTVSPost2010Prop29
280
     1
102
RTVSPost2010PropOp29
 70
     1
102
RTVSPost2010Prop30
280
     1
102
RTVSPost2010PropOp30
 70
     1
102
RTVSPost2010Prop31
280
     0
102
RTVSPost2010PropOp31
 70
     1
102
RTVSPost2010Prop32
280
     0
102
RTVSPost2010PropOp32
 70
     1
102
RTVSPost2010Prop33
280
     0
102
RTVSPost2010PropOp33
 70
     1
102
RTVSPost2010Prop34
280
     0
102
RTVSPost2010PropOp34
 70
     1
102
RTVSPost2010Prop35
280
     0
102
RTVSPost2010PropOp35
 70
     1
102
RTVSPost2010Prop36
280
     0
102
RTVSPost2010PropOp36
 70
     1
102
RTVSPost2010Prop37
 90
       50
102
RTVSPost2010PropOp37
 70
     1
102
RTVSPost2010Prop38
140
0.0
102
RTVSPost2010PropOp38
 70
     1
102
RTVSPost2010Prop39
140
1.0
102
RTVSPost2010PropOp39
 70
     1
102
RTVSPost2010Prop40
 90
        0
102
RTVSPost2010PropOp40
 70
     1
102
RTVSPost2010Prop41ColorIndex
 90
       18
102
RTVSPost2010Prop41ColorRGB
 90
        0
102
RTVSPost2010PropOp41
 70
     1
102
RTVSPost2010Prop42
 90
       50
102
RTVSPost2010PropOp42
 70
     1
102
RTVSPost2010Prop43
 90
        3
102
RTVSPost2010PropOp43
 70
     1
102
RTVSPost2010Prop44ColorIndex
 90
        5
102
RTVSPost2010Prop44ColorRGB
 90
      255
102
RTVSPost2010PropOp44
 70
     1
102
RTVSPost2010Prop45
280
     0
102
RTVSPost2010PropOp45
 70
     1
102
RTVSPost2010Prop46
 90
       50
102
RTVSPost2010PropOp46
 70
     1
102
RTVSPost2010Prop47
 90
       50
102
RTVSPost2010PropOp47
 70
     1
102
RTVSPost2010Prop48
 90
       50
102
RTVSPost2010PropOp48
 70
     1
102
RTVSPost2010Prop49
280
     0
102
RTVSPost2010PropOp49
 70
     1
102
RTVSPost2010Prop50
 90
       50
102
RTVSPost2010PropOp50
 70
     1
102
RTVSPost2010Prop51ColorIndex
 90
      256
102
RTVSPost2010Prop51ColorRGB
 90
-16777216
102
RTVSPost2010PropOp51
 70
     0
102
RTVSPost2010Prop52
140
1.0
102
RTVSPost2010PropOp52
 70
     0
102
RTVSPost2010Prop53
 90
        2
102
RTVSPost2010PropOp53
 70
     1
102
RTVSPost2010Prop54
  1
strokes_ogs.tif
102
RTVSPost2010PropOp54
 70
     1
102
RTVSPost2010Prop55
280
     0
102
RTVSPost2010PropOp55
 70
     1
102
RTVSPost2010Prop56
140
1.0
102
RTVSPost2010PropOp56
 70
     1
102
RTVSPost2010Prop57
140
1.0
102
RTVSPost2010PropOp57
 70
     1
  0
XRECORD
  5
3A5
102
{ACAD_REACTORS
330
3A4
102
}
330
3A4
100
AcDbXrecord
280
     1
102
RTVSPropertyOp0
 70
     1
102
RTVSPropertyOp1
 70
     1
102
RTVSPropertyOp2
 70
     1
102
RTVSPropertyOp3
 70
     1
102
RTVSPropertyOp4
 70
     1
102
RTVSPropertyOp5
 70
     1
102
RTVSPropertyOp6
 70
     1
102
RTVSPropertyOp7
 70
     1
102
RTVSPropertyOp8
 70
     1
102
RTVSPropertyOp9
 70
     1
102
RTVSPropertyOp10
 70
     1
102
RTVSPropertyOp11
 70
     1
102
RTVSPropertyOp12
 70
     1
102
RTVSPropertyOp13
 70
     1
102
RTVSPropertyOp14
 70
     1
102
RTVSPropertyOp15
 70
     1
102
RTVSPropertyOp16
 70
     1
102
RTVSPropertyOp17
 70
     1
102
RTVSPropertyOp18
 70
     1
102
RTVSPropertyOp19
 70
     1
102
RTVSPropertyOp20
 70
     1
102
RTVSPropertyOp21
 70
     1
102
RTVSPropertyOp22
 70
     1
102
RTVSPropertyOp23
 70
     1
102
RTVSPropertyOp24
 70
     1
102
RTVSPropertyOp25
 70
     1
102
RTVSPropertyOp26
 70
     1
102
RTVSPropertyOp27
 70
     1
102
RTVSPropertyOp28
 70
     1
102
RTVSPropertyOp29
 70
     1
102
RTVSPropertyOp30
 70
     1
102
RTVSPropertyOp31
 70
     1
102
RTVSPropertyOp32
 70
     1
102
RTVSPropertyOp33
 70
     1
102
RTVSPropertyOp34
 70
     1
102
RTVSPropertyOp35
 70
     1
102
RTVSPropertyOp36
 70
     1
102
RTVSPropertyOp37
 70
     1
102
RTVSPropertyOp38
 70
     1
102
RTVSPropertyOp39
 70
     1
102
RTVSPropertyOp40
 70
     1
102
RTVSPropertyOp41
 70
     1
102
RTVSPropertyOp42
 70
     1
102
RTVSPropertyOp43
 70
     1
102
RTVSPropertyOp44
 70
     1
102
RTVSPropertyOp45
 70
     1
102
RTVSPropertyOp46
 70
     1
102
RTVSPropertyOp47
 70
     1
102
RTVSPropertyOp48
 70
     1
102
RTVSPropertyOp49
 70
     1
102
RTVSPropertyOp50
 70
     1
102
RTVSPropertyOp51
 70
     0
102
RTVSPropertyOp52
 70
     0
102
RTVSPropertyOp53
 70
     1
102
RTVSPropertyOp54
 70
     1
102
RTVSPropertyOp55
 70
     1
102
RTVSPropertyOp56
 70
     1
102
RTVSPropertyOp57
 70
     1
102
RTVSPost2010Prop28
280
     0
102
RTVSPost2010PropOp28
 70
     1
102
RTVSPost2010Prop29
280
     1
102
RTVSPost2010PropOp29
 70
     1
102
RTVSPost2010Prop30
280
     1
102
RTVSPost2010PropOp30
 70
     1
102
RTVSPost2010Prop31
280
     0
102
RTVSPost2010PropOp31
 70
     1
102
RTVSPost2010Prop32
280
     0
102
RTVSPost2010PropOp32
 70
     1
102
RTVSPost2010Prop33
280
     0
102
RTVSPost2010PropOp33
 70
     1
102
RTVSPost2010Prop34
280
     0
102
RTVSPost2010PropOp34
 70
     1
102
RTVSPost2010Prop35
280
     0
102
RTVSPost2010PropOp35
 70
     1
102
RTVSPost2010Prop36
280
     0
102
RTVSPost2010PropOp36
 70
     1
102
RTVSPost2010Prop37
 90
       50
102
RTVSPost2010PropOp37
 70
     1
102
RTVSPost2010Prop38
140
0.0
102
RTVSPost2010PropOp38
 70
     1
102
RTVSPost2010Prop39
140
1.0
102
RTVSPost2010PropOp39
 70
     1
102
RTVSPost2010Prop40
 90
        0
102
RTVSPost2010PropOp40
 70
     1
102
RTVSPost2010Prop41ColorIndex
 90
       18
102
RTVSPost2010Prop41ColorRGB
 90
        0
102
RTVSPost2010PropOp41
 70
     1
102
RTVSPost2010Prop42
 90
       50
102
RTVSPost2010PropOp42
 70
     1
102
RTVSPost2010Prop43
 90
        3
102
RTVSPost2010PropOp43
 70
     1
102
RTVSPost2010Prop44ColorIndex
 90
        5
102
RTVSPost2010Prop44ColorRGB
 90
      255
102
RTVSPost2010PropOp44
 70
     1
102
RTVSPost2010Prop45
280
     0
102
RTVSPost2010PropOp45
 70
     1
102
RTVSPost2010Prop46
 90
       50
102
RTVSPost2010PropOp46
 70
     1
102
RTVSPost2010Prop47
 90
       50
102
RTVSPost2010PropOp47
 70
     1
102
RTVSPost2010Prop48
 90
       50
102
RTVSPost2010PropOp48
 70
     1
102
RTVSPost2010Prop49
280
     0
102
RTVSPost2010PropOp49
 70
     1
102
RTVSPost2010Prop50
 90
       50
102
RTVSPost2010PropOp50
 70
     1
102
RTVSPost2010Prop51ColorIndex
 90
      256
102
RTVSPost2010Prop51ColorRGB
 90
-16777216
102
RTVSPost2010PropOp51
 70
     0
102
RTVSPost2010Prop52
140
1.0
102
RTVSPost2010PropOp52
 70
     0
102
RTVSPost2010Prop53
 90
        2
102
RTVSPost2010PropOp53
 70
     1
102
RTVSPost2010Prop54
  1
strokes_ogs.tif
102
RTVSPost2010PropOp54
 70
     1
102
RTVSPost2010Prop55
280
     0
102
RTVSPost2010PropOp55
 70
     1
102
RTVSPost2010Prop56
140
1.0
102
RTVSPost2010PropOp56
 70
     1
102
RTVSPost2010Prop57
140
1.0
102
RTVSPost2010PropOp57
 70
     1
  0
XRECORD
  5
3C5
102
{ACAD_REACTORS
330
3C4
102
}
330
3C4
100
AcDbXrecord
280
     1
102
RTVSPropertyOp0
 70
     1
102
RTVSPropertyOp1
 70
     1
102
RTVSPropertyOp2
 70
     1
102
RTVSPropertyOp3
 70
     1
102
RTVSPropertyOp4
 70
     1
102
RTVSPropertyOp5
 70
     1
102
RTVSPropertyOp6
 70
     1
102
RTVSPropertyOp7
 70
     1
102
RTVSPropertyOp8
 70
     1
102
RTVSPropertyOp9
 70
     1
102
RTVSPropertyOp10
 70
     1
102
RTVSPropertyOp11
 70
     1
102
RTVSPropertyOp12
 70
     1
102
RTVSPropertyOp13
 70
     1
102
RTVSPropertyOp14
 70
     1
102
RTVSPropertyOp15
 70
     1
102
RTVSPropertyOp16
 70
     1
102
RTVSPropertyOp17
 70
     1
102
RTVSPropertyOp18
 70
     1
102
RTVSPropertyOp19
 70
     1
102
RTVSPropertyOp20
 70
     1
102
RTVSPropertyOp21
 70
     1
102
RTVSPropertyOp22
 70
     1
102
RTVSPropertyOp23
 70
     1
102
RTVSPropertyOp24
 70
     1
102
RTVSPropertyOp25
 70
     1
102
RTVSPropertyOp26
 70
     1
102
RTVSPropertyOp27
 70
     1
102
RTVSPropertyOp28
 70
     1
102
RTVSPropertyOp29
 70
     1
102
RTVSPropertyOp30
 70
     1
102
RTVSPropertyOp31
 70
     1
102
RTVSPropertyOp32
 70
     1
102
RTVSPropertyOp33
 70
     1
102
RTVSPropertyOp34
 70
     1
102
RTVSPropertyOp35
 70
     1
102
RTVSPropertyOp36
 70
     1
102
RTVSPropertyOp37
 70
     1
102
RTVSPropertyOp38
 70
     1
102
RTVSPropertyOp39
 70
     1
102
RTVSPropertyOp40
 70
     1
102
RTVSPropertyOp41
 70
     1
102
RTVSPropertyOp42
 70
     1
102
RTVSPropertyOp43
 70
     1
102
RTVSPropertyOp44
 70
     1
102
RTVSPropertyOp45
 70
     1
102
RTVSPropertyOp46
 70
     1
102
RTVSPropertyOp47
 70
     1
102
RTVSPropertyOp48
 70
     1
102
RTVSPropertyOp49
 70
     1
102
RTVSPropertyOp50
 70
     1
102
RTVSPropertyOp51
 70
     0
102
RTVSPropertyOp52
 70
     0
102
RTVSPropertyOp53
 70
     1
102
RTVSPropertyOp54
 70
     1
102
RTVSPropertyOp55
 70
     1
102
RTVSPropertyOp56
 70
     1
102
RTVSPropertyOp57
 70
     1
102
RTVSPost2010Prop28
280
     0
102
RTVSPost2010PropOp28
 70
     1
102
RTVSPost2010Prop29
280
     1
102
RTVSPost2010PropOp29
 70
     1
102
RTVSPost2010Prop30
280
     1
102
RTVSPost2010PropOp30
 70
     1
102
RTVSPost2010Prop31
280
     0
102
RTVSPost2010PropOp31
 70
     1
102
RTVSPost2010Prop32
280
     0
102
RTVSPost2010PropOp32
 70
     1
102
RTVSPost2010Prop33
280
     0
102
RTVSPost2010PropOp33
 70
     1
102
RTVSPost2010Prop34
280
     0
102
RTVSPost2010PropOp34
 70
     1
102
RTVSPost2010Prop35
280
     0
102
RTVSPost2010PropOp35
 70
     1
102
RTVSPost2010Prop36
280
     0
102
RTVSPost2010PropOp36
 70
     1
102
RTVSPost2010Prop37
 90
       50
102
RTVSPost2010PropOp37
 70
     1
102
RTVSPost2010Prop38
140
0.0
102
RTVSPost2010PropOp38
 70
     1
102
RTVSPost2010Prop39
140
1.0
102
RTVSPost2010PropOp39
 70
     1
102
RTVSPost2010Prop40
 90
        0
102
RTVSPost2010PropOp40
 70
     1
102
RTVSPost2010Prop41ColorIndex
 90
       18
102
RTVSPost2010Prop41ColorRGB
 90
        0
102
RTVSPost2010PropOp41
 70
     1
102
RTVSPost2010Prop42
 90
       50
102
RTVSPost2010PropOp42
 70
     1
102
RTVSPost2010Prop43
 90
        3
102
RTVSPost2010PropOp43
 70
     1
102
RTVSPost2010Prop44ColorIndex
 90
        5
102
RTVSPost2010Prop44ColorRGB
 90
      255
102
RTVSPost2010PropOp44
 70
     1
102
RTVSPost2010Prop45
280
     0
102
RTVSPost2010PropOp45
 70
     1
102
RTVSPost2010Prop46
 90
       50
102
RTVSPost2010PropOp46
 70
     1
102
RTVSPost2010Prop47
 90
       50
102
RTVSPost2010PropOp47
 70
     1
102
RTVSPost2010Prop48
 90
       50
102
RTVSPost2010PropOp48
 70
     1
102
RTVSPost2010Prop49
280
     0
102
RTVSPost2010PropOp49
 70
     1
102
RTVSPost2010Prop50
 90
       50
102
RTVSPost2010PropOp50
 70
     1
102
RTVSPost2010Prop51ColorIndex
 90
      256
102
RTVSPost2010Prop51ColorRGB
 90
-16777216
102
RTVSPost2010PropOp51
 70
     0
102
RTVSPost2010Prop52
140
1.0
102
RTVSPost2010PropOp52
 70
     0
102
RTVSPost2010Prop53
 90
        2
102
RTVSPost2010PropOp53
 70
     1
102
RTVSPost2010Prop54
  1
strokes_ogs.tif
102
RTVSPost2010PropOp54
 70
     1
102
RTVSPost2010Prop55
280
     0
102
RTVSPost2010PropOp55
 70
     1
102
RTVSPost2010Prop56
140
1.0
102
RTVSPost2010PropOp56
 70
     1
102
RTVSPost2010Prop57
140
1.0
102
RTVSPost2010PropOp57
 70
     1
  0
ENDSEC
  0
EOF
