  0
SECTION
  2
HEADER
  9
$ACADVER
  1
AC1009
  9
$INSBASE
 10
0.000000000
 20
0.000000000
  9
$EXTMIN
 10
-20.184755435
 20
-21.159525994
  9
$EXTMAX
 10
222.032309783
 20
232.754785938
  9
$LIMMIN
 10
-20.184755435
 20
-21.159525994
  9
$LIMMAX
 10
222.032309783
 20
232.754785938
  9
$SNAPBASE
 10
0.000000000
 20
0.000000000
  9
$SNAPANG
 50
0.000000000
  9
$SNAPSTYLE
 70
0
  9
$GRIDMODE
 70
0
  9
$GRIDUNIT
 10
0.000000000
 20
0.000000000
  9
$DIMEXO
 40
0.000000000
  9
$DIMDLI
 40
8.000000000
  9
$DIMDLE
 40
0.000000000
  9
$DIMEXE
 40
1.000000000
  9
$DIMTIH
 70
1
  9
$DIMTOH
 70
1
  9
$DIMTAD
 70
2
  9
$DIMZIN
 70
0
  9
$FILLETRAD
 40
1.000000000
  9
$CHAMFERA
 40
1.000000000
  9
$CHAMFERB
 40
1.000000000
  9
$TDCREATE
 40
2454188.499293982
  9
$TDUPDATE
 40
2454188.499293982
  9
$ANGBASE
 50
0.000000000
  9
$ANGDIR
 70
0
  0
ENDSEC
  0
SECTION
  2
TABLES
  0
TABLE
  2
LTYPE
 70
3
  0
LTYPE
  2
CENTER
 70
64
  3
___ _ ___ _ __
 72
65
 73
4
 40
13.000000000
 49
8.500000000
 49
-1.500000000
 49
1.500000000
 49
-1.500000000
  0
LTYPE
  2
CONTINUOUS
 70
64
  3
______________
 72
65
 73
0
 40
0.000000000
  0
LTYPE
  2
DIVIDE
 70
64
  3
___ . . ___ . 
 72
65
 73
6
 40
12.999999523
 49
5.199999809
 49
-2.599999905
 49
0.000000000
 49
-2.599999905
 49
0.000000000
 49
-2.599999905
  0
ENDTAB
  0
TABLE
  2
LAYER
 70
1
  0
LAYER
  2
1
 70
0
 62
7
  6
CONTINUOUS
  0
LAYER
  2
_CONSTR
 70
0
 62
5
  6
CONTINUOUS
  0
ENDTAB
  0
TABLE
  2
STYLE
 70
1
  0
STYLE
  2
STANDARD
 70
64
 40
0.000000000
 41
1.000000000
 50
0.000000000
 71
0
 42
3.200000000
  3
TXT
  4
EXTFONT
  0
ENDTAB
  0
TABLE
  2
VIEW
 70
0
  0
ENDTAB
  0
ENDSEC
  0
SECTION
  2
BLOCKS
  0
BLOCK
  8
0
  2
*D6
 70
65
 10
0.000000000
 20
0.000000000
  3
*D
  0
TEXT
  8
1
 62
4
  6
CONTINUOUS
 72
5
 10
153.815954348
 20
156.084710145
 40
2.800000000
  1
(
 41
1.800001800
 11
155.495954348
 21
156.084710145
  0
TEXT
  8
1
 62
4
  6
CONTINUOUS
 72
5
 10
156.335954348
 20
156.084710145
 40
2.800000000
  1
77.8
 41
1.099999267
 11
165.575954348
 21
156.084710145
  0
TEXT
  8
1
 62
4
  6
CONTINUOUS
 72
5
 10
166.415954348
 20
156.084710145
 40
2.800000000
  1
)
 41
1.800001800
 11
168.095954348
 21
156.084710145
  0
LINE
  8
1
 62
4
  6
CONTINUOUS
 10
122.047554348
 20
178.079710145
 11
122.047554348
 21
151.879710145
  0
POLYLINE
  8
1
 62
4
  6
CONTINUOUS
 66
1
  0
VERTEX
  8
1
 10
124.047554348
 20
154.179710145
  0
VERTEX
  8
1
 10
122.047554348
 20
153.879710145
  0
VERTEX
  8
1
 10
124.047554348
 20
153.579710145
  0
SEQEND
  8
1
  0
LINE
  8
1
 62
4
  6
CONTINUOUS
 10
122.047554348
 20
153.879710145
 11
199.847554348
 21
153.879710145
  0
POLYLINE
  8
1
 62
4
  6
CONTINUOUS
 66
1
  0
VERTEX
  8
1
 10
197.847554348
 20
153.579710145
  0
VERTEX
  8
1
 10
199.847554348
 20
153.879710145
  0
VERTEX
  8
1
 10
197.847554348
 20
154.179710145
  0
SEQEND
  8
1
  0
LINE
  8
1
 62
4
  6
CONTINUOUS
 10
199.847554348
 20
183.179710145
 11
199.847554348
 21
151.879710145
  0
ENDBLK
  8
0
  0
BLOCK
  8
0
  2
*D33
 70
65
 10
0.000000000
 20
0.000000000
  3
*D
  0
TEXT
  8
1
 62
4
  6
CONTINUOUS
 72
5
 10
109.842554348
 20
180.096510145
 40
2.800000000
  1
φ
 41
1.270648030
 50
90.000000000
 11
109.842554348
 21
183.456510145
  0
TEXT
  8
1
 62
4
  6
CONTINUOUS
 72
5
 10
109.842554348
 20
185.136510145
 40
2.800000000
  1
25.4
 41
1.099999267
 50
90.000000000
 11
109.842554348
 21
194.376510145
  0
TEXT
  8
1
 62
4
  6
CONTINUOUS
 72
5
 10
108.078554348
 20
195.216510145
 40
1.400000000
  1
 0
 41
2.333335926
 50
90.000000000
 11
108.078554348
 21
198.156510145
  0
TEXT
  8
1
 62
4
  6
CONTINUOUS
 72
5
 10
110.220554348
 20
195.216510145
 40
1.400000000
  1
-0.01
 41
1.710000684
 50
90.000000000
 11
110.220554348
 21
203.196510145
  0
LINE
  8
1
 62
4
  6
CONTINUOUS
 10
122.247554348
 20
203.279710145
 11
110.047554348
 21
203.279710145
  0
POLYLINE
  8
1
 62
4
  6
CONTINUOUS
 66
1
  0
VERTEX
  8
1
 10
112.347554348
 20
201.279710145
  0
VERTEX
  8
1
 10
112.047554348
 20
203.279710145
  0
VERTEX
  8
1
 10
111.747554348
 20
201.279710145
  0
SEQEND
  8
1
  0
LINE
  8
1
 62
4
  6
CONTINUOUS
 10
112.047554348
 20
203.279710145
 11
112.047554348
 21
177.879710145
  0
POLYLINE
  8
1
 62
4
  6
CONTINUOUS
 66
1
  0
VERTEX
  8
1
 10
111.747554348
 20
179.879710145
  0
VERTEX
  8
1
 10
112.047554348
 20
177.879710145
  0
VERTEX
  8
1
 10
112.347554348
 20
179.879710145
  0
SEQEND
  8
1
  0
LINE
  8
1
 62
4
  6
CONTINUOUS
 10
122.247554348
 20
177.879710145
 11
110.047554348
 21
177.879710145
  0
ENDBLK
  8
0
  0
BLOCK
  8
0
  2
*D35
 70
65
 10
0.000000000
 20
0.000000000
  3
*D
  0
TEXT
  8
1
 62
4
  6
CONTINUOUS
 72
5
 10
187.254554348
 20
164.084710145
 40
2.800000000
  1
(
 41
1.500001500
 11
188.654554348
 21
164.084710145
  0
TEXT
  8
1
 62
4
  6
CONTINUOUS
 72
5
 10
189.354554348
 20
164.084710145
 40
2.800000000
  1
13.3
 41
1.031249098
 11
197.054554348
 21
164.084710145
  0
TEXT
  8
1
 62
4
  6
CONTINUOUS
 72
5
 10
197.754554348
 20
164.084710145
 40
2.800000000
  1
)
 41
1.500001500
 11
199.154554348
 21
164.084710145
  0
POLYLINE
  8
1
 62
4
  6
CONTINUOUS
 66
1
  0
VERTEX
  8
1
 10
188.547554348
 20
162.179710145
  0
VERTEX
  8
1
 10
186.547554348
 20
161.879710145
  0
VERTEX
  8
1
 10
188.547554348
 20
161.579710145
  0
SEQEND
  8
1
  0
LINE
  8
1
 62
4
  6
CONTINUOUS
 10
186.547554348
 20
161.879710145
 11
199.847554348
 21
161.879710145
  0
POLYLINE
  8
1
 62
4
  6
CONTINUOUS
 66
1
  0
VERTEX
  8
1
 10
197.847554348
 20
161.579710145
  0
VERTEX
  8
1
 10
199.847554348
 20
161.879710145
  0
VERTEX
  8
1
 10
197.847554348
 20
162.179710145
  0
SEQEND
  8
1
  0
LINE
  8
1
 62
4
  6
CONTINUOUS
 10
199.847554348
 20
183.179710145
 11
199.847554348
 21
159.879710145
  0
ENDBLK
  8
0
  0
BLOCK
  8
0
  2
*D36
 70
65
 10
0.000000000
 20
0.000000000
  3
*D
  0
TEXT
  8
1
 62
4
  6
CONTINUOUS
 72
5
 10
149.685954348
 20
164.084710145
 40
2.800000000
  1
64.5
 41
1.099999267
 11
158.925954348
 21
164.084710145
  0
LINE
  8
1
 62
4
  6
CONTINUOUS
 10
122.047554348
 20
178.079710145
 11
122.047554348
 21
159.879710145
  0
POLYLINE
  8
1
 62
4
  6
CONTINUOUS
 66
1
  0
VERTEX
  8
1
 10
124.047554348
 20
162.179710145
  0
VERTEX
  8
1
 10
122.047554348
 20
161.879710145
  0
VERTEX
  8
1
 10
124.047554348
 20
161.579710145
  0
SEQEND
  8
1
  0
LINE
  8
1
 62
4
  6
CONTINUOUS
 10
122.047554348
 20
161.879710145
 11
186.547554348
 21
161.879710145
  0
POLYLINE
  8
1
 62
4
  6
CONTINUOUS
 66
1
  0
VERTEX
  8
1
 10
184.547554348
 20
161.579710145
  0
VERTEX
  8
1
 10
186.547554348
 20
161.879710145
  0
VERTEX
  8
1
 10
184.547554348
 20
162.179710145
  0
SEQEND
  8
1
  0
LINE
  8
1
 62
4
  6
CONTINUOUS
 10
186.547554348
 20
178.079710145
 11
186.547554348
 21
159.879710145
  0
ENDBLK
  8
0
  0
ENDSEC
  0
SECTION
  2
ENTITIES
  0
LINE
  8
1
 62
7
  6
CONTINUOUS
 10
136.947554348
 20
196.927150574
 11
136.947554348
 21
184.232269716
  0
LINE
  8
1
 62
7
  6
CONTINUOUS
 10
136.947554348
 20
184.232269716
 11
140.347554348
 21
184.232269716
  0
LINE
  8
1
 62
7
  6
CONTINUOUS
 10
186.547554348
 20
178.079710145
 11
186.547554348
 21
203.079710145
  0
LINE
  8
1
 62
7
  6
CONTINUOUS
 10
122.247554348
 20
203.279710145
 11
186.347554348
 21
203.279710145
  0
LINE
  8
1
 62
4
  6
CONTINUOUS
 10
136.947554348
 20
196.927150574
 11
140.347554348
 21
184.232269716
  0
DIMENSION
  8
1
 62
4
  6
CONTINUOUS
  2
*D6
 70
0
 10
199.847554348
 20
153.879710145
 11
160.947554348
 21
153.879710145
 14
199.847554348
 24
183.179710145
 13
122.047554348
 23
178.079710145
 50
0.000000000
  0
LINE
  8
1
 62
1
  6
CONTINUOUS
 10
191.748516242
 20
199.129710145
 11
193.047554348
 21
198.379710145
  0
LINE
  8
1
 62
1
  6
CONTINUOUS
 10
193.047554348
 20
198.379710145
 11
199.447554348
 21
198.379710145
  0
LINE
  8
1
 62
7
  6
CONTINUOUS
 10
193.047554348
 20
199.129710145
 11
187.447554348
 21
199.129710145
  0
LINE
  8
1
 62
7
  6
CONTINUOUS
 10
187.447554348
 20
199.129710145
 11
187.447554348
 21
182.029710145
  0
LINE
  8
1
 62
7
  6
CONTINUOUS
 10
186.547554348
 20
198.979710145
 11
187.447554348
 21
198.979710145
  0
LINE
  8
1
 62
7
  6
CONTINUOUS
 10
199.847554348
 20
183.179710145
 11
199.847554348
 21
197.979710145
  0
LINE
  8
1
 62
7
  6
CONTINUOUS
 10
198.847554348
 20
198.979710145
 11
199.847554348
 21
197.979710145
  0
LINE
  8
1
 62
7
  6
CONTINUOUS
 10
193.047554348
 20
182.029710145
 11
193.047554348
 21
199.129710145
  0
LINE
  8
1
 62
7
  6
CONTINUOUS
 10
198.847554348
 20
198.979710145
 11
193.047554348
 21
198.979710145
  0
LINE
  8
1
 62
7
  6
CONTINUOUS
 10
198.847554348
 20
182.179710145
 11
193.047554348
 21
182.179710145
  0
LINE
  8
1
 62
7
  6
CONTINUOUS
 10
198.847554348
 20
182.179710145
 11
199.847554348
 21
183.179710145
  0
LINE
  8
1
 62
7
  6
CONTINUOUS
 10
186.547554348
 20
182.179710145
 11
187.447554348
 21
182.179710145
  0
LINE
  8
1
 62
7
  6
CONTINUOUS
 10
193.047554348
 20
182.029710145
 11
187.447554348
 21
182.029710145
  0
LINE
  8
1
 62
1
  6
CONTINUOUS
 10
193.047554348
 20
182.779710145
 11
199.447554348
 21
182.779710145
  0
LINE
  8
1
 62
1
  6
CONTINUOUS
 10
191.748516242
 20
182.029710145
 11
193.047554348
 21
182.779710145
  0
LINE
  8
1
 62
7
  6
CONTINUOUS
 10
198.847554348
 20
182.179710145
 11
198.847554348
 21
198.979710145
  0
LINE
  8
1
 62
4
  6
CONTINUOUS
 10
140.347554348
 20
196.927150574
 11
136.947554348
 21
184.232269716
  0
LINE
  8
1
 62
7
  6
CONTINUOUS
 10
122.047554348
 20
203.079710145
 11
122.047554348
 21
178.079710145
  0
LINE
  8
1
 62
7
  6
CONTINUOUS
 10
140.347554348
 20
196.927150574
 11
140.347554348
 21
184.232269716
  0
LINE
  8
1
 62
7
  6
CONTINUOUS
 10
122.247554348
 20
177.879710145
 11
122.047554348
 21
178.079710145
  0
LINE
  8
1
 62
7
  6
CONTINUOUS
 10
122.247554348
 20
177.879710145
 11
186.347554348
 21
177.879710145
  0
TEXT
  8
1
 62
3
  6
CONTINUOUS
 72
5
 10
141.147554348
 20
139.895710145
 40
4.000000000
  1
ＡＲＧ－Ｈ２５１６Ｎ
 41
0.834440244
 11
180.347554348
 21
139.895710145
  0
LINE
  8
1
 62
7
  6
CONTINUOUS
 10
136.947554348
 20
196.927150574
 11
140.347554348
 21
196.927150574
  0
ARC
  8
1
 62
7
  6
CONTINUOUS
 10
156.981608689
 20
190.579710145
 40
21.015549799
 50
162.420103684
 51
197.579896316
  0
LINE
  8
1
 62
7
  6
CONTINUOUS
 10
122.047554348
 20
203.079710145
 11
122.247554348
 21
203.279710145
  0
ARC
  8
1
 62
7
  6
CONTINUOUS
 10
120.313500007
 20
190.579710145
 40
21.015549799
 50
342.420103684
 51
17.579896316
  0
DIMENSION
  8
1
 62
4
  6
CONTINUOUS
  2
*D33
 70
1
 10
112.047554348
 20
177.879710145
 11
112.047554348
 21
190.579710145
 14
122.247554348
 24
177.879710145
 13
122.247554348
 23
203.279710145
 50
90.000000000
  0
LINE
  8
1
 62
1
  6
CENTER
 10
120.047554348
 20
190.579710145
 11
201.847554348
 21
190.579710145
  0
DIMENSION
  8
1
 62
4
  6
CONTINUOUS
  2
*D35
 70
0
 10
199.847554348
 20
161.879710145
 11
193.197554348
 21
161.879710145
 14
199.847554348
 24
183.179710145
 13
186.547554348
 23
178.079710145
 50
0.000000000
  0
DIMENSION
  8
1
 62
4
  6
CONTINUOUS
  2
*D36
 70
1
 10
186.547554348
 20
161.879710145
 11
154.297554348
 21
161.879710145
 14
186.547554348
 24
178.079710145
 13
122.047554348
 23
178.079710145
 50
0.000000000
  0
LINE
  8
1
 62
7
  6
CONTINUOUS
 10
186.547554348
 20
178.079710145
 11
186.347554348
 21
177.879710145
  0
LINE
  8
1
 62
7
  6
CONTINUOUS
 10
186.547554348
 20
203.079710145
 11
186.347554348
 21
203.279710145
  0
ENDSEC
  0
EOF
