  0
SECTION
  2
HEADER
  9
$ACADVER
  1
AC1009
  9
$INSBASE
 10
0.000000000
 20
0.000000000
  9
$EXTMIN
 10
-28.924869096
 20
-20.059420290
  9
$EXTMAX
 10
318.173560056
 20
220.653623188
  9
$LIMMIN
 10
-28.924869096
 20
-20.059420290
  9
$LIMMAX
 10
318.173560056
 20
220.653623188
  9
$SNAPBASE
 10
0.000000000
 20
0.000000000
  9
$SNAPANG
 50
0.000000000
  9
$SNAPSTYLE
 70
0
  9
$GRIDMODE
 70
0
  9
$GRIDUNIT
 10
0.000000000
 20
0.000000000
  9
$DIMEXO
 40
0.000000000
  9
$DIMDLI
 40
8.000000000
  9
$DIMDLE
 40
0.000000000
  9
$DIMEXE
 40
1.000000000
  9
$DIMTIH
 70
1
  9
$DIMTOH
 70
1
  9
$DIMTAD
 70
2
  9
$DIMZIN
 70
0
  9
$FILLETRAD
 40
1.000000000
  9
$CHAMFERA
 40
1.000000000
  9
$CHAMFERB
 40
1.000000000
  9
$TDCREATE
 40
2454152.715960648
  9
$TDUPDATE
 40
2454152.715960648
  9
$ANGBASE
 50
0.000000000
  9
$ANGDIR
 70
0
  0
ENDSEC
  0
SECTION
  2
TABLES
  0
TABLE
  2
LTYPE
 70
4
  0
LTYPE
  2
CENTER
 70
64
  3
___ _ ___ _ __
 72
65
 73
4
 40
13.000000000
 49
8.500000000
 49
-1.500000000
 49
1.500000000
 49
-1.500000000
  0
LTYPE
  2
CONTINUOUS
 70
64
  3
______________
 72
65
 73
0
 40
0.000000000
  0
LTYPE
  2
DASHED
 70
64
  3
___ ___ ___ __
 72
65
 73
2
 40
5.000000119
 49
3.400000095
 49
-1.600000024
  0
LTYPE
  2
DIVIDE
 70
64
  3
___ . . ___ . 
 72
65
 73
6
 40
12.999999523
 49
5.199999809
 49
-2.599999905
 49
0.000000000
 49
-2.599999905
 49
0.000000000
 49
-2.599999905
  0
ENDTAB
  0
TABLE
  2
LAYER
 70
3
  0
LAYER
  2
1
 70
0
 62
7
  6
CONTINUOUS
  0
LAYER
  2
2
 70
0
 62
7
  6
CONTINUOUS
  0
LAYER
  2
3
 70
0
 62
7
  6
CONTINUOUS
999
Comment
  0
LAYER
  2
_CONSTR
 70
0
 62
5
  6
CONTINUOUS
  0
ENDTAB
  0
TABLE
  2
STYLE
 70
1
  0
STYLE
  2
STANDARD
 70
64
 40
0.000000000
 41
1.000000000
 50
0.000000000
 71
0
 42
3.200000000
  3
TXT
  4
EXTFONT
  0
ENDTAB
  0
TABLE
  2
VIEW
 70
0
  0
ENDTAB
  0
ENDSEC
  0
SECTION
  2
BLOCKS
  0
BLOCK
  8
0
  2
*D49
 70
65
 10
0.000000000
 20
0.000000000
  3
*D
  0
TEXT
  8
1
 62
4
  6
CONTINUOUS
 72
5
 10
264.794071895
 20
91.972291392
 40
2.800000000
  1
8
 41
0.899996850
 50
4.999999995
 11
266.467678988
 21
92.118713040
  0
LINE
  8
1
 62
4
  6
CONTINUOUS
 10
248.617859589
 20
144.758512501
 11
253.690341544
 21
86.779778446
  0
POLYLINE
  8
1
 62
4
  6
CONTINUOUS
 66
1
  0
VERTEX
  8
1
 10
251.497493940
 20
88.896714766
  0
VERTEX
  8
1
 10
253.516030059
 20
88.772167842
  0
SEQEND
  8
1
  0
POLYLINE
  8
1
 62
4
  6
CONTINUOUS
 66
1
  0
VERTEX
  8
1
 10
250.527445964
 20
88.510700614
  0
VERTEX
  8
1
 10
253.516030059
 20
88.772167842
  0
VERTEX
  8
1
 10
251.549787385
 20
88.298997947
  0
SEQEND
  8
1
  0
LINE
  8
1
 62
4
  6
CONTINUOUS
 10
253.516030059
 20
88.772167842
 11
261.485587642
 21
89.469413785
  0
POLYLINE
  8
1
 62
4
  6
CONTINUOUS
 66
1
  0
VERTEX
  8
1
 10
263.504123761
 20
89.344866861
  0
VERTEX
  8
1
 10
261.485587642
 20
89.469413785
  0
SEQEND
  8
1
  0
POLYLINE
  8
1
 62
4
  6
CONTINUOUS
 66
1
  0
VERTEX
  8
1
 10
264.474171737
 20
89.730881013
  0
VERTEX
  8
1
 10
261.485587642
 20
89.469413785
  0
VERTEX
  8
1
 10
263.451830316
 20
89.942583680
  0
SEQEND
  8
1
  0
LINE
  8
1
 62
4
  6
CONTINUOUS
 10
260.533356196
 20
100.353469032
 11
261.659899128
 21
87.477024389
  0
POLYLINE
  8
1
 62
4
  6
CONTINUOUS
 66
1
  0
VERTEX
  8
1
 10
261.485587642
 20
89.469413785
  0
VERTEX
  8
1
 10
268.635510726
 20
90.094951000
  0
SEQEND
  8
1
  0
ENDBLK
  8
0
  0
BLOCK
  8
0
  2
*D50
 70
65
 10
0.000000000
 20
0.000000000
  3
*D
  0
TEXT
  8
1
 62
4
  6
CONTINUOUS
 72
5
 10
248.147723615
 20
90.675241713
 40
2.800000000
  1
5
 41
0.899996850
 50
2.500000000
 11
249.826124628
 21
90.748522283
  0
TEXT
  8
1
 62
4
  6
CONTINUOUS
 72
5
 10
250.665325134
 20
90.785162569
 40
2.800000000
  1
°
 41
1.270648030
 50
2.500000000
 11
254.022127158
 21
90.931723710
  0
POLYLINE
  8
1
 62
4
  6
CONTINUOUS
 66
1
  0
VERTEX
  8
1
 10
245.144927536
 20
88.793999499
  0
VERTEX
  8
1
 10
247.144927536
 20
88.493999499
  0
SEQEND
  8
1
  0
POLYLINE
  8
1
 62
4
  6
CONTINUOUS
 66
1
  0
VERTEX
  8
1
 10
244.144927536
 20
88.493999499
  0
VERTEX
  8
1
 10
247.144927536
 20
88.493999499
  0
VERTEX
  8
1
 10
245.144927536
 20
88.193999499
  0
SEQEND
  8
1
  0
ARC
  8
1
 62
4
  6
CONTINUOUS
 10
247.144927536
 20
161.594202899
 40
73.100203400
 50
270.000000000
 51
275.000000000
  0
POLYLINE
  8
1
 62
4
  6
CONTINUOUS
 66
1
  0
VERTEX
  8
1
 10
255.534566178
 20
88.647620918
  0
VERTEX
  8
1
 10
253.516030059
 20
88.772167842
  0
SEQEND
  8
1
  0
POLYLINE
  8
1
 62
4
  6
CONTINUOUS
 66
1
  0
VERTEX
  8
1
 10
256.504614153
 20
89.033635070
  0
VERTEX
  8
1
 10
253.516030059
 20
88.772167842
  0
VERTEX
  8
1
 10
255.482272732
 20
89.245337737
  0
SEQEND
  8
1
  0
LINE
  8
1
 62
4
  6
CONTINUOUS
 10
248.617859589
 20
144.758512501
 11
253.690341544
 21
86.779778446
  0
ENDBLK
  8
0
  0
BLOCK
  8
0
  2
*D51
 70
65
 10
0.000000000
 20
0.000000000
  3
*D
  0
TEXT
  8
1
 62
4
  6
CONTINUOUS
 72
5
 10
241.962912937
 20
90.857710334
 40
2.800000000
  1
5
 41
0.899996850
 50
357.500000000
 11
243.641313949
 21
90.784429763
  0
TEXT
  8
1
 62
4
  6
CONTINUOUS
 72
5
 10
244.480514455
 20
90.747789478
 40
2.800000000
  1
°
 41
1.270648030
 50
357.500000000
 11
247.837316479
 21
90.601228336
  0
LINE
  8
1
 62
4
  6
CONTINUOUS
 10
245.671995484
 20
144.758512501
 11
240.599513528
 21
86.779778446
  0
POLYLINE
  8
1
 62
4
  6
CONTINUOUS
 66
1
  0
VERTEX
  8
1
 10
238.807582341
 20
89.245337737
  0
VERTEX
  8
1
 10
240.773825014
 20
88.772167842
  0
SEQEND
  8
1
  0
POLYLINE
  8
1
 62
4
  6
CONTINUOUS
 66
1
  0
VERTEX
  8
1
 10
237.785240920
 20
89.033635070
  0
VERTEX
  8
1
 10
240.773825014
 20
88.772167842
  0
VERTEX
  8
1
 10
238.755288895
 20
88.647620918
  0
SEQEND
  8
1
  0
ARC
  8
1
 62
4
  6
CONTINUOUS
 10
247.144927536
 20
161.594202899
 40
73.100203400
 50
265.000000000
 51
270.000000000
  0
POLYLINE
  8
1
 62
4
  6
CONTINUOUS
 66
1
  0
VERTEX
  8
1
 10
249.144927536
 20
88.193999499
  0
VERTEX
  8
1
 10
247.144927536
 20
88.493999499
  0
SEQEND
  8
1
  0
POLYLINE
  8
1
 62
4
  6
CONTINUOUS
 66
1
  0
VERTEX
  8
1
 10
250.144927536
 20
88.493999499
  0
VERTEX
  8
1
 10
247.144927536
 20
88.493999499
  0
VERTEX
  8
1
 10
249.144927536
 20
88.793999499
  0
SEQEND
  8
1
  0
LINE
  8
1
 62
4
  6
CONTINUOUS
 10
247.144927536
 20
144.694202899
 11
247.144927536
 21
86.493999499
  0
ENDBLK
  8
0
  0
BLOCK
  8
0
  2
*D52
 70
65
 10
0.000000000
 20
0.000000000
  3
*D
  0
TEXT
  8
1
 62
4
  6
CONTINUOUS
 72
5
 10
267.208668984
 20
115.556033529
 40
2.800000000
  1
(
 41
1.650001650
 50
4.999999995
 11
268.742808819
 21
115.690253373
  0
TEXT
  8
1
 62
4
  6
CONTINUOUS
 72
5
 10
269.509878737
 20
115.757363294
 40
2.800000000
  1
φ
 41
1.164760695
 50
4.999999995
 11
272.578158407
 21
116.025802982
  0
TEXT
  8
1
 62
4
  6
CONTINUOUS
 72
5
 10
274.112298242
 20
116.160022826
 40
2.800000000
  1
12
 41
1.031247938
 50
4.999999995
 11
277.947647830
 21
116.495572435
  0
TEXT
  8
1
 62
4
  6
CONTINUOUS
 72
5
 10
278.714717747
 20
116.562682357
 40
2.800000000
  1
)
 41
1.650001650
 50
4.999999995
 11
280.248857582
 21
116.696902200
  0
LINE
  8
1
 62
4
  6
CONTINUOUS
 10
253.424260643
 20
112.768523556
 11
253.653435595
 21
110.149041860
  0
POLYLINE
  8
1
 62
4
  6
CONTINUOUS
 66
1
  0
VERTEX
  8
1
 10
255.445366783
 20
112.614601151
  0
VERTEX
  8
1
 10
253.479124110
 20
112.141431257
  0
VERTEX
  8
1
 10
255.497660229
 20
112.016884332
  0
SEQEND
  8
1
  0
LINE
  8
1
 62
4
  6
CONTINUOUS
 10
253.479124110
 20
112.141431257
 11
265.433460487
 21
113.187300168
  0
POLYLINE
  8
1
 62
4
  6
CONTINUOUS
 66
1
  0
VERTEX
  8
1
 10
263.467217814
 20
112.714130274
  0
VERTEX
  8
1
 10
265.433460487
 20
113.187300168
  0
VERTEX
  8
1
 10
263.414924368
 20
113.311847093
  0
SEQEND
  8
1
  0
LINE
  8
1
 62
4
  6
CONTINUOUS
 10
265.384787613
 20
113.743633665
 11
265.607771972
 21
111.194910772
  0
POLYLINE
  8
1
 62
4
  6
CONTINUOUS
 66
1
  0
VERTEX
  8
1
 10
265.433460487
 20
113.187300168
  0
VERTEX
  8
1
 10
282.418083993
 20
114.673262178
  0
SEQEND
  8
1
  0
ENDBLK
  8
0
  0
BLOCK
  8
0
  2
*D53
 70
65
 10
0.000000000
 20
0.000000000
  3
*D
  0
TEXT
  8
1
 62
4
  6
CONTINUOUS
 72
5
 10
228.207184620
 20
92.085029156
 40
2.800000000
  1
8
 41
0.899996850
 50
355.000000000
 11
229.880791713
 21
91.938607508
  0
LINE
  8
1
 62
4
  6
CONTINUOUS
 10
233.675824857
 20
99.431360764
 11
232.629955944
 21
87.477024387
  0
POLYLINE
  8
1
 62
4
  6
CONTINUOUS
 66
1
  0
VERTEX
  8
1
 10
230.838024756
 20
89.942583678
  0
VERTEX
  8
1
 10
232.804267429
 20
89.469413783
  0
SEQEND
  8
1
  0
POLYLINE
  8
1
 62
4
  6
CONTINUOUS
 66
1
  0
VERTEX
  8
1
 10
229.815683335
 20
89.730881011
  0
VERTEX
  8
1
 10
232.804267429
 20
89.469413783
  0
VERTEX
  8
1
 10
230.785731310
 20
89.344866859
  0
SEQEND
  8
1
  0
LINE
  8
1
 62
4
  6
CONTINUOUS
 10
232.804267429
 20
89.469413783
 11
240.773825014
 21
88.772167842
  0
POLYLINE
  8
1
 62
4
  6
CONTINUOUS
 66
1
  0
VERTEX
  8
1
 10
242.740067687
 20
88.298997947
  0
VERTEX
  8
1
 10
240.773825014
 20
88.772167842
  0
SEQEND
  8
1
  0
POLYLINE
  8
1
 62
4
  6
CONTINUOUS
 66
1
  0
VERTEX
  8
1
 10
243.762409108
 20
88.510700614
  0
VERTEX
  8
1
 10
240.773825014
 20
88.772167842
  0
VERTEX
  8
1
 10
242.792361133
 20
88.896714766
  0
SEQEND
  8
1
  0
LINE
  8
1
 62
4
  6
CONTINUOUS
 10
245.671995484
 20
144.758512501
 11
240.599513528
 21
86.779778446
  0
POLYLINE
  8
1
 62
4
  6
CONTINUOUS
 66
1
  0
VERTEX
  8
1
 10
232.804267429
 20
89.469413783
  0
VERTEX
  8
1
 10
226.022616811
 20
90.062731332
  0
SEQEND
  8
1
  0
ENDBLK
  8
0
  0
BLOCK
  8
0
  2
*D54
 70
65
 10
0.000000000
 20
0.000000000
  3
*D
  0
TEXT
  8
1
 62
4
  6
CONTINUOUS
 72
5
 10
288.421093048
 20
139.632400059
 40
2.800000000
  1
(
 41
1.800001800
 50
275.000000005
 11
288.567514696
 21
137.958792967
  0
TEXT
  8
1
 62
4
  6
CONTINUOUS
 72
5
 10
288.640725520
 20
137.121989420
 40
2.800000000
  1
60
 41
1.000000667
 50
275.000000005
 11
289.006779640
 21
132.937971688
  0
TEXT
  8
1
 62
4
  6
CONTINUOUS
 72
5
 10
289.079990464
 20
132.101168142
 40
2.800000000
  1
)
 41
1.800001800
 50
275.000000005
 11
289.226412112
 21
130.427561049
  0
LINE
  8
1
 62
4
  6
CONTINUOUS
 10
266.336212899
 20
102.868792884
 11
291.241080356
 21
105.047686456
  0
POLYLINE
  8
1
 62
4
  6
CONTINUOUS
 66
1
  0
VERTEX
  8
1
 10
288.775521065
 20
106.839617643
  0
VERTEX
  8
1
 10
289.248690960
 20
104.873374970
  0
VERTEX
  8
1
 10
289.373237884
 20
106.891911089
  0
SEQEND
  8
1
  0
LINE
  8
1
 62
4
  6
CONTINUOUS
 10
289.248690960
 20
104.873374970
 11
284.004131365
 21
164.818965383
  0
POLYLINE
  8
1
 62
4
  6
CONTINUOUS
 66
1
  0
VERTEX
  8
1
 10
284.477301260
 20
162.852722710
  0
VERTEX
  8
1
 10
284.004131365
 20
164.818965383
  0
VERTEX
  8
1
 10
283.879584442
 20
162.800429264
  0
SEQEND
  8
1
  0
LINE
  8
1
 62
4
  6
CONTINUOUS
 10
247.144927536
 20
161.594202899
 11
285.996520762
 21
164.993276869
  0
ENDBLK
  8
0
  0
BLOCK
  8
0
  2
*D63
 70
65
 10
0.000000000
 20
0.000000000
  3
*D
  0
TEXT
  8
1
 62
4
  6
CONTINUOUS
 72
5
 10
205.024570173
 20
129.983242980
 40
2.800000000
  1
(
 41
1.800001800
 50
85.000000006
 11
205.170991821
 21
131.656850072
  0
TEXT
  8
1
 62
4
  6
CONTINUOUS
 72
5
 10
205.244202644
 20
132.493653619
 40
2.800000000
  1
61
 41
1.125000281
 50
85.000000006
 11
205.610256764
 21
136.677671351
  0
TEXT
  8
1
 62
4
  6
CONTINUOUS
 72
5
 10
205.683467587
 20
137.514474897
 40
2.800000000
  1
)
 41
1.800001800
 50
85.000000006
 11
205.829889235
 21
139.188081990
  0
LINE
  8
1
 62
4
  6
CONTINUOUS
 10
247.144927536
 20
161.594202899
 11
208.293334310
 21
164.993276862
  0
POLYLINE
  8
1
 62
4
  6
CONTINUOUS
 66
1
  0
VERTEX
  8
1
 10
210.410270631
 20
162.800429257
  0
VERTEX
  8
1
 10
210.285723707
 20
164.818965376
  0
VERTEX
  8
1
 10
209.812553812
 20
162.852722703
  0
SEQEND
  8
1
  0
LINE
  8
1
 62
4
  6
CONTINUOUS
 10
210.285723707
 20
164.818965376
 11
204.960490104
 21
103.951266697
  0
POLYLINE
  8
1
 62
4
  6
CONTINUOUS
 66
1
  0
VERTEX
  8
1
 10
204.835943179
 20
105.969802816
  0
VERTEX
  8
1
 10
204.960490104
 20
103.951266697
  0
VERTEX
  8
1
 10
205.433659998
 20
105.917509371
  0
SEQEND
  8
1
  0
LINE
  8
1
 62
4
  6
CONTINUOUS
 10
227.872968152
 20
101.946684617
 11
202.968100707
 21
104.125578182
  0
ENDBLK
  8
0
  0
BLOCK
  8
0
  2
*D68
 70
65
 10
0.000000000
 20
0.000000000
  3
*D
  0
TEXT
  8
1
 62
4
  6
CONTINUOUS
 72
5
 10
122.263327536
 20
202.799202899
 40
2.800000000
  1
(
 41
1.800001800
 11
123.943327536
 21
202.799202899
  0
TEXT
  8
1
 62
4
  6
CONTINUOUS
 72
5
 10
124.783327536
 20
202.799202899
 40
2.800000000
  1
88.5
 41
1.099999267
 11
134.023327536
 21
202.799202899
  0
TEXT
  8
1
 62
4
  6
CONTINUOUS
 72
5
 10
134.863327536
 20
202.799202899
 40
2.800000000
  1
)
 41
1.800001800
 11
136.543327536
 21
202.799202899
  0
LINE
  8
1
 62
4
  6
CONTINUOUS
 10
85.144927536
 20
176.494202899
 11
85.144927536
 21
202.594202899
  0
POLYLINE
  8
1
 62
4
  6
CONTINUOUS
 66
1
  0
VERTEX
  8
1
 10
87.144927536
 20
200.894202899
  0
VERTEX
  8
1
 10
85.144927536
 20
200.594202899
  0
VERTEX
  8
1
 10
87.144927536
 20
200.294202899
  0
SEQEND
  8
1
  0
LINE
  8
1
 62
4
  6
CONTINUOUS
 10
85.144927536
 20
200.594202899
 11
173.644927536
 21
200.594202899
  0
POLYLINE
  8
1
 62
4
  6
CONTINUOUS
 66
1
  0
VERTEX
  8
1
 10
171.644927536
 20
200.294202899
  0
VERTEX
  8
1
 10
173.644927536
 20
200.594202899
  0
VERTEX
  8
1
 10
171.644927536
 20
200.894202899
  0
SEQEND
  8
1
  0
LINE
  8
1
 62
4
  6
CONTINUOUS
 10
173.644927536
 20
175.994202899
 11
173.644927536
 21
202.594202899
  0
ENDBLK
  8
0
  0
BLOCK
  8
0
  2
*D75
 70
65
 10
0.000000000
 20
0.000000000
  3
*D
  0
TEXT
  8
1
 62
4
  6
CONTINUOUS
 72
5
 10
160.105408350
 20
194.799202899
 40
2.800000000
  1
(
 41
1.650001650
 11
161.645408350
 21
194.799202899
  0
TEXT
  8
1
 62
4
  6
CONTINUOUS
 72
5
 10
162.415408350
 20
194.799202899
 40
2.800000000
  1
13.5
 41
1.134374007
 11
170.885408350
 21
194.799202899
  0
TEXT
  8
1
 62
4
  6
CONTINUOUS
 72
5
 10
171.655408350
 20
194.799202899
 40
2.800000000
  1
)
 41
1.650001650
 11
173.195408350
 21
194.799202899
  0
POLYLINE
  8
1
 62
4
  6
CONTINUOUS
 66
1
  0
VERTEX
  8
1
 10
162.144927536
 20
192.894202899
  0
VERTEX
  8
1
 10
160.144927536
 20
192.594202899
  0
VERTEX
  8
1
 10
162.144927536
 20
192.294202899
  0
SEQEND
  8
1
  0
LINE
  8
1
 62
4
  6
CONTINUOUS
 10
160.144927536
 20
192.594202899
 11
173.644927536
 21
192.594202899
  0
POLYLINE
  8
1
 62
4
  6
CONTINUOUS
 66
1
  0
VERTEX
  8
1
 10
171.644927536
 20
192.294202899
  0
VERTEX
  8
1
 10
173.644927536
 20
192.594202899
  0
VERTEX
  8
1
 10
171.644927536
 20
192.894202899
  0
SEQEND
  8
1
  0
LINE
  8
1
 62
4
  6
CONTINUOUS
 10
173.644927536
 20
175.994202899
 11
173.644927536
 21
194.594202899
  0
ENDBLK
  8
0
  0
BLOCK
  8
0
  2
*D78
 70
65
 10
0.000000000
 20
0.000000000
  3
*D
  0
TEXT
  8
1
 62
4
  6
CONTINUOUS
 72
5
 10
70.939927536
 20
153.631002899
 40
2.800000000
  1
φ
 41
1.270648030
 50
90.000000000
 11
70.939927536
 21
156.991002899
  0
TEXT
  8
1
 62
4
  6
CONTINUOUS
 72
5
 10
70.939927536
 20
158.671002899
 40
2.800000000
  1
30
 41
1.000000667
 50
90.000000000
 11
70.939927536
 21
162.871002899
  0
TEXT
  8
1
 62
4
  6
CONTINUOUS
 72
5
 10
69.175927536
 20
163.711002899
 40
1.400000000
  1
-0.02
 41
1.554544889
 50
90.000000000
 11
69.175927536
 21
171.691002899
  0
TEXT
  8
1
 62
4
  6
CONTINUOUS
 72
5
 10
71.317927536
 20
163.711002899
 40
1.400000000
  1
-0.03
 41
1.554544889
 50
90.000000000
 11
71.317927536
 21
171.691002899
  0
LINE
  8
1
 62
4
  6
CONTINUOUS
 10
85.244927536
 20
176.594202899
 11
71.144927536
 21
176.594202899
  0
POLYLINE
  8
1
 62
4
  6
CONTINUOUS
 66
1
  0
VERTEX
  8
1
 10
73.444927536
 20
174.594202899
  0
VERTEX
  8
1
 10
73.144927536
 20
176.594202899
  0
VERTEX
  8
1
 10
72.844927536
 20
174.594202899
  0
SEQEND
  8
1
  0
LINE
  8
1
 62
4
  6
CONTINUOUS
 10
73.144927536
 20
176.594202899
 11
73.144927536
 21
146.594202899
  0
POLYLINE
  8
1
 62
4
  6
CONTINUOUS
 66
1
  0
VERTEX
  8
1
 10
72.844927536
 20
148.594202899
  0
VERTEX
  8
1
 10
73.144927536
 20
146.594202899
  0
VERTEX
  8
1
 10
73.444927536
 20
148.594202899
  0
SEQEND
  8
1
  0
LINE
  8
1
 62
4
  6
CONTINUOUS
 10
85.244927536
 20
146.594202899
 11
71.144927536
 21
146.594202899
  0
ENDBLK
  8
0
  0
BLOCK
  8
0
  2
*D80
 70
65
 10
0.000000000
 20
0.000000000
  3
*D
  0
TEXT
  8
1
 62
4
  6
CONTINUOUS
 72
5
 10
120.553327536
 20
194.799202899
 40
2.800000000
  1
75
 41
0.899998740
 11
124.753327536
 21
194.799202899
  0
LINE
  8
1
 62
4
  6
CONTINUOUS
 10
85.144927536
 20
176.494202899
 11
85.144927536
 21
194.594202899
  0
POLYLINE
  8
1
 62
4
  6
CONTINUOUS
 66
1
  0
VERTEX
  8
1
 10
87.144927536
 20
192.894202899
  0
VERTEX
  8
1
 10
85.144927536
 20
192.594202899
  0
VERTEX
  8
1
 10
87.144927536
 20
192.294202899
  0
SEQEND
  8
1
  0
LINE
  8
1
 62
4
  6
CONTINUOUS
 10
85.144927536
 20
192.594202899
 11
160.144927536
 21
192.594202899
  0
POLYLINE
  8
1
 62
4
  6
CONTINUOUS
 66
1
  0
VERTEX
  8
1
 10
158.144927536
 20
192.294202899
  0
VERTEX
  8
1
 10
160.144927536
 20
192.594202899
  0
VERTEX
  8
1
 10
158.144927536
 20
192.894202899
  0
SEQEND
  8
1
  0
LINE
  8
1
 62
4
  6
CONTINUOUS
 10
160.144927536
 20
176.494202899
 11
160.144927536
 21
194.594202899
  0
ENDBLK
  8
0
  0
BLOCK
  8
0
  2
*D92
 70
65
 10
0.000000000
 20
0.000000000
  3
*D
  0
TEXT
  8
1
 62
4
  6
CONTINUOUS
 72
5
 10
211.199590520
 20
117.663932954
 40
2.800000000
  1
(
 41
1.650001650
 50
355.000000000
 11
212.733730355
 21
117.529713111
  0
TEXT
  8
1
 62
4
  6
CONTINUOUS
 72
5
 10
213.500800273
 20
117.462603189
 40
2.800000000
  1
φ
 41
1.164760695
 50
355.000000000
 11
216.569079943
 21
117.194163501
  0
TEXT
  8
1
 62
4
  6
CONTINUOUS
 72
5
 10
218.103219778
 20
117.059943657
 40
2.800000000
  1
14
 41
1.031247938
 50
355.000000000
 11
221.938569366
 21
116.724394048
  0
TEXT
  8
1
 62
4
  6
CONTINUOUS
 72
5
 10
222.705639283
 20
116.657284126
 40
2.800000000
  1
)
 41
1.650001650
 50
355.000000000
 11
224.239779118
 21
116.523064282
  0
LINE
  8
1
 62
4
  6
CONTINUOUS
 10
241.712757455
 20
110.977928020
 11
242.043615030
 21
114.759647406
  0
POLYLINE
  8
1
 62
4
  6
CONTINUOUS
 66
1
  0
VERTEX
  8
1
 10
239.850767426
 20
112.642711085
  0
VERTEX
  8
1
 10
241.869303545
 20
112.767258009
  0
VERTEX
  8
1
 10
239.903060871
 20
113.240427904
  0
SEQEND
  8
1
  0
LINE
  8
1
 62
4
  6
CONTINUOUS
 10
241.869303545
 20
112.767258009
 11
227.922577771
 21
113.987438408
  0
POLYLINE
  8
1
 62
4
  6
CONTINUOUS
 66
1
  0
VERTEX
  8
1
 10
229.941113890
 20
114.111985332
  0
VERTEX
  8
1
 10
227.922577771
 20
113.987438408
  0
VERTEX
  8
1
 10
229.888820445
 20
113.514268513
  0
SEQEND
  8
1
  0
LINE
  8
1
 62
4
  6
CONTINUOUS
 10
227.744598117
 20
111.953121652
 11
228.096889257
 21
115.979827804
  0
POLYLINE
  8
1
 62
4
  6
CONTINUOUS
 66
1
  0
VERTEX
  8
1
 10
241.869303545
 20
112.767258009
  0
VERTEX
  8
1
 10
209.015022711
 20
115.641635131
  0
SEQEND
  8
1
  0
ENDBLK
  8
0
  0
BLOCK
  8
0
  2
*D157
 70
65
 10
0.000000000
 20
0.000000000
  3
*D
  0
TEXT
  8
1
 62
4
  6
CONTINUOUS
 72
5
 10
183.439927536
 20
154.462602899
 40
2.800000000
  1
φ
 41
1.270648030
 50
90.000000000
 11
183.439927536
 21
157.822602899
  0
TEXT
  8
1
 62
4
  6
CONTINUOUS
 72
5
 10
183.439927536
 20
159.502602899
 40
2.800000000
  1
29.8
 41
1.099999267
 50
90.000000000
 11
183.439927536
 21
168.742602899
  0
LINE
  8
1
 62
4
  6
CONTINUOUS
 10
173.144927536
 20
176.494202899
 11
187.644927536
 21
176.494202899
  0
POLYLINE
  8
1
 62
4
  6
CONTINUOUS
 66
1
  0
VERTEX
  8
1
 10
185.944927536
 20
174.494202899
  0
VERTEX
  8
1
 10
185.644927536
 20
176.494202899
  0
VERTEX
  8
1
 10
185.344927536
 20
174.494202899
  0
SEQEND
  8
1
  0
LINE
  8
1
 62
4
  6
CONTINUOUS
 10
185.644927536
 20
176.494202899
 11
185.644927536
 21
146.694202899
  0
POLYLINE
  8
1
 62
4
  6
CONTINUOUS
 66
1
  0
VERTEX
  8
1
 10
185.344927536
 20
148.694202899
  0
VERTEX
  8
1
 10
185.644927536
 20
146.694202899
  0
VERTEX
  8
1
 10
185.944927536
 20
148.694202899
  0
SEQEND
  8
1
  0
LINE
  8
1
 62
4
  6
CONTINUOUS
 10
173.144927536
 20
146.694202899
 11
187.644927536
 21
146.694202899
  0
ENDBLK
  8
0
  0
ENDSEC
  0
SECTION
  2
ENTITIES
  0
LINE
  8
1
 62
7
  6
CONTINUOUS
 10
242.378819603
 20
118.591053207
 11
241.128544327
 21
104.300341405
  0
ARC
  8
1
 62
7
  6
CONTINUOUS
 10
229.974400962
 20
128.834599853
 40
2.031250000
 50
25.510237406
 51
85.000000000
  0
LINE
  8
1
 62
7
  6
CONTINUOUS
 10
239.975488601
 20
119.805137262
 11
240.773373326
 21
128.925001401
  0
LINE
  8
1
 62
1
  6
CENTER
 10
167.144927536
 20
155.559458614
 11
167.144927536
 21
99.423750160
  0
LINE
  8
1
 62
4
  6
CONTINUOUS
 10
97.144927536
 20
168.132551314
 11
100.544927536
 21
155.055854483
  0
LINE
  8
1
 62
4
  6
CONTINUOUS
 10
100.544927536
 20
168.132551314
 11
97.144927536
 21
155.055854483
  0
LINE
  8
1
 62
7
  6
CONTINUOUS
 10
85.244927536
 20
176.594202899
 11
85.144927536
 21
176.494202899
  0
LINE
  8
1
 62
7
  6
CONTINUOUS
 10
85.144927536
 20
146.694202899
 11
85.244927536
 21
146.594202899
  0
LINE
  8
1
 62
7
  6
CONTINUOUS
 10
85.144927536
 20
176.494202899
 11
85.144927536
 21
146.694202899
  0
LINE
  8
1
 62
7
  6
CONTINUOUS
 10
160.144927536
 20
146.694202899
 11
160.144927536
 21
161.594202899
  0
LINE
  8
1
 62
7
  6
CONTINUOUS
 10
239.827304529
 20
100.900815704
 11
239.914460272
 21
101.897010402
  0
LINE
  8
1
 62
7
  6
CONTINUOUS
 10
160.144927536
 20
176.494202899
 11
160.144927536
 21
161.594202899
  0
LINE
  8
1
 62
7
  6
CONTINUOUS
 10
160.044927536
 20
176.594202899
 11
160.144927536
 21
176.494202899
  0
LINE
  8
1
 62
1
  6
CENTER
 10
83.144927536
 20
161.594202899
 11
175.644927536
 21
161.594202899
  0
LINE
  8
1
 62
7
  6
CONTINUOUS
 10
227.960123895
 20
102.942879315
 11
227.872968152
 21
101.946684617
  0
LINE
  8
1
 62
7
  6
CONTINUOUS
 10
160.044927536
 20
176.594202899
 11
85.244927536
 21
176.594202899
  0
LINE
  8
1
 62
7
  6
CONTINUOUS
 10
160.044927536
 20
146.594202899
 11
85.244927536
 21
146.594202899
  0
ARC
  8
1
 62
7
  6
CONTINUOUS
 10
76.296216230
 20
161.594202899
 40
25.114736710
 50
344.909814821
 51
15.090185179
  0
ARC
  8
1
 62
7
  6
CONTINUOUS
 10
121.393638842
 20
161.594202899
 40
25.114736710
 50
164.909814821
 51
195.090185179
  0
LINE
  8
3
 62
7
  6
CONTINUOUS
 10
160.344927536
 20
176.394202899
 11
160.444927536
 21
176.494202899
  0
LINE
  8
1
 62
4
  6
CONTINUOUS
 10
165.744927536
 20
167.899756007
 11
169.144927536
 21
155.288649790
  0
LINE
  8
1
 62
7
  6
CONTINUOUS
 10
97.144927536
 20
168.132551314
 11
100.544927536
 21
168.132551314
  0
LINE
  8
1
 62
7
  6
CONTINUOUS
 10
97.144927536
 20
155.055854483
 11
100.544927536
 21
155.055854483
  0
LINE
  8
1
 62
7
  6
CONTINUOUS
 10
97.144927536
 20
168.132551314
 11
97.144927536
 21
155.055854483
  0
LINE
  8
1
 62
7
  6
CONTINUOUS
 10
100.544927536
 20
168.132551314
 11
100.544927536
 21
155.055854483
  0
LINE
  8
3
 62
7
  6
CONTINUOUS
 10
173.144927536
 20
176.494202899
 11
173.644927536
 21
175.994202899
  0
LINE
  8
1
 62
7
  6
CONTINUOUS
 10
242.603869790
 20
129.768673549
 11
244.260054769
 21
128.619956301
  0
LINE
  8
3
 62
7
  6
CONTINUOUS
 10
160.444927536
 20
176.494202899
 11
173.144927536
 21
176.494202899
  0
LINE
  8
1
 62
7
  6
CONTINUOUS
 10
227.872968152
 20
101.946684617
 11
239.827304529
 21
100.900815704
  0
LINE
  8
1
 62
7
  6
CONTINUOUS
 10
230.151436064
 20
130.858120334
 11
228.320939600
 21
130.014448185
  0
LINE
  8
1
 62
7
  6
CONTINUOUS
 10
244.260054769
 20
128.619956301
 11
243.475653084
 21
119.654204019
  0
LINE
  8
1
 62
7
  6
CONTINUOUS
 10
238.594479710
 20
104.020133412
 11
238.420168225
 21
102.027744016
  0
LINE
  8
1
 62
7
  6
CONTINUOUS
 10
160.044927536
 20
146.594202899
 11
160.144927536
 21
146.694202899
  0
LINE
  8
1
 62
7
  6
CONTINUOUS
 10
239.914460272
 20
101.897010402
 11
227.960123895
 21
102.942879315
  0
LINE
  8
1
 62
7
  6
CONTINUOUS
 10
227.538612793
 20
121.072411864
 11
228.432173387
 21
119.811226645
  0
LINE
  8
1
 62
7
  6
CONTINUOUS
 10
243.475653084
 20
119.654204019
 11
242.378819603
 21
118.591053207
  0
ARC
  8
1
 62
7
  6
CONTINUOUS
 10
229.446747058
 20
121.579832721
 40
1.850301917
 50
215.317900462
 51
327.642077288
  0
LINE
  8
1
 62
7
  6
CONTINUOUS
 10
231.009736318
 20
120.589538947
 11
231.807621043
 21
129.709403086
  0
LINE
  8
1
 62
7
  6
CONTINUOUS
 10
230.151436064
 20
130.858120334
 11
242.603869790
 21
129.768673549
  0
LINE
  8
1
 62
7
  6
CONTINUOUS
 10
228.320939600
 20
130.014448185
 11
227.538612793
 21
121.072411864
  0
LINE
  8
1
 62
7
  6
CONTINUOUS
 10
264.580453624
 20
105.726643365
 11
264.754765109
 21
103.734253968
  0
LINE
  8
3
 62
7
  6
CONTINUOUS
 10
160.344927536
 20
146.794202899
 11
160.344927536
 21
176.394202899
  0
LINE
  8
1
 62
7
  6
CONTINUOUS
 10
173.394927535
 20
130.423750699
 11
175.144927535
 21
129.423750699
  0
ARC
  8
1
 62
7
  6
CONTINUOUS
 10
159.444927536
 20
174.494202899
 40
0.900000000
 50
0.000000000
 51
38.942441269
  0
LINE
  8
1
 62
7
  6
CONTINUOUS
 10
161.144927535
 20
102.423750160
 11
161.144927535
 21
101.423750160
  0
ARC
  8
1
 62
7
  6
CONTINUOUS
 10
159.444927536
 20
148.694202899
 40
0.900000000
 50
321.057558731
 51
0.000000000
  0
LINE
  8
1
 62
1
  6
CENTER
 10
248.617859589
 20
144.758512501
 11
247.144927536
 21
161.594202899
  0
LINE
  8
1
 62
1
  6
CENTER
 10
245.671995484
 20
144.758512501
 11
247.144927536
 21
161.594202899
  0
DIMENSION
  8
1
 62
4
  6
CONTINUOUS
  2
*D49
 70
0
 10
261.485587644
 20
89.469413785
 11
265.814685818
 21
89.848160799
 14
260.533356196
 24
100.353469032
 13
248.617859589
 23
144.758512501
 50
185.000000005
  0
DIMENSION
  8
1
 62
4
  6
CONTINUOUS
  2
*D50
 70
5
 10
253.516030059
 20
88.772167842
 11
250.333513625
 21
88.563574695
 13
247.144927536
 23
144.694202899
 14
248.617859589
 24
144.758512501
 15
247.144927536
 25
161.594202899
  0
DIMENSION
  8
1
 62
4
  6
CONTINUOUS
  2
*D51
 70
5
 10
247.144927536
 20
88.493999499
 11
243.956341448
 21
88.563574695
 13
245.671995484
 23
144.758512501
 14
247.144927536
 24
144.694202899
 15
247.144927536
 25
161.594202899
  0
DIMENSION
  8
1
 62
4
  6
CONTINUOUS
  2
*D52
 70
0
 10
265.433460487
 20
113.187300168
 11
273.913270996
 21
113.929187456
 14
265.384787613
 24
113.743633665
 13
253.424260643
 23
112.768523556
 50
184.999999995
  0
DIMENSION
  8
1
 62
4
  6
CONTINUOUS
  2
*D53
 70
0
 10
240.773825020
 20
88.772167842
 11
228.843441718
 21
89.815941131
 14
245.671995484
 24
144.758512501
 13
233.675824857
 23
99.431360764
 50
175.000000006
  0
DIMENSION
  8
1
 62
4
  6
CONTINUOUS
  2
*D54
 70
0
 10
284.004131365
 20
164.818965383
 11
286.626411163
 21
134.846170177
 14
247.144927536
 24
161.594202899
 13
266.336212899
 23
102.868792884
 50
275.000000005
  0
LINE
  8
1
 62
1
  6
CENTER
 10
260.533356196
 20
100.353469032
 11
255.996482290
 21
152.210175062
  0
LINE
  8
1
 62
1
  6
CENTER
 10
233.675824857
 20
99.431360764
 11
238.293372782
 21
152.210175062
  0
ARC
  8
1
 62
7
  6
CONTINUOUS
 10
144.953951257
 20
161.594202899
 40
24.999266656
 50
345.390516808
 51
14.609483192
  0
ARC
  8
1
 62
7
  6
CONTINUOUS
 10
189.935903815
 20
161.594202899
 40
24.999266656
 50
165.390516808
 51
194.609483192
  0
LINE
  8
1
 62
7
  6
CONTINUOUS
 10
169.144927536
 20
167.899756007
 11
169.144927536
 21
155.288649790
  0
LINE
  8
1
 62
7
  6
CONTINUOUS
 10
165.744927536
 20
167.899756007
 11
165.744927536
 21
155.288649790
  0
LINE
  8
1
 62
7
  6
CONTINUOUS
 10
165.744927536
 20
155.288649790
 11
169.144927536
 21
155.288649790
  0
LINE
  8
1
 62
7
  6
CONTINUOUS
 10
165.744927536
 20
167.899756007
 11
169.144927536
 21
167.899756007
  0
DIMENSION
  8
1
 62
4
  6
CONTINUOUS
  2
*D63
 70
0
 10
204.960490104
 20
103.951266697
 11
207.623106905
 21
134.385116037
 14
227.872968152
 24
101.946684617
 13
247.144927536
 23
161.594202899
 50
85.000000006
  0
LINE
  8
1
 62
1
  6
DASHED
 10
260.644927536
 20
155.288649790
 11
260.644927536
 21
167.899756007
  0
CIRCLE
  8
1
 62
7
  6
CONTINUOUS
 10
247.144927536
 20
161.594202899
 40
14.900000000
  0
LINE
  8
1
 62
1
  6
DASHED
 10
233.644927536
 20
167.899756007
 11
233.644927536
 21
155.288649790
  0
LINE
  8
1
 62
7
  6
CONTINUOUS
 10
251.736044922
 20
129.196489233
 11
264.188478648
 21
130.285936018
  0
DIMENSION
  8
1
 62
4
  6
CONTINUOUS
  2
*D68
 70
0
 10
173.644927536
 20
200.594202899
 11
129.394927536
 21
200.594202899
 14
173.644927536
 24
175.994202899
 13
85.144927536
 23
176.494202899
 50
0.000000000
  0
LINE
  8
3
 62
7
  6
CONTINUOUS
 10
160.444927536
 20
146.694202899
 11
163.344927536
 21
146.694202899
  0
LINE
  8
3
 62
7
  6
CONTINUOUS
 10
173.144927536
 20
146.694202899
 11
173.644927536
 21
147.194202899
  0
LINE
  8
3
 62
7
  6
CONTINUOUS
 10
160.344927536
 20
146.794202899
 11
160.444927536
 21
146.694202899
  0
LINE
  8
3
 62
7
  6
CONTINUOUS
 10
173.644927536
 20
175.994202899
 11
173.644927536
 21
147.194202899
  0
LINE
  8
1
 62
7
  6
CONTINUOUS
 10
266.249057156
 20
103.864987582
 11
254.294720779
 21
102.819118670
  0
LINE
  8
1
 62
1
  6
CENTER
 10
264.044927536
 20
161.594202899
 11
230.244927536
 21
161.594202899
  0
DIMENSION
  8
1
 62
4
  6
CONTINUOUS
  2
*D75
 70
0
 10
173.644927536
 20
192.594202899
 11
166.642708350
 21
192.594202899
 14
173.644927536
 24
175.994202899
 13
160.144927536
 23
176.494202899
 50
0.000000000
  0
LINE
  8
1
 62
1
  6
CENTER
 10
247.144927536
 20
178.494202899
 11
247.144927536
 21
144.694202899
  0
LINE
  8
1
 62
4
  6
CONTINUOUS
 10
169.144927536
 20
167.899756007
 11
165.744927536
 21
155.288649790
  0
DIMENSION
  8
1
 62
4
  6
CONTINUOUS
  2
*D78
 70
1
 10
73.144927536
 20
146.594202899
 11
73.144927536
 21
161.594202899
 14
85.244927536
 24
146.594202899
 13
85.244927536
 23
176.594202899
 50
90.000000000
  0
TEXT
  8
1
 62
3
  6
CONTINUOUS
 72
5
 10
104.844927536
 20
99.439750160
 40
4.000000000
  1
ＡＭ－３０２０ＲＡ
 41
0.834566215
 11
140.044927536
 21
99.439750160
  0
DIMENSION
  8
1
 62
4
  6
CONTINUOUS
  2
*D80
 70
1
 10
160.144927536
 20
192.594202899
 11
122.644927536
 21
192.594202899
 14
160.144927536
 24
176.494202899
 13
85.144927536
 23
176.494202899
 50
0.000000000
  0
LINE
  8
1
 62
7
  6
CONTINUOUS
 10
240.586869106
 20
103.845821927
 11
227.636338031
 21
104.978846583
  0
LINE
  8
1
 62
7
  6
CONTINUOUS
 10
228.432813669
 20
119.819461408
 11
227.181818554
 21
105.520521803
  0
ARC
  8
1
 62
7
  6
CONTINUOUS
 10
236.331486483
 20
129.785712074
 40
10.625000000
 50
239.942384582
 51
290.057615418
  0
ARC
  8
1
 62
7
  6
CONTINUOUS
 10
242.426834688
 20
127.745153069
 40
2.031250000
 50
85.000000000
 51
144.489762594
  0
LINE
  8
1
 62
7
  6
CONTINUOUS
 10
242.378819603
 20
118.591053207
 11
228.432173387
 21
119.811226645
  0
ARC
  8
1
 62
7
  6
CONTINUOUS
 10
241.694069582
 20
120.519025597
 40
1.860955976
 50
202.557708232
 51
314.106605351
  0
ARC
  8
1
 62
7
  6
CONTINUOUS
 10
235.451623160
 20
119.728828274
 40
10.625000000
 50
59.942384582
 51
110.057615418
  0
LINE
  8
1
 62
7
  6
CONTINUOUS
 10
229.454415942
 20
102.812145701
 11
229.628727427
 21
104.804535097
  0
LINE
  8
1
 62
7
  6
CONTINUOUS
 10
227.181818554
 20
105.520521803
 11
227.636338031
 21
104.978846583
  0
LINE
  8
1
 62
7
  6
CONTINUOUS
 10
240.586869106
 20
103.845821927
 11
241.128544327
 21
104.300341405
  0
LINE
  8
1
 62
7
  6
CONTINUOUS
 10
241.128544327
 20
104.300341405
 11
227.181818554
 21
105.520521803
  0
DIMENSION
  8
1
 62
4
  6
CONTINUOUS
  2
*D92
 70
0
 10
227.922577771
 20
113.987438408
 11
217.519835707
 21
114.897560408
 14
227.744598117
 24
111.953121652
 13
241.712757455
 23
110.977928020
 50
355.000000000
  0
LINE
  8
1
 62
7
  6
CONTINUOUS
 10
234.641093918
 20
153.490861313
 11
233.385361295
 21
139.137771752
  0
LINE
  8
1
 62
7
  6
CONTINUOUS
 10
241.354918880
 20
138.440525810
 11
232.887263946
 21
139.181349623
  0
LINE
  8
1
 62
7
  6
CONTINUOUS
 10
232.887263946
 20
139.181349623
 11
232.451485232
 21
134.200376133
  0
LINE
  8
1
 62
7
  6
CONTINUOUS
 10
241.354918880
 20
138.440525810
 11
240.919140166
 21
133.459552319
  0
LINE
  8
1
 62
7
  6
CONTINUOUS
 10
235.128702016
 20
138.985249202
 11
234.692923303
 21
134.004275711
  0
LINE
  8
1
 62
7
  6
CONTINUOUS
 10
241.666427261
 20
147.737939523
 11
240.856821530
 21
138.484103681
  0
LINE
  8
1
 62
1
  6
CONTINUOUS
 10
232.111688641
 20
130.686620456
 11
232.301082234
 21
134.074173032
  0
LINE
  8
1
 62
1
  6
CONTINUOUS
 10
240.643617213
 20
129.940173428
 11
241.045343266
 21
133.309149321
  0
LINE
  8
1
 62
7
  6
CONTINUOUS
 10
232.451485232
 20
134.200376133
 11
231.768762860
 21
133.627504042
  0
LINE
  8
1
 62
7
  6
CONTINUOUS
 10
241.492012256
 20
132.776829947
 11
240.919140166
 21
133.459552319
  0
LINE
  8
2
 62
7
  6
CONTINUOUS
 10
231.768762860
 20
133.627504042
 11
241.492012256
 21
132.776829947
  0
LINE
  8
1
 62
7
  6
CONTINUOUS
 10
239.113480809
 20
138.636626231
 11
238.677702095
 21
133.655652740
  0
LINE
  8
2
 62
7
  6
CONTINUOUS
 10
232.451485232
 20
134.200376133
 11
240.919140166
 21
133.459552319
  0
LINE
  8
1
 62
7
  6
CONTINUOUS
 10
231.606811485
 20
130.730791483
 11
231.768762860
 21
133.627504042
  0
LINE
  8
1
 62
7
  6
CONTINUOUS
 10
241.148494369
 20
129.896002400
 11
241.492012256
 21
132.776829947
  0
ARC
  8
1
 62
7
  6
CONTINUOUS
 10
252.531206030
 20
120.107756179
 40
2.031250000
 50
281.451825822
 51
334.489762594
  0
LINE
  8
1
 62
7
  6
CONTINUOUS
 10
266.803376797
 20
120.476511586
 11
264.911626184
 21
119.151893547
  0
LINE
  8
1
 62
7
  6
CONTINUOUS
 10
250.862186750
 20
119.105735664
 11
252.957369364
 21
118.106031594
  0
ARC
  8
1
 62
7
  6
CONTINUOUS
 10
264.365513751
 20
128.262415537
 40
2.031250000
 50
95.000000000
 51
154.489762594
  0
LINE
  8
1
 62
7
  6
CONTINUOUS
 10
163.344927536
 20
146.694202899
 11
163.344927536
 21
153.559458614
  0
LINE
  8
1
 62
7
  6
CONTINUOUS
 10
163.344927536
 20
153.559458614
 11
170.944927536
 21
153.559458614
  0
LINE
  8
1
 62
7
  6
CONTINUOUS
 10
170.944927536
 20
153.559458614
 11
170.944927536
 21
146.694202899
  0
LINE
  8
3
 62
7
  6
CONTINUOUS
 10
170.944927536
 20
146.694202899
 11
173.144927536
 21
146.694202899
  0
LINE
  8
1
 62
7
  6
CONTINUOUS
 10
254.381876522
 20
101.822923971
 11
266.336212899
 21
102.868792884
  0
LINE
  8
1
 62
7
  6
CONTINUOUS
 10
263.330178394
 20
120.017354631
 11
262.532293669
 21
129.137218770
  0
LINE
  8
1
 62
7
  6
CONTINUOUS
 10
254.294720779
 20
102.819118670
 11
254.381876522
 21
101.822923971
  0
LINE
  8
1
 62
7
  6
CONTINUOUS
 10
266.336212899
 20
102.868792884
 11
266.249057156
 21
103.864987582
  0
LINE
  8
1
 62
7
  6
CONTINUOUS
 10
264.911626184
 20
119.151893547
 11
266.031167799
 21
106.355474328
  0
LINE
  8
1
 62
7
  6
CONTINUOUS
 10
265.576648322
 20
105.813799107
 11
254.618506643
 21
104.855085937
  0
LINE
  8
1
 62
7
  6
CONTINUOUS
 10
252.956569967
 20
118.114252436
 11
254.076831422
 21
105.309605415
  0
LINE
  8
1
 62
7
  6
CONTINUOUS
 10
264.911626184
 20
119.151893547
 11
252.957369364
 21
118.106031594
  0
LINE
  8
1
 62
7
  6
CONTINUOUS
 10
251.736044922
 20
129.196489233
 11
250.079859943
 21
128.047771985
  0
LINE
  8
1
 62
7
  6
CONTINUOUS
 10
264.188478648
 20
130.285936018
 11
266.018975112
 21
129.442263869
  0
LINE
  8
1
 62
7
  6
CONTINUOUS
 10
250.079859943
 20
128.047771985
 11
250.862186750
 21
119.105735664
  0
LINE
  8
1
 62
7
  6
CONTINUOUS
 10
255.789012826
 20
102.949852284
 11
255.614701341
 21
104.942241680
  0
LINE
  8
1
 62
7
  6
CONTINUOUS
 10
254.076831422
 20
105.309605415
 11
254.618506643
 21
104.855085937
  0
LINE
  8
1
 62
7
  6
CONTINUOUS
 10
265.576648322
 20
105.813799107
 11
266.031167799
 21
106.355474328
  0
LINE
  8
1
 62
7
  6
CONTINUOUS
 10
266.031167799
 20
106.355474328
 11
254.076831422
 21
105.309605415
  0
LINE
  8
1
 62
7
  6
CONTINUOUS
 10
254.364426111
 20
119.232952946
 11
253.566541386
 21
128.352817085
  0
LINE
  8
1
 62
7
  6
CONTINUOUS
 10
266.018975112
 20
129.442263869
 11
266.803376797
 21
120.476511586
  0
ARC
  8
1
 62
7
  6
CONTINUOUS
 10
251.913080024
 20
127.172968753
 40
2.031250000
 50
35.510237406
 51
95.000000000
  0
ARC
  8
1
 62
7
  6
CONTINUOUS
 10
258.008428229
 20
129.213527758
 40
10.625000000
 50
249.942384582
 51
300.057615418
  0
ARC
  8
1
 62
7
  6
CONTINUOUS
 10
264.983639756
 20
121.197202963
 40
2.031250000
 50
215.510237406
 51
268.560735571
  0
ARC
  8
1
 62
7
  6
CONTINUOUS
 10
258.888291552
 20
119.156643958
 40
10.625000000
 50
69.942384582
 51
120.057615418
  0
LINE
  8
1
 62
7
  6
CONTINUOUS
 10
262.555759877
 20
133.136883242
 11
261.881947710
 21
133.702278783
  0
LINE
  8
1
 62
7
  6
CONTINUOUS
 10
253.414292776
 20
132.961454970
 11
252.841420686
 21
132.278732598
  0
LINE
  8
1
 62
7
  6
CONTINUOUS
 10
253.414292776
 20
132.961454970
 11
253.683203633
 21
132.984981621
  0
LINE
  8
1
 62
7
  6
CONTINUOUS
 10
255.219952133
 20
138.138528882
 11
255.655730847
 21
133.157555391
  0
LINE
  8
1
 62
7
  6
CONTINUOUS
 10
252.978514063
 20
137.942428460
 11
261.446168996
 21
138.683252274
  0
LINE
  8
1
 62
7
  6
CONTINUOUS
 10
262.730774950
 20
130.158403469
 11
262.564670082
 21
133.129406693
  0
LINE
  8
1
 62
7
  6
CONTINUOUS
 10
253.193748620
 20
129.324021782
 11
252.841420686
 21
132.278732598
  0
LINE
  8
2
 62
7
  6
CONTINUOUS
 10
253.414292776
 20
132.961454970
 11
261.881947710
 21
133.702278783
  0
LINE
  8
1
 62
7
  6
CONTINUOUS
 10
252.841420686
 20
132.278732598
 11
262.564670082
 21
133.129406693
  0
LINE
  8
1
 62
1
  6
CONTINUOUS
 10
262.225897794
 20
130.114232442
 11
262.032350708
 21
133.576075683
  0
LINE
  8
1
 62
1
  6
CONTINUOUS
 10
253.698625776
 20
129.368192809
 11
253.288089676
 21
132.811051972
  0
LINE
  8
1
 62
7
  6
CONTINUOUS
 10
259.426895360
 20
153.158370612
 11
260.699022973
 21
138.617885467
  0
LINE
  8
1
 62
7
  6
CONTINUOUS
 10
261.446168996
 20
138.683252274
 11
261.881947710
 21
133.702278783
  0
LINE
  8
1
 62
7
  6
CONTINUOUS
 10
252.978514063
 20
137.942428460
 11
253.414292776
 21
132.961454970
  0
LINE
  8
1
 62
7
  6
CONTINUOUS
 10
252.865783434
 20
147.836230381
 11
253.725660086
 21
138.007795267
  0
LINE
  8
1
 62
7
  6
CONTINUOUS
 10
259.204730926
 20
138.487151853
 11
259.640509639
 21
133.506178362
  0
LINE
  8
1
 62
7
  6
CONTINUOUS
 10
173.144927535
 20
101.423750160
 11
173.144927535
 21
102.423750160
  0
LINE
  8
1
 62
7
  6
CONTINUOUS
 10
171.644927535
 20
120.269050160
 11
171.644927535
 21
129.423750699
  0
ARC
  8
1
 62
7
  6
CONTINUOUS
 10
160.894927535
 20
128.392500699
 40
2.031250000
 50
30.510237406
 51
90.000000000
  0
LINE
  8
1
 62
7
  6
CONTINUOUS
 10
174.144927535
 20
119.269050160
 11
174.144927535
 21
104.923750160
  0
DIMENSION
  8
1
 62
4
  6
CONTINUOUS
  2
*D157
 70
1
 10
185.644927536
 20
146.694202899
 11
185.644927536
 21
161.594202899
 14
173.144927536
 24
146.694202899
 13
173.144927536
 23
176.494202899
 50
90.000000000
  0
TEXT
  8
1
 62
4
  6
CONTINUOUS
 72
5
 10
207.584490104
 20
93.888413783
 40
3.200000000
  1
（排気）
 41
0.722783070
 11
218.095259334
 21
93.888413783
  0
TEXT
  8
1
 62
4
  6
CONTINUOUS
 72
5
 10
275.872690960
 20
93.888413783
 40
3.200000000
  1
（給気）
 41
0.722783070
 11
286.383460191
 21
93.888413783
  0
LINE
  8
1
 62
7
  6
CONTINUOUS
 10
161.144927535
 20
101.423750160
 11
173.144927535
 21
101.423750160
  0
LINE
  8
1
 62
7
  6
CONTINUOUS
 10
160.894927535
 20
130.423750699
 11
159.144927535
 21
129.423750699
  0
LINE
  8
1
 62
7
  6
CONTINUOUS
 10
175.144927535
 20
129.423750699
 11
175.144927535
 21
120.423750699
  0
LINE
  8
1
 62
7
  6
CONTINUOUS
 10
171.644927535
 20
104.423750160
 11
171.644927535
 21
102.423750160
  0
LINE
  8
1
 62
7
  6
CONTINUOUS
 10
173.144927535
 20
102.423750160
 11
161.144927535
 21
102.423750160
  0
LINE
  8
1
 62
7
  6
CONTINUOUS
 10
159.144927535
 20
120.447557252
 11
160.145007396
 21
119.269050160
  0
LINE
  8
1
 62
7
  6
CONTINUOUS
 10
175.144927535
 20
120.423750699
 11
174.144927535
 21
119.269050160
  0
ARC
  8
1
 62
7
  6
CONTINUOUS
 10
161.001576131
 20
121.119352078
 40
1.850301917
 50
220.317900462
 51
332.642077288
  0
LINE
  8
1
 62
7
  6
CONTINUOUS
 10
162.644927535
 20
120.269050160
 11
162.644927535
 21
129.423750699
  0
LINE
  8
1
 62
7
  6
CONTINUOUS
 10
160.894927535
 20
130.423750699
 11
173.394927535
 21
130.423750699
  0
LINE
  8
1
 62
7
  6
CONTINUOUS
 10
159.144927535
 20
129.423750699
 11
159.144927535
 21
120.447557252
  0
LINE
  8
1
 62
7
  6
CONTINUOUS
 10
173.644927535
 20
104.423750160
 11
160.644927535
 21
104.423750160
  0
LINE
  8
1
 62
7
  6
CONTINUOUS
 10
160.144927535
 20
119.277309391
 11
160.144927535
 21
104.923750160
  0
ARC
  8
1
 62
7
  6
CONTINUOUS
 10
167.144927535
 20
129.894050160
 40
10.625000000
 50
244.942384582
 51
295.057615418
  0
ARC
  8
1
 62
7
  6
CONTINUOUS
 10
173.394927535
 20
128.392500699
 40
2.031250000
 50
90.000000000
 51
149.489762594
  0
LINE
  8
1
 62
7
  6
CONTINUOUS
 10
174.144927535
 20
119.269050160
 11
160.145007396
 21
119.269050160
  0
ARC
  8
1
 62
7
  6
CONTINUOUS
 10
173.294749329
 20
121.130006136
 40
1.860955976
 50
207.557708232
 51
319.106605351
  0
ARC
  8
1
 62
7
  6
CONTINUOUS
 10
167.144927535
 20
119.798750699
 40
10.625000000
 50
64.942384582
 51
115.057615418
  0
LINE
  8
1
 62
7
  6
CONTINUOUS
 10
162.644927535
 20
102.423750160
 11
162.644927535
 21
104.423750160
  0
LINE
  8
1
 62
7
  6
CONTINUOUS
 10
160.144927535
 20
104.923750160
 11
160.644927535
 21
104.423750160
  0
LINE
  8
1
 62
7
  6
CONTINUOUS
 10
173.644927535
 20
104.423750160
 11
174.144927535
 21
104.923750160
  0
LINE
  8
1
 62
7
  6
CONTINUOUS
 10
174.144927535
 20
104.923750160
 11
160.144927535
 21
104.923750160
  0
LINE
  8
1
 62
7
  6
CONTINUOUS
 10
163.394927535
 20
153.559458614
 11
163.394927535
 21
138.953750699
  0
LINE
  8
1
 62
7
  6
CONTINUOUS
 10
171.394927535
 20
138.953750699
 11
162.894927535
 21
138.953750699
  0
LINE
  8
1
 62
7
  6
CONTINUOUS
 10
162.894927535
 20
138.953750699
 11
162.894927535
 21
133.953750699
  0
LINE
  8
1
 62
7
  6
CONTINUOUS
 10
171.394927535
 20
138.953750699
 11
171.394927535
 21
133.953750699
  0
LINE
  8
1
 62
7
  6
CONTINUOUS
 10
165.144927535
 20
138.953750699
 11
165.144927535
 21
133.953750699
  0
LINE
  8
1
 62
7
  6
CONTINUOUS
 10
170.894927535
 20
153.559458614
 11
170.894927535
 21
138.953750699
  0
LINE
  8
1
 62
1
  6
CONTINUOUS
 10
162.862667958
 20
130.423750699
 11
162.756096190
 21
133.814919354
  0
LINE
  8
1
 62
1
  6
CONTINUOUS
 10
171.427187111
 20
130.423750699
 11
171.533758879
 21
133.814919354
  0
LINE
  8
1
 62
7
  6
CONTINUOUS
 10
162.894927535
 20
133.953750699
 11
162.264732220
 21
133.323555384
  0
LINE
  8
1
 62
7
  6
CONTINUOUS
 10
172.025122849
 20
133.323555384
 11
171.394927535
 21
133.953750699
  0
LINE
  8
2
 62
7
  6
CONTINUOUS
 10
162.264732220
 20
133.323555384
 11
172.025122849
 21
133.323555384
  0
LINE
  8
1
 62
7
  6
CONTINUOUS
 10
169.144927535
 20
138.953750699
 11
169.144927535
 21
133.953750699
  0
LINE
  8
2
 62
7
  6
CONTINUOUS
 10
162.894927535
 20
133.953750699
 11
171.394927535
 21
133.953750699
  0
LINE
  8
1
 62
7
  6
CONTINUOUS
 10
162.355862254
 20
130.423750699
 11
162.264732220
 21
133.323555384
  0
LINE
  8
1
 62
7
  6
CONTINUOUS
 10
171.933992815
 20
130.423750699
 11
172.025122849
 21
133.323555384
  0
ENDSEC
  0
EOF
