  0
SECTION
  2
HEADER
  9
$ACADVER
  1
AC1015
  9
$ACADMAINTVER
 70
     6
  9
$DWGCODEPAGE
  3
DOS932
  9
$INSBASE
 10
0.0
 20
0.0
 30
0.0
  9
$EXTMIN
 10
0.0
 20
0.0
 30
0.0
  9
$EXTMAX
 10
297.0
 20
210.0
 30
0.0
  9
$LIMMIN
 10
0.0
 20
0.0
  9
$LIMMAX
 10
297.0
 20
210.0
  9
$ORTHOMODE
 70
     0
  9
$REGENMODE
 70
     1
  9
$FILLMODE
 70
     1
  9
$QTEXTMODE
 70
     0
  9
$MIRRTEXT
 70
     1
  9
$LTSCALE
 40
1.0
  9
$ATTMODE
 70
     1
  9
$TEXTSIZE
 40
3.2
  9
$TRACEWID
 40
1.0
  9
$TEXTSTYLE
  7
Standard
  9
$CLAYER
  8
0
  9
$CELTYPE
  6
ByLayer
  9
$CECOLOR
 62
   256
  9
$CELTSCALE
 40
1.0
  9
$DISPSILH
 70
     0
  9
$DIMSCALE
 40
1.0
  9
$DIMASZ
 40
2.0
  9
$DIMEXO
 40
0.01
  9
$DIMDLI
 40
3.75
  9
$DIMRND
 40
0.0
  9
$DIMDLE
 40
0.0
  9
$DIMEXE
 40
0.8
  9
$DIMTP
 40
0.0
  9
$DIMTM
 40
0.0
  9
$DIMTXT
 40
3.0
  9
$DIMCEN
 40
2.5
  9
$DIMTSZ
 40
0.0
  9
$DIMTOL
 70
     0
  9
$DIMLIM
 70
     0
  9
$DIMTIH
 70
     1
  9
$DIMTOH
 70
     1
  9
$DIMSE1
 70
     0
  9
$DIMSE2
 70
     0
  9
$DIMTAD
 70
     1
  9
$DIMZIN
 70
     0
  9
$DIMBLK
  1

  9
$DIMASO
 70
     1
  9
$DIMSHO
 70
     1
  9
$DIMPOST
  1

  9
$DIMAPOST
  1

  9
$DIMALT
 70
     0
  9
$DIMALTD
 70
     3
  9
$DIMALTF
 40
0.0393700787
  9
$DIMLFAC
 40
1.0
  9
$DIMTOFL
 70
     1
  9
$DIMTVP
 40
0.0
  9
$DIMTIX
 70
     0
  9
$DIMSOXD
 70
     0
  9
$DIMSAH
 70
     0
  9
$DIMBLK1
  1

  9
$DIMBLK2
  1

  9
$DIMSTYLE
  2
ISO-25
  9
$DIMCLRD
 70
     0
  9
$DIMCLRE
 70
     0
  9
$DIMCLRT
 70
     0
  9
$DIMTFAC
 40
1.0
  9
$DIMGAP
 40
1.0
  9
$DIMJUST
 70
     0
  9
$DIMSD1
 70
     0
  9
$DIMSD2
 70
     0
  9
$DIMTOLJ
 70
     0
  9
$DIMTZIN
 70
     0
  9
$DIMALTZ
 70
     0
  9
$DIMALTTZ
 70
     0
  9
$DIMUPT
 70
     0
  9
$DIMDEC
 70
     3
  9
$DIMTDEC
 70
     2
  9
$DIMALTU
 70
     2
  9
$DIMALTTD
 70
     3
  9
$DIMTXSTY
  7
Standard
  9
$DIMAUNIT
 70
     0
  9
$DIMADEC
 70
     3
  9
$DIMALTRND
 40
0.0
  9
$DIMAZIN
 70
     0
  9
$DIMDSEP
 70
    44
  9
$DIMATFIT
 70
     3
  9
$DIMFRAC
 70
     0
  9
$DIMLDRBLK
  1

  9
$DIMLUNIT
 70
     2
  9
$DIMLWD
 70
    -2
  9
$DIMLWE
 70
    -2
  9
$DIMTMOVE
 70
     0
  9
$LUNITS
 70
     2
  9
$LUPREC
 70
     3
  9
$SKETCHINC
 40
1.0
  9
$FILLETRAD
 40
10.0
  9
$AUNITS
 70
     0
  9
$AUPREC
 70
     3
  9
$MENU
  1
.
  9
$ELEVATION
 40
0.0
  9
$PELEVATION
 40
0.0
  9
$THICKNESS
 40
0.0
  9
$LIMCHECK
 70
     0
  9
$CHAMFERA
 40
10.0
  9
$CHAMFERB
 40
10.0
  9
$CHAMFERC
 40
20.0
  9
$CHAMFERD
 40
0.0
  9
$SKPOLY
 70
     0
  9
$TDCREATE
 40
2458297.456122743
  9
$TDUCREATE
 40
2458297.081122743
  9
$TDUPDATE
 40
2458297.456126852
  9
$TDUUPDATE
 40
2458297.081126852
  9
$TDINDWG
 40
0.0000000116
  9
$TDUSRTIMER
 40
0.0000000116
  9
$USRTIMER
 70
     1
  9
$ANGBASE
 50
0.0
  9
$ANGDIR
 70
     0
  9
$PDMODE
 70
     0
  9
$PDSIZE
 40
-1.0
  9
$PLINEWID
 40
0.0
  9
$SPLFRAME
 70
     0
  9
$SPLINETYPE
 70
     6
  9
$SPLINESEGS
 70
     8
  9
$HANDSEED
  5
1E8
  9
$SURFTAB1
 70
     6
  9
$SURFTAB2
 70
     6
  9
$SURFTYPE
 70
     6
  9
$SURFU
 70
     6
  9
$SURFV
 70
     6
  9
$UCSBASE
  2

  9
$UCSNAME
  2

  9
$UCSORG
 10
0.0
 20
0.0
 30
0.0
  9
$UCSXDIR
 10
1.0
 20
0.0
 30
0.0
  9
$UCSYDIR
 10
0.0
 20
1.0
 30
0.0
  9
$UCSORTHOREF
  2

  9
$UCSORTHOVIEW
 70
     0
  9
$UCSORGTOP
 10
0.0
 20
0.0
 30
0.0
  9
$UCSORGBOTTOM
 10
0.0
 20
0.0
 30
0.0
  9
$UCSORGLEFT
 10
0.0
 20
0.0
 30
0.0
  9
$UCSORGRIGHT
 10
0.0
 20
0.0
 30
0.0
  9
$UCSORGFRONT
 10
0.0
 20
0.0
 30
0.0
  9
$UCSORGBACK
 10
0.0
 20
0.0
 30
0.0
  9
$PUCSBASE
  2

  9
$PUCSNAME
  2

  9
$PUCSORG
 10
0.0
 20
0.0
 30
0.0
  9
$PUCSXDIR
 10
1.0
 20
0.0
 30
0.0
  9
$PUCSYDIR
 10
0.0
 20
1.0
 30
0.0
  9
$PUCSORTHOREF
  2

  9
$PUCSORTHOVIEW
 70
     0
  9
$PUCSORGTOP
 10
0.0
 20
0.0
 30
0.0
  9
$PUCSORGBOTTOM
 10
0.0
 20
0.0
 30
0.0
  9
$PUCSORGLEFT
 10
0.0
 20
0.0
 30
0.0
  9
$PUCSORGRIGHT
 10
0.0
 20
0.0
 30
0.0
  9
$PUCSORGFRONT
 10
0.0
 20
0.0
 30
0.0
  9
$PUCSORGBACK
 10
0.0
 20
0.0
 30
0.0
  9
$USERI1
 70
     0
  9
$USERI2
 70
     0
  9
$USERI3
 70
     0
  9
$USERI4
 70
     0
  9
$USERI5
 70
     0
  9
$USERR1
 40
0.0
  9
$USERR2
 40
0.0
  9
$USERR3
 40
0.0
  9
$USERR4
 40
0.0
  9
$USERR5
 40
0.0
  9
$WORLDVIEW
 70
     1
  9
$SHADEDGE
 70
     3
  9
$SHADEDIF
 70
    70
  9
$TILEMODE
 70
     1
  9
$MAXACTVP
 70
    64
  9
$PINSBASE
 10
0.0
 20
0.0
 30
0.0
  9
$PLIMCHECK
 70
     0
  9
$PEXTMIN
 10
1.0000000000E+20
 20
1.0000000000E+20
 30
1.0000000000E+20
  9
$PEXTMAX
 10
-1.0000000000E+20
 20
-1.0000000000E+20
 30
-1.0000000000E+20
  9
$PLIMMIN
 10
0.0
 20
0.0
  9
$PLIMMAX
 10
420.0
 20
297.0
  9
$UNITMODE
 70
     0
  9
$VISRETAIN
 70
     1
  9
$PLINEGEN
 70
     0
  9
$PSLTSCALE
 70
     1
  9
$TREEDEPTH
 70
  3020
  9
$CMLSTYLE
  2
Standard
  9
$CMLJUST
 70
     0
  9
$CMLSCALE
 40
20.0
  9
$PROXYGRAPHICS
 70
     1
  9
$MEASUREMENT
 70
     1
  9
$CELWEIGHT
370
    -1
  9
$ENDCAPS
280
     0
  9
$JOINSTYLE
280
     0
  9
$LWDISPLAY
290
     1
  9
$INSUNITS
 70
     4
  9
$HYPERLINKBASE
  1

  9
$STYLESHEET
  1

  9
$XEDIT
290
     1
  9
$CEPSNTYPE
380
     0
  9
$PSTYLEMODE
290
     1
  9
$FINGERPRINTGUID
  2
{199F9251-4C1A-41C5-87BB-B38FA3385752}
  9
$VERSIONGUID
  2
{FAEB1C32-E019-11D5-929B-00C0DF256EC4}
  9
$EXTNAMES
290
     1
  9
$PSVPSCALE
 40
0.0
  9
$OLESTARTUP
290
     0
  0
ENDSEC
  0
SECTION
  2
CLASSES
  0
CLASS
  1
ACDBDICTIONARYWDFLT
  2
AcDbDictionaryWithDefault
  3
ObjectDBX Classes
 90
        0
280
     0
281
     0
  0
CLASS
  1
VISUALSTYLE
  2
AcDbVisualStyle
  3
ObjectDBX Classes
 90
     4095
280
     0
281
     0
  0
CLASS
  1
MATERIAL
  2
AcDbMaterial
  3
ObjectDBX Classes
 90
     1153
280
     0
281
     0
  0
CLASS
  1
ACDBPLACEHOLDER
  2
AcDbPlaceHolder
  3
ObjectDBX Classes
 90
        0
280
     0
281
     0
  0
CLASS
  1
LAYOUT
  2
AcDbLayout
  3
ObjectDBX Classes
 90
        0
280
     0
281
     0
  0
ENDSEC
  0
SECTION
  2
TABLES
  0
TABLE
  2
VPORT
  5
8
330
0
100
AcDbSymbolTable
 70
     1
  0
VPORT
  5
29
330
8
100
AcDbSymbolTableRecord
100
AcDbViewportTableRecord
  2
*Active
 70
     0
 10
0.0
 20
0.0
 11
1.0
 21
1.0
 12
148.5
 22
105.0
 13
0.0
 23
0.0
 14
10.0
 24
10.0
 15
10.0
 25
10.0
 16
0.0
 26
0.0
 36
1.0
 17
0.0
 27
0.0
 37
0.0
 40
210.0
 41
1.4142857143
 42
50.0
 43
0.0
 44
0.0
 50
0.0
 51
0.0
 71
     0
 72
  2000
 73
     1
 74
     3
 75
     0
 76
     0
 77
     0
 78
     0
281
     0
 65
     1
110
0.0
120
0.0
130
0.0
111
1.0
121
0.0
131
0.0
112
0.0
122
1.0
132
0.0
 79
     0
146
0.0
  0
ENDTAB
  0
TABLE
  2
LTYPE
  5
5
330
0
100
AcDbSymbolTable
 70
     6
  0
LTYPE
  5
14
330
5
100
AcDbSymbolTableRecord
100
AcDbLinetypeTableRecord
  2
ByBlock
 70
     0
  3

 72
    65
 73
     0
 40
0.0
  0
LTYPE
  5
15
330
5
100
AcDbSymbolTableRecord
100
AcDbLinetypeTableRecord
  2
ByLayer
 70
     0
  3

 72
    65
 73
     0
 40
0.0
  0
LTYPE
  5
16
330
5
100
AcDbSymbolTableRecord
100
AcDbLinetypeTableRecord
  2
Continuous
 70
     0
  3
Solid line
 72
    65
 73
     0
 40
0.0
  0
LTYPE
  5
3F
330
5
100
AcDbSymbolTableRecord
100
AcDbLinetypeTableRecord
  2
HIDDEN
 70
     0
  3
Hidden __ __ __ __ __ __ __ __ __ __ __ __ __ __
 72
    65
 73
     2
 40
1.905
 49
1.27
 74
     0
 49
-0.635
 74
     0
  0
LTYPE
  5
40
330
5
100
AcDbSymbolTableRecord
100
AcDbLinetypeTableRecord
  2
PHANTOM
 70
     0
  3
Phantom ______  __  __  ______  __  __  ______
 72
    65
 73
     6
 40
12.7
 49
6.35
 74
     0
 49
-1.27
 74
     0
 49
1.27
 74
     0
 49
-1.27
 74
     0
 49
1.27
 74
     0
 49
-1.27
 74
     0
  0
LTYPE
  5
41
330
5
100
AcDbSymbolTableRecord
100
AcDbLinetypeTableRecord
  2
CENTER
 70
     0
  3
Center ____ _ ____ _ ____ _ ____ _ ____ _ ____
 72
    65
 73
     4
 40
10.16
 49
6.35
 74
     0
 49
-1.27
 74
     0
 49
1.27
 74
     0
 49
-1.27
 74
     0
  0
LTYPE
  5
42
330
5
100
AcDbSymbolTableRecord
100
AcDbLinetypeTableRecord
  2
CENTERX2
 70
     0
  3
Center (2x) ________  __  ________  __  _____
 72
    65
 73
     4
 40
20.32
 49
12.7
 74
     0
 49
-2.54
 74
     0
 49
2.54
 74
     0
 49
-2.54
 74
     0
  0
LTYPE
  5
43
330
5
100
AcDbSymbolTableRecord
100
AcDbLinetypeTableRecord
  2
DOT2
 70
     0
  3
Dot (.5x) ........................................
 72
    65
 73
     2
 40
0.635
 49
0.0
 74
     0
 49
-0.635
 74
     0
  0
ENDTAB
  0
TABLE
  2
LAYER
  5
2
330
0
100
AcDbSymbolTable
 70
     3
  0
LAYER
  5
10
330
2
100
AcDbSymbolTableRecord
100
AcDbLayerTableRecord
  2
0
 70
     0
 62
     7
  6
Continuous
370
    -3
390
F
  0
LAYER
  5
44
330
2
100
AcDbSymbolTableRecord
100
AcDbLayerTableRecord
  2
SLD-0
 70
     0
 62
  -179
  6
Continuous
370
    -3
390
F
  0
LAYER
  5
45
330
2
100
AcDbSymbolTableRecord
100
AcDbLayerTableRecord
  2
1
 70
     0
 62
   179
  6
Continuous
370
    -3
390
F
  0
ENDTAB
  0
TABLE
  2
STYLE
  5
3
330
0
100
AcDbSymbolTable
 70
     2
  0
STYLE
  5
11
330
3
100
AcDbSymbolTableRecord
100
AcDbTextStyleTableRecord
  2
Standard
 70
     0
 40
0.0
 41
1.0
 50
0.0
 71
     0
 42
3.2
  3
txt
  4
bigfont
  0
STYLE
  5
192
330
3
100
AcDbSymbolTableRecord
100
AcDbTextStyleTableRecord
  2
SLDTEXTSTYLE0
 70
     0
 40
0.0
 41
0.7
 50
0.0
 71
     0
 42
0.2
  3
TXT
  4
bigfont
  0
ENDTAB
  0
TABLE
  2
VIEW
  5
6
330
0
100
AcDbSymbolTable
 70
     0
  0
ENDTAB
  0
TABLE
  2
UCS
  5
7
330
0
100
AcDbSymbolTable
 70
     0
  0
ENDTAB
  0
TABLE
  2
APPID
  5
9
330
0
100
AcDbSymbolTable
 70
     1
  0
APPID
  5
12
330
9
100
AcDbSymbolTableRecord
100
AcDbRegAppTableRecord
  2
ACAD
 70
     0
  0
ENDTAB
  0
TABLE
  2
DIMSTYLE
  5
A
330
0
100
AcDbSymbolTable
 70
     3
100
AcDbDimStyleTable
  0
DIMSTYLE
105
27
330
A
100
AcDbSymbolTableRecord
100
AcDbDimStyleTableRecord
  2
ISO-25
 70
     0
 41
2.5
 42
0.625
 43
3.75
 44
1.25
 73
     0
 74
     0
 77
     1
 78
     8
140
2.5
141
2.5
143
0.0393700787
147
0.625
171
     3
172
     1
178
     0
271
     2
272
     2
274
     3
278
    44
283
     0
284
     8
340
11
  0
DIMSTYLE
105
193
102
{ACAD_REACTORS
330
191
330
1A3
330
1AF
330
1B9
330
1D4
102
}
330
A
100
AcDbSymbolTableRecord
100
AcDbDimStyleTableRecord
  2
SLDDIMSTYLE0
 70
     0
 41
2.0
 44
0.0
 45
0.000000001
 73
     0
 74
     0
 77
     3
 78
    12
 79
     3
140
3.0
147
0.75
173
     1
178
     0
271
     3
272
     2
276
     2
284
    12
340
192
341
194
343
194
344
194
  0
DIMSTYLE
105
1C4
102
{ACAD_REACTORS
330
1C3
102
}
330
A
100
AcDbSymbolTableRecord
100
AcDbDimStyleTableRecord
  2
SLDDIMSTYLE1
 70
     0
 41
2.0
 44
0.0
 45
0.000000001
 47
-0.02
 48
0.03
 71
     1
 73
     0
 74
     0
 77
     3
 78
    12
 79
     3
140
3.0
147
0.75
173
     1
178
     0
271
     3
272
     2
276
     2
284
     8
340
192
341
194
343
194
344
194
  0
ENDTAB
  0
TABLE
  2
BLOCK_RECORD
  5
1
330
0
100
AcDbSymbolTable
 70
     9
  0
BLOCK_RECORD
  5
1F
330
1
100
AcDbSymbolTableRecord
100
AcDbBlockTableRecord
  2
*Model_Space
340
22
  0
BLOCK_RECORD
  5
1B
330
1
100
AcDbSymbolTableRecord
100
AcDbBlockTableRecord
  2
*Paper_Space
340
1E
  0
BLOCK_RECORD
  5
23
330
1
100
AcDbSymbolTableRecord
100
AcDbBlockTableRecord
  2
*Paper_Space0
340
26
  0
BLOCK_RECORD
  5
46
330
1
100
AcDbSymbolTableRecord
100
AcDbBlockTableRecord
  2
SW_BROKEN_VIEW_0
340
0
102
{BLKREFS
331
49
102
}
  0
BLOCK_RECORD
  5
194
330
1
100
AcDbSymbolTableRecord
100
AcDbBlockTableRecord
  2
_OPEN30
340
0
102
{BLKREFS
331
19D
331
19E
331
1A9
331
1AA
331
1B3
331
1B4
331
1BD
331
1BE
331
1C8
331
1C9
331
1D8
331
1D9
102
}
  0
BLOCK_RECORD
  5
19A
330
1
100
AcDbSymbolTableRecord
100
AcDbBlockTableRecord
  2
_D
340
0
  0
BLOCK_RECORD
  5
1A4
330
1
100
AcDbSymbolTableRecord
100
AcDbBlockTableRecord
  2
_D_1
340
0
  0
BLOCK_RECORD
  5
1B0
330
1
100
AcDbSymbolTableRecord
100
AcDbBlockTableRecord
  2
_D_2
340
0
  0
BLOCK_RECORD
  5
1BA
330
1
100
AcDbSymbolTableRecord
100
AcDbBlockTableRecord
  2
_D_3
340
0
  0
BLOCK_RECORD
  5
1C5
330
1
100
AcDbSymbolTableRecord
100
AcDbBlockTableRecord
  2
_D_4
340
0
  0
BLOCK_RECORD
  5
1D5
330
1
100
AcDbSymbolTableRecord
100
AcDbBlockTableRecord
  2
_D_5
340
0
  0
ENDTAB
  0
ENDSEC
  0
SECTION
  2
BLOCKS
  0
BLOCK
  5
20
330
1F
100
AcDbEntity
  8
0
100
AcDbBlockBegin
  2
*Model_Space
 70
     0
 10
0.0
 20
0.0
 30
0.0
  3
*Model_Space
  1

  0
ENDBLK
  5
21
330
1F
100
AcDbEntity
  8
0
100
AcDbBlockEnd
  0
BLOCK
  5
1C
330
1B
100
AcDbEntity
 67
     1
  8
0
100
AcDbBlockBegin
  2
*Paper_Space
 70
     0
 10
0.0
 20
0.0
 30
0.0
  3
*Paper_Space
  1

  0
ENDBLK
  5
1D
330
1B
100
AcDbEntity
 67
     1
  8
0
100
AcDbBlockEnd
  0
BLOCK
  5
24
330
23
100
AcDbEntity
  8
0
100
AcDbBlockBegin
  2
*Paper_Space0
 70
     0
 10
0.0
 20
0.0
 30
0.0
  3
*Paper_Space0
  1

  0
ENDBLK
  5
25
330
23
100
AcDbEntity
  8
0
100
AcDbBlockEnd
  0
BLOCK
  5
47
330
46
100
AcDbEntity
  8
0
100
AcDbBlockBegin
  2
SW_BROKEN_VIEW_0
 70
     0
 10
0.0
 20
0.0
 30
0.0
  3
SW_BROKEN_VIEW_0
  1

  0
ENDBLK
  5
48
330
46
100
AcDbEntity
  8
0
100
AcDbBlockEnd
  0
BLOCK
  5
195
330
194
100
AcDbEntity
  8
0
100
AcDbBlockBegin
  2
_OPEN30
 70
     0
 10
0.0
 20
0.0
 30
0.0
  3
_OPEN30
  1

  0
LINE
  5
197
330
194
100
AcDbEntity
  8
0
  6
ByBlock
 62
     0
370
    -2
100
AcDbLine
 10
-1.0
 20
0.267949
 30
0.0
 11
0.0
 21
0.0
 31
0.0
  0
LINE
  5
198
330
194
100
AcDbEntity
  8
0
  6
ByBlock
 62
     0
370
    -2
100
AcDbLine
 10
0.0
 20
0.0
 30
0.0
 11
-1.0
 21
-0.267949
 31
0.0
  0
LINE
  5
199
330
194
100
AcDbEntity
  8
0
  6
ByBlock
 62
     0
370
    -2
100
AcDbLine
 10
0.0
 20
0.0
 30
0.0
 11
-1.0
 21
0.0
 31
0.0
  0
ENDBLK
  5
196
330
194
100
AcDbEntity
  8
0
100
AcDbBlockEnd
  0
BLOCK
  5
19B
330
19A
100
AcDbEntity
  8
0
100
AcDbBlockBegin
  2
_D
 70
     0
 10
0.0
 20
0.0
 30
0.0
  3
_D
  1

  0
INSERT
  5
19D
330
19A
100
AcDbEntity
  8
1
100
AcDbBlockReference
  2
_OPEN30
 10
151.9736057662
 20
87.8326061188
 30
0.1
 41
2.0
 42
2.0
 50
180.0
  0
INSERT
  5
19E
330
19A
100
AcDbEntity
  8
1
100
AcDbBlockReference
  2
_OPEN30
 10
260.2706787543
 20
87.8326061188
 30
0.1
 41
2.0
 42
2.0
 50
0.0
  0
LINE
  5
19F
330
19A
100
AcDbEntity
  8
1
100
AcDbLine
 10
151.9736057662
 20
107.1726061188
 30
0.0
 11
151.9736057662
 21
87.0326061188
 31
0.0
  0
LINE
  5
1A0
330
19A
100
AcDbEntity
  8
1
100
AcDbLine
 10
260.2706787543
 20
112.8726061188
 30
0.0
 11
260.2706787543
 21
87.0326061188
 31
0.0
  0
LINE
  5
1A1
330
19A
100
AcDbEntity
  8
1
100
AcDbLine
 10
151.9736057662
 20
87.8326061188
 30
0.0
 11
260.2706787543
 21
87.8326061188
 31
0.0
  0
MTEXT
  5
1A2
330
19A
100
AcDbEntity
  8
1
100
AcDbMText
 10
202.4408923437
 20
91.6998092799
 30
0.1
 40
3.0
 41
0.0
 71
     1
 72
     1
  1
(300)
  7
SLDTEXTSTYLE0
 73
     1
 44
1.0
  0
ENDBLK
  5
19C
330
19A
100
AcDbEntity
  8
0
100
AcDbBlockEnd
  0
BLOCK
  5
1A5
330
1A4
100
AcDbEntity
  8
0
100
AcDbBlockBegin
  2
_D_1
 70
     0
 10
0.0
 20
0.0
 30
0.0
  3
_D_1
  1

  0
ARC
  5
1A7
330
1A4
100
AcDbEntity
  8
1
100
AcDbCircle
 10
144.3923556417
 20
99.1163953932
 30
0.0
 40
3.903801973788719
100
AcDbArc
 50
153.4349488229
 51
206.5650511771
  0
ARC
  5
1A8
330
1A4
100
AcDbEntity
  8
1
100
AcDbCircle
 10
143.3548557743
 20
99.1163953932
 30
0.0
 40
3.903801973788693
100
AcDbArc
 50
333.4349488229
 51
26.5650511771
  0
INSERT
  5
1A9
330
1A4
100
AcDbEntity
  8
1
100
AcDbBlockReference
  2
_OPEN30
 10
151.9736057662
 20
97.3705620764
 30
0.1
 41
2.0
 42
2.0
 50
0.0
  0
INSERT
  5
1AA
330
1A4
100
AcDbEntity
  8
1
100
AcDbBlockReference
  2
_OPEN30
 10
135.7736057662
 20
97.3705620764
 30
0.1
 41
2.0
 42
2.0
 50
180.0
  0
LINE
  5
1AB
330
1A4
100
AcDbEntity
  8
1
100
AcDbLine
 10
151.9736057662
 20
107.1726061188
 30
0.0
 11
151.9736057662
 21
96.5705620764
 31
0.0
  0
LINE
  5
1AC
330
1A4
100
AcDbEntity
  8
1
100
AcDbLine
 10
135.7736057662
 20
106.8726061188
 30
0.0
 11
135.7736057662
 21
96.5705620764
 31
0.0
  0
LINE
  5
1AD
330
1A4
100
AcDbEntity
  8
1
100
AcDbLine
 10
151.9736057662
 20
97.3705620764
 30
0.0
 11
135.7736057662
 21
97.3705620764
 31
0.0
  0
MTEXT
  5
1AE
330
1A4
100
AcDbEntity
  8
1
100
AcDbMText
 10
140.9006890081
 20
101.2377652375
 30
0.1
 40
3.0
 41
0.0
 71
     1
 72
     1
  1
16.2
  7
SLDTEXTSTYLE0
 73
     1
 44
1.0
  0
ENDBLK
  5
1A6
330
1A4
100
AcDbEntity
  8
0
100
AcDbBlockEnd
  0
BLOCK
  5
1B1
330
1B0
100
AcDbEntity
  8
0
100
AcDbBlockBegin
  2
_D_2
 70
     0
 10
0.0
 20
0.0
 30
0.0
  3
_D_2
  1

  0
INSERT
  5
1B3
330
1B0
100
AcDbEntity
  8
1
100
AcDbBlockReference
  2
_OPEN30
 10
135.7736057662
 20
97.3705620764
 30
0.1
 41
2.0
 42
2.0
 50
0.0
  0
INSERT
  5
1B4
330
1B0
100
AcDbEntity
  8
1
100
AcDbBlockReference
  2
_OPEN30
 10
41.9736057662
 20
97.3705620764
 30
0.1
 41
2.0
 42
2.0
 50
180.0
  0
LINE
  5
1B5
330
1B0
100
AcDbEntity
  8
1
100
AcDbLine
 10
135.7736057662
 20
106.8726061188
 30
0.0
 11
135.7736057662
 21
96.5705620764
 31
0.0
  0
LINE
  5
1B6
330
1B0
100
AcDbEntity
  8
1
100
AcDbLine
 10
41.9736057662
 20
106.8726061188
 30
0.0
 11
41.9736057662
 21
96.5705620764
 31
0.0
  0
LINE
  5
1B7
330
1B0
100
AcDbEntity
  8
1
100
AcDbLine
 10
135.7736057662
 20
97.3705620764
 30
0.0
 11
41.9736057662
 21
97.3705620764
 31
0.0
  0
MTEXT
  5
1B8
330
1B0
100
AcDbEntity
  8
1
100
AcDbMText
 10
85.9006890663
 20
101.2377652375
 30
0.1
 40
3.0
 41
0.0
 71
     1
 72
     1
  1
93.8
  7
SLDTEXTSTYLE0
 73
     1
 44
1.0
  0
ENDBLK
  5
1B2
330
1B0
100
AcDbEntity
  8
0
100
AcDbBlockEnd
  0
BLOCK
  5
1BB
330
1BA
100
AcDbEntity
  8
0
100
AcDbBlockBegin
  2
_D_3
 70
     0
 10
0.0
 20
0.0
 30
0.0
  3
_D_3
  1

  0
INSERT
  5
1BD
330
1BA
100
AcDbEntity
  8
1
100
AcDbBlockReference
  2
_OPEN30
 10
41.9736057662
 20
87.8326061188
 30
0.1
 41
2.0
 42
2.0
 50
180.0
  0
INSERT
  5
1BE
330
1BA
100
AcDbEntity
  8
1
100
AcDbBlockReference
  2
_OPEN30
 10
151.9736057662
 20
87.8326061188
 30
0.1
 41
2.0
 42
2.0
 50
0.0
  0
LINE
  5
1BF
330
1BA
100
AcDbEntity
  8
1
100
AcDbLine
 10
41.9736057662
 20
106.8726061188
 30
0.0
 11
41.9736057662
 21
87.0326061188
 31
0.0
  0
LINE
  5
1C0
330
1BA
100
AcDbEntity
  8
1
100
AcDbLine
 10
151.9736057662
 20
107.1726061188
 30
0.0
 11
151.9736057662
 21
87.0326061188
 31
0.0
  0
LINE
  5
1C1
330
1BA
100
AcDbEntity
  8
1
100
AcDbLine
 10
41.9736057662
 20
87.8326061188
 30
0.0
 11
151.9736057662
 21
87.8326061188
 31
0.0
  0
MTEXT
  5
1C2
330
1BA
100
AcDbEntity
  8
1
100
AcDbMText
 10
94.3548556746
 20
91.6998092799
 30
0.1
 40
3.0
 41
0.0
 71
     1
 72
     1
  1
110
  7
SLDTEXTSTYLE0
 73
     1
 44
1.0
  0
ENDBLK
  5
1BC
330
1BA
100
AcDbEntity
  8
0
100
AcDbBlockEnd
  0
BLOCK
  5
1C6
330
1C5
100
AcDbEntity
  8
0
100
AcDbBlockBegin
  2
_D_4
 70
     0
 10
0.0
 20
0.0
 30
0.0
  3
_D_4
  1

  0
INSERT
  5
1C8
330
1C5
100
AcDbEntity
  8
1
100
AcDbBlockReference
  2
_OPEN30
 10
28.9736057662
 20
129.6326061188
 30
0.1
 41
2.0
 42
2.0
 50
90.0
  0
INSERT
  5
1C9
330
1C5
100
AcDbEntity
  8
1
100
AcDbBlockReference
  2
_OPEN30
 10
28.9736057662
 20
106.8326061188
 30
0.1
 41
2.0
 42
2.0
 50
270.0
  0
LINE
  5
1CA
330
1C5
100
AcDbEntity
  8
1
100
AcDbLine
 10
57.4136057662
 20
129.6326061188
 30
0.0
 11
28.1736057662
 21
129.6326061188
 31
0.0
  0
LINE
  5
1CB
330
1C5
100
AcDbEntity
  8
1
100
AcDbLine
 10
57.4136057662
 20
106.8326061188
 30
0.0
 11
28.1736057662
 21
106.8326061188
 31
0.0
  0
LINE
  5
1CC
330
1C5
100
AcDbEntity
  8
1
100
AcDbLine
 10
28.9736057662
 20
129.6326061188
 30
0.0
 11
28.9736057662
 21
106.8326061188
 31
0.0
  0
MTEXT
  5
1CD
330
1C5
100
AcDbEntity
  8
1
100
AcDbMText
 10
25.1064026051
 20
109.9932316227
 30
0.1
 40
3.0
 41
0.0
 71
     1
 72
     1
  1
%%c
  7
SLDTEXTSTYLE0
 11
-7.044195017643634E-15
 21
1.0
 31
0.0
 73
     1
 44
1.0
  0
MTEXT
  5
1CE
330
1C5
100
AcDbEntity
  8
1
100
AcDbMText
 10
25.1064026051
 20
113.3103148548
 30
0.1
 40
3.0
 41
0.0
 71
     1
 72
     1
  1
22.8
  7
SLDTEXTSTYLE0
 11
-7.044195017643634E-15
 21
1.0
 31
0.0
 73
     1
 44
1.0
  0
MTEXT
  5
1CF
330
1C5
100
AcDbEntity
  8
1
100
AcDbMText
 10
25.1064026051
 20
120.2873982547
 30
0.1
 40
3.0
 41
0.0
 71
     1
 72
     1
  1

  7
SLDTEXTSTYLE0
 11
-7.044195017643634E-15
 21
1.0
 31
0.0
 73
     1
 44
1.0
  0
MTEXT
  5
1D0
330
1C5
100
AcDbEntity
  8
1
100
AcDbMText
 10
22.9881768767
 20
120.3186485453
 30
0.1
 40
2.4
 41
0.0
 71
     1
 72
     1
  1
-
  7
SLDTEXTSTYLE0
 11
-7.044195017643634E-15
 21
1.0
 31
0.0
 73
     1
 44
1.0
  0
MTEXT
  5
1D1
330
1C5
100
AcDbEntity
  8
1
100
AcDbMText
 10
25.781510137
 20
120.3186485453
 30
0.1
 40
2.4
 41
0.0
 71
     1
 72
     1
  1
-
  7
SLDTEXTSTYLE0
 11
-7.044195017643634E-15
 21
1.0
 31
0.0
 73
     1
 44
1.0
  0
MTEXT
  5
1D2
330
1C5
100
AcDbEntity
  8
1
100
AcDbMText
 10
22.9881768767
 20
121.7153148262
 30
0.1
 40
2.4
 41
0.0
 71
     1
 72
     1
  1
0.02
  7
SLDTEXTSTYLE0
 11
-7.044195017643634E-15
 21
1.0
 31
0.0
 73
     1
 44
1.0
  0
MTEXT
  5
1D3
330
1C5
100
AcDbEntity
  8
1
100
AcDbMText
 10
25.781510137
 20
121.7153148262
 30
0.1
 40
2.4
 41
0.0
 71
     1
 72
     1
  1
0.03
  7
SLDTEXTSTYLE0
 11
-7.044195017643634E-15
 21
1.0
 31
0.0
 73
     1
 44
1.0
  0
ENDBLK
  5
1C7
330
1C5
100
AcDbEntity
  8
0
100
AcDbBlockEnd
  0
BLOCK
  5
1D6
330
1D5
100
AcDbEntity
  8
0
100
AcDbBlockBegin
  2
_D_5
 70
     0
 10
0.0
 20
0.0
 30
0.0
  3
_D_5
  1

  0
INSERT
  5
1D8
330
1D5
100
AcDbEntity
  8
1
100
AcDbBlockReference
  2
_OPEN30
 10
139.9309331048
 20
129.5826061188
 30
0.1
 41
2.0
 42
2.0
 50
90.0
  0
INSERT
  5
1D9
330
1D5
100
AcDbEntity
  8
1
100
AcDbBlockReference
  2
_OPEN30
 10
139.9309331048
 20
106.8826061188
 30
0.1
 41
2.0
 42
2.0
 50
270.0
  0
LINE
  5
1DA
330
1D5
100
AcDbEntity
  8
1
100
AcDbLine
 10
139.9309331048
 20
129.5826061188
 30
0.0
 11
139.9309331048
 21
142.3640639691
 31
0.0
  0
LINE
  5
1DB
330
1D5
100
AcDbEntity
  8
1
100
AcDbLine
 10
139.9309331048
 20
129.5826061188
 30
0.0
 11
139.9309331048
 21
106.8826061188
 31
0.0
  0
MTEXT
  5
1DC
330
1D5
100
AcDbEntity
  8
1
100
AcDbMText
 10
136.0637299437
 20
133.1011482684
 30
0.1
 40
3.0
 41
0.0
 71
     1
 72
     1
  1
%%c
  7
SLDTEXTSTYLE0
 11
-7.044195017643634E-15
 21
1.0
 31
0.0
 73
     1
 44
1.0
  0
MTEXT
  5
1DD
330
1D5
100
AcDbEntity
  8
1
100
AcDbMText
 10
136.0637299437
 20
136.4182315005
 30
0.1
 40
3.0
 41
0.0
 71
     1
 72
     1
  1
22.7
  7
SLDTEXTSTYLE0
 11
-7.044195017643634E-15
 21
1.0
 31
0.0
 73
     1
 44
1.0
  0
ENDBLK
  5
1D7
330
1D5
100
AcDbEntity
  8
0
100
AcDbBlockEnd
  0
ENDSEC
  0
SECTION
  2
ENTITIES
  0
INSERT
  5
49
330
1F
100
AcDbEntity
  8
0
  6
Continuous
 62
     7
100
AcDbBlockReference
  2
SW_BROKEN_VIEW_0
 10
0.0
 20
0.0
 30
0.0
  0
ARC
  5
4A
330
1F
100
AcDbEntity
  8
0
  6
Continuous
 62
     7
370
    30
100
AcDbCircle
 10
192.1168531198
 20
424.3561106961
 30
0.0
 40
295.6192542843275
100
AcDbArc
 50
271.1501454165
 51
274.3387291509
  0
ARC
  5
4B
330
1F
100
AcDbEntity
  8
0
  6
Continuous
 62
     7
370
    30
100
AcDbCircle
 10
191.9717631629
 20
426.7153004167
 30
0.0
 40
301.9826621783271
100
AcDbArc
 50
271.0834880754
 51
274.3322290957
  0
LINE
  5
4C
330
1F
100
AcDbEntity
  8
0
  6
Continuous
 62
     7
370
    30
100
AcDbLine
 10
260.2706856685
 20
130.732606308
 30
0.0
 11
244.8478944259
 21
130.732606308
 31
0.0
  0
LINE
  5
4D
330
1F
100
AcDbEntity
  8
0
  6
Continuous
 62
     7
370
    30
100
AcDbLine
 10
244.8478944259
 20
126.7326065837
 30
0.0
 11
260.2706856685
 21
126.7326065837
 31
0.0
  0
ARC
  5
4E
330
1F
100
AcDbEntity
  8
0
  6
Continuous
 62
     7
370
    30
100
AcDbCircle
 10
244.8479109301
 20
-271.2675291487
 30
0.0
 40
398.0001357323611
100
AcDbArc
 50
90.0000023759
 51
94.3321861349
  0
ARC
  5
4F
330
1F
100
AcDbEntity
  8
0
  6
Continuous
 62
     7
370
    30
100
AcDbCircle
 10
244.847924614
 20
-271.2682360063
 30
0.0
 40
402.0008423143424
100
AcDbArc
 50
90.0000043026
 51
94.3321808541
  0
LINE
  5
50
330
1F
100
AcDbEntity
  8
0
  6
Continuous
 62
     7
370
    30
100
AcDbLine
 10
258.2154728131
 20
110.7274025245
 30
0.0
 11
258.2706816154
 21
110.7826057388
 31
0.0
  0
LINE
  5
51
330
1F
100
AcDbEntity
  8
0
  6
Continuous
 62
     7
370
    30
100
AcDbLine
 10
258.2706816154
 20
125.682606039
 30
0.0
 11
258.2154728131
 21
125.737809719
 31
0.0
  0
LINE
  5
52
330
1F
100
AcDbEntity
  8
0
  6
Continuous
 62
     7
370
    30
100
AcDbLine
 10
250.2258799629
 20
125.737809719
 30
0.0
 11
250.1706786113
 21
125.682606039
 31
0.0
  0
LINE
  5
53
330
1F
100
AcDbEntity
  8
0
  6
Continuous
 62
     7
370
    30
100
AcDbLine
 10
250.1706786113
 20
110.7826057388
 30
0.0
 11
250.2258799629
 21
110.7274025245
 31
0.0
  0
LINE
  5
54
330
1F
100
AcDbEntity
  8
0
  6
Continuous
 62
     7
370
    30
100
AcDbLine
 10
244.3206764417
 20
125.1826059571
 30
0.0
 11
244.1206805067
 21
124.9826062968
 31
0.0
  0
LINE
  5
55
330
1F
100
AcDbEntity
  8
0
  6
Continuous
 62
     7
370
    30
100
AcDbLine
 10
244.1206805067
 20
111.4826059467
 30
0.0
 11
244.3206764417
 21
111.2826062864
 31
0.0
  0
LINE
  5
56
330
1F
100
AcDbEntity
  8
0
  6
Continuous
 62
     7
370
    30
100
AcDbLine
 10
249.6206767516
 20
111.2826062864
 30
0.0
 11
249.8706809836
 21
111.5326063274
 31
0.0
  0
LINE
  5
57
330
1F
100
AcDbEntity
  8
0
  6
Continuous
 62
     7
370
    30
100
AcDbLine
 10
249.8706809836
 20
124.9326059161
 30
0.0
 11
249.6206767516
 21
125.1826059571
 31
0.0
  0
LINE
  5
58
330
1F
100
AcDbEntity
  8
0
  6
Continuous
 62
     7
370
    30
100
AcDbLine
 10
244.1206805067
 20
124.9826062968
 30
0.0
 11
225.0206775623
 21
124.9826062968
 31
0.0
  0
LINE
  5
59
330
1F
100
AcDbEntity
  8
0
  6
Continuous
 62
     7
370
    30
100
AcDbLine
 10
225.0206775623
 20
111.4826059467
 30
0.0
 11
244.1206805067
 21
111.4826059467
 31
0.0
  0
LINE
  5
5A
330
1F
100
AcDbEntity
  8
0
  6
Continuous
 62
     7
370
    30
100
AcDbLine
 10
225.0206775623
 20
124.9826062968
 30
0.0
 11
224.9706767159
 21
124.9326059161
 31
0.0
  0
LINE
  5
5B
330
1F
100
AcDbEntity
  8
0
  6
Continuous
 62
     7
370
    30
100
AcDbLine
 10
224.9706767159
 20
111.5326063274
 30
0.0
 11
225.0206775623
 21
111.4826059467
 31
0.0
  0
LINE
  5
5C
330
1F
100
AcDbEntity
  8
0
  6
Continuous
 62
     7
370
    30
100
AcDbLine
 10
250.1706786113
 20
124.1326063438
 30
0.0
 11
249.8706809836
 21
124.1326063438
 31
0.0
  0
LINE
  5
5D
330
1F
100
AcDbEntity
  8
0
  6
Continuous
 62
     7
370
    30
100
AcDbLine
 10
249.8706809836
 20
112.3326058997
 30
0.0
 11
250.1706786113
 21
112.3326058997
 31
0.0
  0
LINE
  5
5E
330
1F
100
AcDbEntity
  8
0
  6
Continuous
 62
     7
370
    30
100
AcDbLine
 10
258.2706816154
 20
112.8326059817
 30
0.0
 11
260.2206773715
 21
112.8326059817
 31
0.0
  0
LINE
  5
5F
330
1F
100
AcDbEntity
  8
0
  6
Continuous
 62
     7
370
    30
100
AcDbLine
 10
260.2206773715
 20
112.8326059817
 30
0.0
 11
260.2706856685
 21
112.8826058967
 31
0.0
  0
LINE
  5
60
330
1F
100
AcDbEntity
  8
0
  6
Continuous
 62
     7
370
    30
100
AcDbLine
 10
198.7670220094
 20
115.0826061176
 30
0.0
 11
222.4706791001
 21
115.0826061176
 31
0.0
  0
LINE
  5
61
330
1F
100
AcDbEntity
  8
0
  6
Continuous
 62
     7
370
    30
100
AcDbLine
 10
222.4706791001
 20
121.3826061258
 30
0.0
 11
198.6247904258
 21
121.3826061258
 31
0.0
  0
LINE
  5
62
330
1F
100
AcDbEntity
  8
0
  6
Continuous
 62
     7
370
    30
100
AcDbLine
 10
260.2706856685
 20
130.732606308
 30
0.0
 11
260.2706856685
 21
126.7326065837
 31
0.0
  0
LINE
  5
63
330
1F
100
AcDbEntity
  8
0
  6
Continuous
 62
     7
370
    30
100
AcDbLine
 10
250.2258799629
 20
119.0171135069
 30
0.0
 11
258.2154728131
 21
119.0171135069
 31
0.0
  0
LINE
  5
64
330
1F
100
AcDbEntity
  8
0
  6
Continuous
 62
     7
370
    30
100
AcDbLine
 10
257.9706765371
 20
118.6382097777
 30
0.0
 11
258.2154728131
 21
119.0171135069
 31
0.0
  0
LINE
  5
65
330
1F
100
AcDbEntity
  8
0
  6
Continuous
 62
     7
370
    30
100
AcDbLine
 10
250.470676239
 20
118.6382097777
 30
0.0
 11
257.9706765371
 21
118.6382097777
 31
0.0
  0
LINE
  5
66
330
1F
100
AcDbEntity
  8
0
  6
Continuous
 62
     7
370
    30
100
AcDbLine
 10
250.2258799629
 20
119.0171135069
 30
0.0
 11
250.470676239
 21
118.6382097777
 31
0.0
  0
LINE
  5
67
330
1F
100
AcDbEntity
  8
0
  6
Continuous
 62
     7
370
    30
100
AcDbLine
 10
258.2706816154
 20
125.682606039
 30
0.0
 11
258.2706816154
 21
110.7826057388
 31
0.0
  0
LINE
  5
68
330
1F
100
AcDbEntity
  8
0
  6
Continuous
 62
     7
370
    30
100
AcDbLine
 10
258.2154728131
 20
110.7274025245
 30
0.0
 11
257.9706765371
 21
110.493227051
 31
0.0
  0
LINE
  5
69
330
1F
100
AcDbEntity
  8
0
  6
Continuous
 62
     7
370
    30
100
AcDbLine
 10
257.9706765371
 20
110.493227051
 30
0.0
 11
258.2154728131
 21
110.7685166909
 31
0.0
  0
LINE
  5
6A
330
1F
100
AcDbEntity
  8
0
  6
Continuous
 62
     7
370
    30
100
AcDbLine
 10
258.2154728131
 20
110.7685166909
 30
0.0
 11
257.9706765371
 21
110.5780211775
 31
0.0
  0
LINE
  5
6B
330
1F
100
AcDbEntity
  8
0
  6
Continuous
 62
     7
370
    30
100
AcDbLine
 10
257.9706765371
 20
110.5780211775
 30
0.0
 11
258.2154728131
 21
110.8914093612
 31
0.0
  0
LINE
  5
6C
330
1F
100
AcDbEntity
  8
0
  6
Continuous
 62
     7
370
    30
100
AcDbLine
 10
258.2154728131
 20
110.8914093612
 30
0.0
 11
257.9706765371
 21
110.7466809018
 31
0.0
  0
LINE
  5
6D
330
1F
100
AcDbEntity
  8
0
  6
Continuous
 62
     7
370
    30
100
AcDbLine
 10
257.9706765371
 20
110.7466809018
 30
0.0
 11
258.2154728131
 21
111.0947333774
 31
0.0
  0
LINE
  5
6E
330
1F
100
AcDbEntity
  8
0
  6
Continuous
 62
     7
370
    30
100
AcDbLine
 10
258.2154728131
 20
111.0947333774
 30
0.0
 11
257.9706765371
 21
110.9973580143
 31
0.0
  0
LINE
  5
6F
330
1F
100
AcDbEntity
  8
0
  6
Continuous
 62
     7
370
    30
100
AcDbLine
 10
257.9706765371
 20
110.9973580143
 30
0.0
 11
258.2154728131
 21
111.3762614815
 31
0.0
  0
LINE
  5
70
330
1F
100
AcDbEntity
  8
0
  6
Continuous
 62
     7
370
    30
100
AcDbLine
 10
258.2154728131
 20
111.3762614815
 30
0.0
 11
257.9706765371
 21
111.327305579
 31
0.0
  0
LINE
  5
71
330
1F
100
AcDbEntity
  8
0
  6
Continuous
 62
     7
370
    30
100
AcDbLine
 10
257.9706765371
 20
111.327305579
 30
0.0
 11
258.2154728131
 21
111.7329091331
 31
0.0
  0
LINE
  5
72
330
1F
100
AcDbEntity
  8
0
  6
Continuous
 62
     7
370
    30
100
AcDbLine
 10
258.2154728131
 20
111.7329091331
 30
0.0
 11
257.9706765371
 21
111.7329091331
 31
0.0
  0
LINE
  5
73
330
1F
100
AcDbEntity
  8
0
  6
Continuous
 62
     7
370
    30
100
AcDbLine
 10
257.9706765371
 20
111.7329091331
 30
0.0
 11
258.2154728131
 21
112.1607689685
 31
0.0
  0
LINE
  5
74
330
1F
100
AcDbEntity
  8
0
  6
Continuous
 62
     7
370
    30
100
AcDbLine
 10
258.2154728131
 20
112.1607689685
 30
0.0
 11
257.9706765371
 21
112.2097248709
 31
0.0
  0
LINE
  5
75
330
1F
100
AcDbEntity
  8
0
  6
Continuous
 62
     7
370
    30
100
AcDbLine
 10
257.9706765371
 20
112.2097248709
 30
0.0
 11
258.2154728131
 21
112.6551531753
 31
0.0
  0
LINE
  5
76
330
1F
100
AcDbEntity
  8
0
  6
Continuous
 62
     7
370
    30
100
AcDbLine
 10
258.2154728131
 20
112.6551531753
 30
0.0
 11
257.9706765371
 21
112.7525285384
 31
0.0
  0
LINE
  5
77
330
1F
100
AcDbEntity
  8
0
  6
Continuous
 62
     7
370
    30
100
AcDbLine
 10
257.9706765371
 20
112.7525285384
 30
0.0
 11
258.2154728131
 21
113.2106447159
 31
0.0
  0
LINE
  5
78
330
1F
100
AcDbEntity
  8
0
  6
Continuous
 62
     7
370
    30
100
AcDbLine
 10
258.2154728131
 20
113.2106447159
 30
0.0
 11
257.9706765371
 21
113.3553731753
 31
0.0
  0
LINE
  5
79
330
1F
100
AcDbEntity
  8
0
  6
Continuous
 62
     7
370
    30
100
AcDbLine
 10
257.9706765371
 20
113.3553731753
 30
0.0
 11
258.2154728131
 21
113.8211583285
 31
0.0
  0
LINE
  5
7A
330
1F
100
AcDbEntity
  8
0
  6
Continuous
 62
     7
370
    30
100
AcDbLine
 10
258.2154728131
 20
113.8211583285
 30
0.0
 11
257.9706765371
 21
114.0116533762
 31
0.0
  0
SPLINE
  5
7B
330
1F
100
AcDbEntity
  8
0
  6
Continuous
 62
     7
370
    30
100
AcDbSpline
210
0.0
220
0.0
230
1.0
 70
     8
 71
     3
 72
     9
 73
     5
 74
     0
 42
0.00000001
 43
0.00000001
 12
1.0
 22
0.0
 32
0.0
 13
1.0
 23
0.0
 33
0.0
 40
0.0
 40
0.0
 40
0.0
 40
0.0
 40
0.1648697364119993
 40
1.0
 40
1.0
 40
1.0
 40
1.0
 10
257.9706765370563
 20
114.0116533762172
 30
0.0
 10
257.984536384201
 20
114.0371767726529
 30
0.0
 10
258.0686018254785
 20
114.1919862421845
 30
0.0
 10
258.148634829448
 20
114.3489331830369
 30
0.0
 10
258.2154728131488
 20
114.4800043231204
 30
0.0
  0
LINE
  5
7C
330
1F
100
AcDbEntity
  8
0
  6
Continuous
 62
     7
370
    30
100
AcDbLine
 10
258.2154728131
 20
114.4800043231
 30
0.0
 11
257.9706765371
 21
114.7141797966
 31
0.0
  0
LINE
  5
7D
330
1F
100
AcDbEntity
  8
0
  6
Continuous
 62
     7
370
    30
100
AcDbLine
 10
257.9706765371
 20
114.7141797966
 30
0.0
 11
258.2154728131
 21
115.1799649498
 31
0.0
  0
LINE
  5
7E
330
1F
100
AcDbEntity
  8
0
  6
Continuous
 62
     7
370
    30
100
AcDbLine
 10
258.2154728131
 20
115.1799649498
 30
0.0
 11
257.9706765371
 21
115.4552545896
 31
0.0
  0
LINE
  5
7F
330
1F
100
AcDbEntity
  8
0
  6
Continuous
 62
     7
370
    30
100
AcDbLine
 10
257.9706765371
 20
115.4552545896
 30
0.0
 11
258.2154728131
 21
115.9133707671
 31
0.0
  0
LINE
  5
80
330
1F
100
AcDbEntity
  8
0
  6
Continuous
 62
     7
370
    30
100
AcDbLine
 10
258.2154728131
 20
115.9133707671
 30
0.0
 11
257.9706765371
 21
116.2267584851
 31
0.0
  0
LINE
  5
81
330
1F
100
AcDbEntity
  8
0
  6
Continuous
 62
     7
370
    30
100
AcDbLine
 10
257.9706765371
 20
116.2267584851
 30
0.0
 11
258.2154728131
 21
116.6721865567
 31
0.0
  0
LINE
  5
82
330
1F
100
AcDbEntity
  8
0
  6
Continuous
 62
     7
370
    30
100
AcDbLine
 10
258.2154728131
 20
116.6721865567
 30
0.0
 11
257.9706765371
 21
117.0202390323
 31
0.0
  0
LINE
  5
83
330
1F
100
AcDbEntity
  8
0
  6
Continuous
 62
     7
370
    30
100
AcDbLine
 10
257.9706765371
 20
117.0202390323
 30
0.0
 11
258.2154728131
 21
117.4480987512
 31
0.0
  0
LINE
  5
84
330
1F
100
AcDbEntity
  8
0
  6
Continuous
 62
     7
370
    30
100
AcDbLine
 10
258.2154728131
 20
117.4480987512
 30
0.0
 11
257.9706765371
 21
117.8270024512
 31
0.0
  0
LINE
  5
85
330
1F
100
AcDbEntity
  8
0
  6
Continuous
 62
     7
370
    30
100
AcDbLine
 10
257.9706765371
 20
117.8270024512
 30
0.0
 11
258.2154728131
 21
118.2326061217
 31
0.0
  0
LINE
  5
86
330
1F
100
AcDbEntity
  8
0
  6
Continuous
 62
     7
370
    30
100
AcDbLine
 10
258.2154728131
 20
118.2326061217
 30
0.0
 11
257.9706765371
 21
118.6382097777
 31
0.0
  0
LINE
  5
87
330
1F
100
AcDbEntity
  8
0
  6
Continuous
 62
     7
370
    30
100
AcDbLine
 10
258.2154728131
 20
119.0171135069
 30
0.0
 11
257.9706765371
 21
119.4449732112
 31
0.0
  0
LINE
  5
88
330
1F
100
AcDbEntity
  8
0
  6
Continuous
 62
     7
370
    30
100
AcDbLine
 10
257.9706765371
 20
119.4449732112
 30
0.0
 11
258.2154728131
 21
119.7930256868
 31
0.0
  0
LINE
  5
89
330
1F
100
AcDbEntity
  8
0
  6
Continuous
 62
     7
370
    30
100
AcDbLine
 10
258.2154728131
 20
119.7930256868
 30
0.0
 11
257.9706765371
 21
120.2384537584
 31
0.0
  0
LINE
  5
8A
330
1F
100
AcDbEntity
  8
0
  6
Continuous
 62
     7
370
    30
100
AcDbLine
 10
257.9706765371
 20
120.2384537584
 30
0.0
 11
258.2154728131
 21
120.5518415928
 31
0.0
  0
LINE
  5
8B
330
1F
100
AcDbEntity
  8
0
  6
Continuous
 62
     7
370
    30
100
AcDbLine
 10
258.2154728131
 20
120.5518415928
 30
0.0
 11
257.9706765371
 21
121.0099576539
 31
0.0
  0
LINE
  5
8C
330
1F
100
AcDbEntity
  8
0
  6
Continuous
 62
     7
370
    30
100
AcDbLine
 10
257.9706765371
 20
121.0099576539
 30
0.0
 11
258.2154728131
 21
121.2852472937
 31
0.0
  0
LINE
  5
8D
330
1F
100
AcDbEntity
  8
0
  6
Continuous
 62
     7
370
    30
100
AcDbLine
 10
258.2154728131
 20
121.2852472937
 30
0.0
 11
257.9706765371
 21
121.7510324469
 31
0.0
  0
LINE
  5
8E
330
1F
100
AcDbEntity
  8
0
  6
Continuous
 62
     7
370
    30
100
AcDbLine
 10
257.9706765371
 20
121.7510324469
 30
0.0
 11
258.2154728131
 21
121.9852079204
 31
0.0
  0
SPLINE
  5
8F
330
1F
100
AcDbEntity
  8
0
  6
Continuous
 62
     7
370
    30
100
AcDbSpline
210
0.0
220
0.0
230
1.0
 70
     8
 71
     3
 72
     9
 73
     5
 74
     0
 42
0.00000001
 43
0.00000001
 12
1.0
 22
0.0
 32
0.0
 13
1.0
 23
0.0
 33
0.0
 40
0.0
 40
0.0
 40
0.0
 40
0.0
 40
0.1157602804592046
 40
1.0
 40
1.0
 40
1.0
 40
1.0
 10
258.2154728131488
 20
121.985207920368
 30
0.0
 10
258.2063323293432
 20
122.003437027546
 30
0.0
 10
258.1273718796157
 20
122.1609099284899
 30
0.0
 10
258.0442108354373
 20
122.3162238744362
 30
0.0
 10
257.9706765370563
 20
122.4535586344406
 30
0.0
  0
LINE
  5
90
330
1F
100
AcDbEntity
  8
0
  6
Continuous
 62
     7
370
    30
100
AcDbLine
 10
257.9706765371
 20
122.4535586344
 30
0.0
 11
258.2154728131
 21
122.6440541478
 31
0.0
  0
LINE
  5
91
330
1F
100
AcDbEntity
  8
0
  6
Continuous
 62
     7
370
    30
100
AcDbLine
 10
258.2154728131
 20
122.6440541478
 30
0.0
 11
257.9706765371
 21
123.1098390682
 31
0.0
  0
LINE
  5
92
330
1F
100
AcDbEntity
  8
0
  6
Continuous
 62
     7
370
    30
100
AcDbLine
 10
257.9706765371
 20
123.1098390682
 30
0.0
 11
258.2154728131
 21
123.2545675276
 31
0.0
  0
LINE
  5
93
330
1F
100
AcDbEntity
  8
0
  6
Continuous
 62
     7
370
    30
100
AcDbLine
 10
258.2154728131
 20
123.2545675276
 30
0.0
 11
257.9706765371
 21
123.7126837051
 31
0.0
  0
LINE
  5
94
330
1F
100
AcDbEntity
  8
0
  6
Continuous
 62
     7
370
    30
100
AcDbLine
 10
257.9706765371
 20
123.7126837051
 30
0.0
 11
258.2154728131
 21
123.8100590682
 31
0.0
  0
LINE
  5
95
330
1F
100
AcDbEntity
  8
0
  6
Continuous
 62
     7
370
    30
100
AcDbLine
 10
258.2154728131
 20
123.8100590682
 30
0.0
 11
257.9706765371
 21
124.2554873726
 31
0.0
  0
LINE
  5
96
330
1F
100
AcDbEntity
  8
0
  6
Continuous
 62
     7
370
    30
100
AcDbLine
 10
257.9706765371
 20
124.2554873726
 30
0.0
 11
258.2154728131
 21
124.304443275
 31
0.0
  0
LINE
  5
97
330
1F
100
AcDbEntity
  8
0
  6
Continuous
 62
     7
370
    30
100
AcDbLine
 10
258.2154728131
 20
124.304443275
 30
0.0
 11
257.9706765371
 21
124.7323031104
 31
0.0
  0
LINE
  5
98
330
1F
100
AcDbEntity
  8
0
  6
Continuous
 62
     7
370
    30
100
AcDbLine
 10
257.9706765371
 20
124.7323031104
 30
0.0
 11
258.2154728131
 21
124.7323031104
 31
0.0
  0
LINE
  5
99
330
1F
100
AcDbEntity
  8
0
  6
Continuous
 62
     7
370
    30
100
AcDbLine
 10
258.2154728131
 20
124.7323031104
 30
0.0
 11
257.9706765371
 21
125.1379066645
 31
0.0
  0
LINE
  5
9A
330
1F
100
AcDbEntity
  8
0
  6
Continuous
 62
     7
370
    30
100
AcDbLine
 10
257.9706765371
 20
125.1379066645
 30
0.0
 11
258.2154728131
 21
125.088950762
 31
0.0
  0
LINE
  5
9B
330
1F
100
AcDbEntity
  8
0
  6
Continuous
 62
     7
370
    30
100
AcDbLine
 10
258.2154728131
 20
125.088950762
 30
0.0
 11
257.9706765371
 21
125.4678542292
 31
0.0
  0
LINE
  5
9C
330
1F
100
AcDbEntity
  8
0
  6
Continuous
 62
     7
370
    30
100
AcDbLine
 10
257.9706765371
 20
125.4678542292
 30
0.0
 11
258.2154728131
 21
125.3704788661
 31
0.0
  0
LINE
  5
9D
330
1F
100
AcDbEntity
  8
0
  6
Continuous
 62
     7
370
    30
100
AcDbLine
 10
258.2154728131
 20
125.3704788661
 30
0.0
 11
257.9706765371
 21
125.7185313417
 31
0.0
  0
LINE
  5
9E
330
1F
100
AcDbEntity
  8
0
  6
Continuous
 62
     7
370
    30
100
AcDbLine
 10
257.9706765371
 20
125.7185313417
 30
0.0
 11
258.2154728131
 21
125.5738028823
 31
0.0
  0
LINE
  5
9F
330
1F
100
AcDbEntity
  8
0
  6
Continuous
 62
     7
370
    30
100
AcDbLine
 10
258.2154728131
 20
125.5738028823
 30
0.0
 11
257.9706765371
 21
125.8871906003
 31
0.0
  0
LINE
  5
A0
330
1F
100
AcDbEntity
  8
0
  6
Continuous
 62
     7
370
    30
100
AcDbLine
 10
257.9706765371
 20
125.8871906003
 30
0.0
 11
258.2154728131
 21
125.6966955526
 31
0.0
  0
LINE
  5
A1
330
1F
100
AcDbEntity
  8
0
  6
Continuous
 62
     7
370
    30
100
AcDbLine
 10
258.2154728131
 20
125.6966955526
 30
0.0
 11
257.9706765371
 21
125.9719851924
 31
0.0
  0
LINE
  5
A2
330
1F
100
AcDbEntity
  8
0
  6
Continuous
 62
     7
370
    30
100
AcDbLine
 10
257.9706765371
 20
125.9719851924
 30
0.0
 11
258.2154728131
 21
125.737809719
 31
0.0
  0
LINE
  5
A3
330
1F
100
AcDbEntity
  8
0
  6
Continuous
 62
     7
370
    30
100
AcDbLine
 10
250.2258799629
 20
118.2326061217
 30
0.0
 11
258.2154728131
 21
118.2326061217
 31
0.0
  0
LINE
  5
A4
330
1F
100
AcDbEntity
  8
0
  6
Continuous
 62
     7
370
    30
100
AcDbLine
 10
250.470676239
 20
118.6382097777
 30
0.0
 11
250.2258799629
 21
118.2326061217
 31
0.0
  0
LINE
  5
A5
330
1F
100
AcDbEntity
  8
0
  6
Continuous
 62
     7
370
    30
100
AcDbLine
 10
250.1706786113
 20
110.7826057388
 30
0.0
 11
250.1706786113
 21
125.682606039
 31
0.0
  0
LINE
  5
A6
330
1F
100
AcDbEntity
  8
0
  6
Continuous
 62
     7
370
    30
100
AcDbLine
 10
250.2258799629
 20
125.737809719
 30
0.0
 11
250.470676239
 21
125.9719851924
 31
0.0
  0
LINE
  5
A7
330
1F
100
AcDbEntity
  8
0
  6
Continuous
 62
     7
370
    30
100
AcDbLine
 10
250.470676239
 20
125.9719851924
 30
0.0
 11
250.2258799629
 21
125.6966955526
 31
0.0
  0
LINE
  5
A8
330
1F
100
AcDbEntity
  8
0
  6
Continuous
 62
     7
370
    30
100
AcDbLine
 10
250.2258799629
 20
125.6966955526
 30
0.0
 11
250.470676239
 21
125.8871906003
 31
0.0
  0
LINE
  5
A9
330
1F
100
AcDbEntity
  8
0
  6
Continuous
 62
     7
370
    30
100
AcDbLine
 10
250.470676239
 20
125.8871906003
 30
0.0
 11
250.2258799629
 21
125.5738028823
 31
0.0
  0
LINE
  5
AA
330
1F
100
AcDbEntity
  8
0
  6
Continuous
 62
     7
370
    30
100
AcDbLine
 10
250.2258799629
 20
125.5738028823
 30
0.0
 11
250.470676239
 21
125.7185313417
 31
0.0
  0
LINE
  5
AB
330
1F
100
AcDbEntity
  8
0
  6
Continuous
 62
     7
370
    30
100
AcDbLine
 10
250.470676239
 20
125.7185313417
 30
0.0
 11
250.2258799629
 21
125.3704788661
 31
0.0
  0
LINE
  5
AC
330
1F
100
AcDbEntity
  8
0
  6
Continuous
 62
     7
370
    30
100
AcDbLine
 10
250.2258799629
 20
125.3704788661
 30
0.0
 11
250.470676239
 21
125.4678542292
 31
0.0
  0
LINE
  5
AD
330
1F
100
AcDbEntity
  8
0
  6
Continuous
 62
     7
370
    30
100
AcDbLine
 10
250.470676239
 20
125.4678542292
 30
0.0
 11
250.2258799629
 21
125.088950762
 31
0.0
  0
LINE
  5
AE
330
1F
100
AcDbEntity
  8
0
  6
Continuous
 62
     7
370
    30
100
AcDbLine
 10
250.2258799629
 20
125.088950762
 30
0.0
 11
250.470676239
 21
125.1379066645
 31
0.0
  0
LINE
  5
AF
330
1F
100
AcDbEntity
  8
0
  6
Continuous
 62
     7
370
    30
100
AcDbLine
 10
250.470676239
 20
125.1379066645
 30
0.0
 11
250.2258799629
 21
124.7323031104
 31
0.0
  0
LINE
  5
B0
330
1F
100
AcDbEntity
  8
0
  6
Continuous
 62
     7
370
    30
100
AcDbLine
 10
250.2258799629
 20
124.7323031104
 30
0.0
 11
250.470676239
 21
124.7323031104
 31
0.0
  0
LINE
  5
B1
330
1F
100
AcDbEntity
  8
0
  6
Continuous
 62
     7
370
    30
100
AcDbLine
 10
250.470676239
 20
124.7323031104
 30
0.0
 11
250.2258799629
 21
124.304443275
 31
0.0
  0
LINE
  5
B2
330
1F
100
AcDbEntity
  8
0
  6
Continuous
 62
     7
370
    30
100
AcDbLine
 10
250.2258799629
 20
124.304443275
 30
0.0
 11
250.470676239
 21
124.2554873726
 31
0.0
  0
LINE
  5
B3
330
1F
100
AcDbEntity
  8
0
  6
Continuous
 62
     7
370
    30
100
AcDbLine
 10
250.470676239
 20
124.2554873726
 30
0.0
 11
250.2258799629
 21
123.8100590682
 31
0.0
  0
LINE
  5
B4
330
1F
100
AcDbEntity
  8
0
  6
Continuous
 62
     7
370
    30
100
AcDbLine
 10
250.2258799629
 20
123.8100590682
 30
0.0
 11
250.470676239
 21
123.7126837051
 31
0.0
  0
LINE
  5
B5
330
1F
100
AcDbEntity
  8
0
  6
Continuous
 62
     7
370
    30
100
AcDbLine
 10
250.470676239
 20
123.7126837051
 30
0.0
 11
250.2258799629
 21
123.2545675276
 31
0.0
  0
LINE
  5
B6
330
1F
100
AcDbEntity
  8
0
  6
Continuous
 62
     7
370
    30
100
AcDbLine
 10
250.2258799629
 20
123.2545675276
 30
0.0
 11
250.470676239
 21
123.1098390682
 31
0.0
  0
LINE
  5
B7
330
1F
100
AcDbEntity
  8
0
  6
Continuous
 62
     7
370
    30
100
AcDbLine
 10
250.470676239
 20
123.1098390682
 30
0.0
 11
250.2258799629
 21
122.6440541478
 31
0.0
  0
LINE
  5
B8
330
1F
100
AcDbEntity
  8
0
  6
Continuous
 62
     7
370
    30
100
AcDbLine
 10
250.2258799629
 20
122.6440541478
 30
0.0
 11
250.470676239
 21
122.4535586344
 31
0.0
  0
SPLINE
  5
B9
330
1F
100
AcDbEntity
  8
0
  6
Continuous
 62
     7
370
    30
100
AcDbSpline
210
0.0
220
0.0
230
1.0
 70
     8
 71
     3
 72
     9
 73
     5
 74
     0
 42
0.00000001
 43
0.00000001
 12
1.0
 22
0.0
 32
0.0
 13
1.0
 23
0.0
 33
0.0
 40
0.0
 40
0.0
 40
0.0
 40
0.0
 40
0.5572037753353268
 40
1.0
 40
1.0
 40
1.0
 40
1.0
 10
250.4706762390331
 20
122.4535586344406
 30
0.0
 10
250.4241064802699
 20
122.3671446118629
 30
0.0
 10
250.3405288721765
 20
122.2120594771189
 30
0.0
 10
250.2610658771422
 20
122.0548289875509
 30
0.0
 10
250.2258799629406
 20
121.985207920368
 30
0.0
  0
LINE
  5
BA
330
1F
100
AcDbEntity
  8
0
  6
Continuous
 62
     7
370
    30
100
AcDbLine
 10
250.2258799629
 20
121.9852079204
 30
0.0
 11
250.470676239
 21
121.7510324469
 31
0.0
  0
LINE
  5
BB
330
1F
100
AcDbEntity
  8
0
  6
Continuous
 62
     7
370
    30
100
AcDbLine
 10
250.470676239
 20
121.7510324469
 30
0.0
 11
250.2258799629
 21
121.2852472937
 31
0.0
  0
LINE
  5
BC
330
1F
100
AcDbEntity
  8
0
  6
Continuous
 62
     7
370
    30
100
AcDbLine
 10
250.2258799629
 20
121.2852472937
 30
0.0
 11
250.470676239
 21
121.0099576539
 31
0.0
  0
LINE
  5
BD
330
1F
100
AcDbEntity
  8
0
  6
Continuous
 62
     7
370
    30
100
AcDbLine
 10
250.470676239
 20
121.0099576539
 30
0.0
 11
250.2258799629
 21
120.5518415928
 31
0.0
  0
LINE
  5
BE
330
1F
100
AcDbEntity
  8
0
  6
Continuous
 62
     7
370
    30
100
AcDbLine
 10
250.2258799629
 20
120.5518415928
 30
0.0
 11
250.470676239
 21
120.2384537584
 31
0.0
  0
LINE
  5
BF
330
1F
100
AcDbEntity
  8
0
  6
Continuous
 62
     7
370
    30
100
AcDbLine
 10
250.470676239
 20
120.2384537584
 30
0.0
 11
250.2258799629
 21
119.7930256868
 31
0.0
  0
LINE
  5
C0
330
1F
100
AcDbEntity
  8
0
  6
Continuous
 62
     7
370
    30
100
AcDbLine
 10
250.2258799629
 20
119.7930256868
 30
0.0
 11
250.470676239
 21
119.4449732112
 31
0.0
  0
LINE
  5
C1
330
1F
100
AcDbEntity
  8
0
  6
Continuous
 62
     7
370
    30
100
AcDbLine
 10
250.470676239
 20
119.4449732112
 30
0.0
 11
250.2258799629
 21
119.0171135069
 31
0.0
  0
LINE
  5
C2
330
1F
100
AcDbEntity
  8
0
  6
Continuous
 62
     7
370
    30
100
AcDbLine
 10
250.2258799629
 20
118.2326061217
 30
0.0
 11
250.470676239
 21
117.8270024512
 31
0.0
  0
LINE
  5
C3
330
1F
100
AcDbEntity
  8
0
  6
Continuous
 62
     7
370
    30
100
AcDbLine
 10
250.470676239
 20
117.8270024512
 30
0.0
 11
250.2258799629
 21
117.4480987512
 31
0.0
  0
LINE
  5
C4
330
1F
100
AcDbEntity
  8
0
  6
Continuous
 62
     7
370
    30
100
AcDbLine
 10
250.2258799629
 20
117.4480987512
 30
0.0
 11
250.470676239
 21
117.0202390323
 31
0.0
  0
LINE
  5
C5
330
1F
100
AcDbEntity
  8
0
  6
Continuous
 62
     7
370
    30
100
AcDbLine
 10
250.470676239
 20
117.0202390323
 30
0.0
 11
250.2258799629
 21
116.6721865567
 31
0.0
  0
LINE
  5
C6
330
1F
100
AcDbEntity
  8
0
  6
Continuous
 62
     7
370
    30
100
AcDbLine
 10
250.2258799629
 20
116.6721865567
 30
0.0
 11
250.470676239
 21
116.2267584851
 31
0.0
  0
LINE
  5
C7
330
1F
100
AcDbEntity
  8
0
  6
Continuous
 62
     7
370
    30
100
AcDbLine
 10
250.470676239
 20
116.2267584851
 30
0.0
 11
250.2258799629
 21
115.9133707671
 31
0.0
  0
LINE
  5
C8
330
1F
100
AcDbEntity
  8
0
  6
Continuous
 62
     7
370
    30
100
AcDbLine
 10
250.2258799629
 20
115.9133707671
 30
0.0
 11
250.470676239
 21
115.4552545896
 31
0.0
  0
LINE
  5
C9
330
1F
100
AcDbEntity
  8
0
  6
Continuous
 62
     7
370
    30
100
AcDbLine
 10
250.470676239
 20
115.4552545896
 30
0.0
 11
250.2258799629
 21
115.1799649498
 31
0.0
  0
LINE
  5
CA
330
1F
100
AcDbEntity
  8
0
  6
Continuous
 62
     7
370
    30
100
AcDbLine
 10
250.2258799629
 20
115.1799649498
 30
0.0
 11
250.470676239
 21
114.7141797966
 31
0.0
  0
LINE
  5
CB
330
1F
100
AcDbEntity
  8
0
  6
Continuous
 62
     7
370
    30
100
AcDbLine
 10
250.470676239
 20
114.7141797966
 30
0.0
 11
250.2258799629
 21
114.4800043231
 31
0.0
  0
SPLINE
  5
CC
330
1F
100
AcDbEntity
  8
0
  6
Continuous
 62
     7
370
    30
100
AcDbSpline
210
0.0
220
0.0
230
1.0
 70
     8
 71
     3
 72
     9
 73
     5
 74
     0
 42
0.00000001
 43
0.00000001
 12
1.0
 22
0.0
 32
0.0
 13
1.0
 23
0.0
 33
0.0
 40
0.0
 40
0.0
 40
0.0
 40
0.0
 40
0.8351369378321605
 40
1.0
 40
1.0
 40
1.0
 40
1.0
 10
250.2258799629406
 20
114.4800043231204
 30
0.0
 10
250.2927252956514
 20
114.3489357980527
 30
0.0
 10
250.37276645978
 20
114.1919932427301
 30
0.0
 10
250.4568190685655
 20
114.0371768764378
 30
0.0
 10
250.4706762390331
 20
114.0116533762172
 30
0.0
  0
LINE
  5
CD
330
1F
100
AcDbEntity
  8
0
  6
Continuous
 62
     7
370
    30
100
AcDbLine
 10
250.470676239
 20
114.0116533762
 30
0.0
 11
250.2258799629
 21
113.8211583285
 31
0.0
  0
LINE
  5
CE
330
1F
100
AcDbEntity
  8
0
  6
Continuous
 62
     7
370
    30
100
AcDbLine
 10
250.2258799629
 20
113.8211583285
 30
0.0
 11
250.470676239
 21
113.3553731753
 31
0.0
  0
LINE
  5
CF
330
1F
100
AcDbEntity
  8
0
  6
Continuous
 62
     7
370
    30
100
AcDbLine
 10
250.470676239
 20
113.3553731753
 30
0.0
 11
250.2258799629
 21
113.2106447159
 31
0.0
  0
LINE
  5
D0
330
1F
100
AcDbEntity
  8
0
  6
Continuous
 62
     7
370
    30
100
AcDbLine
 10
250.2258799629
 20
113.2106447159
 30
0.0
 11
250.470676239
 21
112.7525285384
 31
0.0
  0
LINE
  5
D1
330
1F
100
AcDbEntity
  8
0
  6
Continuous
 62
     7
370
    30
100
AcDbLine
 10
250.470676239
 20
112.7525285384
 30
0.0
 11
250.2258799629
 21
112.6551531753
 31
0.0
  0
LINE
  5
D2
330
1F
100
AcDbEntity
  8
0
  6
Continuous
 62
     7
370
    30
100
AcDbLine
 10
250.2258799629
 20
112.6551531753
 30
0.0
 11
250.470676239
 21
112.2097248709
 31
0.0
  0
LINE
  5
D3
330
1F
100
AcDbEntity
  8
0
  6
Continuous
 62
     7
370
    30
100
AcDbLine
 10
250.470676239
 20
112.2097248709
 30
0.0
 11
250.2258799629
 21
112.1607689685
 31
0.0
  0
LINE
  5
D4
330
1F
100
AcDbEntity
  8
0
  6
Continuous
 62
     7
370
    30
100
AcDbLine
 10
250.2258799629
 20
112.1607689685
 30
0.0
 11
250.470676239
 21
111.7329091331
 31
0.0
  0
LINE
  5
D5
330
1F
100
AcDbEntity
  8
0
  6
Continuous
 62
     7
370
    30
100
AcDbLine
 10
250.470676239
 20
111.7329091331
 30
0.0
 11
250.2258799629
 21
111.7329091331
 31
0.0
  0
LINE
  5
D6
330
1F
100
AcDbEntity
  8
0
  6
Continuous
 62
     7
370
    30
100
AcDbLine
 10
250.2258799629
 20
111.7329091331
 30
0.0
 11
250.470676239
 21
111.327305579
 31
0.0
  0
LINE
  5
D7
330
1F
100
AcDbEntity
  8
0
  6
Continuous
 62
     7
370
    30
100
AcDbLine
 10
250.470676239
 20
111.327305579
 30
0.0
 11
250.2258799629
 21
111.3762614815
 31
0.0
  0
LINE
  5
D8
330
1F
100
AcDbEntity
  8
0
  6
Continuous
 62
     7
370
    30
100
AcDbLine
 10
250.2258799629
 20
111.3762614815
 30
0.0
 11
250.470676239
 21
110.9973580143
 31
0.0
  0
LINE
  5
D9
330
1F
100
AcDbEntity
  8
0
  6
Continuous
 62
     7
370
    30
100
AcDbLine
 10
250.470676239
 20
110.9973580143
 30
0.0
 11
250.2258799629
 21
111.0947333774
 31
0.0
  0
LINE
  5
DA
330
1F
100
AcDbEntity
  8
0
  6
Continuous
 62
     7
370
    30
100
AcDbLine
 10
250.2258799629
 20
111.0947333774
 30
0.0
 11
250.470676239
 21
110.7466809018
 31
0.0
  0
LINE
  5
DB
330
1F
100
AcDbEntity
  8
0
  6
Continuous
 62
     7
370
    30
100
AcDbLine
 10
250.470676239
 20
110.7466809018
 30
0.0
 11
250.2258799629
 21
110.8914093612
 31
0.0
  0
LINE
  5
DC
330
1F
100
AcDbEntity
  8
0
  6
Continuous
 62
     7
370
    30
100
AcDbLine
 10
250.2258799629
 20
110.8914093612
 30
0.0
 11
250.470676239
 21
110.5780211775
 31
0.0
  0
LINE
  5
DD
330
1F
100
AcDbEntity
  8
0
  6
Continuous
 62
     7
370
    30
100
AcDbLine
 10
250.470676239
 20
110.5780211775
 30
0.0
 11
250.2258799629
 21
110.7685166909
 31
0.0
  0
LINE
  5
DE
330
1F
100
AcDbEntity
  8
0
  6
Continuous
 62
     7
370
    30
100
AcDbLine
 10
250.2258799629
 20
110.7685166909
 30
0.0
 11
250.470676239
 21
110.493227051
 31
0.0
  0
LINE
  5
DF
330
1F
100
AcDbEntity
  8
0
  6
Continuous
 62
     7
370
    30
100
AcDbLine
 10
250.470676239
 20
110.493227051
 30
0.0
 11
250.2258799629
 21
110.7274025245
 31
0.0
  0
LINE
  5
E0
330
1F
100
AcDbEntity
  8
0
  6
Continuous
 62
     7
370
    30
100
AcDbLine
 10
250.470676239
 20
117.8270024512
 30
0.0
 11
257.9706765371
 21
117.8270024512
 31
0.0
  0
LINE
  5
E1
330
1F
100
AcDbEntity
  8
0
  6
Continuous
 62
     7
370
    30
100
AcDbLine
 10
250.2258799629
 20
117.4480987512
 30
0.0
 11
258.2154728131
 21
117.4480987512
 31
0.0
  0
LINE
  5
E2
330
1F
100
AcDbEntity
  8
0
  6
Continuous
 62
     7
370
    30
100
AcDbLine
 10
250.2258799629
 20
119.7930256868
 30
0.0
 11
258.2154728131
 21
119.7930256868
 31
0.0
  0
LINE
  5
E3
330
1F
100
AcDbEntity
  8
0
  6
Continuous
 62
     7
370
    30
100
AcDbLine
 10
250.470676239
 20
119.4449732112
 30
0.0
 11
257.9706765371
 21
119.4449732112
 31
0.0
  0
LINE
  5
E4
330
1F
100
AcDbEntity
  8
0
  6
Continuous
 62
     7
370
    30
100
AcDbLine
 10
250.470676239
 20
117.0202390323
 30
0.0
 11
257.9706765371
 21
117.0202390323
 31
0.0
  0
LINE
  5
E5
330
1F
100
AcDbEntity
  8
0
  6
Continuous
 62
     7
370
    30
100
AcDbLine
 10
250.2258799629
 20
116.6721865567
 30
0.0
 11
258.2154728131
 21
116.6721865567
 31
0.0
  0
LINE
  5
E6
330
1F
100
AcDbEntity
  8
0
  6
Continuous
 62
     7
370
    30
100
AcDbLine
 10
244.1206805067
 20
111.4826059467
 30
0.0
 11
244.1206805067
 21
124.9826062968
 31
0.0
  0
LINE
  5
E7
330
1F
100
AcDbEntity
  8
0
  6
Continuous
 62
     7
370
    30
100
AcDbLine
 10
244.8706783014
 20
125.1826059571
 30
0.0
 11
244.326391037
 21
125.1826059571
 31
0.0
  0
LINE
  5
E8
330
1F
100
AcDbEntity
  8
0
  6
Continuous
 62
     7
370
    30
100
AcDbLine
 10
244.8706783014
 20
125.1826059571
 30
0.0
 11
244.8706783014
 21
111.2826062864
 31
0.0
  0
LINE
  5
E9
330
1F
100
AcDbEntity
  8
0
  6
Continuous
 62
     7
370
    30
100
AcDbLine
 10
244.326391037
 20
111.2826062864
 30
0.0
 11
244.8706783014
 21
111.2826062864
 31
0.0
  0
LINE
  5
EA
330
1F
100
AcDbEntity
  8
0
  6
Continuous
 62
     7
370
    30
100
AcDbLine
 10
249.8706809836
 20
124.9326059161
 30
0.0
 11
249.8706809836
 21
111.5326063274
 31
0.0
  0
LINE
  5
EB
330
1F
100
AcDbEntity
  8
0
  6
Continuous
 62
     7
370
    30
100
AcDbLine
 10
249.0706823425
 20
111.2826062864
 30
0.0
 11
249.0706823425
 21
125.1826059571
 31
0.0
  0
LINE
  5
EC
330
1F
100
AcDbEntity
  8
0
  6
Continuous
 62
     7
370
    30
100
AcDbLine
 10
249.6140457349
 20
125.1826059571
 30
0.0
 11
249.0706823425
 21
125.1826059571
 31
0.0
  0
LINE
  5
ED
330
1F
100
AcDbEntity
  8
0
  6
Continuous
 62
     7
370
    30
100
AcDbLine
 10
249.0706823425
 20
111.2826062864
 30
0.0
 11
249.6140457349
 21
111.2826062864
 31
0.0
  0
LINE
  5
EE
330
1F
100
AcDbEntity
  8
0
  6
Continuous
 62
     7
370
    30
100
AcDbLine
 10
244.8706783014
 20
125.1826059571
 30
0.0
 11
249.0706823425
 21
125.1826059571
 31
0.0
  0
LINE
  5
EF
330
1F
100
AcDbEntity
  8
0
  6
Continuous
 62
     7
370
    30
100
AcDbLine
 10
244.8706783014
 20
111.2826062864
 30
0.0
 11
249.0706823425
 21
111.2826062864
 31
0.0
  0
LINE
  5
F0
330
1F
100
AcDbEntity
  8
0
  6
Continuous
 62
     7
370
    30
100
AcDbLine
 10
250.2258799629
 20
120.5518415928
 30
0.0
 11
258.2154728131
 21
120.5518415928
 31
0.0
  0
LINE
  5
F1
330
1F
100
AcDbEntity
  8
0
  6
Continuous
 62
     7
370
    30
100
AcDbLine
 10
250.470676239
 20
120.2384537584
 30
0.0
 11
257.9706765371
 21
120.2384537584
 31
0.0
  0
LINE
  5
F2
330
1F
100
AcDbEntity
  8
0
  6
Continuous
 62
     7
370
    30
100
AcDbLine
 10
250.470676239
 20
116.2267584851
 30
0.0
 11
257.9706765371
 21
116.2267584851
 31
0.0
  0
LINE
  5
F3
330
1F
100
AcDbEntity
  8
0
  6
Continuous
 62
     7
370
    30
100
AcDbLine
 10
250.2258799629
 20
115.9133707671
 30
0.0
 11
258.2154728131
 21
115.9133707671
 31
0.0
  0
LINE
  5
F4
330
1F
100
AcDbEntity
  8
0
  6
Continuous
 62
     7
370
    30
100
AcDbLine
 10
250.470676239
 20
121.0099576539
 30
0.0
 11
257.9706765371
 21
121.0099576539
 31
0.0
  0
LINE
  5
F5
330
1F
100
AcDbEntity
  8
0
  6
Continuous
 62
     7
370
    30
100
AcDbLine
 10
250.2258799629
 20
121.2852472937
 30
0.0
 11
258.2154728131
 21
121.2852472937
 31
0.0
  0
LINE
  5
F6
330
1F
100
AcDbEntity
  8
0
  6
Continuous
 62
     7
370
    30
100
AcDbLine
 10
250.470676239
 20
115.4552545896
 30
0.0
 11
257.9706765371
 21
115.4552545896
 31
0.0
  0
LINE
  5
F7
330
1F
100
AcDbEntity
  8
0
  6
Continuous
 62
     7
370
    30
100
AcDbLine
 10
250.2258799629
 20
115.1799649498
 30
0.0
 11
258.2154728131
 21
115.1799649498
 31
0.0
  0
LINE
  5
F8
330
1F
100
AcDbEntity
  8
0
  6
Continuous
 62
     7
370
    30
100
AcDbLine
 10
250.2258799629
 20
121.9852079204
 30
0.0
 11
258.2154728131
 21
121.9852079204
 31
0.0
  0
LINE
  5
F9
330
1F
100
AcDbEntity
  8
0
  6
Continuous
 62
     7
370
    30
100
AcDbLine
 10
250.470676239
 20
121.7510324469
 30
0.0
 11
257.9706765371
 21
121.7510324469
 31
0.0
  0
LINE
  5
FA
330
1F
100
AcDbEntity
  8
0
  6
Continuous
 62
     7
370
    30
100
AcDbLine
 10
250.470676239
 20
114.7141797966
 30
0.0
 11
257.9706765371
 21
114.7141797966
 31
0.0
  0
LINE
  5
FB
330
1F
100
AcDbEntity
  8
0
  6
Continuous
 62
     7
370
    30
100
AcDbLine
 10
250.2258799629
 20
114.4800043231
 30
0.0
 11
258.2154728131
 21
114.4800043231
 31
0.0
  0
LINE
  5
FC
330
1F
100
AcDbEntity
  8
0
  6
Continuous
 62
     7
370
    30
100
AcDbLine
 10
225.0206775623
 20
124.9826062968
 30
0.0
 11
225.0206775623
 21
111.4826059467
 31
0.0
  0
LINE
  5
FD
330
1F
100
AcDbEntity
  8
0
  6
Continuous
 62
     7
370
    30
100
AcDbLine
 10
222.4706791001
 20
112.2826059847
 30
0.0
 11
222.9706801133
 21
112.2826059847
 31
0.0
  0
LINE
  5
FE
330
1F
100
AcDbEntity
  8
0
  6
Continuous
 62
     7
370
    30
100
AcDbLine
 10
222.4706791001
 20
112.2826059847
 30
0.0
 11
222.4706791001
 21
124.1826062588
 31
0.0
  0
LINE
  5
FF
330
1F
100
AcDbEntity
  8
0
  6
Continuous
 62
     7
370
    30
100
AcDbLine
 10
222.9706801133
 20
124.1826062588
 30
0.0
 11
222.4706791001
 21
124.1826062588
 31
0.0
  0
LINE
  5
100
330
1F
100
AcDbEntity
  8
0
  6
Continuous
 62
     7
370
    30
100
AcDbLine
 10
222.9706801133
 20
124.1826062588
 30
0.0
 11
222.9706801133
 21
112.2826059847
 31
0.0
  0
LINE
  5
101
330
1F
100
AcDbEntity
  8
0
  6
Continuous
 62
     7
370
    30
100
AcDbLine
 10
224.9206758695
 20
124.1826062588
 30
0.0
 11
224.9206758695
 21
112.2826059847
 31
0.0
  0
LINE
  5
102
330
1F
100
AcDbEntity
  8
0
  6
Continuous
 62
     7
370
    30
100
AcDbLine
 10
224.9206758695
 20
112.2826059847
 30
0.0
 11
222.9706801133
 21
112.2826059847
 31
0.0
  0
LINE
  5
103
330
1F
100
AcDbEntity
  8
0
  6
Continuous
 62
     7
370
    30
100
AcDbLine
 10
224.9206758695
 20
124.1826062588
 30
0.0
 11
222.9706801133
 21
124.1826062588
 31
0.0
  0
LINE
  5
104
330
1F
100
AcDbEntity
  8
0
  6
Continuous
 62
     7
370
    30
100
AcDbLine
 10
224.9706767159
 20
112.2826059847
 30
0.0
 11
224.9706767159
 21
111.5326063274
 31
0.0
  0
LINE
  5
105
330
1F
100
AcDbEntity
  8
0
  6
Continuous
 62
     7
370
    30
100
AcDbLine
 10
224.9706767159
 20
124.1826062588
 30
0.0
 11
224.9706767159
 21
112.2826059847
 31
0.0
  0
LINE
  5
106
330
1F
100
AcDbEntity
  8
0
  6
Continuous
 62
     7
370
    30
100
AcDbLine
 10
224.9706767159
 20
124.9326059161
 30
0.0
 11
224.9706767159
 21
124.1826062588
 31
0.0
  0
LINE
  5
107
330
1F
100
AcDbEntity
  8
0
  6
Continuous
 62
     7
370
    30
100
AcDbLine
 10
224.9706767159
 20
112.2826059847
 30
0.0
 11
224.9206758695
 21
112.2826059847
 31
0.0
  0
LINE
  5
108
330
1F
100
AcDbEntity
  8
0
  6
Continuous
 62
     7
370
    30
100
AcDbLine
 10
224.9206758695
 20
124.1826062588
 30
0.0
 11
224.9706767159
 21
124.1826062588
 31
0.0
  0
LINE
  5
109
330
1F
100
AcDbEntity
  8
0
  6
Continuous
 62
     7
370
    30
100
AcDbLine
 10
250.470676239
 20
122.4535586344
 30
0.0
 11
257.9706765371
 21
122.4535586344
 31
0.0
  0
LINE
  5
10A
330
1F
100
AcDbEntity
  8
0
  6
Continuous
 62
     7
370
    30
100
AcDbLine
 10
250.2258799629
 20
122.6440541478
 30
0.0
 11
258.2154728131
 21
122.6440541478
 31
0.0
  0
LINE
  5
10B
330
1F
100
AcDbEntity
  8
0
  6
Continuous
 62
     7
370
    30
100
AcDbLine
 10
250.470676239
 20
114.0116533762
 30
0.0
 11
257.9706765371
 21
114.0116533762
 31
0.0
  0
LINE
  5
10C
330
1F
100
AcDbEntity
  8
0
  6
Continuous
 62
     7
370
    30
100
AcDbLine
 10
250.2258799629
 20
113.8211583285
 30
0.0
 11
258.2154728131
 21
113.8211583285
 31
0.0
  0
LINE
  5
10D
330
1F
100
AcDbEntity
  8
0
  6
Continuous
 62
     7
370
    30
100
AcDbLine
 10
250.470676239
 20
123.1098390682
 30
0.0
 11
257.9706765371
 21
123.1098390682
 31
0.0
  0
LINE
  5
10E
330
1F
100
AcDbEntity
  8
0
  6
Continuous
 62
     7
370
    30
100
AcDbLine
 10
250.470676239
 20
113.3553731753
 30
0.0
 11
257.9706765371
 21
113.3553731753
 31
0.0
  0
LINE
  5
10F
330
1F
100
AcDbEntity
  8
0
  6
Continuous
 62
     7
370
    30
100
AcDbLine
 10
250.2258799629
 20
123.2545675276
 30
0.0
 11
258.2154728131
 21
123.2545675276
 31
0.0
  0
LINE
  5
110
330
1F
100
AcDbEntity
  8
0
  6
Continuous
 62
     7
370
    30
100
AcDbLine
 10
250.2258799629
 20
113.2106447159
 30
0.0
 11
258.2154728131
 21
113.2106447159
 31
0.0
  0
LINE
  5
111
330
1F
100
AcDbEntity
  8
0
  6
Continuous
 62
     7
370
    30
100
AcDbLine
 10
250.470676239
 20
123.7126837051
 30
0.0
 11
257.9706765371
 21
123.7126837051
 31
0.0
  0
LINE
  5
112
330
1F
100
AcDbEntity
  8
0
  6
Continuous
 62
     7
370
    30
100
AcDbLine
 10
250.470676239
 20
112.7525285384
 30
0.0
 11
257.9706765371
 21
112.7525285384
 31
0.0
  0
LINE
  5
113
330
1F
100
AcDbEntity
  8
0
  6
Continuous
 62
     7
370
    30
100
AcDbLine
 10
250.2258799629
 20
123.8100590682
 30
0.0
 11
258.2154728131
 21
123.8100590682
 31
0.0
  0
LINE
  5
114
330
1F
100
AcDbEntity
  8
0
  6
Continuous
 62
     7
370
    30
100
AcDbLine
 10
250.2258799629
 20
112.6551531753
 30
0.0
 11
258.2154728131
 21
112.6551531753
 31
0.0
  0
LINE
  5
115
330
1F
100
AcDbEntity
  8
0
  6
Continuous
 62
     7
370
    30
100
AcDbLine
 10
260.2206773715
 20
123.5802691928
 30
0.0
 11
258.2706816154
 21
123.5802691928
 31
0.0
  0
LINE
  5
116
330
1F
100
AcDbEntity
  8
0
  6
Continuous
 62
     7
370
    30
100
AcDbLine
 10
260.2206773715
 20
112.8326059817
 30
0.0
 11
260.2206773715
 21
123.5802691928
 31
0.0
  0
LINE
  5
117
330
1F
100
AcDbEntity
  8
0
  6
Continuous
 62
     7
370
    30
100
AcDbLine
 10
260.2706856685
 20
123.5297752111
 30
0.0
 11
260.2706856685
 21
112.8826058967
 31
0.0
  0
LINE
  5
118
330
1F
100
AcDbEntity
  8
0
  6
Continuous
 62
     7
370
    30
100
AcDbLine
 10
260.2206773715
 20
123.5802691928
 30
0.0
 11
260.2706856685
 21
123.5297752111
 31
0.0
  0
LINE
  5
119
330
1F
100
AcDbEntity
  8
0
  6
Continuous
 62
     7
370
    30
100
AcDbLine
 10
250.470676239
 20
124.2554873726
 30
0.0
 11
257.9706765371
 21
124.2554873726
 31
0.0
  0
LINE
  5
11A
330
1F
100
AcDbEntity
  8
0
  6
Continuous
 62
     7
370
    30
100
AcDbLine
 10
250.470676239
 20
112.2097248709
 30
0.0
 11
257.9706765371
 21
112.2097248709
 31
0.0
  0
LINE
  5
11B
330
1F
100
AcDbEntity
  8
0
  6
Continuous
 62
     7
370
    30
100
AcDbLine
 10
250.2258799629
 20
124.304443275
 30
0.0
 11
258.2154728131
 21
124.304443275
 31
0.0
  0
LINE
  5
11C
330
1F
100
AcDbEntity
  8
0
  6
Continuous
 62
     7
370
    30
100
AcDbLine
 10
250.2258799629
 20
112.1607689685
 30
0.0
 11
258.2154728131
 21
112.1607689685
 31
0.0
  0
LINE
  5
11D
330
1F
100
AcDbEntity
  8
0
  6
Continuous
 62
     7
370
    30
100
AcDbLine
 10
250.470676239
 20
124.7323031104
 30
0.0
 11
257.9706765371
 21
124.7323031104
 31
0.0
  0
LINE
  5
11E
330
1F
100
AcDbEntity
  8
0
  6
Continuous
 62
     7
370
    30
100
AcDbLine
 10
250.470676239
 20
111.7329091331
 30
0.0
 11
257.9706765371
 21
111.7329091331
 31
0.0
  0
LINE
  5
11F
330
1F
100
AcDbEntity
  8
0
  6
Continuous
 62
     7
370
    30
100
AcDbLine
 10
250.470676239
 20
125.1379066645
 30
0.0
 11
257.9706765371
 21
125.1379066645
 31
0.0
  0
LINE
  5
120
330
1F
100
AcDbEntity
  8
0
  6
Continuous
 62
     7
370
    30
100
AcDbLine
 10
250.470676239
 20
111.327305579
 30
0.0
 11
257.9706765371
 21
111.327305579
 31
0.0
  0
LINE
  5
121
330
1F
100
AcDbEntity
  8
0
  6
Continuous
 62
     7
370
    30
100
AcDbLine
 10
250.470676239
 20
125.4678542292
 30
0.0
 11
257.9706765371
 21
125.4678542292
 31
0.0
  0
LINE
  5
122
330
1F
100
AcDbEntity
  8
0
  6
Continuous
 62
     7
370
    30
100
AcDbLine
 10
250.470676239
 20
110.9973580143
 30
0.0
 11
257.9706765371
 21
110.9973580143
 31
0.0
  0
LINE
  5
123
330
1F
100
AcDbEntity
  8
0
  6
Continuous
 62
     7
370
    30
100
AcDbLine
 10
250.470676239
 20
125.7185313417
 30
0.0
 11
257.9706765371
 21
125.7185313417
 31
0.0
  0
LINE
  5
124
330
1F
100
AcDbEntity
  8
0
  6
Continuous
 62
     7
370
    30
100
AcDbLine
 10
250.470676239
 20
110.7466809018
 30
0.0
 11
257.9706765371
 21
110.7466809018
 31
0.0
  0
LINE
  5
125
330
1F
100
AcDbEntity
  8
0
  6
Continuous
 62
     7
370
    30
100
AcDbLine
 10
250.470676239
 20
125.8871906003
 30
0.0
 11
257.9706765371
 21
125.8871906003
 31
0.0
  0
LINE
  5
126
330
1F
100
AcDbEntity
  8
0
  6
Continuous
 62
     7
370
    30
100
AcDbLine
 10
250.470676239
 20
110.5780211775
 30
0.0
 11
257.9706765371
 21
110.5780211775
 31
0.0
  0
LINE
  5
127
330
1F
100
AcDbEntity
  8
0
  6
Continuous
 62
     7
370
    30
100
AcDbLine
 10
250.470676239
 20
125.9719851924
 30
0.0
 11
257.9706765371
 21
125.9719851924
 31
0.0
  0
LINE
  5
128
330
1F
100
AcDbEntity
  8
0
  6
Continuous
 62
     7
370
    30
100
AcDbLine
 10
250.470676239
 20
110.493227051
 30
0.0
 11
257.9706765371
 21
110.493227051
 31
0.0
  0
LINE
  5
129
330
1F
100
AcDbEntity
  8
0
  6
Continuous
 62
     7
370
    30
100
AcDbLine
 10
162.1736060747
 20
129.2326060621
 30
0.0
 11
154.1736056947
 21
129.2326060621
 31
0.0
  0
LINE
  5
12A
330
1F
100
AcDbEntity
  8
0
  6
Continuous
 62
     7
370
    30
100
AcDbLine
 10
154.1736056947
 20
124.2326061739
 30
0.0
 11
162.1736060747
 21
124.2326061739
 31
0.0
  0
LINE
  5
12B
330
1F
100
AcDbEntity
  8
0
  6
Continuous
 62
     7
370
    30
100
AcDbLine
 10
162.1736060747
 20
124.7326062559
 30
0.0
 11
195.6859106117
 21
124.7326062559
 31
0.0
  0
LINE
  5
12C
330
1F
100
AcDbEntity
  8
0
  6
Continuous
 62
     7
370
    30
100
AcDbLine
 10
196.0534682416
 20
128.7326059802
 30
0.0
 11
162.1736060747
 21
128.7326059802
 31
0.0
  0
LINE
  5
12D
330
1F
100
AcDbEntity
  8
0
  6
Continuous
 62
     7
370
    30
100
AcDbLine
 10
192.6723556512
 20
115.0826061176
 30
0.0
 11
196.7667588883
 21
115.0826061176
 31
0.0
  0
LINE
  5
12E
330
1F
100
AcDbEntity
  8
0
  6
Continuous
 62
     7
370
    30
100
AcDbLine
 10
196.6120159172
 20
121.3826061258
 30
0.0
 11
192.6723556512
 21
121.3826061258
 31
0.0
  0
LINE
  5
12F
330
1F
100
AcDbEntity
  8
0
  6
Continuous
 62
     7
370
    30
100
AcDbLine
 10
151.6736062162
 20
129.5826063989
 30
0.0
 11
135.773607149
 21
129.5826063989
 31
0.0
  0
LINE
  5
130
330
1F
100
AcDbEntity
  8
0
  6
Continuous
 62
     7
370
    30
100
AcDbLine
 10
135.773607149
 20
106.8826058446
 30
0.0
 11
151.6736062162
 21
106.8826058446
 31
0.0
  0
LINE
  5
131
330
1F
100
AcDbEntity
  8
0
  6
Continuous
 62
     7
370
    30
100
AcDbLine
 10
151.9736057066
 20
129.2826059772
 30
0.0
 11
151.6736062162
 21
129.5826063989
 31
0.0
  0
LINE
  5
132
330
1F
100
AcDbEntity
  8
0
  6
Continuous
 62
     7
370
    30
100
AcDbLine
 10
151.6736062162
 20
106.8826058446
 30
0.0
 11
151.9736057066
 21
107.1826062663
 31
0.0
  0
ARC
  5
133
330
1F
100
AcDbEntity
  8
0
  6
Continuous
 62
     7
370
    30
100
AcDbCircle
 10
151.4441678755
 20
113.7325210515
 30
0.0
 40
10.00008519010438
100
AcDbArc
 50
81.6561378326
 51
86.9651516126
  0
ARC
  5
134
330
1F
100
AcDbEntity
  8
0
  6
Continuous
 62
     7
370
    30
100
AcDbCircle
 10
151.4441678755
 20
122.732691192
 30
0.0
 40
10.00008519010439
100
AcDbArc
 50
273.0348483874
 51
278.3438621674
  0
LINE
  5
135
330
1F
100
AcDbEntity
  8
0
  6
Continuous
 62
     7
370
    30
100
AcDbLine
 10
152.8953170323
 20
112.8384570157
 30
0.0
 11
159.0326825076
 21
113.7386040328
 31
0.0
  0
LINE
  5
136
330
1F
100
AcDbEntity
  8
0
  6
Continuous
 62
     7
370
    30
100
AcDbLine
 10
159.0326825076
 20
122.7266082106
 30
0.0
 11
152.8953170323
 21
123.6267552277
 31
0.0
  0
ARC
  5
137
330
1F
100
AcDbEntity
  8
0
  6
Continuous
 62
     7
370
    30
100
AcDbCircle
 10
191.4736059393
 20
121.532606854
 30
0.0
 40
1.199999156518747
100
AcDbArc
 50
2.8659497149
 51
133.050651505
  0
ARC
  5
138
330
1F
100
AcDbEntity
  8
0
  6
Continuous
 62
     7
370
    30
100
AcDbCircle
 10
191.4736060792
 20
114.9326050439
 30
0.0
 40
1.199998999496568
100
AcDbArc
 50
226.9493323491
 51
357.134066431
  0
ARC
  5
139
330
1F
100
AcDbEntity
  8
0
  6
Continuous
 62
     7
370
    30
100
AcDbCircle
 10
160.4838275423
 20
132.6208013706
 30
0.0
 40
10.00004400981267
100
AcDbArc
 50
261.6561270974
 51
269.0687515599
  0
ARC
  5
13A
330
1F
100
AcDbEntity
  8
0
  6
Continuous
 62
     7
370
    30
100
AcDbCircle
 10
160.4838338368
 20
103.8443555465
 30
0.0
 40
10.00009966402382
100
AcDbArc
 50
90.9312793265
 51
98.3438625855
  0
LINE
  5
13B
330
1F
100
AcDbEntity
  8
0
  6
Continuous
 62
     7
370
    30
100
AcDbLine
 10
160.3213004687
 20
113.8431342816
 30
0.0
 11
189.9555349641
 21
114.3248226991
 31
0.0
  0
LINE
  5
13C
330
1F
100
AcDbEntity
  8
0
  6
Continuous
 62
     7
370
    30
100
AcDbLine
 10
189.9555349641
 20
122.1403893115
 30
0.0
 11
160.3213004687
 21
122.6220781947
 31
0.0
  0
ARC
  5
13D
330
1F
100
AcDbEntity
  8
0
  6
Continuous
 62
     7
370
    30
100
AcDbCircle
 10
189.9717865081
 20
123.1402615529
 30
0.0
 40
1.000004305896571
100
AcDbArc
 50
269.068818134
 51
313.0505627523
  0
ARC
  5
13E
330
1F
100
AcDbEntity
  8
0
  6
Continuous
 62
     7
370
    30
100
AcDbCircle
 10
189.9717873731
 20
113.3249520718
 30
0.0
 40
1.000002706040674
100
AcDbArc
 50
46.9494194374
 51
90.9312329219
  0
ARC
  5
13F
330
1F
100
AcDbEntity
  8
0
  6
Continuous
 62
     7
370
    30
100
AcDbCircle
 10
192.4719380074
 20
114.8826426305
 30
0.0
 40
0.2004176470957342
100
AcDbArc
 50
357.1295507555
 51
359.9895922128
  0
ARC
  5
140
330
1F
100
AcDbEntity
  8
0
  6
Continuous
 62
     7
370
    30
100
AcDbCircle
 10
192.4719380074
 20
121.582569613
 30
0.0
 40
0.2004176470957342
100
AcDbArc
 50
0.0104077872
 51
2.8704492445
  0
LINE
  5
141
330
1F
100
AcDbEntity
  8
0
  6
Continuous
 62
     7
370
    30
100
AcDbLine
 10
192.6723556512
 20
114.8826062246
 30
0.0
 11
192.6723556512
 21
121.5826060189
 31
0.0
  0
LINE
  5
142
330
1F
100
AcDbEntity
  8
0
  6
Continuous
 62
     7
370
    30
100
AcDbLine
 10
57.3236053728
 20
106.8326059295
 30
0.0
 11
57.3736062192
 21
106.8826058446
 31
0.0
  0
LINE
  5
143
330
1F
100
AcDbEntity
  8
0
  6
Continuous
 62
     7
370
    30
100
AcDbLine
 10
57.3736062192
 20
129.5826063989
 30
0.0
 11
57.3236053728
 21
129.632606314
 31
0.0
  0
LINE
  5
144
330
1F
100
AcDbEntity
  8
0
  6
Continuous
 62
     7
370
    30
100
AcDbLine
 10
42.023607149
 20
129.632606314
 30
0.0
 11
41.9735988521
 21
129.5826063989
 31
0.0
  0
LINE
  5
145
330
1F
100
AcDbEntity
  8
0
  6
Continuous
 62
     7
370
    30
100
AcDbLine
 10
41.9735988521
 20
106.8826058446
 30
0.0
 11
42.023607149
 21
106.8326059295
 31
0.0
  0
LINE
  5
146
330
1F
100
AcDbEntity
  8
0
  6
Continuous
 62
     7
370
    30
100
AcDbLine
 10
51.265314772
 20
129.632606314
 30
0.0
 11
42.023607149
 21
129.632606314
 31
0.0
  0
LINE
  5
147
330
1F
100
AcDbEntity
  8
0
  6
Continuous
 62
     7
370
    30
100
AcDbLine
 10
57.3236053728
 20
129.632606314
 30
0.0
 11
56.2818949961
 21
129.632606314
 31
0.0
  0
LINE
  5
148
330
1F
100
AcDbEntity
  8
0
  6
Continuous
 62
     7
370
    30
100
AcDbLine
 10
56.2818949961
 20
106.8326059295
 30
0.0
 11
57.3236053728
 21
106.8326059295
 31
0.0
  0
LINE
  5
149
330
1F
100
AcDbEntity
  8
0
  6
Continuous
 62
     7
370
    30
100
AcDbLine
 10
42.023607149
 20
106.8326059295
 30
0.0
 11
51.265314772
 21
106.8326059295
 31
0.0
  0
LINE
  5
14A
330
1F
100
AcDbEntity
  8
0
  6
Continuous
 62
     7
370
    30
100
AcDbLine
 10
57.4236070656
 20
129.632606314
 30
0.0
 11
57.3736062192
 21
129.5826063989
 31
0.0
  0
LINE
  5
14B
330
1F
100
AcDbEntity
  8
0
  6
Continuous
 62
     7
370
    30
100
AcDbLine
 10
57.3736062192
 20
106.8826058446
 30
0.0
 11
57.4236070656
 21
106.8326059295
 31
0.0
  0
LINE
  5
14C
330
1F
100
AcDbEntity
  8
0
  6
Continuous
 62
     7
370
    30
100
AcDbLine
 10
135.7236063027
 20
106.8326059295
 30
0.0
 11
135.773607149
 21
106.8826058446
 31
0.0
  0
LINE
  5
14D
330
1F
100
AcDbEntity
  8
0
  6
Continuous
 62
     7
370
    30
100
AcDbLine
 10
135.773607149
 20
129.5826063989
 30
0.0
 11
135.7236063027
 21
129.632606314
 31
0.0
  0
LINE
  5
14E
330
1F
100
AcDbEntity
  8
0
  6
Continuous
 62
     7
370
    30
100
AcDbLine
 10
57.4236070656
 20
106.8326059295
 30
0.0
 11
135.7236063027
 21
106.8326059295
 31
0.0
  0
LINE
  5
14F
330
1F
100
AcDbEntity
  8
0
  6
Continuous
 62
     7
370
    30
100
AcDbLine
 10
135.7236063027
 20
129.632606314
 30
0.0
 11
57.4236070656
 21
129.632606314
 31
0.0
  0
LINE
  5
150
330
1F
100
AcDbEntity
  8
0
  6
Continuous
 62
     7
370
    30
100
AcDbLine
 10
154.1736056947
 20
126.7326065837
 30
0.0
 11
154.1736056947
 21
124.2326061739
 31
0.0
  0
LINE
  5
151
330
1F
100
AcDbEntity
  8
0
  6
Continuous
 62
     7
370
    30
100
AcDbLine
 10
154.1736056947
 20
129.2326060621
 30
0.0
 11
154.1736056947
 21
126.7326065837
 31
0.0
  0
LINE
  5
152
330
1F
100
AcDbEntity
  8
0
  6
Continuous
 62
     7
370
    30
100
AcDbLine
 10
162.1736060747
 20
126.7326065837
 30
0.0
 11
162.1736060747
 21
124.2326061739
 31
0.0
  0
LINE
  5
153
330
1F
100
AcDbEntity
  8
0
  6
Continuous
 62
     7
370
    30
100
AcDbLine
 10
162.1736060747
 20
129.2326060621
 30
0.0
 11
162.1736060747
 21
126.7326065837
 31
0.0
  0
LINE
  5
154
330
1F
100
AcDbEntity
  8
0
  6
Continuous
 62
     7
370
    30
100
AcDbLine
 10
152.0736055367
 20
125.6428814059
 30
0.0
 11
152.0736055367
 21
124.4826062149
 31
0.0
  0
LINE
  5
155
330
1F
100
AcDbEntity
  8
0
  6
Continuous
 62
     7
370
    30
100
AcDbLine
 10
154.0736058646
 20
124.4826062149
 30
0.0
 11
154.0736058646
 21
125.6428814059
 31
0.0
  0
LINE
  5
156
330
1F
100
AcDbEntity
  8
0
  6
Continuous
 62
     7
370
    30
100
AcDbLine
 10
152.0736055367
 20
124.4826062149
 30
0.0
 11
154.0736058646
 21
124.4826062149
 31
0.0
  0
LINE
  5
157
330
1F
100
AcDbEntity
  8
0
  6
Continuous
 62
     7
370
    30
100
AcDbLine
 10
152.0736055367
 20
125.6428814059
 30
0.0
 11
154.0736058646
 21
125.6428814059
 31
0.0
  0
LINE
  5
158
330
1F
100
AcDbEntity
  8
0
  6
Continuous
 62
     7
370
    30
100
AcDbLine
 10
152.0736055367
 20
128.9826064868
 30
0.0
 11
151.9736057066
 21
128.9826064868
 31
0.0
  0
LINE
  5
159
330
1F
100
AcDbEntity
  8
0
  6
Continuous
 62
     7
370
    30
100
AcDbLine
 10
152.0736055367
 20
128.9826064868
 30
0.0
 11
152.0736055367
 21
127.8223312958
 31
0.0
  0
LINE
  5
15A
330
1F
100
AcDbEntity
  8
0
  6
Continuous
 62
     7
370
    30
100
AcDbLine
 10
154.0736058646
 20
127.8223312958
 30
0.0
 11
154.1736056947
 21
127.5677710338
 31
0.0
  0
LINE
  5
15B
330
1F
100
AcDbEntity
  8
0
  6
Continuous
 62
     7
370
    30
100
AcDbLine
 10
154.0736058646
 20
127.8223312958
 30
0.0
 11
154.0736058646
 21
128.9826064868
 31
0.0
  0
LINE
  5
15C
330
1F
100
AcDbEntity
  8
0
  6
Continuous
 62
     7
370
    30
100
AcDbLine
 10
154.1736056947
 20
128.9826064868
 30
0.0
 11
154.0736058646
 21
128.9826064868
 31
0.0
  0
LINE
  5
15D
330
1F
100
AcDbEntity
  8
0
  6
Continuous
 62
     7
370
    30
100
AcDbLine
 10
154.0736058646
 20
124.4826062149
 30
0.0
 11
154.1736056947
 21
124.4826062149
 31
0.0
  0
LINE
  5
15E
330
1F
100
AcDbEntity
  8
0
  6
Continuous
 62
     7
370
    30
100
AcDbLine
 10
154.1736056947
 20
125.8974416679
 30
0.0
 11
154.0736058646
 21
125.6428814059
 31
0.0
  0
LINE
  5
15F
330
1F
100
AcDbEntity
  8
0
  6
Continuous
 62
     7
370
    30
100
AcDbLine
 10
152.0736055367
 20
127.8223312958
 30
0.0
 11
154.0736058646
 21
127.8223312958
 31
0.0
  0
LINE
  5
160
330
1F
100
AcDbEntity
  8
0
  6
Continuous
 62
     7
370
    30
100
AcDbLine
 10
152.0736055367
 20
128.9826064868
 30
0.0
 11
154.0736058646
 21
128.9826064868
 31
0.0
  0
LINE
  5
161
330
1F
100
AcDbEntity
  8
0
  6
Continuous
 62
     7
370
    30
100
AcDbLine
 10
151.6736062162
 20
123.6012653945
 30
0.0
 11
151.6736062162
 21
129.5826063989
 31
0.0
  0
LINE
  5
162
330
1F
100
AcDbEntity
  8
0
  6
Continuous
 62
     7
370
    30
100
AcDbLine
 10
148.7736055546
 20
123.6012653945
 30
0.0
 11
151.6736062162
 21
123.6012653945
 31
0.0
  0
ARC
  5
163
330
1F
100
AcDbEntity
  8
0
  6
Continuous
 62
     7
370
    30
100
AcDbCircle
 10
166.639975871
 20
118.2326061217
 30
0.0
 40
18.65555388266154
100
AcDbArc
 50
163.2750210811
 51
196.7249789189
  0
LINE
  5
164
330
1F
100
AcDbEntity
  8
0
  6
Continuous
 62
     7
370
    30
100
AcDbLine
 10
148.7736055546
 20
112.863946849
 30
0.0
 11
151.6736062162
 21
112.863946849
 31
0.0
  0
LINE
  5
165
330
1F
100
AcDbEntity
  8
0
  6
Continuous
 62
     7
370
    30
100
AcDbLine
 10
151.6736062162
 20
106.8826058446
 30
0.0
 11
151.6736062162
 21
112.863946849
 31
0.0
  0
LINE
  5
166
330
1F
100
AcDbEntity
  8
0
  6
Continuous
 62
     7
370
    30
100
AcDbLine
 10
135.773607149
 20
129.5826063989
 30
0.0
 11
135.773607149
 21
106.8826058446
 31
0.0
  0
LINE
  5
167
330
1F
100
AcDbEntity
  8
0
  6
Continuous
 62
     7
370
    30
100
AcDbLine
 10
148.7736055546
 20
123.6012653945
 30
0.0
 11
148.7736055546
 21
112.863946849
 31
0.0
  0
LINE
  5
168
330
1F
100
AcDbEntity
  8
0
  6
Continuous
 62
     7
370
    30
100
AcDbLine
 10
151.9736057066
 20
123.337750466
 30
0.0
 11
151.7736060464
 21
123.3864879733
 31
0.0
  0
LINE
  5
169
330
1F
100
AcDbEntity
  8
0
  6
Continuous
 62
     7
370
    30
100
AcDbLine
 10
151.9736057066
 20
123.337750466
 30
0.0
 11
151.9736057066
 21
113.1274617775
 31
0.0
  0
LINE
  5
16A
330
1F
100
AcDbEntity
  8
0
  6
Continuous
 62
     7
370
    30
100
AcDbLine
 10
151.7736060464
 20
113.0787242702
 30
0.0
 11
151.9736057066
 21
113.1274617775
 31
0.0
  0
LINE
  5
16B
330
1F
100
AcDbEntity
  8
0
  6
Continuous
 62
     7
370
    30
100
AcDbLine
 10
151.7736060464
 20
113.0787242702
 30
0.0
 11
151.7736060464
 21
123.3864879733
 31
0.0
  0
LINE
  5
16C
330
1F
100
AcDbEntity
  8
0
  6
Continuous
 62
     7
370
    30
100
AcDbLine
 10
151.7736060464
 20
123.3864879733
 30
0.0
 11
151.6736062162
 21
123.6012653945
 31
0.0
  0
LINE
  5
16D
330
1F
100
AcDbEntity
  8
0
  6
Continuous
 62
     7
370
    30
100
AcDbLine
 10
151.6736062162
 20
112.863946849
 30
0.0
 11
151.7736060464
 21
113.0787242702
 31
0.0
  0
LINE
  5
16E
330
1F
100
AcDbEntity
  8
0
  6
Continuous
 62
     7
370
    30
100
AcDbLine
 10
151.9736057066
 20
129.2826059772
 30
0.0
 11
151.9736057066
 21
123.337750466
 31
0.0
  0
LINE
  5
16F
330
1F
100
AcDbEntity
  8
0
  6
Continuous
 62
     7
370
    30
100
AcDbLine
 10
151.9736057066
 20
113.1274617775
 30
0.0
 11
151.9736057066
 21
107.1826062663
 31
0.0
  0
LINE
  5
170
330
1F
100
AcDbEntity
  8
0
  6
Continuous
 62
     7
370
    30
100
AcDbLine
 10
57.3736062192
 20
129.5826063989
 30
0.0
 11
57.3736062192
 21
106.8826058446
 31
0.0
  0
LINE
  5
171
330
1F
100
AcDbEntity
  8
0
  6
Continuous
 62
     7
370
    30
100
AcDbLine
 10
57.3236053728
 20
106.8326059295
 30
0.0
 11
57.3236053728
 21
129.632606314
 31
0.0
  0
LINE
  5
172
330
1F
100
AcDbEntity
  8
0
  6
Continuous
 62
     7
370
    30
100
AcDbLine
 10
42.023607149
 20
118.2326061217
 30
0.0
 11
42.023607149
 21
106.8326059295
 31
0.0
  0
LINE
  5
173
330
1F
100
AcDbEntity
  8
0
  6
Continuous
 62
     7
370
    30
100
AcDbLine
 10
42.023607149
 20
129.632606314
 30
0.0
 11
42.023607149
 21
118.2326061217
 31
0.0
  0
LINE
  5
174
330
1F
100
AcDbEntity
  8
0
  6
Continuous
 62
     7
370
    30
100
AcDbLine
 10
41.9735988521
 20
118.2326061217
 30
0.0
 11
41.9735988521
 21
129.5826063989
 31
0.0
  0
LINE
  5
175
330
1F
100
AcDbEntity
  8
0
  6
Continuous
 62
     7
370
    30
100
AcDbLine
 10
41.9735988521
 20
106.8826058446
 30
0.0
 11
41.9735988521
 21
118.2326061217
 31
0.0
  0
LWPOLYLINE
  5
176
330
1F
100
AcDbEntity
  8
0
  6
Continuous
 62
     7
370
    30
100
AcDbPolyline
 90
        5
 70
   128
 43
0.0
 10
55.4736038589
 20
128.2326058982
 10
55.8652436279
 20
128.9109468026
 10
56.1308717274
 20
129.3710266738
 10
56.2650566839
 20
129.6034419475
 10
56.2818949961
 20
129.632606314
  0
LWPOLYLINE
  5
177
330
1F
100
AcDbEntity
  8
0
  6
Continuous
 62
     7
370
    30
100
AcDbPolyline
 90
        5
 70
   128
 43
0.0
 10
51.265314772
 20
129.632606314
 10
51.2821530842
 20
129.6034419475
 10
51.4163380407
 20
129.3710266738
 10
51.6819661402
 20
128.9109468026
 10
52.0736059093
 20
128.2326058982
  0
LINE
  5
178
330
1F
100
AcDbEntity
  8
0
  6
Continuous
 62
     7
370
    30
100
AcDbLine
 10
52.0736059093
 20
128.2326058982
 30
0.0
 11
52.0736059093
 21
127.7616733251
 31
0.0
  0
LINE
  5
179
330
1F
100
AcDbEntity
  8
0
  6
Continuous
 62
     7
370
    30
100
AcDbLine
 10
55.4736038589
 20
127.7616733251
 30
0.0
 11
52.0736059093
 21
127.7616733251
 31
0.0
  0
LINE
  5
17A
330
1F
100
AcDbEntity
  8
0
  6
Continuous
 62
     7
370
    30
100
AcDbLine
 10
55.4736038589
 20
128.2326058982
 30
0.0
 11
55.4736038589
 21
127.7616733251
 31
0.0
  0
LINE
  5
17B
330
1F
100
AcDbEntity
  8
0
  6
Continuous
 62
     7
370
    30
100
AcDbLine
 10
55.4736038589
 20
108.7035389183
 30
0.0
 11
52.0736059093
 21
108.7035389183
 31
0.0
  0
LINE
  5
17C
330
1F
100
AcDbEntity
  8
0
  6
Continuous
 62
     7
370
    30
100
AcDbLine
 10
52.0736059093
 20
108.2326063453
 30
0.0
 11
52.0736059093
 21
108.7035389183
 31
0.0
  0
LWPOLYLINE
  5
17D
330
1F
100
AcDbEntity
  8
0
  6
Continuous
 62
     7
370
    30
100
AcDbPolyline
 90
        5
 70
   128
 43
0.0
 10
51.265314772
 20
106.8326059295
 10
51.2821530842
 20
106.8617702959
 10
51.4163380407
 20
107.0941846384
 10
51.6819661402
 20
107.5542654408
 10
52.0736059093
 20
108.2326063453
  0
LWPOLYLINE
  5
17E
330
1F
100
AcDbEntity
  8
0
  6
Continuous
 62
     7
370
    30
100
AcDbPolyline
 90
        5
 70
   128
 43
0.0
 10
55.4736038589
 20
108.2326063453
 10
55.8652436279
 20
107.5542654408
 10
56.1308717274
 20
107.0941846384
 10
56.2650566839
 20
106.8617702959
 10
56.2818949961
 20
106.8326059295
  0
LINE
  5
17F
330
1F
100
AcDbEntity
  8
0
  6
Continuous
 62
     7
370
    30
100
AcDbLine
 10
55.4736038589
 20
108.2326063453
 30
0.0
 11
55.4736038589
 21
108.7035389183
 31
0.0
  0
LINE
  5
180
330
1F
100
AcDbEntity
  8
0
  6
Continuous
 62
     7
370
    30
100
AcDbLine
 10
55.4736038589
 20
108.2326063453
 30
0.0
 11
52.0736059093
 21
108.2326063453
 31
0.0
  0
LINE
  5
181
330
1F
100
AcDbEntity
  8
0
  6
Continuous
 62
     7
370
    30
100
AcDbLine
 10
55.4736038589
 20
128.2326058982
 30
0.0
 11
52.0736059093
 21
128.2326058982
 31
0.0
  0
LINE
  5
182
330
1F
100
AcDbEntity
  8
0
  6
Continuous
 62
     7
370
    30
100
AcDbLine
 10
57.4236070656
 20
129.632606314
 30
0.0
 11
57.4236070656
 21
106.8326059295
 31
0.0
  0
LINE
  5
183
330
1F
100
AcDbEntity
  8
0
  6
Continuous
 62
     7
370
    30
100
AcDbLine
 10
135.7236063027
 20
118.2326061217
 30
0.0
 11
135.7236063027
 21
129.632606314
 31
0.0
  0
LINE
  5
184
330
1F
100
AcDbEntity
  8
0
  6
Continuous
 62
     7
370
    30
100
AcDbLine
 10
135.7236063027
 20
106.8326059295
 30
0.0
 11
135.7236063027
 21
118.2326061217
 31
0.0
  0
LINE
  5
185
330
1F
100
AcDbEntity
  8
0
  6
Continuous
 62
     7
370
    30
100
AcDbLine
 10
135.773607149
 20
118.2326061217
 30
0.0
 11
135.773607149
 21
106.8826058446
 31
0.0
  0
LINE
  5
186
330
1F
100
AcDbEntity
  8
0
  6
Continuous
 62
     7
370
    30
100
AcDbLine
 10
135.773607149
 20
129.5826063989
 30
0.0
 11
135.773607149
 21
118.2326061217
 31
0.0
  0
LINE
  5
187
330
1F
100
AcDbEntity
  8
0
  6
Continuous
 62
     8
370
    30
100
AcDbLine
 10
152.8953170323
 20
123.6267552277
 30
0.0
 11
152.8953170323
 21
112.8384570157
 31
0.0
  0
LINE
  5
188
330
1F
100
AcDbEntity
  8
0
  6
Continuous
 62
     8
370
    30
100
AcDbLine
 10
159.0326825076
 20
118.2326061217
 30
0.0
 11
159.0326825076
 21
122.7266082106
 31
0.0
  0
LINE
  5
189
330
1F
100
AcDbEntity
  8
0
  6
Continuous
 62
     8
370
    30
100
AcDbLine
 10
159.0326825076
 20
113.7386040328
 30
0.0
 11
159.0326825076
 21
118.2326061217
 31
0.0
  0
LINE
  5
18A
330
1F
100
AcDbEntity
  8
0
  6
Continuous
 62
     8
370
    30
100
AcDbLine
 10
192.6721041941
 20
118.2326061217
 30
0.0
 11
192.6721041941
 21
121.5926060951
 31
0.0
  0
LINE
  5
18B
330
1F
100
AcDbEntity
  8
0
  6
Continuous
 62
     8
370
    30
100
AcDbLine
 10
192.6721041941
 20
114.8726061484
 30
0.0
 11
192.6721041941
 21
118.2326061217
 31
0.0
  0
LINE
  5
18C
330
1F
100
AcDbEntity
  8
0
  6
Continuous
 62
     8
370
    30
100
AcDbLine
 10
190.6544329517
 20
122.4095068438
 30
0.0
 11
190.6544329517
 21
114.0557053997
 31
0.0
  0
LINE
  5
18D
330
1F
100
AcDbEntity
  8
0
  6
Continuous
 62
     8
370
    30
100
AcDbLine
 10
160.3213004687
 20
118.2326061217
 30
0.0
 11
160.3213004687
 21
113.8431342816
 31
0.0
  0
LINE
  5
18E
330
1F
100
AcDbEntity
  8
0
  6
Continuous
 62
     8
370
    30
100
AcDbLine
 10
160.3213004687
 20
122.6220781947
 30
0.0
 11
160.3213004687
 21
118.2326061217
 31
0.0
  0
LINE
  5
18F
330
1F
100
AcDbEntity
  8
0
  6
Continuous
 62
     8
370
    30
100
AcDbLine
 10
189.9555349641
 20
118.2326061217
 30
0.0
 11
189.9555349641
 21
122.1403893115
 31
0.0
  0
LINE
  5
190
330
1F
100
AcDbEntity
  8
0
  6
Continuous
 62
     8
370
    30
100
AcDbLine
 10
189.9555349641
 20
114.3248226991
 30
0.0
 11
189.9555349641
 21
118.2326061217
 31
0.0
  0
DIMENSION
  5
191
330
1F
100
AcDbEntity
  8
1
100
AcDbDimension
  2
_D
 10
260.2706787543
 20
87.8326061188
 30
0.0
 11
206.1221422603
 21
87.8326061188
 31
0.0
 70
   160
  1
(300)
 71
     2
 42
-1.0
  3
SLDDIMSTYLE0
100
AcDbAlignedDimension
 13
151.9736057662
 23
107.1826061188
 33
0.0
 14
260.2706787543
 24
112.8826061188
 34
0.0
100
AcDbRotatedDimension
  0
DIMENSION
  5
1A3
330
1F
100
AcDbEntity
  8
1
100
AcDbDimension
  2
_D_1
 10
135.7736057662
 20
97.3705620764
 30
0.0
 11
143.8736057662
 21
97.3705620764
 31
0.0
 70
   160
  1
(<>)
 71
     2
 42
-1.0
  3
SLDDIMSTYLE0
100
AcDbAlignedDimension
 13
151.9736057662
 23
107.1826061188
 33
0.0
 14
135.7736057662
 24
106.8826061188
 34
0.0
100
AcDbRotatedDimension
  0
DIMENSION
  5
1AF
330
1F
100
AcDbEntity
  8
1
100
AcDbDimension
  2
_D_2
 10
41.9736057662
 20
97.3705620764
 30
0.0
 11
88.8736057662
 21
97.3705620764
 31
0.0
 70
   160
  1
<>
 71
     2
 42
-1.0
  3
SLDDIMSTYLE0
100
AcDbAlignedDimension
 13
135.7736057662
 23
106.8826061188
 33
0.0
 14
41.9736057662
 24
106.8826061188
 34
0.0
100
AcDbRotatedDimension
  0
DIMENSION
  5
1B9
330
1F
100
AcDbEntity
  8
1
100
AcDbDimension
  2
_D_3
 10
151.9736057662
 20
87.8326061188
 30
0.0
 11
96.9736057662
 21
87.8326061188
 31
0.0
 70
   160
  1
<>
 71
     2
 42
-1.0
  3
SLDDIMSTYLE0
100
AcDbAlignedDimension
 13
41.9736057662
 23
106.8826061188
 33
0.0
 14
151.9736057662
 24
107.1826061188
 34
0.0
100
AcDbRotatedDimension
  0
DIMENSION
  5
1C3
330
1F
100
AcDbEntity
  8
1
100
AcDbDimension
  2
_D_4
 10
28.9736057662
 20
106.8326061188
 30
0.0
 11
28.9736057662
 21
118.2326061188
 31
0.0
 70
   160
  1
%%c<>
 71
     2
 42
-1.0
  3
SLDDIMSTYLE1
100
AcDbAlignedDimension
 13
57.4236057662
 23
129.6326061188
 33
0.0
 14
57.4236057662
 24
106.8326061188
 34
0.0
 50
90.0
100
AcDbRotatedDimension
  0
DIMENSION
  5
1D4
330
1F
100
AcDbEntity
  8
1
100
AcDbDimension
  2
_D_5
 10
139.9309331048
 20
106.8826061188
 30
0.0
 11
139.9309331048
 21
137.7326061188
 31
0.0
 70
   160
  1
%%c<>
 71
     2
 42
-1.0
  3
SLDDIMSTYLE0
100
AcDbAlignedDimension
 13
135.7736057662
 23
129.5826061188
 33
0.0
 14
135.7736057662
 24
106.8826061188
 34
0.0
 50
90.0
100
AcDbRotatedDimension
  0
ARC
  5
1DE
330
1F
100
AcDbEntity
  8
0
  6
HIDDEN
 62
     7
370
     0
100
AcDbCircle
 10
205.8001133068
 20
125.8201061188
 30
0.0
 40
10.17250000000002
100
AcDbArc
 50
157.380135052
 51
202.619864948
  0
ARC
  5
1DF
330
1F
100
AcDbEntity
  8
0
  6
HIDDEN
 62
     7
370
     0
100
AcDbCircle
 10
187.0201133068
 20
117.9951061188
 30
0.0
 40
10.17249999999999
100
AcDbArc
 50
337.380135052
 51
22.619864948
  0
ARC
  5
1E0
330
1F
100
AcDbEntity
  8
0
  6
HIDDEN
 62
     7
370
     0
100
AcDbCircle
 10
207.8434957105
 20
125.8743341234
 30
0.0
 40
10.21949760400704
100
AcDbArc
 50
157.380135052
 51
202.619864948
  0
ARC
  5
1E1
330
1F
100
AcDbEntity
  8
0
  6
HIDDEN
 62
     7
370
     0
100
AcDbCircle
 10
188.9767309031
 20
118.0131821203
 30
0.0
 40
10.21949760400701
100
AcDbArc
 50
337.380135052
 51
22.619864948
  0
ARC
  5
1E2
330
1F
100
AcDbEntity
  8
1
  6
CENTERX2
370
     0
100
AcDbCircle
 10
192.1849773128
 20
422.9953815428
 30
0.0
 40
296.2572727634426
100
AcDbArc
 50
271.0598852418
 51
274.345456179
  0
ARC
  5
1E3
330
1F
100
AcDbEntity
  8
1
  6
CENTERX2
370
     0
100
AcDbCircle
 10
244.8478903072
 20
-271.2674991749
 30
0.0
 40
400.0001051550868
100
AcDbArc
 50
89.9999995119
 51
94.3321842365
  0
LINE
  5
1E4
330
1F
100
AcDbEntity
  8
1
  6
CENTERX2
370
     0
100
AcDbLine
 10
261.2706727939
 20
128.7326059802
 30
0.0
 11
244.8478944259
 21
128.7326059802
 31
0.0
  0
LINE
  5
1E5
330
1F
100
AcDbEntity
  8
1
  6
CENTERX2
370
     0
100
AcDbLine
 10
40.0904646062
 20
118.2326061217
 30
0.0
 11
198.1900880032
 21
118.2326061217
 31
0.0
  0
LINE
  5
1E6
330
1F
100
AcDbEntity
  8
1
  6
CENTERX2
370
     0
100
AcDbLine
 10
199.1938732224
 20
118.2326061217
 30
0.0
 11
264.330715652
 21
118.2326061217
 31
0.0
  0
LINE
  5
1E7
330
1F
100
AcDbEntity
  8
1
  6
CENTERX2
370
     0
100
AcDbLine
 10
196.6731144034
 20
126.7326065837
 30
0.0
 11
153.1736055308
 21
126.7326065837
 31
0.0
  0
ENDSEC
  0
SECTION
  2
OBJECTS
  0
DICTIONARY
  5
C
330
0
100
AcDbDictionary
281
     1
  3
ACAD_GROUP
350
D
  3
ACAD_LAYOUT
350
1A
  3
ACAD_MLINESTYLE
350
17
  3
ACAD_PLOTSETTINGS
350
19
  3
ACAD_PLOTSTYLENAME
350
E
  0
DICTIONARY
  5
D
102
{ACAD_REACTORS
330
C
102
}
330
C
100
AcDbDictionary
281
     1
  0
DICTIONARY
  5
1A
102
{ACAD_REACTORS
330
C
102
}
330
C
100
AcDbDictionary
281
     1
  3
Layout1
350
1E
  3
Layout2
350
26
  3
Model
350
22
  0
DICTIONARY
  5
17
102
{ACAD_REACTORS
330
C
102
}
330
C
100
AcDbDictionary
281
     1
  3
Standard
350
18
  0
DICTIONARY
  5
19
102
{ACAD_REACTORS
330
C
102
}
330
C
100
AcDbDictionary
281
     1
  0
ACDBDICTIONARYWDFLT
  5
E
102
{ACAD_REACTORS
330
C
102
}
330
C
100
AcDbDictionary
281
     1
  3
Normal
350
F
100
AcDbDictionaryWithDefault
340
F
  0
LAYOUT
  5
1E
102
{ACAD_REACTORS
330
1A
102
}
330
1A
100
AcDbPlotSettings
  1

  2
none_device
  4

  6

 40
0.0
 41
0.0
 42
0.0
 43
0.0
 44
0.0
 45
0.0
 46
0.0
 47
0.0
 48
0.0
 49
0.0
140
0.0
141
0.0
142
1.0
143
1.0
 70
   688
 72
     0
 73
     0
 74
     5
  7

 75
    16
147
1.0
148
0.0
149
0.0
100
AcDbLayout
  1
Layout1
 70
     1
 71
     1
 10
0.0
 20
0.0
 11
420.0
 21
297.0
 12
0.0
 22
0.0
 32
0.0
 14
1.0000000000E+20
 24
1.0000000000E+20
 34
1.0000000000E+20
 15
-1.0000000000E+20
 25
-1.0000000000E+20
 35
-1.0000000000E+20
146
0.0
 13
0.0
 23
0.0
 33
0.0
 16
1.0
 26
0.0
 36
0.0
 17
0.0
 27
1.0
 37
0.0
 76
     0
330
1B
  0
LAYOUT
  5
26
102
{ACAD_REACTORS
330
1A
102
}
330
1A
100
AcDbPlotSettings
  1

  2
none_device
  4

  6

 40
0.0
 41
0.0
 42
0.0
 43
0.0
 44
0.0
 45
0.0
 46
0.0
 47
0.0
 48
0.0
 49
0.0
140
0.0
141
0.0
142
1.0
143
1.0
 70
   688
 72
     0
 73
     0
 74
     5
  7

 75
    16
147
1.0
148
0.0
149
0.0
100
AcDbLayout
  1
Layout2
 70
     1
 71
     2
 10
0.0
 20
0.0
 11
0.0
 21
0.0
 12
0.0
 22
0.0
 32
0.0
 14
0.0
 24
0.0
 34
0.0
 15
0.0
 25
0.0
 35
0.0
146
0.0
 13
0.0
 23
0.0
 33
0.0
 16
1.0
 26
0.0
 36
0.0
 17
0.0
 27
1.0
 37
0.0
 76
     0
330
23
  0
LAYOUT
  5
22
102
{ACAD_REACTORS
330
1A
102
}
330
1A
100
AcDbPlotSettings
  1

  2
none_device
  4

  6

 40
0.0
 41
0.0
 42
0.0
 43
0.0
 44
0.0
 45
0.0
 46
0.0
 47
0.0
 48
0.0
 49
0.0
140
0.0
141
0.0
142
1.0
143
1.0
 70
  1712
 72
     0
 73
     0
 74
     0
  7

 75
     0
147
1.0
148
0.0
149
0.0
100
AcDbLayout
  1
Model
 70
     1
 71
     0
 10
0.0
 20
0.0
 11
297.0
 21
210.0
 12
0.0
 22
0.0
 32
0.0
 14
0.0
 24
0.0
 34
0.0
 15
297.0
 25
210.0
 35
0.0
146
0.0
 13
0.0
 23
0.0
 33
0.0
 16
1.0
 26
0.0
 36
0.0
 17
0.0
 27
1.0
 37
0.0
 76
     0
330
1F
331
29
  0
MLINESTYLE
  5
18
102
{ACAD_REACTORS
330
17
102
}
330
17
100
AcDbMlineStyle
  2
Standard
 70
     0
  3

 62
   256
 51
90.0
 52
90.0
 71
     2
 49
0.5
 62
   256
  6
BYLAYER
 49
-0.5
 62
   256
  6
BYLAYER
  0
ACDBPLACEHOLDER
  5
F
102
{ACAD_REACTORS
330
E
102
}
330
E
  0
ENDSEC
  0
EOF
