  0
SECTION
  2
HEADER
  9
$ACADVER
  1
AC1015
  9
$ACADMAINTVER
 70
     6
  9
$DWGCODEPAGE
  3
ANSI_932
  9
$INSBASE
 10
-0.003505563176347
 20
-0.0049328147433134
 30
0.0
  9
$EXTMIN
 10
-22.49950556317635
 20
-51.98893281474329
 30
0.0
  9
$EXTMAX
 10
242.8179970518237
 20
51.4450671852567
 30
0.0
  9
$LIMMIN
 10
-22.49950556317635
 20
-51.98893281474329
  9
$LIMMAX
 10
242.8179970518237
 20
51.4450671852567
  9
$ORTHOMODE
 70
     0
  9
$REGENMODE
 70
     0
  9
$FILLMODE
 70
     1
  9
$QTEXTMODE
 70
     0
  9
$MIRRTEXT
 70
     1
  9
$LTSCALE
 40
1.0
  9
$ATTMODE
 70
     1
  9
$TEXTSIZE
 40
4.0
  9
$TRACEWID
 40
0.05
  9
$TEXTSTYLE
  7
Standard
  9
$CLAYER
  8
1
  9
$CELTYPE
  6
Continuous
  9
$CECOLOR
 62
     7
  9
$CELTSCALE
 40
1.0
  9
$DISPSILH
 70
     0
  9
$DIMSCALE
 40
1.0
  9
$DIMASZ
 40
2.0
  9
$DIMEXO
 40
0.0
  9
$DIMDLI
 40
10.0
  9
$DIMRND
 40
0.0
  9
$DIMDLE
 40
1.0
  9
$DIMEXE
 40
1.0
  9
$DIMTP
 40
0.0
  9
$DIMTM
 40
0.0
  9
$DIMTXT
 40
3.5
  9
$DIMCEN
 40
0.09
  9
$DIMTSZ
 40
0.0
  9
$DIMTOL
 70
     0
  9
$DIMLIM
 70
     0
  9
$DIMTIH
 70
     0
  9
$DIMTOH
 70
     0
  9
$DIMSE1
 70
     0
  9
$DIMSE2
 70
     0
  9
$DIMTAD
 70
     1
  9
$DIMZIN
 70
     8
  9
$DIMBLK
  1
OPEN30
  9
$DIMASO
 70
     1
  9
$DIMSHO
 70
     0
  9
$DIMPOST
  1

  9
$DIMAPOST
  1

  9
$DIMALT
 70
     0
  9
$DIMALTD
 70
     6
  9
$DIMALTF
 40
25.4
  9
$DIMLFAC
 40
1.0
  9
$DIMTOFL
 70
     0
  9
$DIMTVP
 40
0.0
  9
$DIMTIX
 70
     0
  9
$DIMSOXD
 70
     0
  9
$DIMSAH
 70
     0
  9
$DIMBLK1
  1
OPEN30
  9
$DIMBLK2
  1
OPEN30
  9
$DIMSTYLE
  2
Standard
  9
$DIMCLRD
 70
     4
  9
$DIMCLRE
 70
     4
  9
$DIMCLRT
 70
     4
  9
$DIMTFAC
 40
0.7
  9
$DIMGAP
 40
0.896
  9
$DIMJUST
 70
     0
  9
$DIMSD1
 70
     0
  9
$DIMSD2
 70
     0
  9
$DIMTOLJ
 70
     1
  9
$DIMTZIN
 70
     0
  9
$DIMALTZ
 70
     0
  9
$DIMALTTZ
 70
     0
  9
$DIMUPT
 70
     0
  9
$DIMDEC
 70
     6
  9
$DIMTDEC
 70
     6
  9
$DIMALTU
 70
     2
  9
$DIMALTTD
 70
     2
  9
$DIMTXSTY
  7
WinFont1
  9
$DIMAUNIT
 70
     0
  9
$DIMADEC
 70
     6
  9
$DIMALTRND
 40
0.0
  9
$DIMAZIN
 70
     2
  9
$DIMDSEP
 70
    46
  9
$DIMATFIT
 70
     3
  9
$DIMFRAC
 70
     0
  9
$DIMLDRBLK
  1

  9
$DIMLUNIT
 70
     2
  9
$DIMLWD
 70
    -1
  9
$DIMLWE
 70
    -1
  9
$DIMTMOVE
 70
     0
  9
$LUNITS
 70
     2
  9
$LUPREC
 70
     4
  9
$SKETCHINC
 40
0.1
  9
$FILLETRAD
 40
0.0
  9
$AUNITS
 70
     0
  9
$AUPREC
 70
     0
  9
$MENU
  1
ACAD
  9
$ELEVATION
 40
0.0
  9
$PELEVATION
 40
0.0
  9
$THICKNESS
 40
0.0
  9
$LIMCHECK
 70
     0
  9
$CHAMFERA
 40
0.0
  9
$CHAMFERB
 40
0.0
  9
$CHAMFERC
 40
0.0
  9
$CHAMFERD
 40
0.0
  9
$SKPOLY
 70
     0
  9
$TDCREATE
 40
2305814.375
  9
$TDUCREATE
 40
25662966.0
  9
$TDUPDATE
 40
2458705.619839699
  9
$TDUUPDATE
 40
2458705.244839699
  9
$TDINDWG
 40
0.0
  9
$TDUSRTIMER
 40
0.0
  9
$USRTIMER
 70
     1
  9
$ANGBASE
 50
0.0
  9
$ANGDIR
 70
     0
  9
$PDMODE
 70
    65
  9
$PDSIZE
 40
0.2
  9
$PLINEWID
 40
0.0
  9
$SPLFRAME
 70
     0
  9
$SPLINETYPE
 70
     6
  9
$SPLINESEGS
 70
     8
  9
$HANDSEED
  5
2BB
  9
$SURFTAB1
 70
     6
  9
$SURFTAB2
 70
     6
  9
$SURFTYPE
 70
     6
  9
$SURFU
 70
     6
  9
$SURFV
 70
     6
  9
$UCSBASE
  2

  9
$UCSNAME
  2

  9
$UCSORG
 10
0.0
 20
0.0
 30
0.0
  9
$UCSXDIR
 10
1.0
 20
0.0
 30
0.0
  9
$UCSYDIR
 10
0.0
 20
1.0
 30
0.0
  9
$UCSORTHOREF
  2

  9
$UCSORTHOVIEW
 70
     0
  9
$UCSORGTOP
 10
0.0
 20
0.0
 30
0.0
  9
$UCSORGBOTTOM
 10
0.0
 20
0.0
 30
0.0
  9
$UCSORGLEFT
 10
0.0
 20
0.0
 30
0.0
  9
$UCSORGRIGHT
 10
0.0
 20
0.0
 30
0.0
  9
$UCSORGFRONT
 10
0.0
 20
0.0
 30
0.0
  9
$UCSORGBACK
 10
0.0
 20
0.0
 30
0.0
  9
$PUCSBASE
  2

  9
$PUCSNAME
  2

  9
$PUCSORG
 10
0.0
 20
0.0
 30
0.0
  9
$PUCSXDIR
 10
1.0
 20
0.0
 30
0.0
  9
$PUCSYDIR
 10
0.0
 20
1.0
 30
0.0
  9
$PUCSORTHOREF
  2

  9
$PUCSORTHOVIEW
 70
     0
  9
$PUCSORGTOP
 10
0.0
 20
0.0
 30
0.0
  9
$PUCSORGBOTTOM
 10
0.0
 20
0.0
 30
0.0
  9
$PUCSORGLEFT
 10
0.0
 20
0.0
 30
0.0
  9
$PUCSORGRIGHT
 10
0.0
 20
0.0
 30
0.0
  9
$PUCSORGFRONT
 10
0.0
 20
0.0
 30
0.0
  9
$PUCSORGBACK
 10
0.0
 20
0.0
 30
0.0
  9
$USERI1
 70
     0
  9
$USERI2
 70
     0
  9
$USERI3
 70
     0
  9
$USERI4
 70
     0
  9
$USERI5
 70
     0
  9
$USERR1
 40
0.0
  9
$USERR2
 40
0.0
  9
$USERR3
 40
0.0
  9
$USERR4
 40
0.0
  9
$USERR5
 40
0.0
  9
$WORLDVIEW
 70
     1
  9
$SHADEDGE
 70
     3
  9
$SHADEDIF
 70
    70
  9
$TILEMODE
 70
     1
  9
$MAXACTVP
 70
    64
  9
$PINSBASE
 10
0.0
 20
0.0
 30
0.0
  9
$PLIMCHECK
 70
     0
  9
$PEXTMIN
 10
1.000000000000000E+20
 20
1.000000000000000E+20
 30
1.000000000000000E+20
  9
$PEXTMAX
 10
-1.000000000000000E+20
 20
-1.000000000000000E+20
 30
-1.000000000000000E+20
  9
$PLIMMIN
 10
0.0
 20
0.0
  9
$PLIMMAX
 10
12.0
 20
9.0
  9
$UNITMODE
 70
     0
  9
$VISRETAIN
 70
     1
  9
$PLINEGEN
 70
     0
  9
$PSLTSCALE
 70
     1
  9
$TREEDEPTH
 70
  3020
  9
$CMLSTYLE
  2
Standard
  9
$CMLJUST
 70
     0
  9
$CMLSCALE
 40
1.0
  9
$PROXYGRAPHICS
 70
     1
  9
$MEASUREMENT
 70
     0
  9
$CELWEIGHT
370
    -1
  9
$ENDCAPS
280
     0
  9
$JOINSTYLE
280
     0
  9
$LWDISPLAY
290
     0
  9
$INSUNITS
 70
     1
  9
$HYPERLINKBASE
  1

  9
$STYLESHEET
  1

  9
$XEDIT
290
     1
  9
$CEPSNTYPE
380
     0
  9
$PSTYLEMODE
290
     1
  9
$FINGERPRINTGUID
  2
{4BD4ECC5-1BCE-48A8-BD88-7A7F86FD3DF4}
  9
$VERSIONGUID
  2
{FAEB1C32-E019-11D5-929B-00C0DF256EC4}
  9
$EXTNAMES
290
     1
  9
$PSVPSCALE
 40
0.0
  9
$OLESTARTUP
290
     0
  0
ENDSEC
  0
SECTION
  2
CLASSES
  0
CLASS
  1
ACDBDICTIONARYWDFLT
  2
AcDbDictionaryWithDefault
  3
ObjectDBX Classes
 90
        0
280
     0
281
     0
  0
CLASS
  1
VISUALSTYLE
  2
AcDbVisualStyle
  3
ObjectDBX Classes
 90
     4095
280
     0
281
     0
  0
CLASS
  1
MATERIAL
  2
AcDbMaterial
  3
ObjectDBX Classes
 90
     1153
280
     0
281
     0
  0
CLASS
  1
SCALE
  2
AcDbScale
  3
ObjectDBX Classes
 90
     1153
280
     0
281
     0
  0
CLASS
  1
TABLESTYLE
  2
AcDbTableStyle
  3
ObjectDBX Classes
 90
     4095
280
     0
281
     0
  0
CLASS
  1
MLEADERSTYLE
  2
AcDbMLeaderStyle
  3
ACDB_MLEADERSTYLE_CLASS
 90
     4095
280
     0
281
     0
  0
CLASS
  1
SUN
  2
AcDbSun
  3
SCENEOE
 90
     1153
280
     0
281
     0
  0
CLASS
  1
DICTIONARYVAR
  2
AcDbDictionaryVar
  3
ObjectDBX Classes
 90
        0
280
     0
281
     0
  0
CLASS
  1
ACDBPLACEHOLDER
  2
AcDbPlaceHolder
  3
ObjectDBX Classes
 90
        0
280
     0
281
     0
  0
CLASS
  1
LAYOUT
  2
AcDbLayout
  3
ObjectDBX Classes
 90
        0
280
     0
281
     0
  0
ENDSEC
  0
SECTION
  2
TABLES
  0
TABLE
  2
VPORT
  5
8
102
{ACAD_XDICTIONARY
360
27E
102
}
330
0
100
AcDbSymbolTable
 70
     1
  0
VPORT
  5
29
330
8
100
AcDbSymbolTableRecord
100
AcDbViewportTableRecord
  2
*Active
 70
     0
 10
0.0
 20
0.0
 11
1.0
 21
1.0
 12
132.6587513075
 22
51.717
 13
0.0
 23
0.0
 14
0.5
 24
0.5
 15
0.5
 25
0.5
 16
0.0
 26
0.0
 36
1.0
 17
0.0
 27
0.0
 37
0.0
 40
103.434
 41
2.565089841009726
 42
50.0
 43
0.0
 44
0.0
 50
0.0
 51
0.0
 71
     0
 72
   100
 73
     1
 74
     3
 75
     0
 76
     0
 77
     0
 78
     0
281
     0
 65
     1
110
0.0
120
0.0
130
0.0
111
1.0
121
0.0
131
0.0
112
0.0
122
1.0
132
0.0
 79
     0
146
0.0
  0
ENDTAB
  0
TABLE
  2
LTYPE
  5
5
330
0
100
AcDbSymbolTable
 70
    17
  0
LTYPE
  5
14
330
5
100
AcDbSymbolTableRecord
100
AcDbLinetypeTableRecord
  2
ByBlock
 70
     0
  3

 72
    65
 73
     0
 40
0.0
  0
LTYPE
  5
15
330
5
100
AcDbSymbolTableRecord
100
AcDbLinetypeTableRecord
  2
ByLayer
 70
     0
  3

 72
    65
 73
     0
 40
0.0
  0
LTYPE
  5
16
330
5
100
AcDbSymbolTableRecord
100
AcDbLinetypeTableRecord
  2
Continuous
 70
     0
  3
Solid line
 72
    65
 73
     0
 40
0.0
  0
LTYPE
  5
6E
330
5
100
AcDbSymbolTableRecord
100
AcDbLinetypeTableRecord
  2
DIVIDE
 70
     0
  3
Divide ____ . . ____ . . ____ . . ____ . . ____
 72
    65
 73
     6
 40
1.25
 49
0.5
 74
     0
 49
-0.25
 74
     0
 49
0.0
 74
     0
 49
-0.25
 74
     0
 49
0.0
 74
     0
 49
-0.25
 74
     0
  0
LTYPE
  5
6F
330
5
100
AcDbSymbolTableRecord
100
AcDbLinetypeTableRecord
  2
HIDDEN
 70
     0
  3
Hidden __ __ __ __ __ __ __ __ __ __ __ __ __ _
 72
    65
 73
     2
 40
9.525
 49
6.35
 74
     0
 49
-3.175
 74
     0
  0
LTYPE
  5
70
330
5
100
AcDbSymbolTableRecord
100
AcDbLinetypeTableRecord
  2
HIDDEN2
 70
     0
  3
Hidden (.5x) _ _ _ _ _ _ _ _ _ _ _ _ _ _ _ _ _
 72
    65
 73
     2
 40
4.7625
 49
3.175
 74
     0
 49
-1.5875
 74
     0
  0
LTYPE
  5
71
330
5
100
AcDbSymbolTableRecord
100
AcDbLinetypeTableRecord
  2
CENTER2
 70
     0
  3
Center (.5x) ___ _ ___ _ ___ _ ___ _ ___ _ ___
 72
    65
 73
     4
 40
28.575
 49
19.05
 74
     0
 49
-3.175
 74
     0
 49
3.175
 74
     0
 49
-3.175
 74
     0
  0
LTYPE
  5
72
330
5
100
AcDbSymbolTableRecord
100
AcDbLinetypeTableRecord
  2
PHANTOM2
 70
     0
  3
Phantom (.5x) ___ _ _ ___ _ _ ___ _ _ ___ _ _
 72
    65
 73
     6
 40
31.75
 49
15.875
 74
     0
 49
-3.175
 74
     0
 49
3.175
 74
     0
 49
-3.175
 74
     0
 49
3.175
 74
     0
 49
-3.175
 74
     0
  0
LTYPE
  5
73
330
5
100
AcDbSymbolTableRecord
100
AcDbLinetypeTableRecord
  2
DASHED
 70
     0
  3
Dashed __ __ __ __ __ __ __ __ __ __ __ __ __ _
 72
    65
 73
     2
 40
19.05
 49
12.7
 74
     0
 49
-6.35
 74
     0
  0
LTYPE
  5
74
330
5
100
AcDbSymbolTableRecord
100
AcDbLinetypeTableRecord
  2
CENTER
 70
     0
  3
Center ____ _ ____ _ ____ _ ____ _ ____ _ ____
 72
    65
 73
     4
 40
50.8
 49
31.75
 74
     0
 49
-6.35
 74
     0
 49
6.35
 74
     0
 49
-6.35
 74
     0
  0
LTYPE
  5
75
330
5
100
AcDbSymbolTableRecord
100
AcDbLinetypeTableRecord
  2
PHANTOM
 70
     0
  3
Phantom ______  __  __  ______  __  __  ______
 72
    65
 73
     6
 40
63.5
 49
31.75
 74
     0
 49
-6.35
 74
     0
 49
6.35
 74
     0
 49
-6.35
 74
     0
 49
6.35
 74
     0
 49
-6.35
 74
     0
  0
LTYPE
  5
76
330
5
100
AcDbSymbolTableRecord
100
AcDbLinetypeTableRecord
  2
BORDER2
 70
     0
  3
Border (.5x) __.__.__.__.__.__.__.__.__.__.__.
 72
    65
 73
     6
 40
22.225
 49
6.35
 74
     0
 49
-3.175
 74
     0
 49
6.35
 74
     0
 49
-3.175
 74
     0
 49
0.0
 74
     0
 49
-3.175
 74
     0
  0
LTYPE
  5
77
330
5
100
AcDbSymbolTableRecord
100
AcDbLinetypeTableRecord
  2
HIDDENX2
 70
     0
  3
Hidden (2x) ____ ____ ____ ____ ____ ____ ____
 72
    65
 73
     2
 40
19.05
 49
12.7
 74
     0
 49
-6.35
 74
     0
  0
LTYPE
  5
78
330
5
100
AcDbSymbolTableRecord
100
AcDbLinetypeTableRecord
  2
DOTX2
 70
     0
  3
Dot (2x) .  .  .  .  .  .  .  .  .  .  .  .  . 
 72
    65
 73
     2
 40
12.7
 49
0.0
 74
     0
 49
-12.7
 74
     0
  0
LTYPE
  5
79
330
5
100
AcDbSymbolTableRecord
100
AcDbLinetypeTableRecord
  2
DASHDOTX2
 70
     0
  3
Dash dot (2x) ____  .  ____  .  ____  .  ___
 72
    65
 73
     4
 40
50.8
 49
25.4
 74
     0
 49
-12.7
 74
     0
 49
0.0
 74
     0
 49
-12.7
 74
     0
  0
LTYPE
  5
7A
330
5
100
AcDbSymbolTableRecord
100
AcDbLinetypeTableRecord
  2
DIVIDEX2
 70
     0
  3
Divide (2x) ________  .  .  ________  .  .  _
 72
    65
 73
     6
 40
63.5
 49
25.4
 74
     0
 49
-12.7
 74
     0
 49
0.0
 74
     0
 49
-12.7
 74
     0
 49
0.0
 74
     0
 49
-12.7
 74
     0
  0
LTYPE
  5
7B
330
5
100
AcDbSymbolTableRecord
100
AcDbLinetypeTableRecord
  2
DASHEDX2
 70
     0
  3
Dashed (2x) ____  ____  ____  ____  ____  ___
 72
    65
 73
     2
 40
38.1
 49
25.4
 74
     0
 49
-12.7
 74
     0
  0
LTYPE
  5
7C
330
5
100
AcDbSymbolTableRecord
100
AcDbLinetypeTableRecord
  2
CENTERX2
 70
     0
  3
Center (2x) ________  __  ________  __  _____
 72
    65
 73
     4
 40
101.6
 49
63.5
 74
     0
 49
-12.7
 74
     0
 49
12.7
 74
     0
 49
-12.7
 74
     0
  0
LTYPE
  5
7D
330
5
100
AcDbSymbolTableRecord
100
AcDbLinetypeTableRecord
  2
PHANTOMX2
 70
     0
  3
Phantom (2x) ____________    ____    ____   _
 72
    65
 73
     6
 40
127.0
 49
63.5
 74
     0
 49
-12.7
 74
     0
 49
12.7
 74
     0
 49
-12.7
 74
     0
 49
12.7
 74
     0
 49
-12.7
 74
     0
  0
ENDTAB
  0
TABLE
  2
LAYER
  5
2
330
0
100
AcDbSymbolTable
 70
     4
  0
LAYER
  5
10
330
2
100
AcDbSymbolTableRecord
100
AcDbLayerTableRecord
  2
0
 70
     0
 62
     7
  6
Continuous
370
    -3
390
F
  0
LAYER
  5
7E
330
2
100
AcDbSymbolTableRecord
100
AcDbLayerTableRecord
  2
1
 70
     0
 62
     7
  6
Continuous
370
     0
390
F
  0
LAYER
  5
7F
330
2
100
AcDbSymbolTableRecord
100
AcDbLayerTableRecord
  2
2
 70
     0
 62
     7
  6
Continuous
370
     0
390
F
  0
LAYER
  5
80
330
2
100
AcDbSymbolTableRecord
100
AcDbLayerTableRecord
  2
DEFPOINTS
 70
     0
 62
     3
  6
DIVIDE
290
     0
370
     0
390
F
  0
ENDTAB
  0
TABLE
  2
STYLE
  5
3
330
0
100
AcDbSymbolTable
 70
     7
  0
STYLE
  5
11
330
3
100
AcDbSymbolTableRecord
100
AcDbTextStyleTableRecord
  2
Standard
 70
     0
 40
0.0
 41
0.8
 50
0.0
 71
     0
 42
4.0
  3
MONOTXT.shx
  4
EXTFONT.shx
  0
STYLE
  5
81
330
3
100
AcDbSymbolTableRecord
100
AcDbTextStyleTableRecord
  2
DIMSTANDARD
 70
     0
 40
0.0
 41
0.4
 50
0.0
 71
     0
 42
4.0
  3
MONOTXT.shx
  4
EXTFONT.shx
  0
STYLE
  5
191
330
3
100
AcDbSymbolTableRecord
100
AcDbTextStyleTableRecord
  2
MTSTANDARD
 70
     0
 40
0.0
 41
1.0
 50
0.0
 71
     0
 42
4.0
  3
MONOTXT.shx
  4
EXTFONT.shx
  0
STYLE
  5
192
330
3
100
AcDbSymbolTableRecord
100
AcDbTextStyleTableRecord
  2
MTSTANDARD1
 70
     0
 40
0.0
 41
0.8469308469308469
 50
0.0
 71
     0
 42
4.0
  3
MONOTXT.shx
  4
EXTFONT.shx
  0
STYLE
  5
1E1
330
3
100
AcDbSymbolTableRecord
100
AcDbTextStyleTableRecord
  2
MTSTANDARD2
 70
     0
 40
0.0
 41
1.0
 50
0.0
 71
     0
 42
4.0
  3
MONOTXT.shx
  4
EXTFONT.shx
  0
STYLE
  5
1E6
330
3
100
AcDbSymbolTableRecord
100
AcDbTextStyleTableRecord
  2
WinFont1
 70
     0
 40
0.0
 41
0.8
 50
0.0
 71
     0
 42
4.0
  3

  4

1001
ACAD
1000
MS Gothic
1071
    32768
  0
STYLE
  5
257
330
3
100
AcDbSymbolTableRecord
100
AcDbTextStyleTableRecord
  2
WinFont2
 70
     0
 40
0.0
 41
0.4
 50
0.0
 71
     0
 42
4.0
  3

  4

1001
ACAD
1000
MS Gothic
1071
    32768
  0
ENDTAB
  0
TABLE
  2
VIEW
  5
6
330
0
100
AcDbSymbolTable
 70
     0
  0
ENDTAB
  0
TABLE
  2
UCS
  5
7
330
0
100
AcDbSymbolTable
 70
     0
  0
ENDTAB
  0
TABLE
  2
APPID
  5
9
330
0
100
AcDbSymbolTable
 70
     2
  0
APPID
  5
12
330
9
100
AcDbSymbolTableRecord
100
AcDbRegAppTableRecord
  2
ACAD
 70
     0
  0
APPID
  5
2B8
330
9
100
AcDbSymbolTableRecord
100
AcDbRegAppTableRecord
  2
ACAD_MLEADERVER
 70
     0
  0
ENDTAB
  0
TABLE
  2
DIMSTYLE
  5
A
330
0
100
AcDbSymbolTable
 70
    11
100
AcDbDimStyleTable
  0
DIMSTYLE
105
27
330
A
100
AcDbSymbolTableRecord
100
AcDbDimStyleTableRecord
  2
Standard
 70
     0
 41
2.0
 42
0.0
 43
10.0
 44
1.0
 73
     0
 74
     0
 77
     3
 78
     8
 79
     2
140
3.5
141
0.0
146
0.7
147
0.896
176
     4
177
     4
271
     6
178
     4
179
     6
271
     6
340
11
342
86
371
    -1
372
    -1
  0
DIMSTYLE
105
1E7
102
{ACAD_REACTORS
330
1E8
102
}
330
A
100
AcDbSymbolTableRecord
100
AcDbDimStyleTableRecord
  2
DIMSTYEX_1
 70
     0
 41
2.0
 42
0.0
 43
0.0
 44
1.0
 73
     0
 74
     0
 77
     3
 78
     8
 79
     2
140
3.136
141
0.0
146
0.7
147
0.896
173
     1
176
     4
177
     4
271
     6
178
     4
179
     6
271
     6
272
     6
340
1E6
342
86
343
86
344
86
371
    -1
372
    -1
  0
DIMSTYLE
105
1F5
102
{ACAD_REACTORS
330
1F6
102
}
330
A
100
AcDbSymbolTableRecord
100
AcDbDimStyleTableRecord
  2
DIMSTYEX_2
 70
     0
 41
2.0
 42
0.0
 43
0.0
 44
1.0
 73
     0
 74
     0
 77
     3
 78
     8
 79
     2
140
3.136
141
0.0
146
0.7
147
0.896
173
     1
176
     4
177
     4
271
     6
178
     4
179
     6
271
     6
272
     6
340
1E6
342
86
343
86
344
86
371
    -1
372
    -1
  0
DIMSTYLE
105
203
102
{ACAD_REACTORS
330
204
102
}
330
A
100
AcDbSymbolTableRecord
100
AcDbDimStyleTableRecord
  2
DIMSTYEX_3
 70
     0
 41
2.0
 42
0.0
 43
0.0
 44
1.0
 73
     0
 74
     0
 77
     3
 78
     8
 79
     2
140
3.136
141
0.0
146
0.7
147
0.896
173
     1
176
     4
177
     4
271
     6
178
     4
179
     6
271
     6
272
     6
340
1E6
342
86
343
86
344
86
371
    -1
372
    -1
  0
DIMSTYLE
105
211
102
{ACAD_REACTORS
330
212
102
}
330
A
100
AcDbSymbolTableRecord
100
AcDbDimStyleTableRecord
  2
DIMSTYEX_4
 70
     0
 41
2.0
 42
0.0
 43
0.0
 44
1.0
 73
     0
 74
     0
 77
     3
 78
     8
 79
     2
140
3.136
141
0.0
146
0.7
147
0.896
173
     1
176
     4
177
     4
271
     6
178
     4
179
     6
271
     6
272
     6
340
1E6
342
86
343
86
344
86
371
    -1
372
    -1
  0
DIMSTYLE
105
21F
102
{ACAD_REACTORS
330
220
102
}
330
A
100
AcDbSymbolTableRecord
100
AcDbDimStyleTableRecord
  2
DIMSTYEX_5
 70
     0
 41
2.0
 42
0.0
 43
0.0
 44
1.0
 73
     0
 74
     0
 77
     3
 78
     8
 79
     2
140
3.136
141
0.0
146
0.7
147
0.896
173
     1
176
     4
177
     4
271
     6
178
     4
179
     6
271
     6
272
     6
340
1E6
342
86
343
86
344
86
371
    -1
372
    -1
  0
DIMSTYLE
105
22D
102
{ACAD_REACTORS
330
22E
102
}
330
A
100
AcDbSymbolTableRecord
100
AcDbDimStyleTableRecord
  2
DIMSTYEX_6
 70
     0
 41
2.0
 42
0.0
 43
0.0
 44
1.0
 73
     0
 74
     0
 77
     3
 78
     8
 79
     2
140
3.136
141
0.0
146
0.7
147
0.896
173
     1
176
     4
177
     4
271
     6
178
     4
179
     6
271
     6
272
     6
340
1E6
342
86
343
86
344
86
371
    -1
372
    -1
  0
DIMSTYLE
105
23B
102
{ACAD_REACTORS
330
23C
102
}
330
A
100
AcDbSymbolTableRecord
100
AcDbDimStyleTableRecord
  2
DIMSTYEX_7
 70
     0
 41
2.0
 42
0.0
 43
0.0
 44
1.0
 73
     0
 74
     0
 77
     3
 78
     8
 79
     2
140
3.136
141
0.0
146
0.7
147
0.896
173
     1
176
     4
177
     4
271
     6
178
     4
179
     6
271
     6
272
     6
340
1E6
342
86
343
86
344
86
371
    -1
372
    -1
  0
DIMSTYLE
105
249
102
{ACAD_REACTORS
330
24A
102
}
330
A
100
AcDbSymbolTableRecord
100
AcDbDimStyleTableRecord
  2
DIMSTYEX_8
 70
     0
 41
2.0
 42
0.0
 43
0.0
 44
1.0
 73
     0
 74
     0
 77
     3
 78
     8
 79
     2
140
3.136
141
0.0
146
0.7
147
0.896
173
     1
176
     4
177
     4
271
     6
178
     4
179
     6
271
     6
272
     6
340
1E6
342
86
343
86
344
86
371
    -1
372
    -1
  0
DIMSTYLE
105
258
102
{ACAD_REACTORS
330
259
102
}
330
A
100
AcDbSymbolTableRecord
100
AcDbDimStyleTableRecord
  2
DIMSTYEX_9
 70
     0
 41
2.0
 42
0.0
 43
0.0
 44
1.0
 73
     0
 74
     0
 77
     3
 78
     8
 79
     2
140
3.136
141
0.0
146
0.7
147
0.896
173
     1
176
     4
177
     4
271
     6
178
     4
179
     6
271
     6
272
     6
340
257
342
86
343
86
344
86
371
    -1
372
    -1
  0
DIMSTYLE
105
266
102
{ACAD_REACTORS
330
267
102
}
330
A
100
AcDbSymbolTableRecord
100
AcDbDimStyleTableRecord
  2
DIMSTYEX_10
 70
     0
 41
2.0
 42
0.0
 43
0.0
 44
1.0
 73
     0
 74
     0
 77
     3
 78
     8
 79
     2
140
3.136
141
0.0
146
0.7
147
0.896
173
     1
176
     4
177
     4
271
     6
178
     4
179
     6
271
     6
272
     6
340
1E6
342
86
343
86
344
86
371
    -1
372
    -1
  0
ENDTAB
  0
TABLE
  2
BLOCK_RECORD
  5
1
330
0
100
AcDbSymbolTable
 70
    23
  0
BLOCK_RECORD
  5
1F
330
1
100
AcDbSymbolTableRecord
100
AcDbBlockTableRecord
  2
*Model_Space
340
22
  0
BLOCK_RECORD
  5
1B
330
1
100
AcDbSymbolTableRecord
100
AcDbBlockTableRecord
  2
*Paper_Space
340
1E
  0
BLOCK_RECORD
  5
82
330
1
100
AcDbSymbolTableRecord
100
AcDbBlockTableRecord
  2
_SMALL
340
0
  0
BLOCK_RECORD
  5
86
330
1
100
AcDbSymbolTableRecord
100
AcDbBlockTableRecord
  2
_OPEN30
340
0
102
{BLKREFS
331
1DD
331
1DE
331
1ED
331
1EE
331
1FB
331
1FC
331
209
331
20A
331
217
331
218
331
225
331
226
331
233
331
234
331
241
331
242
331
24F
331
250
331
25E
331
25F
102
}
  0
BLOCK_RECORD
  5
8C
330
1
100
AcDbSymbolTableRecord
100
AcDbBlockTableRecord
  2
_OBLIQUE
340
0
  0
BLOCK_RECORD
  5
90
330
1
100
AcDbSymbolTableRecord
100
AcDbBlockTableRecord
  2
_DOT
340
0
  0
BLOCK_RECORD
  5
94
330
1
100
AcDbSymbolTableRecord
100
AcDbBlockTableRecord
  2
_DOTSMALL
340
0
  0
BLOCK_RECORD
  5
98
330
1
100
AcDbSymbolTableRecord
100
AcDbBlockTableRecord
  2
_DATUMFILLED
340
0
  0
BLOCK_RECORD
  5
9C
330
1
100
AcDbSymbolTableRecord
100
AcDbBlockTableRecord
  2
DATUMFILLED2
340
0
  0
BLOCK_RECORD
  5
A0
330
1
100
AcDbSymbolTableRecord
100
AcDbBlockTableRecord
  2
_DATUMBLANK
340
0
  0
BLOCK_RECORD
  5
A6
330
1
100
AcDbSymbolTableRecord
100
AcDbBlockTableRecord
  2
DATUMBLANK2
340
0
  0
BLOCK_RECORD
  5
AC
330
1
100
AcDbSymbolTableRecord
100
AcDbBlockTableRecord
  2
_NONE
340
0
  0
BLOCK_RECORD
  5
152
330
1
100
AcDbSymbolTableRecord
100
AcDbBlockTableRecord
  2
BLK0
340
0
102
{BLKREFS
331
156
102
}
  0
BLOCK_RECORD
  5
157
330
1
100
AcDbSymbolTableRecord
100
AcDbBlockTableRecord
  2
BLK1
340
0
102
{BLKREFS
331
15B
102
}
  0
BLOCK_RECORD
  5
1D9
330
1
100
AcDbSymbolTableRecord
100
AcDbBlockTableRecord
  2
_D1
340
0
  0
BLOCK_RECORD
  5
1E9
330
1
100
AcDbSymbolTableRecord
100
AcDbBlockTableRecord
  2
_D2
340
0
  0
BLOCK_RECORD
  5
1F7
330
1
100
AcDbSymbolTableRecord
100
AcDbBlockTableRecord
  2
_D3
340
0
  0
BLOCK_RECORD
  5
205
330
1
100
AcDbSymbolTableRecord
100
AcDbBlockTableRecord
  2
_D4
340
0
  0
BLOCK_RECORD
  5
213
330
1
100
AcDbSymbolTableRecord
100
AcDbBlockTableRecord
  2
_D5
340
0
  0
BLOCK_RECORD
  5
221
330
1
100
AcDbSymbolTableRecord
100
AcDbBlockTableRecord
  2
_D6
340
0
  0
BLOCK_RECORD
  5
22F
330
1
100
AcDbSymbolTableRecord
100
AcDbBlockTableRecord
  2
_D7
340
0
  0
BLOCK_RECORD
  5
23D
330
1
100
AcDbSymbolTableRecord
100
AcDbBlockTableRecord
  2
_D8
340
0
  0
BLOCK_RECORD
  5
24B
330
1
100
AcDbSymbolTableRecord
100
AcDbBlockTableRecord
  2
_D9
340
0
  0
BLOCK_RECORD
  5
25A
330
1
100
AcDbSymbolTableRecord
100
AcDbBlockTableRecord
  2
_D10
340
0
  0
ENDTAB
  0
ENDSEC
  0
SECTION
  2
BLOCKS
  0
BLOCK
  5
20
330
1F
100
AcDbEntity
  8
0
100
AcDbBlockBegin
  2
*Model_Space
 70
     0
 10
0.0
 20
0.0
 30
0.0
  3
*Model_Space
  1

  0
ENDBLK
  5
21
330
1F
100
AcDbEntity
  8
0
100
AcDbBlockEnd
  0
BLOCK
  5
1C
330
1B
100
AcDbEntity
 67
     1
  8
0
100
AcDbBlockBegin
  2
*Paper_Space
 70
     0
 10
0.0
 20
0.0
 30
0.0
  3
*Paper_Space
  1

  0
ENDBLK
  5
1D
330
1B
100
AcDbEntity
 67
     1
  8
0
100
AcDbBlockEnd
  0
BLOCK
  5
83
330
82
100
AcDbEntity
  8
0
100
AcDbBlockBegin
  2
_SMALL
 70
     0
 10
0.0
 20
0.0
 30
0.0
  3
_SMALL
  1

  0
CIRCLE
  5
85
330
82
100
AcDbEntity
  8
0
  6
ByBlock
 62
     0
370
    -2
100
AcDbCircle
 10
0.0
 20
0.0
 30
0.0
 40
0.1666666666
  0
CIRCLE
  5
268
330
82
100
AcDbEntity
  8
0
  6
ByBlock
 62
     0
370
    -2
100
AcDbCircle
 10
0.0
 20
0.0
 30
0.0
 40
0.1666666666
  0
ENDBLK
  5
84
330
82
100
AcDbEntity
  8
0
100
AcDbBlockEnd
  0
BLOCK
  5
87
330
86
100
AcDbEntity
  8
0
100
AcDbBlockBegin
  2
_OPEN30
 70
     0
 10
0.0
 20
0.0
 30
0.0
  3
_OPEN30
  1

  0
LINE
  5
89
330
86
100
AcDbEntity
  8
0
  6
ByBlock
 62
     0
370
    -2
100
AcDbLine
 10
-1.0
 20
0.26794919
 30
0.0
 11
0.0
 21
0.0
 31
0.0
  0
LINE
  5
8A
330
86
100
AcDbEntity
  8
0
  6
ByBlock
 62
     0
370
    -2
100
AcDbLine
 10
0.0
 20
0.0
 30
0.0
 11
-1.0
 21
-0.26794919
 31
0.0
  0
LINE
  5
8B
330
86
100
AcDbEntity
  8
0
  6
ByBlock
 62
     0
370
    -2
100
AcDbLine
 10
0.0
 20
0.0
 30
0.0
 11
-1.0
 21
0.0
 31
0.0
  0
LINE
  5
269
330
86
100
AcDbEntity
  8
0
  6
ByBlock
 62
     0
370
    -2
100
AcDbLine
 10
-1.0
 20
0.26794919
 30
0.0
 11
0.0
 21
0.0
 31
0.0
  0
LINE
  5
26A
330
86
100
AcDbEntity
  8
0
  6
ByBlock
 62
     0
370
    -2
100
AcDbLine
 10
0.0
 20
0.0
 30
0.0
 11
-1.0
 21
-0.26794919
 31
0.0
  0
LINE
  5
26B
330
86
100
AcDbEntity
  8
0
  6
ByBlock
 62
     0
370
    -2
100
AcDbLine
 10
0.0
 20
0.0
 30
0.0
 11
-1.0
 21
0.0
 31
0.0
  0
ENDBLK
  5
88
330
86
100
AcDbEntity
  8
0
100
AcDbBlockEnd
  0
BLOCK
  5
8D
330
8C
100
AcDbEntity
  8
0
100
AcDbBlockBegin
  2
_OBLIQUE
 70
     0
 10
0.0
 20
0.0
 30
0.0
  3
_OBLIQUE
  1

  0
LINE
  5
8F
330
8C
100
AcDbEntity
  8
0
  6
ByBlock
 62
     0
370
    -2
100
AcDbLine
 10
-0.5
 20
-0.5
 30
0.0
 11
0.5
 21
0.5
 31
0.0
  0
LINE
  5
26C
330
8C
100
AcDbEntity
  8
0
  6
ByBlock
 62
     0
370
    -2
100
AcDbLine
 10
-0.5
 20
-0.5
 30
0.0
 11
0.5
 21
0.5
 31
0.0
  0
ENDBLK
  5
8E
330
8C
100
AcDbEntity
  8
0
100
AcDbBlockEnd
  0
BLOCK
  5
91
330
90
100
AcDbEntity
  8
0
100
AcDbBlockBegin
  2
_DOT
 70
     0
 10
0.0
 20
0.0
 30
0.0
  3
_DOT
  1

  0
LWPOLYLINE
  5
93
330
90
100
AcDbEntity
  8
0
  6
ByBlock
 62
     0
370
    -2
100
AcDbPolyline
 90
        2
 70
     1
 43
0.5
 10
-0.25
 20
0.0
 42
1.0
 10
0.25
 20
0.0
 42
1.0
  0
LWPOLYLINE
  5
26D
330
90
100
AcDbEntity
  8
0
  6
ByBlock
 62
     0
370
    -2
100
AcDbPolyline
 90
        2
 70
     1
 43
0.5
 10
-0.25
 20
0.0
 42
1.0
 10
0.25
 20
0.0
 42
1.0
  0
ENDBLK
  5
92
330
90
100
AcDbEntity
  8
0
100
AcDbBlockEnd
  0
BLOCK
  5
95
330
94
100
AcDbEntity
  8
0
100
AcDbBlockBegin
  2
_DOTSMALL
 70
     0
 10
0.0
 20
0.0
 30
0.0
  3
_DOTSMALL
  1

  0
LWPOLYLINE
  5
97
330
94
100
AcDbEntity
  8
0
  6
ByBlock
 62
     0
370
    -2
100
AcDbPolyline
 90
        2
 70
     1
 43
0.5
 10
-0.0625
 20
0.0
 42
1.0
 10
0.0625
 20
0.0
 42
1.0
  0
LWPOLYLINE
  5
26E
330
94
100
AcDbEntity
  8
0
  6
ByBlock
 62
     0
370
    -2
100
AcDbPolyline
 90
        2
 70
     1
 43
0.5
 10
-0.0625
 20
0.0
 42
1.0
 10
0.0625
 20
0.0
 42
1.0
  0
ENDBLK
  5
96
330
94
100
AcDbEntity
  8
0
100
AcDbBlockEnd
  0
BLOCK
  5
99
330
98
100
AcDbEntity
  8
0
100
AcDbBlockBegin
  2
_DATUMFILLED
 70
     0
 10
0.0
 20
0.0
 30
0.0
  3
_DATUMFILLED
  1

  0
SOLID
  5
9B
330
98
100
AcDbEntity
  8
0
  6
ByBlock
 62
     0
370
    -2
100
AcDbTrace
 10
0.0
 20
0.57735027
 30
0.0
 11
-1.0
 21
0.0
 31
0.0
 12
0.0
 22
-0.57735027
 32
0.0
 13
0.0
 23
-0.57735027
 33
0.0
  0
SOLID
  5
26F
330
98
100
AcDbEntity
  8
0
  6
ByBlock
 62
     0
370
    -2
100
AcDbTrace
 10
0.0
 20
0.57735027
 30
0.0
 11
-1.0
 21
0.0
 31
0.0
 12
0.0
 22
-0.57735027
 32
0.0
 13
0.0
 23
-0.57735027
 33
0.0
  0
ENDBLK
  5
9A
330
98
100
AcDbEntity
  8
0
100
AcDbBlockEnd
  0
BLOCK
  5
9D
330
9C
100
AcDbEntity
  8
0
100
AcDbBlockBegin
  2
DATUMFILLED2
 70
     0
 10
0.0
 20
0.0
 30
0.0
  3
DATUMFILLED2
  1

  0
SOLID
  5
9F
330
9C
100
AcDbEntity
  8
0
  6
ByBlock
 62
     0
370
    -2
100
AcDbTrace
 10
0.0
 20
1.0
 30
0.0
 11
-1.0
 21
0.0
 31
0.0
 12
0.0
 22
-1.0
 32
0.0
 13
0.0
 23
-1.0
 33
0.0
  0
SOLID
  5
270
330
9C
100
AcDbEntity
  8
0
  6
ByBlock
 62
     0
370
    -2
100
AcDbTrace
 10
0.0
 20
1.0
 30
0.0
 11
-1.0
 21
0.0
 31
0.0
 12
0.0
 22
-1.0
 32
0.0
 13
0.0
 23
-1.0
 33
0.0
  0
ENDBLK
  5
9E
330
9C
100
AcDbEntity
  8
0
100
AcDbBlockEnd
  0
BLOCK
  5
A1
330
A0
100
AcDbEntity
  8
0
100
AcDbBlockBegin
  2
_DATUMBLANK
 70
     0
 10
0.0
 20
0.0
 30
0.0
  3
_DATUMBLANK
  1

  0
LINE
  5
A3
330
A0
100
AcDbEntity
  8
0
  6
ByBlock
 62
     0
370
    -2
100
AcDbLine
 10
0.0
 20
0.57735027
 30
0.0
 11
-1.0
 21
0.0
 31
0.0
  0
LINE
  5
A4
330
A0
100
AcDbEntity
  8
0
  6
ByBlock
 62
     0
370
    -2
100
AcDbLine
 10
-1.0
 20
0.0
 30
0.0
 11
0.0
 21
-0.57735027
 31
0.0
  0
LINE
  5
A5
330
A0
100
AcDbEntity
  8
0
  6
ByBlock
 62
     0
370
    -2
100
AcDbLine
 10
0.0
 20
-0.57735027
 30
0.0
 11
0.0
 21
0.57735027
 31
0.0
  0
LINE
  5
271
330
A0
100
AcDbEntity
  8
0
  6
ByBlock
 62
     0
370
    -2
100
AcDbLine
 10
0.0
 20
0.57735027
 30
0.0
 11
-1.0
 21
0.0
 31
0.0
  0
LINE
  5
272
330
A0
100
AcDbEntity
  8
0
  6
ByBlock
 62
     0
370
    -2
100
AcDbLine
 10
-1.0
 20
0.0
 30
0.0
 11
0.0
 21
-0.57735027
 31
0.0
  0
LINE
  5
273
330
A0
100
AcDbEntity
  8
0
  6
ByBlock
 62
     0
370
    -2
100
AcDbLine
 10
0.0
 20
-0.57735027
 30
0.0
 11
0.0
 21
0.57735027
 31
0.0
  0
ENDBLK
  5
A2
330
A0
100
AcDbEntity
  8
0
100
AcDbBlockEnd
  0
BLOCK
  5
A7
330
A6
100
AcDbEntity
  8
0
100
AcDbBlockBegin
  2
DATUMBLANK2
 70
     0
 10
0.0
 20
0.0
 30
0.0
  3
DATUMBLANK2
  1

  0
LINE
  5
A9
330
A6
100
AcDbEntity
  8
0
  6
ByBlock
 62
     0
370
    -2
100
AcDbLine
 10
0.0
 20
1.0
 30
0.0
 11
-1.0
 21
0.0
 31
0.0
  0
LINE
  5
AA
330
A6
100
AcDbEntity
  8
0
  6
ByBlock
 62
     0
370
    -2
100
AcDbLine
 10
-1.0
 20
0.0
 30
0.0
 11
0.0
 21
-1.0
 31
0.0
  0
LINE
  5
AB
330
A6
100
AcDbEntity
  8
0
  6
ByBlock
 62
     0
370
    -2
100
AcDbLine
 10
0.0
 20
-1.0
 30
0.0
 11
0.0
 21
1.0
 31
0.0
  0
LINE
  5
274
330
A6
100
AcDbEntity
  8
0
  6
ByBlock
 62
     0
370
    -2
100
AcDbLine
 10
0.0
 20
1.0
 30
0.0
 11
-1.0
 21
0.0
 31
0.0
  0
LINE
  5
275
330
A6
100
AcDbEntity
  8
0
  6
ByBlock
 62
     0
370
    -2
100
AcDbLine
 10
-1.0
 20
0.0
 30
0.0
 11
0.0
 21
-1.0
 31
0.0
  0
LINE
  5
276
330
A6
100
AcDbEntity
  8
0
  6
ByBlock
 62
     0
370
    -2
100
AcDbLine
 10
0.0
 20
-1.0
 30
0.0
 11
0.0
 21
1.0
 31
0.0
  0
ENDBLK
  5
A8
330
A6
100
AcDbEntity
  8
0
100
AcDbBlockEnd
  0
BLOCK
  5
AD
330
AC
100
AcDbEntity
  8
0
100
AcDbBlockBegin
  2
_NONE
 70
     0
 10
0.0
 20
0.0
 30
0.0
  3
_NONE
  1

  0
ENDBLK
  5
AE
330
AC
100
AcDbEntity
  8
0
100
AcDbBlockEnd
  0
BLOCK
  5
153
330
152
100
AcDbEntity
  8
0
100
AcDbBlockBegin
  2
BLK0
 70
     0
 10
148.6679970518237
 20
8.913747185256682
 30
0.0
  3
BLK0
  1

  0
ELLIPSE
  5
155
330
152
100
AcDbEntity
  8
2
  6
Continuous
 62
     7
100
AcDbEllipse
 10
148.6679970518237
 20
8.913747185256682
 30
0.0
 11
4.706807507842937E-17
 21
-0.76868
 31
0.0
210
0.0
220
0.0
230
1.0
 40
0.650465733465161
 41
1.570796326794897
 42
4.71238898038469
  0
ENDBLK
  5
154
330
152
100
AcDbEntity
  8
0
100
AcDbBlockEnd
  0
BLOCK
  5
158
330
157
100
AcDbEntity
  8
0
100
AcDbBlockBegin
  2
BLK1
 70
     0
 10
148.6679970518237
 20
-8.923612814743308
 30
0.0
  3
BLK1
  1

  0
ELLIPSE
  5
15A
330
157
100
AcDbEntity
  8
2
  6
Continuous
 62
     7
100
AcDbEllipse
 10
148.6679970518237
 20
-8.923612814743308
 30
0.0
 11
-1.412042252352881E-16
 21
-0.76868
 31
0.0
210
0.0
220
0.0
230
1.0
 40
0.650465733465161
 41
4.71238898038469
 42
7.853981633974483
  0
ENDBLK
  5
159
330
157
100
AcDbEntity
  8
0
100
AcDbBlockEnd
  0
BLOCK
  5
1DA
330
1D9
100
AcDbEntity
  8
0
100
AcDbBlockBegin
  2
_D1
 70
     0
 10
0.0
 20
0.0
 30
0.0
  3
_D1
  1

  0
LINE
  5
1DC
330
1D9
100
AcDbEntity
  8
1
  6
ByBlock
 62
     4
100
AcDbLine
 10
-16.00350556317635
 20
9.995067185256687
 30
0.0
 11
-16.00350556317635
 21
-10.00493281474331
 31
0.0
  0
INSERT
  5
1DD
330
1D9
100
AcDbEntity
  8
1
  6
ByBlock
 62
     4
100
AcDbBlockReference
  2
_OPEN30
 10
-16.00350556317635
 20
9.995067185256687
 30
0.0
 41
1.969615506024416
 42
1.969615506024416
 43
1.969615506024416
 50
90.0
  0
INSERT
  5
1DE
330
1D9
100
AcDbEntity
  8
1
  6
ByBlock
 62
     4
100
AcDbBlockReference
  2
_OPEN30
 10
-16.00350556317635
 20
-10.00493281474331
 30
0.0
 41
1.969615506024416
 42
1.969615506024416
 43
1.969615506024416
 50
270.0
  0
LINE
  5
1DF
330
1D9
100
AcDbEntity
  8
1
  6
ByBlock
 62
     4
100
AcDbLine
 10
18.46799705182366
 20
9.995067185256687
 30
0.0
 11
-17.00350556317635
 21
9.995067185256687
 31
0.0
  0
LINE
  5
1E0
330
1D9
100
AcDbEntity
  8
1
  6
ByBlock
 62
     4
100
AcDbLine
 10
18.46799705182366
 20
-10.00493281474331
 30
0.0
 11
-17.00350556317635
 21
-10.00493281474331
 31
0.0
  0
MTEXT
  5
1E2
330
1D9
100
AcDbEntity
  8
1
  6
Continuous
 62
     4
100
AcDbMText
 10
-16.89950556317635
 20
-6.567432814743313
 30
0.0
 40
3.5
 41
0.0
 71
     7
 72
     5
  1
{\fＭＳ ゴシック|b0|i0|c128|p49;\W1.0;φ20{\H0.70x;\A2\S 0^ -0.01;}}
  7
MTSTANDARD2
 11
0.0
 21
1.0
 31
0.0
 73
     1
 44
0.8035714285714286
  0
POINT
  5
1E3
330
1D9
100
AcDbEntity
  8
DEFPOINTS
  6
ByBlock
 62
     4
100
AcDbPoint
 10
18.46799705182366
 20
9.995067185256687
 30
0.0
  0
POINT
  5
1E4
330
1D9
100
AcDbEntity
  8
DEFPOINTS
  6
ByBlock
 62
     4
100
AcDbPoint
 10
18.46799705182366
 20
-10.00493281474331
 30
0.0
  0
POINT
  5
1E5
330
1D9
100
AcDbEntity
  8
DEFPOINTS
  6
ByBlock
 62
     4
100
AcDbPoint
 10
-16.00350556317635
 20
-10.00493281474331
 30
0.0
  0
ENDBLK
  5
1DB
330
1D9
100
AcDbEntity
  8
0
100
AcDbBlockEnd
  0
BLOCK
  5
1EA
330
1E9
100
AcDbEntity
  8
0
100
AcDbBlockBegin
  2
_D2
 70
     0
 10
0.0
 20
0.0
 30
0.0
  3
_D2
  1

  0
LINE
  5
1EC
330
1E9
100
AcDbEntity
  8
1
  6
ByBlock
 62
     4
100
AcDbLine
 10
-8.003505563176347
 20
5.895067185256693
 30
0.0
 11
-8.003505563176347
 21
-5.904932814743319
 31
0.0
  0
INSERT
  5
1ED
330
1E9
100
AcDbEntity
  8
1
  6
ByBlock
 62
     4
100
AcDbBlockReference
  2
_OPEN30
 10
-8.003505563176347
 20
5.895067185256693
 30
0.0
 41
1.969615506024416
 42
1.969615506024416
 43
1.969615506024416
 50
90.0
  0
INSERT
  5
1EE
330
1E9
100
AcDbEntity
  8
1
  6
ByBlock
 62
     4
100
AcDbBlockReference
  2
_OPEN30
 10
-8.003505563176347
 20
-5.904932814743319
 30
0.0
 41
1.969615506024416
 42
1.969615506024416
 43
1.969615506024416
 50
270.0
  0
LINE
  5
1EF
330
1E9
100
AcDbEntity
  8
1
  6
ByBlock
 62
     4
100
AcDbLine
 10
3.555340163823658
 20
5.895067185256693
 30
0.0
 11
-9.003505563176347
 21
5.895067185256693
 31
0.0
  0
LINE
  5
1F0
330
1E9
100
AcDbEntity
  8
1
  6
ByBlock
 62
     4
100
AcDbLine
 10
3.555340163823658
 20
-5.904932814743319
 30
0.0
 11
-9.003505563176347
 21
-5.90493281474332
 31
0.0
  0
MTEXT
  5
1F1
330
1E9
100
AcDbEntity
  8
1
  6
Continuous
 62
     4
100
AcDbMText
 10
-8.899505563176348
 20
-5.254932814743314
 30
0.0
 40
3.5
 41
0.0
 71
     7
 72
     5
  1
{\fＭＳ ゴシック|b0|i0|c128|p49;\W1.0;φ11.8}
  7
MTSTANDARD2
 11
0.0
 21
1.0
 31
0.0
 73
     1
 44
0.8035714285714286
  0
POINT
  5
1F2
330
1E9
100
AcDbEntity
  8
DEFPOINTS
  6
ByBlock
 62
     4
100
AcDbPoint
 10
3.555340163823658
 20
5.895067185256693
 30
0.0
  0
POINT
  5
1F3
330
1E9
100
AcDbEntity
  8
DEFPOINTS
  6
ByBlock
 62
     4
100
AcDbPoint
 10
3.555340163823658
 20
-5.904932814743319
 30
0.0
  0
POINT
  5
1F4
330
1E9
100
AcDbEntity
  8
DEFPOINTS
  6
ByBlock
 62
     4
100
AcDbPoint
 10
-8.003505563176347
 20
-5.904932814743319
 30
0.0
  0
ENDBLK
  5
1EB
330
1E9
100
AcDbEntity
  8
0
100
AcDbBlockEnd
  0
BLOCK
  5
1F8
330
1F7
100
AcDbEntity
  8
0
100
AcDbBlockBegin
  2
_D3
 70
     0
 10
0.0
 20
0.0
 30
0.0
  3
_D3
  1

  0
LINE
  5
1FA
330
1F7
100
AcDbEntity
  8
1
  6
ByBlock
 62
     4
100
AcDbLine
 10
192.8679970518237
 20
25.4450671852567
 30
0.0
 11
192.8679970518237
 21
12.4450671852567
 31
0.0
  0
INSERT
  5
1FB
330
1F7
100
AcDbEntity
  8
1
  6
ByBlock
 62
     4
100
AcDbBlockReference
  2
_OPEN30
 10
192.8679970518237
 20
25.4450671852567
 30
0.0
 41
1.969615506024414
 42
1.969615506024414
 43
1.969615506024414
 50
90.0
  0
INSERT
  5
1FC
330
1F7
100
AcDbEntity
  8
1
  6
ByBlock
 62
     4
100
AcDbBlockReference
  2
_OPEN30
 10
192.8679970518237
 20
12.4450671852567
 30
0.0
 41
1.969615506024416
 42
1.969615506024416
 43
1.969615506024416
 50
270.0
  0
LINE
  5
1FD
330
1F7
100
AcDbEntity
  8
1
  6
ByBlock
 62
     4
100
AcDbLine
 10
178.8679970518237
 20
25.4450671852567
 30
0.0
 11
193.8679970518237
 21
25.44506718525671
 31
0.0
  0
LINE
  5
1FE
330
1F7
100
AcDbEntity
  8
1
  6
ByBlock
 62
     4
100
AcDbLine
 10
179.8679970518237
 20
12.4450671852567
 30
0.0
 11
193.8679970518236
 21
12.4450671852567
 31
0.0
  0
MTEXT
  5
1FF
330
1F7
100
AcDbEntity
  8
1
  6
Continuous
 62
     4
100
AcDbMText
 10
191.9719970518237
 20
15.4450671852567
 30
0.0
 40
3.5
 41
0.0
 71
     7
 72
     5
  1
{\fＭＳ ゴシック|b0|i0|c128|p49;\W1.0;(13)}
  7
MTSTANDARD2
 11
0.0
 21
1.0
 31
0.0
 73
     1
 44
0.8035714285714286
  0
POINT
  5
200
330
1F7
100
AcDbEntity
  8
DEFPOINTS
  6
ByBlock
 62
     4
100
AcDbPoint
 10
178.8679970518237
 20
25.4450671852567
 30
0.0
  0
POINT
  5
201
330
1F7
100
AcDbEntity
  8
DEFPOINTS
  6
ByBlock
 62
     4
100
AcDbPoint
 10
179.8679970518237
 20
12.4450671852567
 30
0.0
  0
POINT
  5
202
330
1F7
100
AcDbEntity
  8
DEFPOINTS
  6
ByBlock
 62
     4
100
AcDbPoint
 10
192.8679970518237
 20
12.4450671852567
 30
0.0
  0
ENDBLK
  5
1F9
330
1F7
100
AcDbEntity
  8
0
100
AcDbBlockEnd
  0
BLOCK
  5
206
330
205
100
AcDbEntity
  8
0
100
AcDbBlockBegin
  2
_D4
 70
     0
 10
0.0
 20
0.0
 30
0.0
  3
_D4
  1

  0
LINE
  5
208
330
205
100
AcDbEntity
  8
1
  6
ByBlock
 62
     4
100
AcDbLine
 10
192.8681505386087
 20
12.4450671852567
 30
0.0
 11
192.8681505386087
 21
-9.954932814743302
 31
0.0
  0
INSERT
  5
209
330
205
100
AcDbEntity
  8
1
  6
ByBlock
 62
     4
100
AcDbBlockReference
  2
_OPEN30
 10
192.8681505386087
 20
12.4450671852567
 30
0.0
 41
1.969615506024416
 42
1.969615506024416
 43
1.969615506024416
 50
90.0
  0
INSERT
  5
20A
330
205
100
AcDbEntity
  8
1
  6
ByBlock
 62
     4
100
AcDbBlockReference
  2
_OPEN30
 10
192.8681505386087
 20
-9.954932814743302
 30
0.0
 41
1.969615506024416
 42
1.969615506024416
 43
1.969615506024416
 50
270.0
  0
LINE
  5
20B
330
205
100
AcDbEntity
  8
1
  6
ByBlock
 62
     4
100
AcDbLine
 10
179.8679970518237
 20
12.4450671852567
 30
0.0
 11
193.8681505386086
 21
12.44506718525671
 31
0.0
  0
LINE
  5
20C
330
205
100
AcDbEntity
  8
1
  6
ByBlock
 62
     4
100
AcDbLine
 10
179.8679970518237
 20
-9.954932814743302
 30
0.0
 11
193.8681505386086
 21
-9.954932814743302
 31
0.0
  0
MTEXT
  5
20D
330
205
100
AcDbEntity
  8
1
  6
Continuous
 62
     4
100
AcDbMText
 10
191.9721505386087
 20
-4.0049328147433
 30
0.0
 40
3.5
 41
0.0
 71
     7
 72
     5
  1
{\fＭＳ ゴシック|b0|i0|c128|p49;\W1.0;(22.4)}
  7
MTSTANDARD2
 11
0.0
 21
1.0
 31
0.0
 73
     1
 44
0.8035714285714286
  0
POINT
  5
20E
330
205
100
AcDbEntity
  8
DEFPOINTS
  6
ByBlock
 62
     4
100
AcDbPoint
 10
179.8679970518237
 20
12.4450671852567
 30
0.0
  0
POINT
  5
20F
330
205
100
AcDbEntity
  8
DEFPOINTS
  6
ByBlock
 62
     4
100
AcDbPoint
 10
179.8679970518237
 20
-9.954932814743302
 30
0.0
  0
POINT
  5
210
330
205
100
AcDbEntity
  8
DEFPOINTS
  6
ByBlock
 62
     4
100
AcDbPoint
 10
192.8681505386087
 20
-9.954932814743302
 30
0.0
  0
ENDBLK
  5
207
330
205
100
AcDbEntity
  8
0
100
AcDbBlockEnd
  0
BLOCK
  5
214
330
213
100
AcDbEntity
  8
0
100
AcDbBlockBegin
  2
_D5
 70
     0
 10
0.0
 20
0.0
 30
0.0
  3
_D5
  1

  0
LINE
  5
216
330
213
100
AcDbEntity
  8
1
  6
ByBlock
 62
     4
100
AcDbLine
 10
148.1679970518237
 20
-38.00493281474331
 30
0.0
 11
180.8679970518237
 21
-38.00493281474331
 31
0.0
  0
INSERT
  5
217
330
213
100
AcDbEntity
  8
1
  6
ByBlock
 62
     4
100
AcDbBlockReference
  2
_OPEN30
 10
148.1679970518237
 20
-38.00493281474331
 30
0.0
 41
1.969615506024411
 42
1.969615506024411
 43
1.969615506024411
 50
180.0
  0
INSERT
  5
218
330
213
100
AcDbEntity
  8
1
  6
ByBlock
 62
     4
100
AcDbBlockReference
  2
_OPEN30
 10
180.8679970518237
 20
-38.00493281474331
 30
0.0
 41
1.969615506024411
 42
1.969615506024411
 43
1.969615506024411
  0
LINE
  5
219
330
213
100
AcDbEntity
  8
1
  6
ByBlock
 62
     4
100
AcDbLine
 10
148.1679970518237
 20
-9.854932814743307
 30
0.0
 11
148.1679970518237
 21
-39.00493281474331
 31
0.0
  0
LINE
  5
21A
330
213
100
AcDbEntity
  8
1
  6
ByBlock
 62
     4
100
AcDbLine
 10
180.8679970518237
 20
-8.954932814743302
 30
0.0
 11
180.8679970518237
 21
-39.00493281474332
 31
0.0
  0
MTEXT
  5
21B
330
213
100
AcDbEntity
  8
1
  6
Continuous
 62
     4
100
AcDbMText
 10
159.2679970518237
 20
-37.10893281474331
 30
0.0
 40
3.5
 41
0.0
 71
     7
 72
     5
  1
{\fＭＳ ゴシック|b0|i0|c128|p49;\W1.0;(32.7)}
  7
MTSTANDARD2
 73
     1
 44
0.8035714285714286
  0
POINT
  5
21C
330
213
100
AcDbEntity
  8
DEFPOINTS
  6
ByBlock
 62
     4
100
AcDbPoint
 10
148.1679970518237
 20
-9.854932814743307
 30
0.0
  0
POINT
  5
21D
330
213
100
AcDbEntity
  8
DEFPOINTS
  6
ByBlock
 62
     4
100
AcDbPoint
 10
180.8679970518237
 20
-8.954932814743302
 30
0.0
  0
POINT
  5
21E
330
213
100
AcDbEntity
  8
DEFPOINTS
  6
ByBlock
 62
     4
100
AcDbPoint
 10
180.8679970518237
 20
-38.00493281474331
 30
0.0
  0
ENDBLK
  5
215
330
213
100
AcDbEntity
  8
0
100
AcDbBlockEnd
  0
BLOCK
  5
222
330
221
100
AcDbEntity
  8
0
100
AcDbBlockBegin
  2
_D6
 70
     0
 10
0.0
 20
0.0
 30
0.0
  3
_D6
  1

  0
LINE
  5
224
330
221
100
AcDbEntity
  8
1
  6
ByBlock
 62
     4
100
AcDbLine
 10
148.1679970518237
 20
-38.00493281474331
 30
0.0
 11
14.66799705182366
 21
-38.00493281474331
 31
0.0
  0
INSERT
  5
225
330
221
100
AcDbEntity
  8
1
  6
ByBlock
 62
     4
100
AcDbBlockReference
  2
_OPEN30
 10
148.1679970518237
 20
-38.00493281474331
 30
0.0
 41
1.969615506024411
 42
1.969615506024411
 43
1.969615506024411
  0
INSERT
  5
226
330
221
100
AcDbEntity
  8
1
  6
ByBlock
 62
     4
100
AcDbBlockReference
  2
_OPEN30
 10
14.66799705182366
 20
-38.00493281474331
 30
0.0
 41
1.969615506024414
 42
1.969615506024414
 43
1.969615506024414
 50
180.0
  0
LINE
  5
227
330
221
100
AcDbEntity
  8
1
  6
ByBlock
 62
     4
100
AcDbLine
 10
148.1679970518237
 20
-9.854932814743307
 30
0.0
 11
148.1679970518237
 21
-39.00493281474331
 31
0.0
  0
LINE
  5
228
330
221
100
AcDbEntity
  8
1
  6
ByBlock
 62
     4
100
AcDbLine
 10
14.66799705182366
 20
-9.279932814743319
 30
0.0
 11
14.66799705182366
 21
-39.00493281474331
 31
0.0
  0
MTEXT
  5
229
330
221
100
AcDbEntity
  8
1
  6
Continuous
 62
     4
100
AcDbMText
 10
75.29299705182368
 20
-37.10893281474331
 30
0.0
 40
3.5
 41
0.0
 71
     7
 72
     5
  1
{\fＭＳ ゴシック|b0|i0|c128|p49;\W1.0;(133.5)}
  7
MTSTANDARD2
 73
     1
 44
0.8035714285714286
  0
POINT
  5
22A
330
221
100
AcDbEntity
  8
DEFPOINTS
  6
ByBlock
 62
     4
100
AcDbPoint
 10
148.1679970518237
 20
-9.854932814743307
 30
0.0
  0
POINT
  5
22B
330
221
100
AcDbEntity
  8
DEFPOINTS
  6
ByBlock
 62
     4
100
AcDbPoint
 10
14.66799705182366
 20
-9.279932814743319
 30
0.0
  0
POINT
  5
22C
330
221
100
AcDbEntity
  8
DEFPOINTS
  6
ByBlock
 62
     4
100
AcDbPoint
 10
14.66799705182366
 20
-38.00493281474331
 30
0.0
  0
ENDBLK
  5
223
330
221
100
AcDbEntity
  8
0
100
AcDbBlockEnd
  0
BLOCK
  5
230
330
22F
100
AcDbEntity
  8
0
100
AcDbBlockBegin
  2
_D7
 70
     0
 10
0.0
 20
0.0
 30
0.0
  3
_D7
  1

  0
LINE
  5
232
330
22F
100
AcDbEntity
  8
1
  6
ByBlock
 62
     4
100
AcDbLine
 10
72.66799705182365
 20
-30.00493281474331
 30
0.0
 11
148.1679970518237
 21
-30.00493281474331
 31
0.0
  0
INSERT
  5
233
330
22F
100
AcDbEntity
  8
1
  6
ByBlock
 62
     4
100
AcDbBlockReference
  2
_OPEN30
 10
72.66799705182365
 20
-30.00493281474331
 30
0.0
 41
1.969615506024411
 42
1.969615506024411
 43
1.969615506024411
 50
180.0
  0
INSERT
  5
234
330
22F
100
AcDbEntity
  8
1
  6
ByBlock
 62
     4
100
AcDbBlockReference
  2
_OPEN30
 10
148.1679970518237
 20
-30.00493281474331
 30
0.0
 41
1.969615506024411
 42
1.969615506024411
 43
1.969615506024411
  0
LINE
  5
235
330
22F
100
AcDbEntity
  8
1
  6
ByBlock
 62
     4
100
AcDbLine
 10
72.66799705182365
 20
-10.00493281474331
 30
0.0
 11
72.66799705182365
 21
-31.00493281474331
 31
0.0
  0
LINE
  5
236
330
22F
100
AcDbEntity
  8
1
  6
ByBlock
 62
     4
100
AcDbLine
 10
148.1679970518237
 20
-9.854932814743307
 30
0.0
 11
148.1679970518237
 21
-31.00493281474332
 31
0.0
  0
MTEXT
  5
237
330
22F
100
AcDbEntity
  8
1
  6
Continuous
 62
     4
100
AcDbMText
 10
106.9179970518237
 20
-29.10893281474331
 30
0.0
 40
3.5
 41
0.0
 71
     7
 72
     5
  1
{\fＭＳ ゴシック|b0|i0|c128|p49;\W1.0;75.5}
  7
MTSTANDARD2
 73
     1
 44
0.8035714285714286
  0
POINT
  5
238
330
22F
100
AcDbEntity
  8
DEFPOINTS
  6
ByBlock
 62
     4
100
AcDbPoint
 10
72.66799705182365
 20
-10.00493281474331
 30
0.0
  0
POINT
  5
239
330
22F
100
AcDbEntity
  8
DEFPOINTS
  6
ByBlock
 62
     4
100
AcDbPoint
 10
148.1679970518237
 20
-9.854932814743307
 30
0.0
  0
POINT
  5
23A
330
22F
100
AcDbEntity
  8
DEFPOINTS
  6
ByBlock
 62
     4
100
AcDbPoint
 10
148.1679970518237
 20
-30.00493281474331
 30
0.0
  0
ENDBLK
  5
231
330
22F
100
AcDbEntity
  8
0
100
AcDbBlockEnd
  0
BLOCK
  5
23E
330
23D
100
AcDbEntity
  8
0
100
AcDbBlockBegin
  2
_D8
 70
     0
 10
0.0
 20
0.0
 30
0.0
  3
_D8
  1

  0
LINE
  5
240
330
23D
100
AcDbEntity
  8
1
  6
ByBlock
 62
     4
100
AcDbLine
 10
14.66799705182366
 20
-30.00493281474331
 30
0.0
 11
72.66799705182365
 21
-30.00493281474331
 31
0.0
  0
INSERT
  5
241
330
23D
100
AcDbEntity
  8
1
  6
ByBlock
 62
     4
100
AcDbBlockReference
  2
_OPEN30
 10
14.66799705182366
 20
-30.00493281474331
 30
0.0
 41
1.969615506024414
 42
1.969615506024414
 43
1.969615506024414
 50
180.0
  0
INSERT
  5
242
330
23D
100
AcDbEntity
  8
1
  6
ByBlock
 62
     4
100
AcDbBlockReference
  2
_OPEN30
 10
72.66799705182365
 20
-30.00493281474331
 30
0.0
 41
1.969615506024411
 42
1.969615506024411
 43
1.969615506024411
  0
LINE
  5
243
330
23D
100
AcDbEntity
  8
1
  6
ByBlock
 62
     4
100
AcDbLine
 10
14.66799705182366
 20
-9.279932814743319
 30
0.0
 11
14.66799705182366
 21
-31.00493281474331
 31
0.0
  0
LINE
  5
244
330
23D
100
AcDbEntity
  8
1
  6
ByBlock
 62
     4
100
AcDbLine
 10
72.66799705182365
 20
-10.00493281474331
 30
0.0
 11
72.66799705182365
 21
-31.00493281474331
 31
0.0
  0
MTEXT
  5
245
330
23D
100
AcDbEntity
  8
1
  6
Continuous
 62
     4
100
AcDbMText
 10
40.16799705182365
 20
-29.10893281474331
 30
0.0
 40
3.5
 41
0.0
 71
     7
 72
     5
  1
{\fＭＳ ゴシック|b0|i0|c128|p49;\W1.0;(58)}
  7
MTSTANDARD2
 73
     1
 44
0.8035714285714286
  0
POINT
  5
246
330
23D
100
AcDbEntity
  8
DEFPOINTS
  6
ByBlock
 62
     4
100
AcDbPoint
 10
14.66799705182366
 20
-9.279932814743319
 30
0.0
  0
POINT
  5
247
330
23D
100
AcDbEntity
  8
DEFPOINTS
  6
ByBlock
 62
     4
100
AcDbPoint
 10
72.66799705182365
 20
-10.00493281474331
 30
0.0
  0
POINT
  5
248
330
23D
100
AcDbEntity
  8
DEFPOINTS
  6
ByBlock
 62
     4
100
AcDbPoint
 10
72.66799705182365
 20
-30.00493281474331
 30
0.0
  0
ENDBLK
  5
23F
330
23D
100
AcDbEntity
  8
0
100
AcDbBlockEnd
  0
BLOCK
  5
24C
330
24B
100
AcDbEntity
  8
0
100
AcDbBlockBegin
  2
_D9
 70
     0
 10
0.0
 20
0.0
 30
0.0
  3
_D9
  1

  0
LINE
  5
24E
330
24B
100
AcDbEntity
  8
1
  6
ByBlock
 62
     4
100
AcDbLine
 10
14.66799705182366
 20
-38.00493281474331
 30
0.0
 11
-0.003505563176347
 21
-38.00493281474331
 31
0.0
  0
INSERT
  5
24F
330
24B
100
AcDbEntity
  8
1
  6
ByBlock
 62
     4
100
AcDbBlockReference
  2
_OPEN30
 10
14.66799705182366
 20
-38.00493281474331
 30
0.0
 41
1.969615506024416
 42
1.969615506024416
 43
1.969615506024416
  0
INSERT
  5
250
330
24B
100
AcDbEntity
  8
1
  6
ByBlock
 62
     4
100
AcDbBlockReference
  2
_OPEN30
 10
-0.003505563176347
 20
-38.00493281474331
 30
0.0
 41
1.969615506024416
 42
1.969615506024416
 43
1.969615506024416
 50
180.0
  0
LINE
  5
251
330
24B
100
AcDbEntity
  8
1
  6
ByBlock
 62
     4
100
AcDbLine
 10
14.66799705182366
 20
-9.279932814743319
 30
0.0
 11
14.66799705182366
 21
-39.00493281474331
 31
0.0
  0
LINE
  5
252
330
24B
100
AcDbEntity
  8
1
  6
ByBlock
 62
     4
100
AcDbLine
 10
-0.003505563176347
 20
-3.42758254574332
 30
0.0
 11
-0.003505563176347
 21
-39.00493281474331
 31
0.0
  0
MTEXT
  5
253
330
24B
100
AcDbEntity
  8
1
  6
Continuous
 62
     4
100
AcDbMText
 10
2.082245744323656
 20
-37.10893281474331
 30
0.0
 40
3.5
 41
0.0
 71
     7
 72
     5
  1
{\fＭＳ ゴシック|b0|i0|c128|p49;\W1.0;(14.7)}
  7
MTSTANDARD2
 73
     1
 44
0.8035714285714286
  0
POINT
  5
254
330
24B
100
AcDbEntity
  8
DEFPOINTS
  6
ByBlock
 62
     4
100
AcDbPoint
 10
14.66799705182366
 20
-9.279932814743319
 30
0.0
  0
POINT
  5
255
330
24B
100
AcDbEntity
  8
DEFPOINTS
  6
ByBlock
 62
     4
100
AcDbPoint
 10
-0.003505563176347
 20
-3.42758254574332
 30
0.0
  0
POINT
  5
256
330
24B
100
AcDbEntity
  8
DEFPOINTS
  6
ByBlock
 62
     4
100
AcDbPoint
 10
-0.003505563176347
 20
-38.00493281474331
 30
0.0
  0
ENDBLK
  5
24D
330
24B
100
AcDbEntity
  8
0
100
AcDbBlockEnd
  0
BLOCK
  5
25B
330
25A
100
AcDbEntity
  8
0
100
AcDbBlockBegin
  2
_D10
 70
     0
 10
0.0
 20
0.0
 30
0.0
  3
_D10
  1

  0
LINE
  5
25D
330
25A
100
AcDbEntity
  8
1
  6
ByBlock
 62
     4
100
AcDbLine
 10
112.4679970518237
 20
-10.00493281474331
 30
0.0
 11
112.4679970518237
 21
9.995067185256687
 31
0.0
  0
INSERT
  5
25E
330
25A
100
AcDbEntity
  8
1
  6
ByBlock
 62
     4
100
AcDbBlockReference
  2
_OPEN30
 10
112.4679970518237
 20
-10.00493281474331
 30
0.0
 41
1.969615506024416
 42
1.969615506024416
 43
1.969615506024416
 50
270.0
  0
INSERT
  5
25F
330
25A
100
AcDbEntity
  8
1
  6
ByBlock
 62
     4
100
AcDbBlockReference
  2
_OPEN30
 10
112.4679970518237
 20
9.995067185256687
 30
0.0
 41
1.969615506024416
 42
1.969615506024416
 43
1.969615506024416
 50
90.0
  0
LINE
  5
260
330
25A
100
AcDbEntity
  8
1
  6
ByBlock
 62
     4
100
AcDbLine
 10
112.4679970518237
 20
-10.00493281474331
 30
0.0
 11
111.4679970518237
 21
-10.00493281474331
 31
0.0
  0
LINE
  5
261
330
25A
100
AcDbEntity
  8
1
  6
ByBlock
 62
     4
100
AcDbLine
 10
112.4679970518237
 20
9.995067185256687
 30
0.0
 11
111.4679970518237
 21
9.995067185256687
 31
0.0
  0
MTEXT
  5
262
330
25A
100
AcDbEntity
  8
1
  6
Continuous
 62
     4
100
AcDbMText
 10
111.5719970518237
 20
-6.567432814743313
 30
0.0
 40
3.5
 41
0.0
 71
     7
 72
     5
  1
{\fＭＳ ゴシック|b0|i0|c128|p49;\W1.0;φ20{\H0.70x;\A2\S-0.01^ -0.02;}}
  7
MTSTANDARD2
 11
0.0
 21
1.0
 31
0.0
 73
     1
 44
0.8035714285714286
  0
POINT
  5
263
330
25A
100
AcDbEntity
  8
DEFPOINTS
  6
ByBlock
 62
     4
100
AcDbPoint
 10
112.4679970518237
 20
-10.00493281474331
 30
0.0
  0
POINT
  5
264
330
25A
100
AcDbEntity
  8
DEFPOINTS
  6
ByBlock
 62
     4
100
AcDbPoint
 10
112.4679970518237
 20
9.995067185256687
 30
0.0
  0
POINT
  5
265
330
25A
100
AcDbEntity
  8
DEFPOINTS
  6
ByBlock
 62
     4
100
AcDbPoint
 10
112.4679970518237
 20
9.995067185256687
 30
0.0
  0
ENDBLK
  5
25C
330
25A
100
AcDbEntity
  8
0
100
AcDbBlockEnd
  0
ENDSEC
  0
SECTION
  2
ENTITIES
  0
ARC
  5
AF
330
1F
100
AcDbEntity
  8
2
  6
Continuous
 62
     7
100
AcDbCircle
 10
232.0189048668236
 20
19.7436316292567
 30
0.0
 40
1.701435555
100
AcDbArc
 50
44.9209486980002
 51
135.0790513019998
  0
LINE
  5
B0
330
1F
100
AcDbEntity
  8
2
  6
Continuous
 62
     7
100
AcDbLine
 10
233.3679970518237
 20
20.9450671852567
 30
0.0
 11
233.2236602588237
 21
20.9450671852567
 31
0.0
  0
LINE
  5
B1
330
1F
100
AcDbEntity
  8
2
  6
Continuous
 62
     7
100
AcDbLine
 10
220.3679970518237
 20
20.9450671852567
 30
0.0
 11
220.5123338448236
 21
20.9450671852567
 31
0.0
  0
LINE
  5
B2
330
1F
100
AcDbEntity
  8
2
  6
Continuous
 62
     7
100
AcDbLine
 10
12.16799705182366
 20
2.26663052325668
 30
0.0
 11
12.16799705182366
 21
-2.276496153743295
 31
0.0
  0
LINE
  5
B3
330
1F
100
AcDbEntity
  8
2
  6
Continuous
 62
     4
100
AcDbLine
 10
6.996494436823653
 20
1.98048283525668
 30
0.0
 11
3.996494436823653
 21
-1.990348465743295
 31
0.0
  0
LINE
  5
B4
330
1F
100
AcDbEntity
  8
2
  6
Continuous
 62
     7
100
AcDbLine
 10
6.996494436823653
 20
5.745067185256687
 30
0.0
 11
7.146494436823659
 21
5.895067185256693
 31
0.0
  0
LINE
  5
B5
330
1F
100
AcDbEntity
  8
2
  6
Continuous
 62
     7
100
AcDbLine
 10
3.996494436823653
 20
-1.990348465743295
 30
0.0
 11
4.146494436823659
 21
-2.140348465743301
 31
0.0
  0
LINE
  5
B6
330
1F
100
AcDbEntity
  8
2
  6
Continuous
 62
     7
100
AcDbLine
 10
3.846494436823662
 20
5.895067185256693
 30
0.0
 11
3.555340163823658
 21
5.895067185256693
 31
0.0
  0
ARC
  5
B7
330
1F
100
AcDbEntity
  8
2
  6
Continuous
 62
     7
100
AcDbCircle
 10
3.555340163823658
 20
4.895067185256693
 30
0.0
 40
1.0
100
AcDbArc
 50
90.0
 51
119.9999999999997
  0
LINE
  5
B8
330
1F
100
AcDbEntity
  8
2
  6
Continuous
 62
     7
100
AcDbLine
 10
14.66799705182366
 20
9.270067185256693
 30
0.0
 11
14.86799705182366
 21
9.470067185256681
 31
0.0
  0
LINE
  5
B9
330
1F
100
AcDbEntity
  8
2
  6
Continuous
 62
     7
100
AcDbLine
 10
10.69649443682366
 20
-5.904932814743319
 30
0.0
 11
7.146494436823659
 21
-5.904932814743319
 31
0.0
  0
LINE
  5
BA
330
1F
100
AcDbEntity
  8
2
  6
Continuous
 62
     7
100
AcDbLine
 10
3.996494436823653
 20
-5.504932814743313
 30
0.0
 11
6.996494436823653
 21
-5.504932814743313
 31
0.0
  0
LINE
  5
BB
330
1F
100
AcDbEntity
  8
2
  6
Continuous
 62
     7
100
AcDbLine
 10
0.496494436823653
 20
4.283742319256703
 30
0.0
 11
3.055340163823658
 21
5.761092588256702
 31
0.0
  0
LINE
  5
BC
330
1F
100
AcDbEntity
  8
2
  6
Continuous
 62
     7
100
AcDbLine
 10
72.66799705182365
 20
-0.004932814743313
 30
0.0
 11
72.66799705182365
 21
-9.904932814743319
 31
0.0
  0
LINE
  5
BD
330
1F
100
AcDbEntity
  8
2
  6
Continuous
 62
     7
100
AcDbLine
 10
4.146494436823659
 20
2.130482835256686
 30
0.0
 11
3.996494436823653
 21
1.98048283525668
 31
0.0
  0
LINE
  5
BE
330
1F
100
AcDbEntity
  8
2
  6
Continuous
 62
     7
100
AcDbLine
 10
145.5679970518237
 20
9.995067185256687
 30
0.0
 11
79.36799705182366
 21
9.995067185256687
 31
0.0
  0
LINE
  5
BF
330
1F
100
AcDbEntity
  8
2
  6
Continuous
 62
     4
100
AcDbLine
 10
12.16799705182366
 20
2.26663052325668
 30
0.0
 11
14.66799705182366
 21
-2.276496153743295
 31
0.0
  0
LINE
  5
C0
330
1F
100
AcDbEntity
  8
2
  6
Continuous
 62
     4
100
AcDbLine
 10
14.66799705182366
 20
2.26663052325668
 30
0.0
 11
12.16799705182366
 21
-2.276496153743295
 31
0.0
  0
LINE
  5
C1
330
1F
100
AcDbEntity
  8
2
  6
Continuous
 62
     7
100
AcDbLine
 10
3.846494436823662
 20
-5.904932814743319
 30
0.0
 11
3.996494436823653
 21
-5.754932814743313
 31
0.0
  0
ARC
  5
C2
330
1F
100
AcDbEntity
  8
2
  6
Continuous
 62
     7
100
AcDbCircle
 10
10.69649443682366
 20
5.095067185256681
 30
0.0
 40
0.8
100
AcDbArc
 50
0.0
 51
90.0
  0
ARC
  5
C3
330
1F
100
AcDbEntity
  8
2
  6
Continuous
 62
     7
100
AcDbCircle
 10
0.996494436823653
 20
3.417716915256705
 30
0.0
 40
1.0
100
AcDbArc
 50
119.9999999999997
 51
180.0
  0
LINE
  5
C4
330
1F
100
AcDbEntity
  8
2
  6
Continuous
 62
     7
100
AcDbLine
 10
18.36799705182366
 20
-9.904932814743319
 30
0.0
 11
18.36799705182366
 21
-0.004932814743313
 31
0.0
  0
LINE
  5
C5
330
1F
100
AcDbEntity
  8
2
  6
Continuous
 62
     7
100
AcDbLine
 10
14.66799705182366
 20
2.26663052325668
 30
0.0
 11
12.16799705182366
 21
2.26663052325668
 31
0.0
  0
ARC
  5
C6
330
1F
100
AcDbEntity
  8
2
  6
Continuous
 62
     7
100
AcDbCircle
 10
0.996494436823653
 20
-3.42758254574332
 30
0.0
 40
1.0
100
AcDbArc
 50
180.0
 51
240.0000000000002
  0
ARC
  5
C7
330
1F
100
AcDbEntity
  8
2
  6
Continuous
 62
     7
100
AcDbCircle
 10
10.69649443682366
 20
-5.104932814743307
 30
0.0
 40
0.8
100
AcDbArc
 50
270.0
 51
0.0
  0
LINE
  5
C8
330
1F
100
AcDbEntity
  8
2
  6
Continuous
 62
     7
100
AcDbLine
 10
3.846494436823662
 20
5.895067185256693
 30
0.0
 11
3.996494436823653
 21
5.745067185256687
 31
0.0
  0
LINE
  5
C9
330
1F
100
AcDbEntity
  8
2
  6
Continuous
 62
     7
100
AcDbLine
 10
10.69649443682366
 20
5.895067185256693
 30
0.0
 11
10.69649443682366
 21
-5.904932814743319
 31
0.0
  0
LINE
  5
CA
330
1F
100
AcDbEntity
  8
2
  6
Continuous
 62
     7
100
AcDbLine
 10
18.06799705182365
 20
9.470067185256681
 30
0.0
 11
18.06799705182365
 21
-9.479932814743307
 31
0.0
  0
LINE
  5
CB
330
1F
100
AcDbEntity
  8
2
  6
Continuous
 62
     7
100
AcDbLine
 10
3.996494436823653
 20
5.495067185256687
 30
0.0
 11
6.996494436823653
 21
5.495067185256687
 31
0.0
  0
LINE
  5
CC
330
1F
100
AcDbEntity
  8
2
  6
Continuous
 62
     7
100
AcDbLine
 10
11.49649443682365
 20
5.095067185256681
 30
0.0
 11
11.49649443682365
 21
-5.104932814743307
 31
0.0
  0
LINE
  5
CD
330
1F
100
AcDbEntity
  8
2
  6
Continuous
 62
     7
100
AcDbLine
 10
72.66799705182365
 20
9.895067185256693
 30
0.0
 11
72.56799705182365
 21
9.995067185256687
 31
0.0
  0
LINE
  5
CE
330
1F
100
AcDbEntity
  8
2
  6
Continuous
 62
     7
100
AcDbLine
 10
10.69649443682366
 20
5.895067185256693
 30
0.0
 11
7.146494436823659
 21
5.895067185256693
 31
0.0
  0
LINE
  5
CF
330
1F
100
AcDbEntity
  8
2
  6
Continuous
 62
     7
100
AcDbLine
 10
0.496494436823653
 20
-4.293607949743318
 30
0.0
 11
3.055340163823658
 21
-5.770958218743317
 31
0.0
  0
LINE
  5
D0
330
1F
100
AcDbEntity
  8
2
  6
Continuous
 62
     7
100
AcDbLine
 10
11.96799705182366
 20
4.695067185256704
 30
0.0
 11
11.96799705182366
 21
-4.704932814743302
 31
0.0
  0
LINE
  5
D1
330
1F
100
AcDbEntity
  8
2
  6
Continuous
 62
     7
100
AcDbLine
 10
3.996494436823653
 20
-5.754932814743313
 30
0.0
 11
3.996494436823653
 21
5.745067185256687
 31
0.0
  0
LINE
  5
D2
330
1F
100
AcDbEntity
  8
2
  6
Continuous
 62
     7
100
AcDbLine
 10
14.86799705182366
 20
9.470067185256681
 30
0.0
 11
18.06799705182365
 21
9.470067185256681
 31
0.0
  0
LINE
  5
D3
330
1F
100
AcDbEntity
  8
2
  6
Continuous
 62
     7
100
AcDbLine
 10
145.6179970518237
 20
-9.954932814743302
 30
0.0
 11
145.6179970518237
 21
9.945067185256704
 31
0.0
  0
LINE
  5
D4
330
1F
100
AcDbEntity
  8
2
  6
Continuous
 62
     7
100
AcDbLine
 10
79.36799705182366
 20
-10.00493281474331
 30
0.0
 11
145.5679970518237
 21
-10.00493281474331
 31
0.0
  0
ARC
  5
D5
330
1F
100
AcDbEntity
  8
2
  6
Continuous
 62
     7
100
AcDbCircle
 10
3.555340163823658
 20
-4.904932814743319
 30
0.0
 40
1.0
100
AcDbArc
 50
240.0000000000002
 51
270.0
  0
LINE
  5
D6
330
1F
100
AcDbEntity
  8
2
  6
Continuous
 62
     7
100
AcDbLine
 10
6.846494436823662
 20
2.130482835256686
 30
0.0
 11
6.846494436823662
 21
5.495067185256687
 31
0.0
  0
LINE
  5
D7
330
1F
100
AcDbEntity
  8
2
  6
Continuous
 62
     7
100
AcDbLine
 10
79.31799705182365
 20
9.945067185256704
 30
0.0
 11
79.31799705182365
 21
-9.954932814743302
 31
0.0
  0
LINE
  5
D8
330
1F
100
AcDbEntity
  8
2
  6
Continuous
 62
     7
100
AcDbLine
 10
18.36799705182366
 20
9.895067185256693
 30
0.0
 11
18.36799705182366
 21
-0.004932814743313
 31
0.0
  0
LINE
  5
D9
330
1F
100
AcDbEntity
  8
2
  6
Continuous
 62
     7
100
AcDbLine
 10
18.36799705182366
 20
9.895067185256693
 30
0.0
 11
18.46799705182366
 21
9.995067185256687
 31
0.0
  0
LINE
  5
DA
330
1F
100
AcDbEntity
  8
2
  6
Continuous
 62
     7
100
AcDbLine
 10
3.846494436823662
 20
-5.904932814743319
 30
0.0
 11
3.555340163823658
 21
-5.904932814743319
 31
0.0
  0
LINE
  5
DB
330
1F
100
AcDbEntity
  8
2
  6
Continuous
 62
     7
100
AcDbLine
 10
6.996494436823653
 20
5.745067185256687
 30
0.0
 11
6.996494436823653
 21
-5.754932814743313
 31
0.0
  0
LINE
  5
DC
330
1F
100
AcDbEntity
  8
2
  6
Continuous
 62
     7
100
AcDbLine
 10
0.496494436823653
 20
3.783742319256703
 30
0.0
 11
0.496494436823653
 21
-3.793607949743318
 31
0.0
  0
LINE
  5
DD
330
1F
100
AcDbEntity
  8
2
  6
Continuous
 62
     7
100
AcDbLine
 10
6.996494436823653
 20
-5.754932814743313
 30
0.0
 11
7.146494436823659
 21
-5.904932814743319
 31
0.0
  0
LINE
  5
DE
330
1F
100
AcDbEntity
  8
2
  6
Continuous
 62
     7
100
AcDbLine
 10
3.555340163823658
 20
5.895067185256693
 30
0.0
 11
3.555340163823658
 21
-5.904932814743319
 31
0.0
  0
LINE
  5
DF
330
1F
100
AcDbEntity
  8
2
  6
Continuous
 62
     7
100
AcDbLine
 10
145.5679970518237
 20
9.995067185256687
 30
0.0
 11
145.6179970518237
 21
9.945067185256704
 31
0.0
  0
LINE
  5
E0
330
1F
100
AcDbEntity
  8
2
  6
Continuous
 62
     7
100
AcDbLine
 10
11.96799705182366
 20
-4.604932814743307
 30
0.0
 11
14.66799705182366
 21
-4.604932814743307
 31
0.0
  0
LINE
  5
E1
330
1F
100
AcDbEntity
  8
2
  6
Continuous
 62
     7
100
AcDbLine
 10
14.66799705182366
 20
9.270067185256693
 30
0.0
 11
14.66799705182366
 21
-9.279932814743319
 31
0.0
  0
LINE
  5
E2
330
1F
100
AcDbEntity
  8
2
  6
Continuous
 62
     7
100
AcDbLine
 10
11.49649443682365
 20
-4.704932814743302
 30
0.0
 11
11.96799705182366
 21
-4.704932814743302
 31
0.0
  0
LINE
  5
E3
330
1F
100
AcDbEntity
  8
2
  6
Continuous
 62
     7
100
AcDbLine
 10
-0.003505563176347
 20
-3.42758254574332
 30
0.0
 11
-0.003505563176347
 21
3.417716915256705
 31
0.0
  0
LINE
  5
E4
330
1F
100
AcDbEntity
  8
2
  6
Continuous
 62
     7
100
AcDbLine
 10
18.36799705182366
 20
6.795067185256698
 30
0.0
 11
18.06799705182365
 21
6.795067185256698
 31
0.0
  0
LINE
  5
E5
330
1F
100
AcDbEntity
  8
2
  6
Continuous
 62
     7
100
AcDbLine
 10
14.86799705182366
 20
-9.479932814743307
 30
0.0
 11
18.06799705182365
 21
-9.479932814743307
 31
0.0
  0
LINE
  5
E6
330
1F
100
AcDbEntity
  8
2
  6
Continuous
 62
     7
100
AcDbLine
 10
14.66799705182366
 20
-2.276496153743295
 30
0.0
 11
12.16799705182366
 21
-2.276496153743295
 31
0.0
  0
LINE
  5
E7
330
1F
100
AcDbEntity
  8
2
  6
Continuous
 62
     7
100
AcDbLine
 10
72.66799705182365
 20
-9.904932814743319
 30
0.0
 11
72.56799705182365
 21
-10.00493281474331
 31
0.0
  0
LINE
  5
E8
330
1F
100
AcDbEntity
  8
2
  6
Continuous
 62
     7
100
AcDbLine
 10
18.46799705182366
 20
-10.00493281474331
 30
0.0
 11
72.56799705182365
 21
-10.00493281474331
 31
0.0
  0
LINE
  5
E9
330
1F
100
AcDbEntity
  8
2
  6
Continuous
 62
     7
100
AcDbLine
 10
18.46799705182366
 20
9.995067185256687
 30
0.0
 11
72.56799705182365
 21
9.995067185256687
 31
0.0
  0
LINE
  5
EA
330
1F
100
AcDbEntity
  8
2
  6
Continuous
 62
     7
100
AcDbLine
 10
3.846494436823662
 20
-5.904932814743319
 30
0.0
 11
3.846494436823662
 21
5.895067185256693
 31
0.0
  0
LINE
  5
EB
330
1F
100
AcDbEntity
  8
2
  6
Continuous
 62
     7
100
AcDbLine
 10
7.146494436823659
 20
-5.904932814743319
 30
0.0
 11
7.146494436823659
 21
5.895067185256693
 31
0.0
  0
LINE
  5
EC
330
1F
100
AcDbEntity
  8
2
  6
Continuous
 62
     7
100
AcDbLine
 10
11.49649443682365
 20
4.695067185256704
 30
0.0
 11
11.96799705182366
 21
4.695067185256704
 31
0.0
  0
LINE
  5
ED
330
1F
100
AcDbEntity
  8
2
  6
Continuous
 62
     7
100
AcDbLine
 10
3.055340163823658
 20
5.261092588256702
 30
0.0
 11
3.055340163823658
 21
-5.270958218743317
 31
0.0
  0
LINE
  5
EE
330
1F
100
AcDbEntity
  8
2
  6
Continuous
 62
     7
100
AcDbLine
 10
4.146494436823659
 20
2.130482835256686
 30
0.0
 11
4.146494436823659
 21
5.495067185256687
 31
0.0
  0
LINE
  5
EF
330
1F
100
AcDbEntity
  8
2
  6
Continuous
 62
     4
100
AcDbLine
 10
3.996494436823653
 20
1.98048283525668
 30
0.0
 11
6.996494436823653
 21
-1.990348465743295
 31
0.0
  0
LINE
  5
F0
330
1F
100
AcDbEntity
  8
2
  6
Continuous
 62
     7
100
AcDbLine
 10
18.36799705182366
 20
-9.904932814743319
 30
0.0
 11
18.46799705182366
 21
-10.00493281474331
 31
0.0
  0
LINE
  5
F1
330
1F
100
AcDbEntity
  8
2
  6
Continuous
 62
     7
100
AcDbLine
 10
4.146494436823659
 20
-2.140348465743301
 30
0.0
 11
6.846494436823662
 21
-2.140348465743301
 31
0.0
  0
LINE
  5
F2
330
1F
100
AcDbEntity
  8
2
  6
Continuous
 62
     7
100
AcDbLine
 10
4.146494436823659
 20
2.130482835256686
 30
0.0
 11
6.846494436823662
 21
2.130482835256686
 31
0.0
  0
LINE
  5
F3
330
1F
100
AcDbEntity
  8
2
  6
Continuous
 62
     7
100
AcDbLine
 10
6.846494436823662
 20
-5.504932814743313
 30
0.0
 11
6.846494436823662
 21
-2.140348465743301
 31
0.0
  0
LINE
  5
F4
330
1F
100
AcDbEntity
  8
2
  6
Continuous
 62
     4
100
AcDbLine
 10
34.46799705185185
 20
4.353966128256701
 30
0.0
 11
37.86799705182366
 21
-4.363831758743316
 31
0.0
  0
LINE
  5
F5
330
1F
100
AcDbEntity
  8
2
  6
Continuous
 62
     7
100
AcDbLine
 10
4.146494436823659
 20
-5.504932814743313
 30
0.0
 11
4.146494436823659
 21
-2.140348465743301
 31
0.0
  0
LINE
  5
F6
330
1F
100
AcDbEntity
  8
2
  6
Continuous
 62
     7
100
AcDbLine
 10
6.996494436823653
 20
1.98048283525668
 30
0.0
 11
6.846494436823662
 21
2.130482835256686
 31
0.0
  0
LINE
  5
F7
330
1F
100
AcDbEntity
  8
2
  6
Continuous
 62
     7
100
AcDbLine
 10
72.66799705182365
 20
-0.004932814743313
 30
0.0
 11
72.66799705182365
 21
9.895067185256693
 31
0.0
  0
LINE
  5
F8
330
1F
100
AcDbEntity
  8
2
  6
CENTER
 62
     1
100
AcDbLine
 10
-2.003505563176347
 20
-0.004932814743313
 30
0.0
 11
185.2679970518236
 21
-0.004932814743313
 31
0.0
  0
LINE
  5
F9
330
1F
100
AcDbEntity
  8
2
  6
Continuous
 62
     7
100
AcDbLine
 10
145.6179970518237
 20
-9.954932814743302
 30
0.0
 11
145.5679970518237
 21
-10.00493281474331
 31
0.0
  0
LINE
  5
FA
330
1F
100
AcDbEntity
  8
2
  6
Continuous
 62
     7
100
AcDbLine
 10
79.36799705182366
 20
-10.00493281474331
 30
0.0
 11
79.31799705182365
 21
-9.954932814743302
 31
0.0
  0
LINE
  5
FB
330
1F
100
AcDbEntity
  8
2
  6
Continuous
 62
     7
100
AcDbLine
 10
79.31799705182365
 20
9.945067185256704
 30
0.0
 11
79.36799705182366
 21
9.995067185256687
 31
0.0
  0
LINE
  5
FC
330
1F
100
AcDbEntity
  8
2
  6
Continuous
 62
     7
100
AcDbLine
 10
11.96799705182366
 20
4.595067185256681
 30
0.0
 11
14.66799705182366
 21
4.595067185256681
 31
0.0
  0
LINE
  5
FD
330
1F
100
AcDbEntity
  8
2
  6
Continuous
 62
     4
100
AcDbLine
 10
37.86799705182366
 20
4.353966128256701
 30
0.0
 11
34.46799705185185
 21
-4.363831758743316
 31
0.0
  0
LINE
  5
FE
330
1F
100
AcDbEntity
  8
2
  6
Continuous
 62
     7
100
AcDbLine
 10
14.66799705182366
 20
-9.279932814743319
 30
0.0
 11
14.86799705182366
 21
-9.479932814743307
 31
0.0
  0
LINE
  5
FF
330
1F
100
AcDbEntity
  8
2
  6
Continuous
 62
     7
100
AcDbLine
 10
6.846494436823662
 20
-2.140348465743301
 30
0.0
 11
6.996494436823653
 21
-1.990348465743295
 31
0.0
  0
LINE
  5
100
330
1F
100
AcDbEntity
  8
2
  6
Continuous
 62
     7
100
AcDbLine
 10
18.36799705182366
 20
-6.804932814743296
 30
0.0
 11
18.06799705182365
 21
-6.804932814743296
 31
0.0
  0
LINE
  5
101
330
1F
100
AcDbEntity
  8
2
  6
Continuous
 62
     7
100
AcDbLine
 10
34.46799705185185
 20
4.353966128256701
 30
0.0
 11
37.86799705182366
 21
4.353966128256701
 31
0.0
  0
LINE
  5
102
330
1F
100
AcDbEntity
  8
2
  6
Continuous
 62
     7
100
AcDbLine
 10
34.46799705185185
 20
-4.363831758743316
 30
0.0
 11
37.86799705182366
 21
-4.363831758743316
 31
0.0
  0
LINE
  5
103
330
1F
100
AcDbEntity
  8
2
  6
Continuous
 62
     7
100
AcDbLine
 10
34.46799705185185
 20
4.353966128256701
 30
0.0
 11
34.46799705185185
 21
-4.363831758743316
 31
0.0
  0
LINE
  5
104
330
1F
100
AcDbEntity
  8
2
  6
Continuous
 62
     7
100
AcDbLine
 10
37.86799705182366
 20
4.353966128256701
 30
0.0
 11
37.86799705182366
 21
-4.363831758743316
 31
0.0
  0
ARC
  5
105
330
1F
100
AcDbEntity
  8
2
  6
Continuous
 62
     7
100
AcDbCircle
 10
50.22525886485184
 20
-0.004932814743313
 30
0.0
 40
16.349045839
100
AcDbArc
 50
164.537068484
 51
195.462931516
  0
ARC
  5
106
330
1F
100
AcDbEntity
  8
2
  6
Continuous
 62
     7
100
AcDbCircle
 10
22.11073523882366
 20
-0.004932814743313
 30
0.0
 40
16.349045839
100
AcDbArc
 50
344.537068484
 51
15.462931516
  0
ARC
  5
107
330
1F
100
AcDbEntity
  8
2
  6
Continuous
 62
     7
100
AcDbCircle
 10
221.7170892368237
 20
19.7436316292567
 30
0.0
 40
1.701435555
100
AcDbArc
 50
44.9209486980002
 51
135.0790513019998
  0
LINE
  5
108
330
1F
100
AcDbEntity
  8
2
  6
Continuous
 62
     7
100
AcDbLine
 10
72.66799705182365
 20
9.995067185256687
 30
0.0
 11
72.66799705182365
 21
-10.00493281474331
 31
0.0
  0
LINE
  5
109
330
1F
100
AcDbEntity
  8
2
  6
Continuous
 62
     7
100
AcDbLine
 10
72.66799705182365
 20
-10.00493281474331
 30
0.0
 11
79.31799705182365
 21
-10.00493281474331
 31
0.0
  0
LINE
  5
10A
330
1F
100
AcDbEntity
  8
2
  6
Continuous
 62
     7
100
AcDbLine
 10
79.31799705182365
 20
-10.00493281474331
 30
0.0
 11
79.31799705182365
 21
9.995067185256687
 31
0.0
  0
LINE
  5
10B
330
1F
100
AcDbEntity
  8
2
  6
Continuous
 62
     7
100
AcDbLine
 10
79.31799705182365
 20
9.995067185256687
 30
0.0
 11
72.66799705182365
 21
9.995067185256687
 31
0.0
  0
LINE
  5
10C
330
1F
100
AcDbEntity
  8
2
  6
Continuous
 62
     7
100
AcDbLine
 10
222.9218446288237
 20
20.9450671852567
 30
0.0
 11
224.3679970518237
 21
20.9450671852567
 31
0.0
  0
LINE
  5
10D
330
1F
100
AcDbEntity
  8
2
  6
Continuous
 62
     7
100
AcDbLine
 10
222.9218446288237
 20
20.9450671852567
 30
0.0
 11
222.9218446288237
 21
12.4450671852567
 31
0.0
  0
LINE
  5
10E
330
1F
100
AcDbEntity
  8
2
  6
Continuous
 62
     4
100
AcDbLine
 10
74.3179970518518
 20
4.353966128256701
 30
0.0
 11
77.71799705182366
 21
-4.363831758743316
 31
0.0
  0
LINE
  5
10F
330
1F
100
AcDbEntity
  8
2
  6
Continuous
 62
     4
100
AcDbLine
 10
77.71799705182366
 20
4.353966128256701
 30
0.0
 11
74.3179970518518
 21
-4.363831758743316
 31
0.0
  0
LINE
  5
110
330
1F
100
AcDbEntity
  8
2
  6
Continuous
 62
     7
100
AcDbLine
 10
74.3179970518518
 20
4.353966128256701
 30
0.0
 11
77.71799705182366
 21
4.353966128256701
 31
0.0
  0
LINE
  5
111
330
1F
100
AcDbEntity
  8
2
  6
Continuous
 62
     7
100
AcDbLine
 10
74.3179970518518
 20
-4.363831758743316
 30
0.0
 11
77.71799705182366
 21
-4.363831758743316
 31
0.0
  0
LINE
  5
112
330
1F
100
AcDbEntity
  8
2
  6
Continuous
 62
     7
100
AcDbLine
 10
74.3179970518518
 20
4.353966128256701
 30
0.0
 11
74.3179970518518
 21
-4.363831758743316
 31
0.0
  0
LINE
  5
113
330
1F
100
AcDbEntity
  8
2
  6
Continuous
 62
     7
100
AcDbLine
 10
77.71799705182366
 20
4.353966128256701
 30
0.0
 11
77.71799705182366
 21
-4.363831758743316
 31
0.0
  0
ARC
  5
114
330
1F
100
AcDbEntity
  8
2
  6
Continuous
 62
     7
100
AcDbCircle
 10
90.07525886485182
 20
-0.004932814743313
 30
0.0
 40
16.349045839
100
AcDbArc
 50
164.537068484
 51
195.462931516
  0
ARC
  5
115
330
1F
100
AcDbEntity
  8
2
  6
Continuous
 62
     7
100
AcDbCircle
 10
61.96073523882364
 20
-0.004932814743313
 30
0.0
 40
16.349045839
100
AcDbArc
 50
344.537068484
 51
15.46293151600001
  0
LINE
  5
116
330
1F
100
AcDbEntity
  8
2
  6
Continuous
 62
     7
100
AcDbLine
 10
220.5123338448236
 20
20.9450671852567
 30
0.0
 11
220.5123338448236
 21
12.50073039225668
 31
0.0
  0
ARC
  5
117
330
1F
100
AcDbEntity
  8
2
  6
Continuous
 62
     7
100
AcDbCircle
 10
226.8679970518237
 20
14.9450671852567
 30
0.0
 40
6.5
100
AcDbArc
 50
67.38013505200024
 51
112.6198649479998
  0
LINE
  5
118
330
1F
100
AcDbEntity
  8
2
  6
Continuous
 62
     7
100
AcDbLine
 10
145.6179970518237
 20
9.845067185256681
 30
0.0
 11
145.6179970518237
 21
-9.854932814743307
 31
0.0
  0
LINE
  5
119
330
1F
100
AcDbEntity
  8
2
  6
Continuous
 62
     7
100
AcDbLine
 10
145.7179970518237
 20
-9.954932814743302
 30
0.0
 11
148.0679970518237
 21
-9.954932814743302
 31
0.0
  0
LINE
  5
11A
330
1F
100
AcDbEntity
  8
2
  6
Continuous
 62
     7
100
AcDbLine
 10
148.1679970518237
 20
-9.854932814743307
 30
0.0
 11
148.1679970518237
 21
9.845067185256681
 31
0.0
  0
LINE
  5
11B
330
1F
100
AcDbEntity
  8
2
  6
Continuous
 62
     7
100
AcDbLine
 10
148.0679970518237
 20
9.945067185256704
 30
0.0
 11
145.7179970518237
 21
9.945067185256704
 31
0.0
  0
LINE
  5
11C
330
1F
100
AcDbEntity
  8
2
  6
Continuous
 62
     7
100
AcDbLine
 10
229.3679970518237
 20
20.9450671852567
 30
0.0
 11
229.3679970518237
 21
12.4450671852567
 31
0.0
  0
LINE
  5
11D
330
1F
100
AcDbEntity
  8
2
  6
Continuous
 62
     7
100
AcDbLine
 10
224.3679970518237
 20
12.4450671852567
 30
0.0
 11
224.3679970518237
 21
20.9450671852567
 31
0.0
  0
LINE
  5
11E
330
1F
100
AcDbEntity
  8
2
  6
Continuous
 62
     7
100
AcDbLine
 10
224.3679970518237
 20
21.64506718525669
 30
0.0
 11
224.3679970518237
 21
24.9450671852567
 31
0.0
  0
LINE
  5
11F
330
1F
100
AcDbEntity
  8
2
  6
Continuous
 62
     7
100
AcDbLine
 10
224.9470597808237
 20
21.4450671852567
 30
0.0
 11
224.3679970518237
 21
21.64506718525669
 31
0.0
  0
LINE
  5
120
330
1F
100
AcDbEntity
  8
2
  6
Continuous
 62
     7
100
AcDbLine
 10
229.3679970518237
 20
24.9450671852567
 30
0.0
 11
229.3679970518237
 21
21.64506718525669
 31
0.0
  0
LINE
  5
121
330
1F
100
AcDbEntity
  8
2
  6
Continuous
 62
     7
100
AcDbLine
 10
166.8679970518237
 20
12.4450671852567
 30
0.0
 11
166.8679970518237
 21
-9.954932814743302
 31
0.0
  0
LINE
  5
122
330
1F
100
AcDbEntity
  8
2
  6
Continuous
 62
     7
100
AcDbLine
 10
145.7179970518237
 20
-9.954932814743302
 30
0.0
 11
145.6179970518237
 21
-9.854932814743307
 31
0.0
  0
LINE
  5
123
330
1F
100
AcDbEntity
  8
2
  6
Continuous
 62
     7
100
AcDbLine
 10
148.1679970518237
 20
-9.854932814743307
 30
0.0
 11
148.0679970518237
 21
-9.954932814743302
 31
0.0
  0
LINE
  5
124
330
1F
100
AcDbEntity
  8
2
  6
Continuous
 62
     7
100
AcDbLine
 10
148.0679970518237
 20
9.945067185256704
 30
0.0
 11
148.1679970518237
 21
9.845067185256681
 31
0.0
  0
LINE
  5
125
330
1F
100
AcDbEntity
  8
2
  6
Continuous
 62
     7
100
AcDbLine
 10
145.6179970518237
 20
9.845067185256681
 30
0.0
 11
145.7179970518237
 21
9.945067185256704
 31
0.0
  0
LINE
  5
126
330
1F
100
AcDbEntity
  8
2
  6
Continuous
 62
     7
100
AcDbLine
 10
229.3679970518237
 20
21.64506718525669
 30
0.0
 11
228.7889343228237
 21
21.4450671852567
 31
0.0
  0
ARC
  5
127
330
1F
100
AcDbEntity
  8
2
  6
Continuous
 62
     7
100
AcDbCircle
 10
226.8679970518237
 20
18.9450671852567
 30
0.0
 40
6.5
100
AcDbArc
 50
67.38013505200024
 51
112.6198649479998
  0
CIRCLE
  5
128
330
1F
100
AcDbEntity
  8
2
  6
Continuous
 62
     7
100
AcDbCircle
 10
230.8679970518237
 20
-0.004932814743313
 30
0.0
 40
8.5
  0
CIRCLE
  5
129
330
1F
100
AcDbEntity
  8
2
  6
Continuous
 62
     7
100
AcDbCircle
 10
230.8679970518237
 20
4.995067185256687
 30
0.0
 40
0.6
  0
LINE
  5
12A
330
1F
100
AcDbEntity
  8
2
  6
CENTER
 62
     1
100
AcDbLine
 10
230.8679970518237
 20
14.4450671852567
 30
0.0
 11
230.8679970518237
 21
-11.9549328147433
 31
0.0
  0
ARC
  5
12B
330
1F
100
AcDbEntity
  8
2
  6
Continuous
 62
     7
100
AcDbCircle
 10
230.8679970518237
 20
-0.004932814743313
 30
0.0
 40
9.95
100
AcDbArc
 50
180.0
 51
0.0
  0
CIRCLE
  5
12C
330
1F
100
AcDbEntity
  8
2
  6
Continuous
 62
     7
100
AcDbCircle
 10
235.1981240708236
 20
-2.504932814743313
 30
0.0
 40
0.6
  0
LINE
  5
12D
330
1F
100
AcDbEntity
  8
2
  6
Continuous
 62
     7
100
AcDbLine
 10
220.9179970518237
 20
-0.004932814743313
 30
0.0
 11
220.9179970518237
 21
12.24506718525669
 31
0.0
  0
LINE
  5
12E
330
1F
100
AcDbEntity
  8
2
  6
Continuous
 62
     7
100
AcDbLine
 10
179.8679970518237
 20
12.4450671852567
 30
0.0
 11
179.8679970518237
 21
-9.954932814743302
 31
0.0
  0
LINE
  5
12F
330
1F
100
AcDbEntity
  8
2
  6
Continuous
 62
     7
100
AcDbLine
 10
221.1179970518237
 20
12.4450671852567
 30
0.0
 11
240.6179970518237
 21
12.4450671852567
 31
0.0
  0
LINE
  5
130
330
1F
100
AcDbEntity
  8
2
  6
Continuous
 62
     7
100
AcDbLine
 10
240.8179970518237
 20
12.24506718525669
 30
0.0
 11
240.8179970518237
 21
-0.004932814743313
 31
0.0
  0
CIRCLE
  5
131
330
1F
100
AcDbEntity
  8
2
  6
Continuous
 62
     7
100
AcDbCircle
 10
226.5378700328236
 20
-2.504932814743313
 30
0.0
 40
0.6
  0
LINE
  5
132
330
1F
100
AcDbEntity
  8
2
  6
CENTER
 62
     1
100
AcDbLine
 10
218.9179970518237
 20
-0.004932814743313
 30
0.0
 11
242.8179970518237
 21
-0.004932814743313
 31
0.0
  0
LINE
  5
133
330
1F
100
AcDbEntity
  8
2
  6
Continuous
 62
     7
100
AcDbLine
 10
178.0330605218237
 20
21.64506672925668
 30
0.0
 11
177.5547212368237
 21
21.4450671852567
 31
0.0
  0
LINE
  5
134
330
1F
100
AcDbEntity
  8
2
  6
Continuous
 62
     7
100
AcDbLine
 10
178.8679970518237
 20
21.4450671852567
 30
0.0
 11
166.8679970518237
 21
21.4450671852567
 31
0.0
  0
LINE
  5
135
330
1F
100
AcDbEntity
  8
2
  6
Continuous
 62
     7
100
AcDbLine
 10
233.1679970518237
 20
12.4450671852567
 30
0.0
 11
220.5679970518237
 21
12.4450671852567
 31
0.0
  0
LINE
  5
136
330
1F
100
AcDbEntity
  8
2
  6
Continuous
 62
     7
100
AcDbLine
 10
149.1679970518237
 20
9.695067185256704
 30
0.0
 11
149.1679970518237
 21
-9.704932814743302
 31
0.0
  0
LINE
  5
137
330
1F
100
AcDbEntity
  8
2
  6
Continuous
 62
     7
100
AcDbLine
 10
149.3679970518237
 20
-9.904932814743319
 30
0.0
 11
165.4679970518236
 21
-9.904932814743319
 31
0.0
  0
LINE
  5
138
330
1F
100
AcDbEntity
  8
2
  6
Continuous
 62
     7
100
AcDbLine
 10
165.6679970518237
 20
-9.704932814743302
 30
0.0
 11
165.6679970518237
 21
9.695067185256704
 31
0.0
  0
LINE
  5
139
330
1F
100
AcDbEntity
  8
2
  6
Continuous
 62
     7
100
AcDbLine
 10
165.4679970518236
 20
9.895067185256693
 30
0.0
 11
149.3679970518237
 21
9.895067185256693
 31
0.0
  0
LINE
  5
13A
330
1F
100
AcDbEntity
  8
2
  6
Continuous
 62
     7
100
AcDbLine
 10
149.1679970518237
 20
9.695067185256704
 30
0.0
 11
149.3679970518237
 21
9.895067185256693
 31
0.0
  0
LINE
  5
13B
330
1F
100
AcDbEntity
  8
2
  6
Continuous
 62
     7
100
AcDbLine
 10
149.3679970518237
 20
-9.904932814743319
 30
0.0
 11
149.1679970518237
 21
-9.704932814743302
 31
0.0
  0
LINE
  5
13C
330
1F
100
AcDbEntity
  8
2
  6
Continuous
 62
     7
100
AcDbLine
 10
165.6679970518237
 20
-9.704932814743302
 30
0.0
 11
165.4679970518236
 21
-9.904932814743319
 31
0.0
  0
LINE
  5
13D
330
1F
100
AcDbEntity
  8
2
  6
Continuous
 62
     7
100
AcDbLine
 10
165.4679970518236
 20
9.895067185256693
 30
0.0
 11
165.6679970518237
 21
9.695067185256704
 31
0.0
  0
LINE
  5
13E
330
1F
100
AcDbEntity
  8
2
  6
Continuous
 62
     4
100
AcDbLine
 10
155.7542885528237
 20
9.895067185256693
 30
0.0
 11
165.6679970518237
 21
-0.0186413137433021
 31
0.0
  0
LINE
  5
13F
330
1F
100
AcDbEntity
  8
2
  6
Continuous
 62
     7
100
AcDbLine
 10
178.0330605618236
 20
21.64506718525669
 30
0.0
 11
178.8679970518237
 21
21.64506718525669
 31
0.0
  0
LINE
  5
140
330
1F
100
AcDbEntity
  8
2
  6
Continuous
 62
     4
100
AcDbLine
 10
163.0111428028237
 20
-9.904932814743319
 30
0.0
 11
165.6679970518237
 21
-7.248078565743299
 31
0.0
  0
LINE
  5
141
330
1F
100
AcDbEntity
  8
2
  6
Continuous
 62
     4
100
AcDbLine
 10
160.1827156778237
 20
-9.904932814743319
 30
0.0
 11
165.6679970518237
 21
-4.419651440743309
 31
0.0
  0
LINE
  5
142
330
1F
100
AcDbEntity
  8
2
  6
Continuous
 62
     4
100
AcDbLine
 10
157.3542885528236
 20
-9.904932814743319
 30
0.0
 11
165.6679970518237
 21
-1.591224315743318
 31
0.0
  0
LINE
  5
143
330
1F
100
AcDbEntity
  8
2
  6
Continuous
 62
     4
100
AcDbLine
 10
154.5258614278237
 20
-9.904932814743319
 30
0.0
 11
165.6679970518237
 21
1.237202808256683
 31
0.0
  0
LINE
  5
144
330
1F
100
AcDbEntity
  8
2
  6
Continuous
 62
     7
100
AcDbLine
 10
233.1679970518237
 20
12.4450671852567
 30
0.0
 11
233.3679970518237
 21
12.64506718525669
 31
0.0
  0
LINE
  5
145
330
1F
100
AcDbEntity
  8
2
  6
Continuous
 62
     4
100
AcDbLine
 10
151.6974343038237
 20
-9.904932814743319
 30
0.0
 11
165.6679970518237
 21
4.065629933256702
 31
0.0
  0
LINE
  5
146
330
1F
100
AcDbEntity
  8
2
  6
Continuous
 62
     4
100
AcDbLine
 10
149.2685021148237
 20
-9.505437878743294
 30
0.0
 11
165.6679970518237
 21
6.894057058256692
 31
0.0
  0
LINE
  5
147
330
1F
100
AcDbEntity
  8
2
  6
Continuous
 62
     4
100
AcDbLine
 10
149.1679970518237
 20
-6.777515816743318
 30
0.0
 11
165.6542885528237
 21
9.708775684256693
 31
0.0
  0
LINE
  5
148
330
1F
100
AcDbEntity
  8
2
  6
Continuous
 62
     4
100
AcDbLine
 10
149.1679970518237
 20
-3.949088692743317
 30
0.0
 11
163.0121529288237
 21
9.895067185256693
 31
0.0
  0
LINE
  5
149
330
1F
100
AcDbEntity
  8
2
  6
Continuous
 62
     4
100
AcDbLine
 10
149.1679970518237
 20
-1.120661567743298
 30
0.0
 11
160.1837258048236
 21
9.895067185256693
 31
0.0
  0
LINE
  5
14A
330
1F
100
AcDbEntity
  8
2
  6
Continuous
 62
     4
100
AcDbLine
 10
149.1679970518237
 20
1.707765557256693
 30
0.0
 11
157.3552986798237
 21
9.895067185256693
 31
0.0
  0
LINE
  5
14B
330
1F
100
AcDbEntity
  8
2
  6
Continuous
 62
     4
100
AcDbLine
 10
149.1679970518237
 20
4.536192682256683
 30
0.0
 11
154.5268715548237
 21
9.895067185256693
 31
0.0
  0
LINE
  5
14C
330
1F
100
AcDbEntity
  8
2
  6
Continuous
 62
     4
100
AcDbLine
 10
149.1679970518237
 20
7.364619806256684
 30
0.0
 11
151.6984444298237
 21
9.895067185256693
 31
0.0
  0
LINE
  5
14D
330
1F
100
AcDbEntity
  8
2
  6
Continuous
 62
     4
100
AcDbLine
 10
152.9258614278237
 20
9.895067185256693
 30
0.0
 11
165.6679970518237
 21
-2.847068438743321
 31
0.0
  0
LINE
  5
14E
330
1F
100
AcDbEntity
  8
2
  6
Continuous
 62
     4
100
AcDbLine
 10
150.0974343038237
 20
9.895067185256693
 30
0.0
 11
165.6679970518237
 21
-5.675495563743311
 31
0.0
  0
LINE
  5
14F
330
1F
100
AcDbEntity
  8
2
  6
Continuous
 62
     4
100
AcDbLine
 10
149.1679970518237
 20
7.996077311256698
 30
0.0
 11
165.6679970518237
 21
-8.503922688743302
 31
0.0
  0
LINE
  5
150
330
1F
100
AcDbEntity
  8
2
  6
Continuous
 62
     4
100
AcDbLine
 10
158.5827156778236
 20
9.895067185256693
 30
0.0
 11
165.6679970518237
 21
2.809785810256699
 31
0.0
  0
LINE
  5
151
330
1F
100
AcDbEntity
  8
2
  6
Continuous
 62
     4
100
AcDbLine
 10
149.1679970518237
 20
-3.317631187743302
 30
0.0
 11
155.7552986798237
 21
-9.904932814743319
 31
0.0
  0
INSERT
  5
156
330
1F
100
AcDbEntity
  8
2
  6
Continuous
 62
     7
100
AcDbBlockReference
  2
BLK0
 10
148.6679970518237
 20
8.913747185256682
 30
0.0
  0
INSERT
  5
15B
330
1F
100
AcDbEntity
  8
2
  6
Continuous
 62
     7
100
AcDbBlockReference
  2
BLK1
 10
148.6679970518237
 20
-8.923612814743308
 30
0.0
  0
LINE
  5
15C
330
1F
100
AcDbEntity
  8
2
  6
Continuous
 62
     4
100
AcDbLine
 10
161.4111428028237
 20
9.895067185256693
 30
0.0
 11
165.6679970518237
 21
5.638212935256689
 31
0.0
  0
LINE
  5
15D
330
1F
100
AcDbEntity
  8
2
  6
Continuous
 62
     4
100
AcDbLine
 10
164.2395699268236
 20
9.895067185256693
 30
0.0
 11
165.6679970518237
 21
8.46664006025668
 31
0.0
  0
LINE
  5
15E
330
1F
100
AcDbEntity
  8
2
  6
Continuous
 62
     4
100
AcDbLine
 10
149.1679970518237
 20
-0.4892040627433119
 30
0.0
 11
158.5837258048237
 21
-9.904932814743319
 31
0.0
  0
LINE
  5
15F
330
1F
100
AcDbEntity
  8
2
  6
Continuous
 62
     4
100
AcDbLine
 10
149.1679970518237
 20
2.339223062256707
 30
0.0
 11
161.4121529288236
 21
-9.904932814743319
 31
0.0
  0
LINE
  5
160
330
1F
100
AcDbEntity
  8
2
  6
Continuous
 62
     4
100
AcDbLine
 10
149.1679970518237
 20
5.167650187256697
 30
0.0
 11
164.2405800538237
 21
-9.904932814743319
 31
0.0
  0
LINE
  5
161
330
1F
100
AcDbEntity
  8
2
  6
Continuous
 62
     4
100
AcDbLine
 10
149.1679970518237
 20
-8.974485436743294
 30
0.0
 11
150.0984444298237
 21
-9.904932814743319
 31
0.0
  0
LINE
  5
162
330
1F
100
AcDbEntity
  8
2
  6
Continuous
 62
     4
100
AcDbLine
 10
149.1679970518237
 20
-6.146058311743303
 30
0.0
 11
152.9268715548236
 21
-9.904932814743319
 31
0.0
  0
LINE
  5
163
330
1F
100
AcDbEntity
  8
2
  6
Continuous
 62
     7
100
AcDbLine
 10
173.7029336038237
 20
12.4450671852567
 30
0.0
 11
173.7029335428237
 21
20.9450671852567
 31
0.0
  0
LINE
  5
164
330
1F
100
AcDbEntity
  8
2
  6
Continuous
 62
     7
100
AcDbLine
 10
173.7029335428237
 20
20.9450671852567
 30
0.0
 11
172.0330605608237
 21
20.9450671852567
 31
0.0
  0
LINE
  5
165
330
1F
100
AcDbEntity
  8
2
  6
Continuous
 62
     7
100
AcDbLine
 10
176.8679970518237
 20
25.4450671852567
 30
0.0
 11
176.8679970518237
 21
50.4450671852567
 31
0.0
  0
LINE
  5
166
330
1F
100
AcDbEntity
  8
2
  6
Continuous
 62
     7
100
AcDbLine
 10
168.8679970518237
 20
25.4450671852567
 30
0.0
 11
168.8679970518237
 21
50.4450671852567
 31
0.0
  0
LINE
  5
167
330
1F
100
AcDbEntity
  8
2
  6
Continuous
 62
     7
100
AcDbLine
 10
166.8679970518237
 20
25.4450671852567
 30
0.0
 11
166.8679970518237
 21
12.4450671852567
 31
0.0
  0
LINE
  5
168
330
1F
100
AcDbEntity
  8
2
  6
Continuous
 62
     7
100
AcDbLine
 10
178.8679970518237
 20
24.9450671852567
 30
0.0
 11
178.0330605608237
 21
24.9450671852567
 31
0.0
  0
LINE
  5
169
330
1F
100
AcDbEntity
  8
2
  6
Continuous
 62
     7
100
AcDbLine
 10
178.0330605608237
 20
24.9450671852567
 30
0.0
 11
178.0330605618236
 21
21.64506718525669
 31
0.0
  0
LINE
  5
16A
330
1F
100
AcDbEntity
  8
2
  6
Continuous
 62
     7
100
AcDbLine
 10
178.8679970518237
 20
25.4450671852567
 30
0.0
 11
166.8679970518237
 21
25.4450671852567
 31
0.0
  0
LINE
  5
16B
330
1F
100
AcDbEntity
  8
2
  6
Continuous
 62
     7
100
AcDbLine
 10
220.3679970518237
 20
12.64506718525669
 30
0.0
 11
220.5679970518237
 21
12.4450671852567
 31
0.0
  0
LINE
  5
16C
330
1F
100
AcDbEntity
  8
2
  6
Continuous
 62
     7
100
AcDbLine
 10
233.3679970518237
 20
12.64506718525669
 30
0.0
 11
233.3679970518237
 21
20.9450671852567
 31
0.0
  0
LINE
  5
16D
330
1F
100
AcDbEntity
  8
2
  6
Continuous
 62
     7
100
AcDbLine
 10
180.8679970518237
 20
-8.954932814743302
 30
0.0
 11
179.8679970518237
 21
-9.954932814743302
 31
0.0
  0
LINE
  5
16E
330
1F
100
AcDbEntity
  8
2
  6
Continuous
 62
     7
100
AcDbLine
 10
166.8679970518237
 20
-9.954932814743302
 30
0.0
 11
165.8679970518237
 21
-8.954932814743302
 31
0.0
  0
LINE
  5
16F
330
1F
100
AcDbEntity
  8
2
  6
Continuous
 62
     7
100
AcDbLine
 10
179.8679970518237
 20
12.4450671852567
 30
0.0
 11
180.8679970518237
 21
11.4450671852567
 31
0.0
  0
LINE
  5
170
330
1F
100
AcDbEntity
  8
2
  6
Continuous
 62
     7
100
AcDbLine
 10
165.8679970518237
 20
11.4450671852567
 30
0.0
 11
166.8679970518237
 21
12.4450671852567
 31
0.0
  0
LINE
  5
171
330
1F
100
AcDbEntity
  8
2
  6
Continuous
 62
     7
100
AcDbLine
 10
166.8679970518237
 20
12.4450671852567
 30
0.0
 11
179.8679970518237
 21
12.4450671852567
 31
0.0
  0
ARC
  5
172
330
1F
100
AcDbEntity
  8
2
  6
Continuous
 62
     4
100
AcDbCircle
 10
228.8679970518237
 20
48.9450671852567
 30
0.0
 40
2.5
100
AcDbArc
 50
36.86989764600035
 51
143.1301023539997
  0
LINE
  5
173
330
1F
100
AcDbEntity
  8
2
  6
Continuous
 62
     7
100
AcDbLine
 10
180.8679970518237
 20
-0.004932814743313
 30
0.0
 11
165.8679970518237
 21
-0.004932814743313
 31
0.0
  0
LINE
  5
174
330
1F
100
AcDbEntity
  8
2
  6
Continuous
 62
     7
100
AcDbLine
 10
180.8679970518237
 20
-8.954932814743302
 30
0.0
 11
180.8679970518237
 21
11.4450671852567
 31
0.0
  0
LINE
  5
175
330
1F
100
AcDbEntity
  8
2
  6
Continuous
 62
     7
100
AcDbLine
 10
166.8679970518237
 20
-9.954932814743302
 30
0.0
 11
179.8679970518237
 21
-9.954932814743302
 31
0.0
  0
LINE
  5
176
330
1F
100
AcDbEntity
  8
2
  6
Continuous
 62
     7
100
AcDbLine
 10
165.8679970518237
 20
11.4450671852567
 30
0.0
 11
165.8679970518237
 21
-8.954932814743302
 31
0.0
  0
ARC
  5
177
330
1F
100
AcDbEntity
  8
2
  6
Continuous
 62
     4
100
AcDbCircle
 10
228.8679970518237
 20
51.9450671852567
 30
0.0
 40
2.5
100
AcDbArc
 50
216.8698976460003
 51
323.1301023539996
  0
LINE
  5
178
330
1F
100
AcDbEntity
  8
2
  6
Continuous
 62
     7
100
AcDbLine
 10
220.3679970518237
 20
24.9450671852567
 30
0.0
 11
220.8679970518237
 21
25.4450671852567
 31
0.0
  0
LINE
  5
179
330
1F
100
AcDbEntity
  8
2
  6
Continuous
 62
     7
100
AcDbLine
 10
220.9179970518237
 20
12.24506718525669
 30
0.0
 11
221.1179970518237
 21
12.4450671852567
 31
0.0
  0
LINE
  5
17A
330
1F
100
AcDbEntity
  8
2
  6
Continuous
 62
     7
100
AcDbLine
 10
240.6179970518237
 20
12.4450671852567
 30
0.0
 11
240.8179970518237
 21
12.24506718525669
 31
0.0
  0
ARC
  5
17B
330
1F
100
AcDbEntity
  8
2
  6
Continuous
 62
     7
100
AcDbCircle
 10
230.8679970518237
 20
-0.004932814743313
 30
0.0
 40
8.95
100
AcDbArc
 50
180.0
 51
0.0
  0
LINE
  5
17C
330
1F
100
AcDbEntity
  8
2
  6
Continuous
 62
     7
100
AcDbLine
 10
221.9179970518237
 20
-0.004932814743313
 30
0.0
 11
221.9179970518237
 21
11.4450671852567
 31
0.0
  0
LINE
  5
17D
330
1F
100
AcDbEntity
  8
2
  6
Continuous
 62
     7
100
AcDbLine
 10
239.8179970518237
 20
11.4450671852567
 30
0.0
 11
239.8179970518237
 21
-0.004932814743313
 31
0.0
  0
LINE
  5
17E
330
1F
100
AcDbEntity
  8
2
  6
Continuous
 62
     7
100
AcDbLine
 10
221.9179970518237
 20
11.4450671852567
 30
0.0
 11
239.8179970518237
 21
11.4450671852567
 31
0.0
  0
LINE
  5
17F
330
1F
100
AcDbEntity
  8
2
  6
Continuous
 62
     7
100
AcDbLine
 10
221.9179970518237
 20
11.4450671852567
 30
0.0
 11
221.0179970518236
 21
12.34506718525668
 31
0.0
  0
LINE
  5
180
330
1F
100
AcDbEntity
  8
2
  6
Continuous
 62
     7
100
AcDbLine
 10
239.8179970518237
 20
11.4450671852567
 30
0.0
 11
240.7179970518236
 21
12.34506718525668
 31
0.0
  0
LINE
  5
181
330
1F
100
AcDbEntity
  8
2
  6
Continuous
 62
     7
100
AcDbLine
 10
220.9179970518237
 20
-0.004932814743313
 30
0.0
 11
221.9179970518237
 21
-0.004932814743313
 31
0.0
  0
LINE
  5
182
330
1F
100
AcDbEntity
  8
2
  6
Continuous
 62
     7
100
AcDbLine
 10
239.8179970518237
 20
-0.004932814743313
 30
0.0
 11
240.8179970518237
 21
-0.004932814743313
 31
0.0
  0
LINE
  5
183
330
1F
100
AcDbEntity
  8
2
  6
Continuous
 62
     7
100
AcDbLine
 10
230.8679970518237
 20
25.4450671852567
 30
0.0
 11
230.8679970518237
 21
50.4450671852567
 31
0.0
  0
LINE
  5
184
330
1F
100
AcDbEntity
  8
2
  6
Continuous
 62
     7
100
AcDbLine
 10
222.8679970518237
 20
25.4450671852567
 30
0.0
 11
222.8679970518237
 21
50.4450671852567
 31
0.0
  0
LINE
  5
185
330
1F
100
AcDbEntity
  8
2
  6
Continuous
 62
     7
100
AcDbLine
 10
220.3679970518237
 20
24.9450671852567
 30
0.0
 11
220.3679970518237
 21
21.64506718525669
 31
0.0
  0
LINE
  5
186
330
1F
100
AcDbEntity
  8
2
  6
Continuous
 62
     7
100
AcDbLine
 10
220.8679970518237
 20
21.4450671852567
 30
0.0
 11
232.8679970518237
 21
21.4450671852567
 31
0.0
  0
LINE
  5
187
330
1F
100
AcDbEntity
  8
2
  6
Continuous
 62
     7
100
AcDbLine
 10
233.1679970518237
 20
21.4450671852567
 30
0.0
 11
220.5679970518237
 21
21.4450671852567
 31
0.0
  0
LINE
  5
188
330
1F
100
AcDbEntity
  8
2
  6
Continuous
 62
     7
100
AcDbLine
 10
232.8679970518237
 20
25.4450671852567
 30
0.0
 11
220.8679970518237
 21
25.4450671852567
 31
0.0
  0
LINE
  5
189
330
1F
100
AcDbEntity
  8
2
  6
Continuous
 62
     7
100
AcDbLine
 10
220.3679970518237
 20
20.9450671852567
 30
0.0
 11
220.8679970518237
 21
21.4450671852567
 31
0.0
  0
LINE
  5
18A
330
1F
100
AcDbEntity
  8
2
  6
Continuous
 62
     7
100
AcDbLine
 10
233.3679970518237
 20
21.64506718525669
 30
0.0
 11
233.3679970518237
 21
24.9450671852567
 31
0.0
  0
LINE
  5
18B
330
1F
100
AcDbEntity
  8
2
  6
Continuous
 62
     7
100
AcDbLine
 10
232.8679970518237
 20
21.4450671852567
 30
0.0
 11
233.3679970518237
 21
20.9450671852567
 31
0.0
  0
LINE
  5
18C
330
1F
100
AcDbEntity
  8
2
  6
Continuous
 62
     7
100
AcDbLine
 10
220.5123338448236
 20
24.9450671852567
 30
0.0
 11
220.5123338448236
 21
21.64506718525669
 31
0.0
  0
LINE
  5
18D
330
1F
100
AcDbEntity
  8
2
  6
Continuous
 62
     7
100
AcDbLine
 10
222.9218446288237
 20
24.9450671852567
 30
0.0
 11
222.9218446288237
 21
21.64506718525669
 31
0.0
  0
LINE
  5
18E
330
1F
100
AcDbEntity
  8
2
  6
Continuous
 62
     7
100
AcDbLine
 10
220.5679970518237
 20
21.4450671852567
 30
0.0
 11
220.3679970518237
 21
21.64506718525669
 31
0.0
  0
LINE
  5
18F
330
1F
100
AcDbEntity
  8
2
  6
Continuous
 62
     7
100
AcDbLine
 10
222.9218446288237
 20
24.9450671852567
 30
0.0
 11
224.3679970518237
 21
24.9450671852567
 31
0.0
  0
ARC
  5
190
330
1F
100
AcDbEntity
  8
2
  6
Continuous
 62
     7
100
AcDbCircle
 10
221.7170892368237
 20
23.7436316292567
 30
0.0
 40
1.701435555
100
AcDbArc
 50
44.9209486980002
 51
135.0790513019998
  0
MTEXT
  5
193
330
1F
100
AcDbEntity
  8
2
  6
Continuous
 62
     3
100
AcDbMText
 10
46.63224574382366
 20
-51.98893281474329
 30
0.0
 40
4.0
 41
0.0
 71
     7
 72
     5
  1
ＥＭ２０－Ｓ６０００{\W0.5x; }＋{\W0.5x; }ＥＭＣＤ－３０００Ａ
  7
MTSTANDARD1
 73
     1
 44
0.8125
  0
LINE
  5
194
330
1F
100
AcDbEntity
  8
2
  6
Continuous
 62
     7
100
AcDbLine
 10
220.3679970518237
 20
24.9450671852567
 30
0.0
 11
220.5123338448236
 21
24.9450671852567
 31
0.0
  0
LINE
  5
195
330
1F
100
AcDbEntity
  8
2
  6
Continuous
 62
     7
100
AcDbLine
 10
220.3679970518237
 20
21.64506718525669
 30
0.0
 11
220.5123338448236
 21
21.64506718525669
 31
0.0
  0
LINE
  5
196
330
1F
100
AcDbEntity
  8
2
  6
Continuous
 62
     7
100
AcDbLine
 10
220.8018652088237
 20
21.4450671852567
 30
0.0
 11
220.5123338448236
 21
21.64506718525669
 31
0.0
  0
LINE
  5
197
330
1F
100
AcDbEntity
  8
2
  6
Continuous
 62
     7
100
AcDbLine
 10
222.9218446288237
 20
21.64506718525669
 30
0.0
 11
222.6323132648236
 21
21.4450671852567
 31
0.0
  0
LINE
  5
198
330
1F
100
AcDbEntity
  8
2
  6
Continuous
 62
     7
100
AcDbLine
 10
233.3679970518237
 20
21.64506718525669
 30
0.0
 11
233.1679970518237
 21
21.4450671852567
 31
0.0
  0
LINE
  5
199
330
1F
100
AcDbEntity
  8
2
  6
Continuous
 62
     7
100
AcDbLine
 10
222.9218446288237
 20
21.64506718525669
 30
0.0
 11
224.3679970518237
 21
21.64506718525669
 31
0.0
  0
LINE
  5
19A
330
1F
100
AcDbEntity
  8
2
  6
Continuous
 62
     7
100
AcDbLine
 10
230.8141494748237
 20
21.64506718525669
 30
0.0
 11
229.3679970518237
 21
21.64506718525669
 31
0.0
  0
LINE
  5
19B
330
1F
100
AcDbEntity
  8
2
  6
Continuous
 62
     7
100
AcDbLine
 10
230.8141494748237
 20
21.64506718525669
 30
0.0
 11
231.1036808388236
 21
21.4450671852567
 31
0.0
  0
LINE
  5
19C
330
1F
100
AcDbEntity
  8
2
  6
Continuous
 62
     7
100
AcDbLine
 10
232.9341288948237
 20
21.4450671852567
 30
0.0
 11
233.2236602588237
 21
21.64506718525669
 31
0.0
  0
LINE
  5
19D
330
1F
100
AcDbEntity
  8
2
  6
Continuous
 62
     7
100
AcDbLine
 10
233.3679970518237
 20
21.64506718525669
 30
0.0
 11
233.2236602588237
 21
21.64506718525669
 31
0.0
  0
LINE
  5
19E
330
1F
100
AcDbEntity
  8
2
  6
Continuous
 62
     7
100
AcDbLine
 10
233.3679970518237
 20
24.9450671852567
 30
0.0
 11
233.2236602588237
 21
24.9450671852567
 31
0.0
  0
ARC
  5
19F
330
1F
100
AcDbEntity
  8
2
  6
Continuous
 62
     7
100
AcDbCircle
 10
232.0189048668236
 20
23.7436316292567
 30
0.0
 40
1.701435555
100
AcDbArc
 50
44.9209486980002
 51
135.0790513019998
  0
LINE
  5
1A0
330
1F
100
AcDbEntity
  8
2
  6
Continuous
 62
     7
100
AcDbLine
 10
220.3679970518237
 20
20.9450671852567
 30
0.0
 11
220.3679970518237
 21
12.64506718525669
 31
0.0
  0
LINE
  5
1A1
330
1F
100
AcDbEntity
  8
2
  6
Continuous
 62
     7
100
AcDbLine
 10
230.8141494748237
 20
24.9450671852567
 30
0.0
 11
229.3679970518237
 21
24.9450671852567
 31
0.0
  0
LINE
  5
1A2
330
1F
100
AcDbEntity
  8
2
  6
Continuous
 62
     7
100
AcDbLine
 10
230.8141494748237
 20
24.9450671852567
 30
0.0
 11
230.8141494748237
 21
21.64506718525669
 31
0.0
  0
LINE
  5
1A3
330
1F
100
AcDbEntity
  8
2
  6
Continuous
 62
     7
100
AcDbLine
 10
233.2236602588237
 20
24.9450671852567
 30
0.0
 11
233.2236602588237
 21
21.64506718525669
 31
0.0
  0
ARC
  5
1A4
330
1F
100
AcDbEntity
  8
2
  6
Continuous
 62
     4
100
AcDbCircle
 10
224.8679970518237
 20
48.9450671852567
 30
0.0
 40
2.5
100
AcDbArc
 50
36.86989764600035
 51
143.1301023539997
  0
LINE
  5
1A5
330
1F
100
AcDbEntity
  8
2
  6
Continuous
 62
     7
100
AcDbLine
 10
232.8679970518237
 20
25.4450671852567
 30
0.0
 11
233.3679970518237
 21
24.9450671852567
 31
0.0
  0
LINE
  5
1A6
330
1F
100
AcDbEntity
  8
2
  6
Continuous
 62
     7
100
AcDbLine
 10
240.7679970518236
 20
22.0450655832567
 30
0.0
 11
240.7679970518236
 21
12.54506682025669
 31
0.0
  0
LINE
  5
1A7
330
1F
100
AcDbEntity
  8
2
  6
Continuous
 62
     7
100
AcDbLine
 10
233.7679970518236
 20
12.54506682025669
 30
0.0
 11
233.7679970518236
 21
22.0450655832567
 31
0.0
  0
LINE
  5
1A8
330
1F
100
AcDbEntity
  8
2
  6
Continuous
 62
     7
100
AcDbLine
 10
240.7679969718236
 20
23.54506669125669
 30
0.0
 11
240.7679970518236
 21
22.4450649042567
 31
0.0
  0
LINE
  5
1A9
330
1F
100
AcDbEntity
  8
2
  6
Continuous
 62
     7
100
AcDbLine
 10
233.7679970518236
 20
22.4450649042567
 30
0.0
 11
233.7679971878237
 21
23.54506669125669
 31
0.0
  0
ARC
  5
1AA
330
1F
100
AcDbEntity
  8
2
  6
Continuous
 62
     7
100
AcDbCircle
 10
234.2679971878237
 20
23.54506669125669
 30
0.0
 40
0.5
100
AcDbArc
 50
90.0
 51
180.0
  0
ARC
  5
1AB
330
1F
100
AcDbEntity
  8
2
  6
Continuous
 62
     7
100
AcDbCircle
 10
240.2679969718236
 20
23.54506669125669
 30
0.0
 40
0.5
100
AcDbArc
 50
0.0
 51
90.0
  0
LINE
  5
1AC
330
1F
100
AcDbEntity
  8
2
  6
Continuous
 62
     7
100
AcDbLine
 10
239.3429970518236
 20
22.4450649042567
 30
0.0
 11
239.3429970518236
 21
22.0450655832567
 31
0.0
  0
LINE
  5
1AD
330
1F
100
AcDbEntity
  8
2
  6
Continuous
 62
     7
100
AcDbLine
 10
235.1929970518237
 20
22.0450655832567
 30
0.0
 11
235.1929970518237
 21
22.4450649042567
 31
0.0
  0
LINE
  5
1AE
330
1F
100
AcDbEntity
  8
2
  6
Continuous
 62
     7
100
AcDbLine
 10
234.2679971878237
 20
24.04506669125669
 30
0.0
 11
240.2679969718236
 21
24.04506669125669
 31
0.0
  0
LINE
  5
1AF
330
1F
100
AcDbEntity
  8
2
  6
Continuous
 62
     7
100
AcDbLine
 10
240.7679970518236
 20
22.4450649042567
 30
0.0
 11
233.7679970518236
 21
22.4450649042567
 31
0.0
  0
LINE
  5
1B0
330
1F
100
AcDbEntity
  8
2
  6
Continuous
 62
     7
100
AcDbLine
 10
235.6679970518237
 20
39.04506669125669
 30
0.0
 11
235.6679970518237
 21
24.04506669125669
 31
0.0
  0
LINE
  5
1B1
330
1F
100
AcDbEntity
  8
2
  6
Continuous
 62
     7
100
AcDbLine
 10
240.7679970518236
 20
12.54506682025669
 30
0.0
 11
233.7679970518236
 21
12.54506682025669
 31
0.0
  0
LINE
  5
1B2
330
1F
100
AcDbEntity
  8
2
  6
Continuous
 62
     7
100
AcDbLine
 10
233.7679970518236
 20
22.0450655832567
 30
0.0
 11
240.7679970518236
 21
22.0450655832567
 31
0.0
  0
LINE
  5
1B3
330
1F
100
AcDbEntity
  8
2
  6
Continuous
 62
     7
100
AcDbLine
 10
240.0179970518236
 20
12.54506682025669
 30
0.0
 11
240.0179970518236
 21
12.44506699025669
 31
0.0
  0
LINE
  5
1B4
330
1F
100
AcDbEntity
  8
2
  6
Continuous
 62
     7
100
AcDbLine
 10
234.5179970518236
 20
12.44506699025669
 30
0.0
 11
234.5179970518236
 21
12.54506682025669
 31
0.0
  0
ARC
  5
1B5
330
1F
100
AcDbEntity
  8
2
  6
Continuous
 62
     4
100
AcDbCircle
 10
236.4679970518236
 20
38.4450666912567
 30
0.0
 40
1.0
100
AcDbArc
 50
36.86989764600035
 51
143.1301023539997
  0
ARC
  5
1B6
330
1F
100
AcDbEntity
  8
2
  6
Continuous
 62
     4
100
AcDbCircle
 10
238.0679970518237
 20
38.4450666912567
 30
0.0
 40
1.0
100
AcDbArc
 50
36.86989764600035
 51
143.1301023539997
  0
LINE
  5
1B7
330
1F
100
AcDbEntity
  8
2
  6
Continuous
 62
     7
100
AcDbLine
 10
167.7029335428237
 20
24.9450671852567
 30
0.0
 11
166.8679970518237
 21
24.9450671852567
 31
0.0
  0
LINE
  5
1B8
330
1F
100
AcDbEntity
  8
2
  6
Continuous
 62
     7
100
AcDbLine
 10
173.7029335428237
 20
24.9450671852567
 30
0.0
 11
172.0330605608237
 21
24.9450671852567
 31
0.0
  0
LINE
  5
1B9
330
1F
100
AcDbEntity
  8
2
  6
Continuous
 62
     7
100
AcDbLine
 10
172.0330605608237
 20
20.9450671852567
 30
0.0
 11
172.0330605858237
 21
12.4450671852567
 31
0.0
  0
LINE
  5
1BA
330
1F
100
AcDbEntity
  8
2
  6
Continuous
 62
     7
100
AcDbLine
 10
168.2044165758237
 20
21.4450671852567
 30
0.0
 11
167.7029335428237
 21
21.64506718525669
 31
0.0
  0
ARC
  5
1BB
330
1F
100
AcDbEntity
  8
2
  6
Continuous
 62
     4
100
AcDbCircle
 10
238.0679970518237
 20
39.64506669125669
 30
0.0
 40
1.0
100
AcDbArc
 50
216.8698976460003
 51
323.1301023539996
  0
LINE
  5
1BC
330
1F
100
AcDbEntity
  8
2
  6
Continuous
 62
     7
100
AcDbLine
 10
172.0330605608237
 20
24.9450671852567
 30
0.0
 11
172.0330605618236
 21
21.64506718525669
 31
0.0
  0
LINE
  5
1BD
330
1F
100
AcDbEntity
  8
2
  6
Continuous
 62
     7
100
AcDbLine
 10
172.0330605618236
 20
21.64506718525669
 30
0.0
 11
171.5315775278237
 21
21.4450671852567
 31
0.0
  0
LINE
  5
1BE
330
1F
100
AcDbEntity
  8
2
  6
Continuous
 62
     7
100
AcDbLine
 10
178.0330605608237
 20
20.9450671852567
 30
0.0
 11
178.0330605218237
 21
12.4450671852567
 31
0.0
  0
ARC
  5
1BF
330
1F
100
AcDbEntity
  8
2
  6
Continuous
 62
     7
100
AcDbCircle
 10
175.8679970518237
 20
16.5075671852567
 30
0.0
 40
4.9375
100
AcDbArc
 50
63.99217611399981
 51
116.0078238860002
  0
LINE
  5
1C0
330
1F
100
AcDbEntity
  8
2
  6
Continuous
 62
     7
100
AcDbLine
 10
173.7029335428237
 20
21.64506718525669
 30
0.0
 11
173.7029335428237
 21
24.9450671852567
 31
0.0
  0
LINE
  5
1C1
330
1F
100
AcDbEntity
  8
2
  6
Continuous
 62
     7
100
AcDbLine
 10
172.0330605618236
 20
21.64506718525669
 30
0.0
 11
173.7029335428237
 21
21.64506718525669
 31
0.0
  0
LINE
  5
1C2
330
1F
100
AcDbEntity
  8
2
  6
Continuous
 62
     7
100
AcDbLine
 10
174.2044165758237
 20
21.4450671852567
 30
0.0
 11
173.7029335428237
 21
21.64506718525669
 31
0.0
  0
ARC
  5
1C3
330
1F
100
AcDbEntity
  8
2
  6
Continuous
 62
     4
100
AcDbCircle
 10
170.8679970518237
 20
48.9450671852567
 30
0.0
 40
2.5
100
AcDbArc
 50
36.86989764600035
 51
143.1301023539997
  0
LINE
  5
1C4
330
1F
100
AcDbEntity
  8
2
  6
CENTER
 62
     1
100
AcDbLine
 10
237.2679970518236
 20
10.4450671852567
 30
0.0
 11
237.2679970518236
 21
39.04506669125669
 31
0.0
  0
LINE
  5
1C5
330
1F
100
AcDbEntity
  8
2
  6
Continuous
 62
     7
100
AcDbLine
 10
166.8679970518237
 20
21.64506718525669
 30
0.0
 11
167.7029335428237
 21
21.64506718525669
 31
0.0
  0
LINE
  5
1C6
330
1F
100
AcDbEntity
  8
2
  6
Continuous
 62
     7
100
AcDbLine
 10
167.7029335428237
 20
20.9450671852567
 30
0.0
 11
166.8679970518237
 21
20.9450671852567
 31
0.0
  0
LINE
  5
1C7
330
1F
100
AcDbEntity
  8
2
  6
Continuous
 62
     7
100
AcDbLine
 10
238.8679970518237
 20
24.04506669125669
 30
0.0
 11
238.8679970518237
 21
39.04506669125669
 31
0.0
  0
LINE
  5
1C8
330
1F
100
AcDbEntity
  8
2
  6
Continuous
 62
     7
100
AcDbLine
 10
167.7029335428237
 20
21.64506718525669
 30
0.0
 11
167.7029335428237
 21
24.9450671852567
 31
0.0
  0
ARC
  5
1C9
330
1F
100
AcDbEntity
  8
2
  6
Continuous
 62
     4
100
AcDbCircle
 10
174.8679970518237
 20
51.9450671852567
 30
0.0
 40
2.5
100
AcDbArc
 50
216.8698976460003
 51
323.1301023539996
  0
ARC
  5
1CA
330
1F
100
AcDbEntity
  8
2
  6
Continuous
 62
     4
100
AcDbCircle
 10
174.8679970518237
 20
48.9450671852567
 30
0.0
 40
2.5
100
AcDbArc
 50
36.86989764600035
 51
143.1301023539997
  0
LINE
  5
1CB
330
1F
100
AcDbEntity
  8
2
  6
Continuous
 62
     7
100
AcDbLine
 10
178.8679970518237
 20
12.4450671852567
 30
0.0
 11
178.8679970518237
 21
25.4450671852567
 31
0.0
  0
ARC
  5
1CC
330
1F
100
AcDbEntity
  8
2
  6
Continuous
 62
     7
100
AcDbCircle
 10
175.8679970518237
 20
20.5075671852567
 30
0.0
 40
4.9375
100
AcDbArc
 50
63.99217611399981
 51
116.0078238860002
  0
ARC
  5
1CD
330
1F
100
AcDbEntity
  8
2
  6
Continuous
 62
     7
100
AcDbCircle
 10
169.8679970518237
 20
20.5075671852567
 30
0.0
 40
4.9375
100
AcDbArc
 50
63.99217611399981
 51
116.0078238860002
  0
LINE
  5
1CE
330
1F
100
AcDbEntity
  8
2
  6
Continuous
 62
     7
100
AcDbLine
 10
167.7029335518236
 20
12.4450671852567
 30
0.0
 11
167.7029335428237
 21
20.9450671852567
 31
0.0
  0
LINE
  5
1CF
330
1F
100
AcDbEntity
  8
2
  6
Continuous
 62
     7
100
AcDbLine
 10
178.8679970518237
 20
12.4450671852567
 30
0.0
 11
166.8679970518237
 21
12.4450671852567
 31
0.0
  0
LINE
  5
1D0
330
1F
100
AcDbEntity
  8
2
  6
Continuous
 62
     7
100
AcDbLine
 10
178.8679970518237
 20
20.9450671852567
 30
0.0
 11
178.0330605608237
 21
20.9450671852567
 31
0.0
  0
ARC
  5
1D1
330
1F
100
AcDbEntity
  8
2
  6
Continuous
 62
     7
100
AcDbCircle
 10
169.8679970518237
 20
16.5075671852567
 30
0.0
 40
4.9375
100
AcDbArc
 50
63.99217611399981
 51
116.0078238860002
  0
LINE
  5
1D2
330
1F
100
AcDbEntity
  8
2
  6
CENTER
 62
     1
100
AcDbLine
 10
172.8679970518237
 20
10.4450671852567
 30
0.0
 11
172.8679970518237
 21
50.4450671852567
 31
0.0
  0
LINE
  5
1D3
330
1F
100
AcDbEntity
  8
2
  6
CENTER
 62
     1
100
AcDbLine
 10
226.8679970518237
 20
10.4450671852567
 30
0.0
 11
226.8679970518237
 21
50.4450671852567
 31
0.0
  0
LINE
  5
1D4
330
1F
100
AcDbEntity
  8
2
  6
Continuous
 62
     7
100
AcDbLine
 10
165.6679970518237
 20
7.345067185256681
 30
0.0
 11
165.8679970518237
 21
7.345067185256681
 31
0.0
  0
LINE
  5
1D5
330
1F
100
AcDbEntity
  8
2
  6
Continuous
 62
     7
100
AcDbLine
 10
165.6679970518237
 20
-7.354932814743307
 30
0.0
 11
165.8679970518237
 21
-7.354932814743307
 31
0.0
  0
LINE
  5
1D6
330
1F
100
AcDbEntity
  8
2
  6
Continuous
 62
     7
100
AcDbLine
 10
230.8141494748237
 20
20.9450671852567
 30
0.0
 11
229.3679970518237
 21
20.9450671852567
 31
0.0
  0
LINE
  5
1D7
330
1F
100
AcDbEntity
  8
2
  6
Continuous
 62
     7
100
AcDbLine
 10
230.8141494748237
 20
20.9450671852567
 30
0.0
 11
230.8141494748237
 21
12.4450671852567
 31
0.0
  0
LINE
  5
1D8
330
1F
100
AcDbEntity
  8
2
  6
Continuous
 62
     7
100
AcDbLine
 10
233.2236602588237
 20
20.9450671852567
 30
0.0
 11
233.2236602588237
 21
12.50073039225668
 31
0.0
  0
DIMENSION
  5
1E8
330
1F
100
AcDbEntity
  8
1
  6
ByBlock
 62
     4
100
AcDbDimension
  2
_D1
 10
-16.00350556317635
 20
-10.00493281474331
 30
0.0
 11
-19.69950556317635
 21
-0.004932814743313
 31
0.0
 70
   160
  1
φ<>{\H0.70x;\A2\S　0^ －0.01;}
 71
     5
 42
-1.0
 52
90.0
  3
DIMSTYEX_1
100
AcDbAlignedDimension
 13
18.46799705182366
 23
9.995067185256687
 33
0.0
 14
18.46799705182366
 24
-10.00493281474331
 34
0.0
 50
-90.0
100
AcDbRotatedDimension
1001
ACAD
1000
DSTYLE
1002
{
1070
   343
1005
86
1070
   344
1005
86
1070
    43
1040
0.0
1070
   173
1070
     1
1070
   272
1070
     6
1070
   340
1005
1E6
1070
   140
1040
3.136
1002
}
  0
DIMENSION
  5
1F6
330
1F
100
AcDbEntity
  8
1
  6
ByBlock
 62
     4
100
AcDbDimension
  2
_D2
 10
-8.003505563176347
 20
-5.904932814743319
 30
0.0
 11
-10.64950556317635
 21
-0.004932814743313
 31
0.0
 70
   160
  1
φ<>
 71
     5
 42
-1.0
 52
90.0
  3
DIMSTYEX_2
100
AcDbAlignedDimension
 13
3.555340163823658
 23
5.895067185256693
 33
0.0
 14
3.555340163823658
 24
-5.904932814743319
 34
0.0
 50
-90.0
100
AcDbRotatedDimension
1001
ACAD
1000
DSTYLE
1002
{
1070
   343
1005
86
1070
   344
1005
86
1070
    43
1040
0.0
1070
   173
1070
     1
1070
   272
1070
     6
1070
   340
1005
1E6
1070
   140
1040
3.136
1002
}
  0
DIMENSION
  5
204
330
1F
100
AcDbEntity
  8
1
  6
ByBlock
 62
     4
100
AcDbDimension
  2
_D3
 10
192.8679970518237
 20
12.4450671852567
 30
0.0
 11
190.2219970518237
 21
18.9450671852567
 31
0.0
 70
   160
  1
(<>)
 71
     5
 42
-1.0
 52
90.0
  3
DIMSTYEX_3
100
AcDbAlignedDimension
 13
178.8679970518237
 23
25.4450671852567
 33
0.0
 14
179.8679970518237
 24
12.4450671852567
 34
0.0
 50
-90.0
100
AcDbRotatedDimension
1001
ACAD
1000
DSTYLE
1002
{
1070
   343
1005
86
1070
   344
1005
86
1070
    43
1040
0.0
1070
   173
1070
     1
1070
   272
1070
     6
1070
   340
1005
1E6
1070
   140
1040
3.136
1002
}
  0
DIMENSION
  5
212
330
1F
100
AcDbEntity
  8
1
  6
ByBlock
 62
     4
100
AcDbDimension
  2
_D4
 10
192.8681505386087
 20
-9.954932814743302
 30
0.0
 11
190.2221505386087
 21
1.245067185256701
 31
0.0
 70
   160
  1
(<>)
 71
     5
 42
-1.0
 52
90.0
  3
DIMSTYEX_4
100
AcDbAlignedDimension
 13
179.8679970518237
 23
12.4450671852567
 33
0.0
 14
179.8679970518237
 24
-9.954932814743302
 34
0.0
 50
-90.0
100
AcDbRotatedDimension
1001
ACAD
1000
DSTYLE
1002
{
1070
   343
1005
86
1070
   344
1005
86
1070
    43
1040
0.0
1070
   173
1070
     1
1070
   272
1070
     6
1070
   340
1005
1E6
1070
   140
1040
3.136
1002
}
  0
DIMENSION
  5
220
330
1F
100
AcDbEntity
  8
1
  6
ByBlock
 62
     4
100
AcDbDimension
  2
_D5
 10
180.8679970518237
 20
-38.00493281474331
 30
0.0
 11
164.5179970518237
 21
-35.35893281474331
 31
0.0
 70
   160
  1
(<>)
 71
     5
 42
-1.0
 52
90.0
  3
DIMSTYEX_5
100
AcDbAlignedDimension
 13
148.1679970518237
 23
-9.854932814743307
 33
0.0
 14
180.8679970518237
 24
-8.954932814743302
 34
0.0
100
AcDbRotatedDimension
1001
ACAD
1000
DSTYLE
1002
{
1070
   343
1005
86
1070
   344
1005
86
1070
    43
1040
0.0
1070
   173
1070
     1
1070
   272
1070
     6
1070
   340
1005
1E6
1070
   140
1040
3.136
1002
}
  0
DIMENSION
  5
22E
330
1F
100
AcDbEntity
  8
1
  6
ByBlock
 62
     4
100
AcDbDimension
  2
_D6
 10
14.66799705182366
 20
-38.00493281474331
 30
0.0
 11
81.41799705182368
 21
-35.35893281474331
 31
0.0
 70
   160
  1
(<>)
 71
     5
 42
-1.0
 52
90.0
  3
DIMSTYEX_6
100
AcDbAlignedDimension
 13
148.1679970518237
 23
-9.854932814743307
 33
0.0
 14
14.66799705182366
 24
-9.279932814743319
 34
0.0
 50
180.0
100
AcDbRotatedDimension
1001
ACAD
1000
DSTYLE
1002
{
1070
   343
1005
86
1070
   344
1005
86
1070
    43
1040
0.0
1070
   173
1070
     1
1070
   272
1070
     6
1070
   340
1005
1E6
1070
   140
1040
3.136
1002
}
  0
DIMENSION
  5
23C
330
1F
100
AcDbEntity
  8
1
  6
ByBlock
 62
     4
100
AcDbDimension
  2
_D7
 10
148.1679970518237
 20
-30.00493281474331
 30
0.0
 11
110.4179970518237
 21
-27.35893281474331
 31
0.0
 70
   160
 71
     5
 42
-1.0
 52
90.0
  3
DIMSTYEX_7
100
AcDbAlignedDimension
 13
72.66799705182365
 23
-10.00493281474331
 33
0.0
 14
148.1679970518237
 24
-9.854932814743307
 34
0.0
100
AcDbRotatedDimension
1001
ACAD
1000
DSTYLE
1002
{
1070
   343
1005
86
1070
   344
1005
86
1070
    43
1040
0.0
1070
   173
1070
     1
1070
   272
1070
     6
1070
   340
1005
1E6
1070
   140
1040
3.136
1002
}
  0
DIMENSION
  5
24A
330
1F
100
AcDbEntity
  8
1
  6
ByBlock
 62
     4
100
AcDbDimension
  2
_D8
 10
72.66799705182365
 20
-30.00493281474331
 30
0.0
 11
43.66799705182365
 21
-27.35893281474331
 31
0.0
 70
   160
  1
(<>)
 71
     5
 42
-1.0
 52
90.0
  3
DIMSTYEX_8
100
AcDbAlignedDimension
 13
14.66799705182366
 23
-9.279932814743319
 33
0.0
 14
72.66799705182365
 24
-10.00493281474331
 34
0.0
100
AcDbRotatedDimension
1001
ACAD
1000
DSTYLE
1002
{
1070
   343
1005
86
1070
   344
1005
86
1070
    43
1040
0.0
1070
   173
1070
     1
1070
   272
1070
     6
1070
   340
1005
1E6
1070
   140
1040
3.136
1002
}
  0
DIMENSION
  5
259
330
1F
100
AcDbEntity
  8
1
  6
ByBlock
 62
     4
100
AcDbDimension
  2
_D9
 10
-0.003505563176347
 20
-38.00493281474331
 30
0.0
 11
7.332245744323657
 21
-35.35893281474331
 31
0.0
 70
   160
  1
(14.7)
 71
     5
 42
-1.0
 52
90.0
  3
DIMSTYEX_9
100
AcDbAlignedDimension
 13
14.66799705182366
 23
-9.279932814743319
 33
0.0
 14
-0.003505563176347
 24
-3.42758254574332
 34
0.0
 50
180.0
100
AcDbRotatedDimension
1001
ACAD
1000
DSTYLE
1002
{
1070
   343
1005
86
1070
   344
1005
86
1070
    43
1040
0.0
1070
   173
1070
     1
1070
   272
1070
     6
1070
   340
1005
257
1070
   140
1040
3.136
1002
}
  0
DIMENSION
  5
267
330
1F
100
AcDbEntity
  8
1
  6
ByBlock
 62
     4
100
AcDbDimension
  2
_D10
 10
112.4679970518237
 20
9.995067185256687
 30
0.0
 11
108.7719970518237
 21
-0.004932814743313
 31
0.0
 70
   160
  1
φ<>{\H0.70x;\A2\S－0.01^ －0.02;}
 71
     5
 42
-1.0
 52
90.0
  3
DIMSTYEX_10
100
AcDbAlignedDimension
 13
112.4679970518237
 23
-10.00493281474331
 33
0.0
 14
112.4679970518237
 24
9.995067185256687
 34
0.0
 50
90.0
100
AcDbRotatedDimension
1001
ACAD
1000
DSTYLE
1002
{
1070
   343
1005
86
1070
   344
1005
86
1070
    43
1040
0.0
1070
   173
1070
     1
1070
   272
1070
     6
1070
   340
1005
1E6
1070
   140
1040
3.136
1002
}
  0
ENDSEC
  0
SECTION
  2
OBJECTS
  0
DICTIONARY
  5
C
330
0
100
AcDbDictionary
281
     1
  3
ACAD_GROUP
350
D
  3
ACAD_LAYOUT
350
1A
  3
ACAD_MATERIAL
350
43
  3
ACAD_MLEADERSTYLE
350
6B
  3
ACAD_MLINESTYLE
350
17
  3
ACAD_PLOTSETTINGS
350
19
  3
ACAD_PLOTSTYLENAME
350
E
  3
ACAD_SCALELIST
350
47
  3
ACAD_TABLESTYLE
350
69
  3
ACAD_VISUALSTYLE
350
2A
  3
AcDbVariableDictionary
350
277
  0
DICTIONARY
  5
27E
330
8
100
AcDbDictionary
280
     1
281
     1
  3
ACAD_XREC_ROUNDTRIP
360
27F
  0
DICTIONARY
  5
D
102
{ACAD_REACTORS
330
C
102
}
330
C
100
AcDbDictionary
281
     1
  0
DICTIONARY
  5
1A
102
{ACAD_REACTORS
330
C
102
}
330
C
100
AcDbDictionary
281
     1
  3
Layout1
350
1E
  3
Model
350
22
  0
DICTIONARY
  5
43
102
{ACAD_REACTORS
330
C
102
}
330
C
100
AcDbDictionary
281
     1
  3
ByBlock
350
45
  3
ByLayer
350
44
  3
Global
350
46
  0
DICTIONARY
  5
6B
102
{ACAD_REACTORS
330
C
102
}
330
C
100
AcDbDictionary
281
     1
  3
Standard
350
6C
  0
DICTIONARY
  5
17
102
{ACAD_REACTORS
330
C
102
}
330
C
100
AcDbDictionary
281
     1
  3
Standard
350
18
  0
DICTIONARY
  5
19
102
{ACAD_REACTORS
330
C
102
}
330
C
100
AcDbDictionary
281
     1
  0
ACDBDICTIONARYWDFLT
  5
E
102
{ACAD_REACTORS
330
C
102
}
330
C
100
AcDbDictionary
281
     1
  3
Normal
350
F
100
AcDbDictionaryWithDefault
340
F
  0
DICTIONARY
  5
47
102
{ACAD_REACTORS
330
C
102
}
330
C
100
AcDbDictionary
281
     1
  3
A0
350
48
  3
A1
350
49
  3
A2
350
4A
  3
A3
350
4B
  3
A4
350
4C
  3
A5
350
4D
  3
A6
350
4E
  3
A7
350
4F
  3
A8
350
50
  3
A9
350
51
  3
B0
350
52
  3
B1
350
53
  3
B2
350
54
  3
B3
350
55
  3
B4
350
56
  3
B5
350
57
  3
B6
350
58
  3
B7
350
59
  3
B8
350
5A
  3
B9
350
5B
  3
C0
350
5C
  3
C1
350
5D
  3
C2
350
5E
  3
C3
350
5F
  3
C4
350
60
  3
C5
350
61
  3
C6
350
62
  3
C7
350
63
  3
C8
350
64
  3
C9
350
65
  3
D0
350
66
  3
D1
350
67
  3
D2
350
68
  0
DICTIONARY
  5
69
102
{ACAD_REACTORS
330
C
102
}
330
C
100
AcDbDictionary
281
     1
  3
Standard
350
6A
  0
DICTIONARY
  5
2A
102
{ACAD_REACTORS
330
C
102
}
330
C
100
AcDbDictionary
281
     1
  3
2dWireframe
350
2F
  3
Basic
350
32
  3
Brighten
350
36
  3
ColorChange
350
3A
  3
Conceptual
350
34
  3
Dim
350
35
  3
EdgeColorOff
350
3D
  3
Facepattern
350
39
  3
Flat
350
2B
  3
FlatWithEdges
350
2C
  3
Gouraud
350
2D
  3
GouraudWithEdges
350
2E
  3
Hidden
350
31
  3
JitterOff
350
3B
  3
Linepattern
350
38
  3
OverhangOff
350
3C
  3
Realistic
350
33
  3
Shaded
350
42
  3
Shaded with edges
350
41
  3
Shades of Gray
350
3E
  3
Sketchy
350
3F
  3
Thicken
350
37
  3
Wireframe
350
30
  3
X-Ray
350
40
  0
DICTIONARY
  5
277
102
{ACAD_REACTORS
330
C
102
}
330
C
100
AcDbDictionary
281
     1
  3
CANNOSCALE
350
280
  3
CMLEADERSTYLE
350
279
  3
CTABLESTYLE
350
278
  3
DIMASSOC
350
27C
  3
HIDETEXT
350
27D
  3
MSLTSCALE
350
281
  0
XRECORD
  5
27F
102
{ACAD_REACTORS
330
27E
102
}
330
27E
100
AcDbXrecord
280
     1
102
VTR_0.000_0.000_1.000_1.000_VISUALSTYLE
340
2F
102
VTR_0.000_0.000_1.000_1.000_GRIDDISPLAY
 70
     3
102
VTR_0.000_0.000_1.000_1.000_GRIDMAJOR
 70
     5
102
VTR_0.000_0.000_1.000_1.000_DEFAULTLIGHTING
280
     1
102
VTR_0.000_0.000_1.000_1.000_DEFAULTLIGHTINGTYPE
 70
     1
102
VTR_0.000_0.000_1.000_1.000_BRIGHTNESS
141
0.0
102
VTR_0.000_0.000_1.000_1.000_CONTRAST
142
0.0
  0
LAYOUT
  5
1E
102
{ACAD_REACTORS
330
1A
102
}
330
1A
100
AcDbPlotSettings
  1

  2
none_device
  4

  6

 40
0.0
 41
0.0
 42
0.0
 43
0.0
 44
0.0
 45
0.0
 46
0.0
 47
0.0
 48
0.0
 49
0.0
140
0.0
141
0.0
142
1.0
143
1.0
 70
   688
 72
     0
 73
     0
 74
     5
  7

 75
    16
147
1.0
148
0.0
149
0.0
100
AcDbLayout
  1
Layout1
 70
     1
 71
     1
 10
0.0
 20
0.0
 11
12.0
 21
9.0
 12
0.0
 22
0.0
 32
0.0
 14
1.000000000000000E+20
 24
1.000000000000000E+20
 34
1.000000000000000E+20
 15
-1.000000000000000E+20
 25
-1.000000000000000E+20
 35
-1.000000000000000E+20
146
0.0
 13
0.0
 23
0.0
 33
0.0
 16
1.0
 26
0.0
 36
0.0
 17
0.0
 27
1.0
 37
0.0
 76
     0
330
1B
  0
LAYOUT
  5
22
102
{ACAD_REACTORS
330
1A
102
}
330
1A
100
AcDbPlotSettings
  1

  2
none_device
  4
Letter_(8.50_x_11.00_Inches)
  6

 40
6.35
 41
6.35
 42
6.35000508
 43
6.35000508
 44
215.9
 45
279.4
 46
0.0
 47
0.0
 48
0.0
 49
0.0
140
0.0
141
0.0
142
1.0
143
1.0
 70
  1712
 72
     0
 73
     0
 74
     0
  7

 75
     0
147
1.0
148
0.0
149
0.0
100
AcDbLayout
  1
Model
 70
     1
 71
     0
 10
-22.49950556317635
 20
-51.98893281474329
 11
242.8179970518237
 21
51.4450671852567
 12
-0.003505563176347
 22
-0.0049328147433134
 32
0.0
 14
-22.49950556317635
 24
-51.98893281474329
 34
0.0
 15
242.8179970518237
 25
51.4450671852567
 35
0.0
146
0.0
 13
0.0
 23
0.0
 33
0.0
 16
1.0
 26
0.0
 36
0.0
 17
0.0
 27
1.0
 37
0.0
 76
     0
330
1F
331
29
  0
MATERIAL
  5
45
102
{ACAD_REACTORS
330
43
102
}
102
{ACAD_XDICTIONARY
360
2B4
102
}
330
43
100
AcDbMaterial
  1
ByBlock
  0
MATERIAL
  5
44
102
{ACAD_REACTORS
330
43
102
}
102
{ACAD_XDICTIONARY
360
2B2
102
}
330
43
100
AcDbMaterial
  1
ByLayer
  0
MATERIAL
  5
46
102
{ACAD_REACTORS
330
43
102
}
102
{ACAD_XDICTIONARY
360
2B6
102
}
330
43
100
AcDbMaterial
  1
Global
  0
MLEADERSTYLE
  5
6C
102
{ACAD_REACTORS
330
6B
102
}
102
{ACAD_XDICTIONARY
360
2B9
102
}
330
6B
100
AcDbMLeaderStyle
170
     2
171
     1
172
     0
 90
        2
 40
0.0
 41
0.0
173
     1
 91
-1056964608
340
14
 92
       -2
290
     1
 42
0.09
291
     1
 43
0.36
  3
Standard
341
0
 44
0.18
300

342
11
174
     1
178
     6
175
     1
176
     0
 93
-1056964608
 45
0.18
292
     0
297
     0
 46
0.18
343
0
 94
-1056964608
 47
1.0
 49
1.0
140
1.0
293
     1
141
0.0
294
     1
177
     0
142
1.0
295
     0
296
     0
143
0.125
1001
ACAD_MLEADERVER
1070
     2
  0
MLINESTYLE
  5
18
102
{ACAD_REACTORS
330
17
102
}
330
17
100
AcDbMlineStyle
  2
Standard
 70
     0
  3

 62
   256
 51
90.0
 52
90.0
 71
     2
 49
0.5
 62
   256
  6
BYLAYER
 49
-0.5
 62
   256
  6
BYLAYER
  0
ACDBPLACEHOLDER
  5
F
102
{ACAD_REACTORS
330
E
102
}
330
E
  0
SCALE
  5
48
102
{ACAD_REACTORS
330
47
102
}
330
47
100
AcDbScale
 70
     0
300
1:1
140
1.0
141
1.0
290
     1
  0
SCALE
  5
49
102
{ACAD_REACTORS
330
47
102
}
330
47
100
AcDbScale
 70
     0
300
1:2
140
1.0
141
2.0
290
     0
  0
SCALE
  5
4A
102
{ACAD_REACTORS
330
47
102
}
330
47
100
AcDbScale
 70
     0
300
1:4
140
1.0
141
4.0
290
     0
  0
SCALE
  5
4B
102
{ACAD_REACTORS
330
47
102
}
330
47
100
AcDbScale
 70
     0
300
1:5
140
1.0
141
5.0
290
     0
  0
SCALE
  5
4C
102
{ACAD_REACTORS
330
47
102
}
330
47
100
AcDbScale
 70
     0
300
1:8
140
1.0
141
8.0
290
     0
  0
SCALE
  5
4D
102
{ACAD_REACTORS
330
47
102
}
330
47
100
AcDbScale
 70
     0
300
1:10
140
1.0
141
10.0
290
     0
  0
SCALE
  5
4E
102
{ACAD_REACTORS
330
47
102
}
330
47
100
AcDbScale
 70
     0
300
1:16
140
1.0
141
16.0
290
     0
  0
SCALE
  5
4F
102
{ACAD_REACTORS
330
47
102
}
330
47
100
AcDbScale
 70
     0
300
1:20
140
1.0
141
20.0
290
     0
  0
SCALE
  5
50
102
{ACAD_REACTORS
330
47
102
}
330
47
100
AcDbScale
 70
     0
300
1:30
140
1.0
141
30.0
290
     0
  0
SCALE
  5
51
102
{ACAD_REACTORS
330
47
102
}
330
47
100
AcDbScale
 70
     0
300
1:40
140
1.0
141
40.0
290
     0
  0
SCALE
  5
52
102
{ACAD_REACTORS
330
47
102
}
330
47
100
AcDbScale
 70
     0
300
1:50
140
1.0
141
50.0
290
     0
  0
SCALE
  5
53
102
{ACAD_REACTORS
330
47
102
}
330
47
100
AcDbScale
 70
     0
300
1:100
140
1.0
141
100.0
290
     0
  0
SCALE
  5
54
102
{ACAD_REACTORS
330
47
102
}
330
47
100
AcDbScale
 70
     0
300
2:1
140
2.0
141
1.0
290
     0
  0
SCALE
  5
55
102
{ACAD_REACTORS
330
47
102
}
330
47
100
AcDbScale
 70
     0
300
4:1
140
4.0
141
1.0
290
     0
  0
SCALE
  5
56
102
{ACAD_REACTORS
330
47
102
}
330
47
100
AcDbScale
 70
     0
300
8:1
140
8.0
141
1.0
290
     0
  0
SCALE
  5
57
102
{ACAD_REACTORS
330
47
102
}
330
47
100
AcDbScale
 70
     0
300
10:1
140
10.0
141
1.0
290
     0
  0
SCALE
  5
58
102
{ACAD_REACTORS
330
47
102
}
330
47
100
AcDbScale
 70
     0
300
100:1
140
100.0
141
1.0
290
     0
  0
SCALE
  5
59
102
{ACAD_REACTORS
330
47
102
}
330
47
100
AcDbScale
 70
     0
300
1/128" = 1'-0"
140
0.0078125
141
12.0
290
     0
  0
SCALE
  5
5A
102
{ACAD_REACTORS
330
47
102
}
330
47
100
AcDbScale
 70
     0
300
1/64" = 1'-0"
140
0.015625
141
12.0
290
     0
  0
SCALE
  5
5B
102
{ACAD_REACTORS
330
47
102
}
330
47
100
AcDbScale
 70
     0
300
1/32" = 1'-0"
140
0.03125
141
12.0
290
     0
  0
SCALE
  5
5C
102
{ACAD_REACTORS
330
47
102
}
330
47
100
AcDbScale
 70
     0
300
1/16" = 1'-0"
140
0.0625
141
12.0
290
     0
  0
SCALE
  5
5D
102
{ACAD_REACTORS
330
47
102
}
330
47
100
AcDbScale
 70
     0
300
3/32" = 1'-0"
140
0.09375
141
12.0
290
     0
  0
SCALE
  5
5E
102
{ACAD_REACTORS
330
47
102
}
330
47
100
AcDbScale
 70
     0
300
1/8" = 1'-0"
140
0.125
141
12.0
290
     0
  0
SCALE
  5
5F
102
{ACAD_REACTORS
330
47
102
}
330
47
100
AcDbScale
 70
     0
300
3/16" = 1'-0"
140
0.1875
141
12.0
290
     0
  0
SCALE
  5
60
102
{ACAD_REACTORS
330
47
102
}
330
47
100
AcDbScale
 70
     0
300
1/4" = 1'-0"
140
0.25
141
12.0
290
     0
  0
SCALE
  5
61
102
{ACAD_REACTORS
330
47
102
}
330
47
100
AcDbScale
 70
     0
300
3/8" = 1'-0"
140
0.375
141
12.0
290
     0
  0
SCALE
  5
62
102
{ACAD_REACTORS
330
47
102
}
330
47
100
AcDbScale
 70
     0
300
1/2" = 1'-0"
140
0.5
141
12.0
290
     0
  0
SCALE
  5
63
102
{ACAD_REACTORS
330
47
102
}
330
47
100
AcDbScale
 70
     0
300
3/4" = 1'-0"
140
0.75
141
12.0
290
     0
  0
SCALE
  5
64
102
{ACAD_REACTORS
330
47
102
}
330
47
100
AcDbScale
 70
     0
300
1" = 1'-0"
140
1.0
141
12.0
290
     0
  0
SCALE
  5
65
102
{ACAD_REACTORS
330
47
102
}
330
47
100
AcDbScale
 70
     0
300
1-1/2" = 1'-0"
140
1.5
141
12.0
290
     0
  0
SCALE
  5
66
102
{ACAD_REACTORS
330
47
102
}
330
47
100
AcDbScale
 70
     0
300
3" = 1'-0"
140
3.0
141
12.0
290
     0
  0
SCALE
  5
67
102
{ACAD_REACTORS
330
47
102
}
330
47
100
AcDbScale
 70
     0
300
6" = 1'-0"
140
6.0
141
12.0
290
     0
  0
SCALE
  5
68
102
{ACAD_REACTORS
330
47
102
}
330
47
100
AcDbScale
 70
     0
300
1'-0" = 1'-0"
140
12.0
141
12.0
290
     0
  0
TABLESTYLE
  5
6A
102
{ACAD_REACTORS
330
69
102
}
330
69
100
AcDbTableStyle
  3
Standard
 70
     0
 71
     0
 40
0.06
 41
0.06
280
     0
281
     0
  7
Standard
140
0.18
170
     2
 62
     0
 63
   257
283
     0
274
    -2
284
     1
 64
     0
275
    -2
285
     1
 65
     0
276
    -2
286
     1
 66
     0
277
    -2
287
     1
 67
     0
278
    -2
288
     1
 68
     0
279
    -2
289
     1
 69
     0
  7
Standard
140
0.25
170
     5
 62
     0
 63
   257
283
     0
274
    -2
284
     1
 64
     0
275
    -2
285
     1
 65
     0
276
    -2
286
     1
 66
     0
277
    -2
287
     1
 67
     0
278
    -2
288
     1
 68
     0
279
    -2
289
     1
 69
     0
  7
Standard
140
0.18
170
     5
 62
     0
 63
   257
283
     0
274
    -2
284
     1
 64
     0
275
    -2
285
     1
 65
     0
276
    -2
286
     1
 66
     0
277
    -2
287
     1
 67
     0
278
    -2
288
     1
 68
     0
279
    -2
289
     1
 69
     0
  0
VISUALSTYLE
  5
2F
102
{ACAD_REACTORS
330
2A
102
}
102
{ACAD_XDICTIONARY
360
28A
102
}
330
2A
100
AcDbVisualStyle
  2
2dWireframe
 70
     4
 71
     0
 72
     2
 73
     0
 90
        0
 40
0.6
 41
30.0
 62
     5
 63
     7
 74
     1
 91
        4
 64
     7
 65
   257
 75
     1
175
     1
 42
1.0
 92
        0
 66
   257
 43
1.0
 76
     1
 77
     6
 78
     2
 67
     7
 79
     5
170
     0
171
     0
290
     0
174
     0
 93
        1
 44
0.0
173
     0
291
     0
 45
0.0
1001
ACAD
1000
AcDbSavedByObjectVersion
1070
     0
  0
VISUALSTYLE
  5
32
102
{ACAD_REACTORS
330
2A
102
}
102
{ACAD_XDICTIONARY
360
290
102
}
330
2A
100
AcDbVisualStyle
  2
Basic
 70
     7
 71
     1
 72
     0
 73
     1
 90
        0
 40
0.6
 41
30.0
 62
     5
 63
     7
 74
     0
 91
        4
 64
     7
 65
   257
 75
     1
175
     1
 42
1.0
 92
        8
 66
     7
 43
1.0
 76
     1
 77
     6
 78
     2
 67
     7
 79
     5
170
     0
171
     0
290
     0
174
     0
 93
        1
 44
0.0
173
     0
291
     1
 45
0.0
1001
ACAD
1000
AcDbSavedByObjectVersion
1070
     0
  0
VISUALSTYLE
  5
36
102
{ACAD_REACTORS
330
2A
102
}
102
{ACAD_XDICTIONARY
360
298
102
}
330
2A
100
AcDbVisualStyle
  2
Brighten
 70
    12
 71
     2
 72
     2
 73
     0
 90
        0
 40
0.6
 41
30.0
 62
     5
 63
     7
 74
     1
 91
        4
 64
     7
 65
   257
 75
     1
175
     1
 42
1.0
 92
        8
 66
     7
 43
1.0
 76
     1
 77
     6
 78
     2
 67
     7
 79
     5
170
     0
171
     0
290
     0
174
     0
 93
        1
 44
50.0
173
     0
291
     1
 45
0.0
1001
ACAD
1000
AcDbSavedByObjectVersion
1070
     0
  0
VISUALSTYLE
  5
3A
102
{ACAD_REACTORS
330
2A
102
}
102
{ACAD_XDICTIONARY
360
2A0
102
}
330
2A
100
AcDbVisualStyle
  2
ColorChange
 70
    16
 71
     2
 72
     2
 73
     3
 90
        0
 40
0.6
 41
30.0
 62
     5
 63
     8
 74
     1
 91
        4
 64
     7
 65
   257
 75
     1
175
     1
 42
1.0
 92
        8
 66
     8
 43
1.0
 76
     1
 77
     6
 78
     2
 67
     7
 79
     5
170
     0
171
     0
290
     0
174
     0
 93
        1
 44
0.0
173
     0
291
     1
 45
0.0
1001
ACAD
1000
AcDbSavedByObjectVersion
1070
     0
  0
VISUALSTYLE
  5
34
102
{ACAD_REACTORS
330
2A
102
}
102
{ACAD_XDICTIONARY
360
294
102
}
330
2A
100
AcDbVisualStyle
  2
Conceptual
 70
     9
 71
     3
 72
     2
 73
     0
 90
        0
 40
0.6
 41
30.0
 62
     5
 63
     7
 74
     2
 91
        2
 64
     7
 65
   257
 75
     1
175
     1
 42
179.0
 92
        8
 66
     7
 43
1.0
 76
     1
 77
     6
 78
     2
 67
     7
 79
     3
170
     0
171
     0
290
     0
174
     0
 93
        1
 44
0.0
173
     0
291
     0
 45
0.0
1001
ACAD
1000
AcDbSavedByObjectVersion
1070
     0
  0
VISUALSTYLE
  5
35
102
{ACAD_REACTORS
330
2A
102
}
102
{ACAD_XDICTIONARY
360
296
102
}
330
2A
100
AcDbVisualStyle
  2
Dim
 70
    11
 71
     2
 72
     2
 73
     0
 90
        0
 40
0.6
 41
30.0
 62
     5
 63
     7
 74
     1
 91
        4
 64
     7
 65
   257
 75
     1
175
     1
 42
1.0
 92
        8
 66
     7
 43
1.0
 76
     1
 77
     6
 78
     2
 67
     7
 79
     5
170
     0
171
     0
290
     0
174
     0
 93
        1
 44
-50.0
173
     0
291
     1
 45
0.0
1001
ACAD
1000
AcDbSavedByObjectVersion
1070
     0
  0
VISUALSTYLE
  5
3D
102
{ACAD_REACTORS
330
2A
102
}
102
{ACAD_XDICTIONARY
360
2A6
102
}
330
2A
100
AcDbVisualStyle
  2
EdgeColorOff
 70
    22
 71
     2
 72
     2
 73
     0
 90
        0
 40
0.6
 41
30.0
 62
     5
 63
     7
 74
     1
 91
        4
 64
     7
 65
   257
 75
     1
175
     1
 42
1.0
 92
        8
 66
     7
 43
1.0
 76
     1
 77
     6
 78
     2
 67
     7
 79
     5
170
     0
171
     0
290
     0
174
     0
 93
        1
 44
0.0
173
     0
291
     1
 45
0.0
1001
ACAD
1000
AcDbSavedByObjectVersion
1070
     0
  0
VISUALSTYLE
  5
39
102
{ACAD_REACTORS
330
2A
102
}
102
{ACAD_XDICTIONARY
360
29E
102
}
330
2A
100
AcDbVisualStyle
  2
Facepattern
 70
    15
 71
     2
 72
     2
 73
     0
 90
        0
 40
0.6
 41
30.0
 62
     5
 63
     7
 74
     1
 91
        4
 64
     7
 65
   257
 75
     1
175
     1
 42
1.0
 92
        8
 66
     7
 43
1.0
 76
     1
 77
     6
 78
     2
 67
     7
 79
     5
170
     0
171
     0
290
     0
174
     0
 93
        1
 44
0.0
173
     0
291
     1
 45
0.0
1001
ACAD
1000
AcDbSavedByObjectVersion
1070
     0
  0
VISUALSTYLE
  5
2B
102
{ACAD_REACTORS
330
2A
102
}
102
{ACAD_XDICTIONARY
360
282
102
}
330
2A
100
AcDbVisualStyle
  2
Flat
 70
     0
 71
     2
 72
     1
 73
     1
 90
        2
 40
0.6
 41
30.0
 62
     5
 63
     7
 74
     0
 91
        0
 64
     7
 65
   257
 75
     1
175
     1
 42
1.0
 92
        8
 66
     7
 43
1.0
 76
     1
 77
     6
 78
     2
 67
     7
 79
     5
170
     0
171
     0
290
     0
174
     0
 93
       13
 44
0.0
173
     0
291
     1
 45
0.0
1001
ACAD
1000
AcDbSavedByObjectVersion
1070
     0
  0
VISUALSTYLE
  5
2C
102
{ACAD_REACTORS
330
2A
102
}
102
{ACAD_XDICTIONARY
360
284
102
}
330
2A
100
AcDbVisualStyle
  2
FlatWithEdges
 70
     1
 71
     2
 72
     1
 73
     1
 90
        2
 40
0.6
 41
30.0
 62
     5
 63
     7
 74
     1
 91
        0
 64
     7
 65
   257
 75
     1
175
     1
 42
1.0
 92
        0
 66
   257
 43
1.0
 76
     1
 77
     6
 78
     2
 67
     7
 79
     5
170
     0
171
     0
290
     0
174
     0
 93
       13
 44
0.0
173
     0
291
     1
 45
0.0
1001
ACAD
1000
AcDbSavedByObjectVersion
1070
     0
  0
VISUALSTYLE
  5
2D
102
{ACAD_REACTORS
330
2A
102
}
102
{ACAD_XDICTIONARY
360
286
102
}
330
2A
100
AcDbVisualStyle
  2
Gouraud
 70
     2
 71
     2
 72
     2
 73
     1
 90
        2
 40
0.6
 41
30.0
 62
     5
 63
     7
 74
     0
 91
        0
 64
     7
 65
   257
 75
     1
175
     1
 42
1.0
 92
        0
 66
     7
 43
1.0
 76
     1
 77
     6
 78
     2
 67
     7
 79
     5
170
     0
171
     0
290
     0
174
     0
 93
       13
 44
0.0
173
     0
291
     1
 45
0.0
1001
ACAD
1000
AcDbSavedByObjectVersion
1070
     0
  0
VISUALSTYLE
  5
2E
102
{ACAD_REACTORS
330
2A
102
}
102
{ACAD_XDICTIONARY
360
288
102
}
330
2A
100
AcDbVisualStyle
  2
GouraudWithEdges
 70
     3
 71
     2
 72
     2
 73
     1
 90
        2
 40
0.6
 41
30.0
 62
     5
 63
     7
 74
     1
 91
        0
 64
     7
 65
   257
 75
     1
175
     1
 42
1.0
 92
        0
 66
   257
 43
1.0
 76
     1
 77
     6
 78
     2
 67
     7
 79
     5
170
     0
171
     0
290
     0
174
     0
 93
       13
 44
0.0
173
     0
291
     1
 45
0.0
1001
ACAD
1000
AcDbSavedByObjectVersion
1070
     0
  0
VISUALSTYLE
  5
31
102
{ACAD_REACTORS
330
2A
102
}
102
{ACAD_XDICTIONARY
360
28E
102
}
330
2A
100
AcDbVisualStyle
  2
Hidden
 70
     6
 71
     1
 72
     2
 73
     2
 90
        0
 40
0.6
 41
30.0
 62
     5
 63
     7
 74
     2
 91
        2
 64
     7
 65
   257
 75
     2
175
     1
 42
40.0
 92
        0
 66
   257
 43
1.0
 76
     1
 77
     6
 78
     2
 67
     7
 79
     3
170
     0
171
     0
290
     0
174
     0
 93
        1
 44
0.0
173
     0
291
     0
 45
0.0
1001
ACAD
1000
AcDbSavedByObjectVersion
1070
     0
  0
VISUALSTYLE
  5
3B
102
{ACAD_REACTORS
330
2A
102
}
102
{ACAD_XDICTIONARY
360
2A2
102
}
330
2A
100
AcDbVisualStyle
  2
JitterOff
 70
    20
 71
     2
 72
     2
 73
     0
 90
        0
 40
0.6
 41
30.0
 62
     5
 63
     7
 74
     1
 91
        4
 64
     7
 65
   257
 75
     1
175
     1
 42
1.0
 92
       10
 66
     7
 43
1.0
 76
     1
 77
     6
 78
     2
 67
     7
 79
     5
170
     0
171
     0
290
     0
174
     0
 93
        1
 44
0.0
173
     0
291
     1
 45
0.0
1001
ACAD
1000
AcDbSavedByObjectVersion
1070
     0
  0
VISUALSTYLE
  5
38
102
{ACAD_REACTORS
330
2A
102
}
102
{ACAD_XDICTIONARY
360
29C
102
}
330
2A
100
AcDbVisualStyle
  2
Linepattern
 70
    14
 71
     2
 72
     2
 73
     0
 90
        0
 40
0.6
 41
30.0
 62
     5
 63
     7
 74
     1
 91
        4
 64
     7
 65
   257
 75
     7
175
     7
 42
1.0
 92
        8
 66
     7
 43
1.0
 76
     1
 77
     6
 78
     2
 67
     7
 79
     5
170
     0
171
     0
290
     0
174
     0
 93
        1
 44
0.0
173
     0
291
     1
 45
0.0
1001
ACAD
1000
AcDbSavedByObjectVersion
1070
     0
  0
VISUALSTYLE
  5
3C
102
{ACAD_REACTORS
330
2A
102
}
102
{ACAD_XDICTIONARY
360
2A4
102
}
330
2A
100
AcDbVisualStyle
  2
OverhangOff
 70
    21
 71
     2
 72
     2
 73
     0
 90
        0
 40
0.6
 41
30.0
 62
     5
 63
     7
 74
     1
 91
        4
 64
     7
 65
   257
 75
     1
175
     1
 42
1.0
 92
        9
 66
     7
 43
1.0
 76
     1
 77
     6
 78
     2
 67
     7
 79
     5
170
     0
171
     0
290
     0
174
     0
 93
        1
 44
0.0
173
     0
291
     1
 45
0.0
1001
ACAD
1000
AcDbSavedByObjectVersion
1070
     0
  0
VISUALSTYLE
  5
33
102
{ACAD_REACTORS
330
2A
102
}
102
{ACAD_XDICTIONARY
360
292
102
}
330
2A
100
AcDbVisualStyle
  2
Realistic
 70
     8
 71
     2
 72
     3
 73
     0
 90
        2
 40
0.6
 41
30.0
 62
     5
 63
     7
 74
     0
 91
        0
 64
     7
 65
   257
 75
     1
175
     1
 42
1.0
 92
        8
 66
   257
 43
1.0
 76
     1
 77
     6
 78
     2
 67
     7
 79
     3
170
     0
171
     0
290
     0
174
     0
 93
       13
 44
0.0
173
     0
291
     0
 45
0.0
1001
ACAD
1000
AcDbSavedByObjectVersion
1070
     0
  0
VISUALSTYLE
  5
42
102
{ACAD_REACTORS
330
2A
102
}
102
{ACAD_XDICTIONARY
360
2B0
102
}
330
2A
100
AcDbVisualStyle
  2
Shaded
 70
    27
 71
     2
 72
     2
 73
     1
 90
        2
 40
0.6
 41
30.0
 62
     5
 63
     7
 74
     0
 91
        4
 64
     7
 65
   257
 75
     1
175
     1
 42
1.0
 92
        8
 66
   257
 43
1.0
 76
     1
 77
     6
 78
     2
 67
     8
 79
     3
170
     0
171
     0
290
     0
174
     0
 93
        5
 44
0.0
173
     0
291
     0
 45
0.0
1001
ACAD
1000
AcDbSavedByObjectVersion
1070
     0
  0
VISUALSTYLE
  5
41
102
{ACAD_REACTORS
330
2A
102
}
102
{ACAD_XDICTIONARY
360
2AE
102
}
330
2A
100
AcDbVisualStyle
  2
Shaded with edges
 70
    26
 71
     2
 72
     2
 73
     1
 90
        2
 40
0.6
 41
30.0
 62
     5
 63
     7
 74
     1
 91
       10
 64
     7
 65
   257
 75
     2
175
     1
 42
1.0
 92
        8
 66
   257
 43
1.0
 76
     1
 77
     6
 78
     2
 67
     7
 79
     3
170
     0
171
     0
290
     0
174
     0
 93
        5
 44
0.0
173
     0
291
     0
 45
0.0
1001
ACAD
1000
AcDbSavedByObjectVersion
1070
     0
  0
VISUALSTYLE
  5
3E
102
{ACAD_REACTORS
330
2A
102
}
102
{ACAD_XDICTIONARY
360
2A8
102
}
330
2A
100
AcDbVisualStyle
  2
Shades of Gray
 70
    23
 71
     2
 72
     2
 73
     3
 90
        0
 40
0.6
 41
30.0
 62
     5
 63
     7
 74
     2
 91
        2
 64
     7
 65
     7
 75
     1
175
     1
 42
40.0
 92
        8
 66
     7
 43
1.0
 76
     1
 77
     6
 78
     2
 67
     7
 79
     3
170
     0
171
     0
290
     0
174
     0
 93
        1
 44
0.0
173
     0
291
     0
 45
0.0
1001
ACAD
1000
AcDbSavedByObjectVersion
1070
     0
  0
VISUALSTYLE
  5
3F
102
{ACAD_REACTORS
330
2A
102
}
102
{ACAD_XDICTIONARY
360
2AA
102
}
330
2A
100
AcDbVisualStyle
  2
Sketchy
 70
    24
 71
     1
 72
     2
 73
     2
 90
        0
 40
0.6
 41
30.0
 62
     5
 63
     7
 74
     2
 91
        2
 64
     7
 65
     7
 75
     1
175
     1
 42
40.0
 92
       11
 66
     7
 43
1.0
 76
     1
 77
     6
 78
     2
 67
     7
 79
     6
170
     0
171
     0
290
     0
174
     0
 93
        1
 44
0.0
173
     0
291
     0
 45
0.0
1001
ACAD
1000
AcDbSavedByObjectVersion
1070
     0
  0
VISUALSTYLE
  5
37
102
{ACAD_REACTORS
330
2A
102
}
102
{ACAD_XDICTIONARY
360
29A
102
}
330
2A
100
AcDbVisualStyle
  2
Thicken
 70
    13
 71
     2
 72
     2
 73
     0
 90
        0
 40
0.6
 41
30.0
 62
     5
 63
     7
 74
     1
 91
        4
 64
     7
 65
   257
 75
     1
175
     1
 42
1.0
 92
       12
 66
     7
 43
1.0
 76
     1
 77
     6
 78
     2
 67
     7
 79
     5
170
     0
171
     0
290
     0
174
     0
 93
        1
 44
0.0
173
     0
291
     1
 45
0.0
1001
ACAD
1000
AcDbSavedByObjectVersion
1070
     0
  0
VISUALSTYLE
  5
30
102
{ACAD_REACTORS
330
2A
102
}
102
{ACAD_XDICTIONARY
360
28C
102
}
330
2A
100
AcDbVisualStyle
  2
Wireframe
 70
     5
 71
     0
 72
     2
 73
     0
 90
        0
 40
0.6
 41
30.0
 62
     5
 63
     7
 74
     1
 91
        4
 64
     7
 65
   257
 75
     1
175
     1
 42
1.0
 92
        0
 66
   257
 43
1.0
 76
     1
 77
     6
 78
     2
 67
     7
 79
     3
170
     0
171
     0
290
     0
174
     0
 93
        1
 44
0.0
173
     0
291
     0
 45
0.0
1001
ACAD
1000
AcDbSavedByObjectVersion
1070
     0
  0
VISUALSTYLE
  5
40
102
{ACAD_REACTORS
330
2A
102
}
102
{ACAD_XDICTIONARY
360
2AC
102
}
330
2A
100
AcDbVisualStyle
  2
X-Ray
 70
    25
 71
     2
 72
     2
 73
     1
 90
        1
 40
0.5
 41
30.0
 62
     5
 63
     7
 74
     1
 91
        0
 64
     7
 65
   257
 75
     1
175
     1
 42
1.0
 92
        8
 66
     7
 43
1.0
 76
     1
 77
     6
 78
     2
 67
     7
 79
     3
170
     0
171
     0
290
     0
174
     0
 93
       13
 44
0.0
173
     0
291
     0
 45
0.0
1001
ACAD
1000
AcDbSavedByObjectVersion
1070
     0
  0
DICTIONARYVAR
  5
280
102
{ACAD_REACTORS
330
277
102
}
330
277
100
DictionaryVariables
280
     0
  1
1:1
  0
DICTIONARYVAR
  5
279
102
{ACAD_REACTORS
330
277
102
}
330
277
100
DictionaryVariables
280
     0
  1
Standard
  0
DICTIONARYVAR
  5
278
102
{ACAD_REACTORS
330
277
102
}
330
277
100
DictionaryVariables
280
     0
  1
Standard
  0
DICTIONARYVAR
  5
27C
102
{ACAD_REACTORS
330
277
102
}
330
277
100
DictionaryVariables
280
     0
  1
2
  0
DICTIONARYVAR
  5
27D
102
{ACAD_REACTORS
330
277
102
}
330
277
100
DictionaryVariables
280
     0
  1
1
  0
DICTIONARYVAR
  5
281
102
{ACAD_REACTORS
330
277
102
}
330
277
100
DictionaryVariables
280
     0
  1
1
  0
DICTIONARY
  5
2B4
330
45
100
AcDbDictionary
280
     1
281
     1
  3
ACAD_XREC_ROUNDTRIP
360
2B5
  0
DICTIONARY
  5
2B2
330
44
100
AcDbDictionary
280
     1
281
     1
  3
ACAD_XREC_ROUNDTRIP
360
2B3
  0
DICTIONARY
  5
2B6
330
46
100
AcDbDictionary
280
     1
281
     1
  3
ACAD_XREC_ROUNDTRIP
360
2B7
  0
DICTIONARY
  5
2B9
330
6C
100
AcDbDictionary
280
     1
281
     1
  3
ACAD_XREC_ROUNDTRIP
360
2BA
  0
DICTIONARY
  5
28A
330
2F
100
AcDbDictionary
280
     1
281
     1
  3
ACAD_XREC_ROUNDTRIP
360
28B
  0
DICTIONARY
  5
290
330
32
100
AcDbDictionary
280
     1
281
     1
  3
ACAD_XREC_ROUNDTRIP
360
291
  0
DICTIONARY
  5
298
330
36
100
AcDbDictionary
280
     1
281
     1
  3
ACAD_XREC_ROUNDTRIP
360
299
  0
DICTIONARY
  5
2A0
330
3A
100
AcDbDictionary
280
     1
281
     1
  3
ACAD_XREC_ROUNDTRIP
360
2A1
  0
DICTIONARY
  5
294
330
34
100
AcDbDictionary
280
     1
281
     1
  3
ACAD_XREC_ROUNDTRIP
360
295
  0
DICTIONARY
  5
296
330
35
100
AcDbDictionary
280
     1
281
     1
  3
ACAD_XREC_ROUNDTRIP
360
297
  0
DICTIONARY
  5
2A6
330
3D
100
AcDbDictionary
280
     1
281
     1
  3
ACAD_XREC_ROUNDTRIP
360
2A7
  0
DICTIONARY
  5
29E
330
39
100
AcDbDictionary
280
     1
281
     1
  3
ACAD_XREC_ROUNDTRIP
360
29F
  0
DICTIONARY
  5
282
330
2B
100
AcDbDictionary
280
     1
281
     1
  3
ACAD_XREC_ROUNDTRIP
360
283
  0
DICTIONARY
  5
284
330
2C
100
AcDbDictionary
280
     1
281
     1
  3
ACAD_XREC_ROUNDTRIP
360
285
  0
DICTIONARY
  5
286
330
2D
100
AcDbDictionary
280
     1
281
     1
  3
ACAD_XREC_ROUNDTRIP
360
287
  0
DICTIONARY
  5
288
330
2E
100
AcDbDictionary
280
     1
281
     1
  3
ACAD_XREC_ROUNDTRIP
360
289
  0
DICTIONARY
  5
28E
330
31
100
AcDbDictionary
280
     1
281
     1
  3
ACAD_XREC_ROUNDTRIP
360
28F
  0
DICTIONARY
  5
2A2
330
3B
100
AcDbDictionary
280
     1
281
     1
  3
ACAD_XREC_ROUNDTRIP
360
2A3
  0
DICTIONARY
  5
29C
330
38
100
AcDbDictionary
280
     1
281
     1
  3
ACAD_XREC_ROUNDTRIP
360
29D
  0
DICTIONARY
  5
2A4
330
3C
100
AcDbDictionary
280
     1
281
     1
  3
ACAD_XREC_ROUNDTRIP
360
2A5
  0
DICTIONARY
  5
292
330
33
100
AcDbDictionary
280
     1
281
     1
  3
ACAD_XREC_ROUNDTRIP
360
293
  0
DICTIONARY
  5
2B0
330
42
100
AcDbDictionary
280
     1
281
     1
  3
ACAD_XREC_ROUNDTRIP
360
2B1
  0
DICTIONARY
  5
2AE
330
41
100
AcDbDictionary
280
     1
281
     1
  3
ACAD_XREC_ROUNDTRIP
360
2AF
  0
DICTIONARY
  5
2A8
330
3E
100
AcDbDictionary
280
     1
281
     1
  3
ACAD_XREC_ROUNDTRIP
360
2A9
  0
DICTIONARY
  5
2AA
330
3F
100
AcDbDictionary
280
     1
281
     1
  3
ACAD_XREC_ROUNDTRIP
360
2AB
  0
DICTIONARY
  5
29A
330
37
100
AcDbDictionary
280
     1
281
     1
  3
ACAD_XREC_ROUNDTRIP
360
29B
  0
DICTIONARY
  5
28C
330
30
100
AcDbDictionary
280
     1
281
     1
  3
ACAD_XREC_ROUNDTRIP
360
28D
  0
DICTIONARY
  5
2AC
330
40
100
AcDbDictionary
280
     1
281
     1
  3
ACAD_XREC_ROUNDTRIP
360
2AD
  0
XRECORD
  5
2B5
102
{ACAD_REACTORS
330
2B4
102
}
330
2B4
100
AcDbXrecord
280
     1
102
MATERIAL
148
0.0
149
0.0
149
0.0
 93
        0
 94
      127
282
     0
 72
     1
 77
     1
171
     1
175
     1
179
     1
273
     0
  0
XRECORD
  5
2B3
102
{ACAD_REACTORS
330
2B2
102
}
330
2B2
100
AcDbXrecord
280
     1
102
MATERIAL
148
0.0
149
0.0
149
0.0
 93
        0
 94
      127
282
     0
 72
     1
 77
     1
171
     1
175
     1
179
     1
273
     0
  0
XRECORD
  5
2B7
102
{ACAD_REACTORS
330
2B6
102
}
330
2B6
100
AcDbXrecord
280
     1
102
MATERIAL
148
0.0
149
0.0
149
0.0
 93
        0
 94
      127
282
     0
 72
     1
 77
     1
171
     1
175
     1
179
     1
273
     0
  0
XRECORD
  5
2BA
102
{ACAD_REACTORS
330
2B9
102
}
330
2B9
100
AcDbXrecord
280
     1
102
ACAD_ROUNDTRIP_2010_MLEADER_STYLE
  0
XRECORD
  5
28B
102
{ACAD_REACTORS
330
28A
102
}
330
28A
100
AcDbXrecord
280
     1
102
RTVSPropertyOp0
 70
     1
102
RTVSPropertyOp1
 70
     1
102
RTVSPropertyOp2
 70
     1
102
RTVSPropertyOp3
 70
     1
102
RTVSPropertyOp4
 70
     1
102
RTVSPropertyOp5
 70
     1
102
RTVSPropertyOp6
 70
     1
102
RTVSPropertyOp7
 70
     1
102
RTVSPropertyOp8
 70
     1
102
RTVSPropertyOp9
 70
     1
102
RTVSPropertyOp10
 70
     1
102
RTVSPropertyOp11
 70
     1
102
RTVSPropertyOp12
 70
     1
102
RTVSPropertyOp13
 70
     1
102
RTVSPropertyOp14
 70
     1
102
RTVSPropertyOp15
 70
     1
102
RTVSPropertyOp16
 70
     1
102
RTVSPropertyOp17
 70
     1
102
RTVSPropertyOp18
 70
     1
102
RTVSPropertyOp19
 70
     1
102
RTVSPropertyOp20
 70
     1
102
RTVSPropertyOp21
 70
     1
102
RTVSPropertyOp22
 70
     1
102
RTVSPropertyOp23
 70
     1
102
RTVSPropertyOp24
 70
     1
102
RTVSPropertyOp25
 70
     1
102
RTVSPropertyOp26
 70
     1
102
RTVSPropertyOp27
 70
     1
102
RTVSPropertyOp28
 70
     1
102
RTVSPropertyOp29
 70
     1
102
RTVSPropertyOp30
 70
     1
102
RTVSPropertyOp31
 70
     1
102
RTVSPropertyOp32
 70
     1
102
RTVSPropertyOp33
 70
     1
102
RTVSPropertyOp34
 70
     1
102
RTVSPropertyOp35
 70
     1
102
RTVSPropertyOp36
 70
     1
102
RTVSPropertyOp37
 70
     1
102
RTVSPropertyOp38
 70
     1
102
RTVSPropertyOp39
 70
     1
102
RTVSPropertyOp40
 70
     1
102
RTVSPropertyOp41
 70
     1
102
RTVSPropertyOp42
 70
     1
102
RTVSPropertyOp43
 70
     1
102
RTVSPropertyOp44
 70
     1
102
RTVSPropertyOp45
 70
     1
102
RTVSPropertyOp46
 70
     1
102
RTVSPropertyOp47
 70
     1
102
RTVSPropertyOp48
 70
     1
102
RTVSPropertyOp49
 70
     1
102
RTVSPropertyOp50
 70
     1
102
RTVSPropertyOp51
 70
     0
102
RTVSPropertyOp52
 70
     0
102
RTVSPropertyOp53
 70
     1
102
RTVSPropertyOp54
 70
     1
102
RTVSPropertyOp55
 70
     1
102
RTVSPropertyOp56
 70
     1
102
RTVSPropertyOp57
 70
     1
102
RTVSPost2010Prop28
280
     1
102
RTVSPost2010PropOp28
 70
     1
102
RTVSPost2010Prop29
280
     1
102
RTVSPost2010PropOp29
 70
     1
102
RTVSPost2010Prop30
280
     0
102
RTVSPost2010PropOp30
 70
     1
102
RTVSPost2010Prop31
280
     0
102
RTVSPost2010PropOp31
 70
     1
102
RTVSPost2010Prop32
280
     0
102
RTVSPost2010PropOp32
 70
     1
102
RTVSPost2010Prop33
280
     0
102
RTVSPost2010PropOp33
 70
     1
102
RTVSPost2010Prop34
280
     0
102
RTVSPost2010PropOp34
 70
     1
102
RTVSPost2010Prop35
280
     0
102
RTVSPost2010PropOp35
 70
     1
102
RTVSPost2010Prop36
280
     0
102
RTVSPost2010PropOp36
 70
     1
102
RTVSPost2010Prop37
 90
       50
102
RTVSPost2010PropOp37
 70
     1
102
RTVSPost2010Prop38
140
0.0
102
RTVSPost2010PropOp38
 70
     1
102
RTVSPost2010Prop39
140
1.0
102
RTVSPost2010PropOp39
 70
     1
102
RTVSPost2010Prop40
 90
        0
102
RTVSPost2010PropOp40
 70
     1
102
RTVSPost2010Prop41ColorIndex
 90
       18
102
RTVSPost2010Prop41ColorRGB
 90
        0
102
RTVSPost2010PropOp41
 70
     1
102
RTVSPost2010Prop42
 90
       50
102
RTVSPost2010PropOp42
 70
     1
102
RTVSPost2010Prop43
 90
        3
102
RTVSPost2010PropOp43
 70
     1
102
RTVSPost2010Prop44ColorIndex
 90
        5
102
RTVSPost2010Prop44ColorRGB
 90
      255
102
RTVSPost2010PropOp44
 70
     1
102
RTVSPost2010Prop45
280
     0
102
RTVSPost2010PropOp45
 70
     1
102
RTVSPost2010Prop46
 90
       50
102
RTVSPost2010PropOp46
 70
     1
102
RTVSPost2010Prop47
 90
       50
102
RTVSPost2010PropOp47
 70
     1
102
RTVSPost2010Prop48
 90
       50
102
RTVSPost2010PropOp48
 70
     1
102
RTVSPost2010Prop49
280
     0
102
RTVSPost2010PropOp49
 70
     1
102
RTVSPost2010Prop50
 90
       50
102
RTVSPost2010PropOp50
 70
     1
102
RTVSPost2010Prop51ColorIndex
 90
      256
102
RTVSPost2010Prop51ColorRGB
 90
-16777216
102
RTVSPost2010PropOp51
 70
     0
102
RTVSPost2010Prop52
140
1.0
102
RTVSPost2010PropOp52
 70
     0
102
RTVSPost2010Prop53
 90
        2
102
RTVSPost2010PropOp53
 70
     1
102
RTVSPost2010Prop54
  1
strokes_ogs.tif
102
RTVSPost2010PropOp54
 70
     1
102
RTVSPost2010Prop55
280
     0
102
RTVSPost2010PropOp55
 70
     1
102
RTVSPost2010Prop56
140
1.0
102
RTVSPost2010PropOp56
 70
     1
102
RTVSPost2010Prop57
140
1.0
102
RTVSPost2010PropOp57
 70
     1
  0
XRECORD
  5
291
102
{ACAD_REACTORS
330
290
102
}
330
290
100
AcDbXrecord
280
     1
102
RTVSPropertyOp0
 70
     1
102
RTVSPropertyOp1
 70
     1
102
RTVSPropertyOp2
 70
     1
102
RTVSPropertyOp3
 70
     1
102
RTVSPropertyOp4
 70
     1
102
RTVSPropertyOp5
 70
     1
102
RTVSPropertyOp6
 70
     1
102
RTVSPropertyOp7
 70
     1
102
RTVSPropertyOp8
 70
     1
102
RTVSPropertyOp9
 70
     1
102
RTVSPropertyOp10
 70
     1
102
RTVSPropertyOp11
 70
     1
102
RTVSPropertyOp12
 70
     1
102
RTVSPropertyOp13
 70
     1
102
RTVSPropertyOp14
 70
     1
102
RTVSPropertyOp15
 70
     1
102
RTVSPropertyOp16
 70
     1
102
RTVSPropertyOp17
 70
     1
102
RTVSPropertyOp18
 70
     1
102
RTVSPropertyOp19
 70
     1
102
RTVSPropertyOp20
 70
     1
102
RTVSPropertyOp21
 70
     1
102
RTVSPropertyOp22
 70
     1
102
RTVSPropertyOp23
 70
     1
102
RTVSPropertyOp24
 70
     1
102
RTVSPropertyOp25
 70
     1
102
RTVSPropertyOp26
 70
     1
102
RTVSPropertyOp27
 70
     1
102
RTVSPropertyOp28
 70
     1
102
RTVSPropertyOp29
 70
     1
102
RTVSPropertyOp30
 70
     1
102
RTVSPropertyOp31
 70
     1
102
RTVSPropertyOp32
 70
     1
102
RTVSPropertyOp33
 70
     1
102
RTVSPropertyOp34
 70
     1
102
RTVSPropertyOp35
 70
     1
102
RTVSPropertyOp36
 70
     1
102
RTVSPropertyOp37
 70
     1
102
RTVSPropertyOp38
 70
     1
102
RTVSPropertyOp39
 70
     1
102
RTVSPropertyOp40
 70
     1
102
RTVSPropertyOp41
 70
     1
102
RTVSPropertyOp42
 70
     1
102
RTVSPropertyOp43
 70
     1
102
RTVSPropertyOp44
 70
     1
102
RTVSPropertyOp45
 70
     1
102
RTVSPropertyOp46
 70
     1
102
RTVSPropertyOp47
 70
     1
102
RTVSPropertyOp48
 70
     1
102
RTVSPropertyOp49
 70
     1
102
RTVSPropertyOp50
 70
     1
102
RTVSPropertyOp51
 70
     0
102
RTVSPropertyOp52
 70
     0
102
RTVSPropertyOp53
 70
     1
102
RTVSPropertyOp54
 70
     1
102
RTVSPropertyOp55
 70
     1
102
RTVSPropertyOp56
 70
     1
102
RTVSPropertyOp57
 70
     1
102
RTVSPost2010Prop28
280
     0
102
RTVSPost2010PropOp28
 70
     1
102
RTVSPost2010Prop29
280
     1
102
RTVSPost2010PropOp29
 70
     1
102
RTVSPost2010Prop30
280
     1
102
RTVSPost2010PropOp30
 70
     1
102
RTVSPost2010Prop31
280
     0
102
RTVSPost2010PropOp31
 70
     1
102
RTVSPost2010Prop32
280
     0
102
RTVSPost2010PropOp32
 70
     1
102
RTVSPost2010Prop33
280
     0
102
RTVSPost2010PropOp33
 70
     1
102
RTVSPost2010Prop34
280
     0
102
RTVSPost2010PropOp34
 70
     1
102
RTVSPost2010Prop35
280
     0
102
RTVSPost2010PropOp35
 70
     1
102
RTVSPost2010Prop36
280
     0
102
RTVSPost2010PropOp36
 70
     1
102
RTVSPost2010Prop37
 90
       50
102
RTVSPost2010PropOp37
 70
     1
102
RTVSPost2010Prop38
140
0.0
102
RTVSPost2010PropOp38
 70
     1
102
RTVSPost2010Prop39
140
1.0
102
RTVSPost2010PropOp39
 70
     1
102
RTVSPost2010Prop40
 90
        0
102
RTVSPost2010PropOp40
 70
     1
102
RTVSPost2010Prop41ColorIndex
 90
       18
102
RTVSPost2010Prop41ColorRGB
 90
        0
102
RTVSPost2010PropOp41
 70
     1
102
RTVSPost2010Prop42
 90
       50
102
RTVSPost2010PropOp42
 70
     1
102
RTVSPost2010Prop43
 90
        3
102
RTVSPost2010PropOp43
 70
     1
102
RTVSPost2010Prop44ColorIndex
 90
        5
102
RTVSPost2010Prop44ColorRGB
 90
      255
102
RTVSPost2010PropOp44
 70
     1
102
RTVSPost2010Prop45
280
     0
102
RTVSPost2010PropOp45
 70
     1
102
RTVSPost2010Prop46
 90
       50
102
RTVSPost2010PropOp46
 70
     1
102
RTVSPost2010Prop47
 90
       50
102
RTVSPost2010PropOp47
 70
     1
102
RTVSPost2010Prop48
 90
       50
102
RTVSPost2010PropOp48
 70
     1
102
RTVSPost2010Prop49
280
     0
102
RTVSPost2010PropOp49
 70
     1
102
RTVSPost2010Prop50
 90
       50
102
RTVSPost2010PropOp50
 70
     1
102
RTVSPost2010Prop51ColorIndex
 90
      256
102
RTVSPost2010Prop51ColorRGB
 90
-16777216
102
RTVSPost2010PropOp51
 70
     0
102
RTVSPost2010Prop52
140
1.0
102
RTVSPost2010PropOp52
 70
     0
102
RTVSPost2010Prop53
 90
        2
102
RTVSPost2010PropOp53
 70
     1
102
RTVSPost2010Prop54
  1
strokes_ogs.tif
102
RTVSPost2010PropOp54
 70
     1
102
RTVSPost2010Prop55
280
     0
102
RTVSPost2010PropOp55
 70
     1
102
RTVSPost2010Prop56
140
1.0
102
RTVSPost2010PropOp56
 70
     1
102
RTVSPost2010Prop57
140
1.0
102
RTVSPost2010PropOp57
 70
     1
  0
XRECORD
  5
299
102
{ACAD_REACTORS
330
298
102
}
330
298
100
AcDbXrecord
280
     1
102
RTVSPropertyOp0
 70
     1
102
RTVSPropertyOp1
 70
     1
102
RTVSPropertyOp2
 70
     1
102
RTVSPropertyOp3
 70
     1
102
RTVSPropertyOp4
 70
     1
102
RTVSPropertyOp5
 70
     1
102
RTVSPropertyOp6
 70
     1
102
RTVSPropertyOp7
 70
     1
102
RTVSPropertyOp8
 70
     1
102
RTVSPropertyOp9
 70
     1
102
RTVSPropertyOp10
 70
     1
102
RTVSPropertyOp11
 70
     1
102
RTVSPropertyOp12
 70
     1
102
RTVSPropertyOp13
 70
     1
102
RTVSPropertyOp14
 70
     1
102
RTVSPropertyOp15
 70
     1
102
RTVSPropertyOp16
 70
     1
102
RTVSPropertyOp17
 70
     1
102
RTVSPropertyOp18
 70
     1
102
RTVSPropertyOp19
 70
     1
102
RTVSPropertyOp20
 70
     1
102
RTVSPropertyOp21
 70
     1
102
RTVSPropertyOp22
 70
     1
102
RTVSPropertyOp23
 70
     1
102
RTVSPropertyOp24
 70
     1
102
RTVSPropertyOp25
 70
     1
102
RTVSPropertyOp26
 70
     1
102
RTVSPropertyOp27
 70
     1
102
RTVSPropertyOp28
 70
     1
102
RTVSPropertyOp29
 70
     1
102
RTVSPropertyOp30
 70
     1
102
RTVSPropertyOp31
 70
     1
102
RTVSPropertyOp32
 70
     1
102
RTVSPropertyOp33
 70
     1
102
RTVSPropertyOp34
 70
     1
102
RTVSPropertyOp35
 70
     1
102
RTVSPropertyOp36
 70
     1
102
RTVSPropertyOp37
 70
     1
102
RTVSPropertyOp38
 70
     1
102
RTVSPropertyOp39
 70
     1
102
RTVSPropertyOp40
 70
     1
102
RTVSPropertyOp41
 70
     1
102
RTVSPropertyOp42
 70
     1
102
RTVSPropertyOp43
 70
     1
102
RTVSPropertyOp44
 70
     1
102
RTVSPropertyOp45
 70
     1
102
RTVSPropertyOp46
 70
     1
102
RTVSPropertyOp47
 70
     1
102
RTVSPropertyOp48
 70
     1
102
RTVSPropertyOp49
 70
     1
102
RTVSPropertyOp50
 70
     1
102
RTVSPropertyOp51
 70
     0
102
RTVSPropertyOp52
 70
     0
102
RTVSPropertyOp53
 70
     1
102
RTVSPropertyOp54
 70
     1
102
RTVSPropertyOp55
 70
     1
102
RTVSPropertyOp56
 70
     1
102
RTVSPropertyOp57
 70
     1
102
RTVSPost2010Prop28
280
     0
102
RTVSPost2010PropOp28
 70
     1
102
RTVSPost2010Prop29
280
     1
102
RTVSPost2010PropOp29
 70
     1
102
RTVSPost2010Prop30
280
     1
102
RTVSPost2010PropOp30
 70
     1
102
RTVSPost2010Prop31
280
     0
102
RTVSPost2010PropOp31
 70
     1
102
RTVSPost2010Prop32
280
     0
102
RTVSPost2010PropOp32
 70
     1
102
RTVSPost2010Prop33
280
     0
102
RTVSPost2010PropOp33
 70
     1
102
RTVSPost2010Prop34
280
     0
102
RTVSPost2010PropOp34
 70
     1
102
RTVSPost2010Prop35
280
     0
102
RTVSPost2010PropOp35
 70
     1
102
RTVSPost2010Prop36
280
     0
102
RTVSPost2010PropOp36
 70
     1
102
RTVSPost2010Prop37
 90
       50
102
RTVSPost2010PropOp37
 70
     1
102
RTVSPost2010Prop38
140
0.0
102
RTVSPost2010PropOp38
 70
     1
102
RTVSPost2010Prop39
140
1.0
102
RTVSPost2010PropOp39
 70
     1
102
RTVSPost2010Prop40
 90
        0
102
RTVSPost2010PropOp40
 70
     1
102
RTVSPost2010Prop41ColorIndex
 90
       18
102
RTVSPost2010Prop41ColorRGB
 90
        0
102
RTVSPost2010PropOp41
 70
     1
102
RTVSPost2010Prop42
 90
       50
102
RTVSPost2010PropOp42
 70
     1
102
RTVSPost2010Prop43
 90
        3
102
RTVSPost2010PropOp43
 70
     1
102
RTVSPost2010Prop44ColorIndex
 90
        5
102
RTVSPost2010Prop44ColorRGB
 90
      255
102
RTVSPost2010PropOp44
 70
     1
102
RTVSPost2010Prop45
280
     0
102
RTVSPost2010PropOp45
 70
     1
102
RTVSPost2010Prop46
 90
       50
102
RTVSPost2010PropOp46
 70
     1
102
RTVSPost2010Prop47
 90
       50
102
RTVSPost2010PropOp47
 70
     1
102
RTVSPost2010Prop48
 90
       50
102
RTVSPost2010PropOp48
 70
     1
102
RTVSPost2010Prop49
280
     0
102
RTVSPost2010PropOp49
 70
     1
102
RTVSPost2010Prop50
 90
       50
102
RTVSPost2010PropOp50
 70
     1
102
RTVSPost2010Prop51ColorIndex
 90
      256
102
RTVSPost2010Prop51ColorRGB
 90
-16777216
102
RTVSPost2010PropOp51
 70
     0
102
RTVSPost2010Prop52
140
1.0
102
RTVSPost2010PropOp52
 70
     0
102
RTVSPost2010Prop53
 90
        2
102
RTVSPost2010PropOp53
 70
     1
102
RTVSPost2010Prop54
  1
strokes_ogs.tif
102
RTVSPost2010PropOp54
 70
     1
102
RTVSPost2010Prop55
280
     0
102
RTVSPost2010PropOp55
 70
     1
102
RTVSPost2010Prop56
140
1.0
102
RTVSPost2010PropOp56
 70
     1
102
RTVSPost2010Prop57
140
1.0
102
RTVSPost2010PropOp57
 70
     1
  0
XRECORD
  5
2A1
102
{ACAD_REACTORS
330
2A0
102
}
330
2A0
100
AcDbXrecord
280
     1
102
RTVSPropertyOp0
 70
     1
102
RTVSPropertyOp1
 70
     1
102
RTVSPropertyOp2
 70
     1
102
RTVSPropertyOp3
 70
     1
102
RTVSPropertyOp4
 70
     1
102
RTVSPropertyOp5
 70
     1
102
RTVSPropertyOp6
 70
     1
102
RTVSPropertyOp7
 70
     1
102
RTVSPropertyOp8
 70
     1
102
RTVSPropertyOp9
 70
     1
102
RTVSPropertyOp10
 70
     1
102
RTVSPropertyOp11
 70
     1
102
RTVSPropertyOp12
 70
     1
102
RTVSPropertyOp13
 70
     1
102
RTVSPropertyOp14
 70
     1
102
RTVSPropertyOp15
 70
     1
102
RTVSPropertyOp16
 70
     1
102
RTVSPropertyOp17
 70
     1
102
RTVSPropertyOp18
 70
     1
102
RTVSPropertyOp19
 70
     1
102
RTVSPropertyOp20
 70
     1
102
RTVSPropertyOp21
 70
     1
102
RTVSPropertyOp22
 70
     1
102
RTVSPropertyOp23
 70
     1
102
RTVSPropertyOp24
 70
     1
102
RTVSPropertyOp25
 70
     1
102
RTVSPropertyOp26
 70
     1
102
RTVSPropertyOp27
 70
     1
102
RTVSPropertyOp28
 70
     1
102
RTVSPropertyOp29
 70
     1
102
RTVSPropertyOp30
 70
     1
102
RTVSPropertyOp31
 70
     1
102
RTVSPropertyOp32
 70
     1
102
RTVSPropertyOp33
 70
     1
102
RTVSPropertyOp34
 70
     1
102
RTVSPropertyOp35
 70
     1
102
RTVSPropertyOp36
 70
     1
102
RTVSPropertyOp37
 70
     1
102
RTVSPropertyOp38
 70
     1
102
RTVSPropertyOp39
 70
     1
102
RTVSPropertyOp40
 70
     1
102
RTVSPropertyOp41
 70
     1
102
RTVSPropertyOp42
 70
     1
102
RTVSPropertyOp43
 70
     1
102
RTVSPropertyOp44
 70
     1
102
RTVSPropertyOp45
 70
     1
102
RTVSPropertyOp46
 70
     1
102
RTVSPropertyOp47
 70
     1
102
RTVSPropertyOp48
 70
     1
102
RTVSPropertyOp49
 70
     1
102
RTVSPropertyOp50
 70
     1
102
RTVSPropertyOp51
 70
     0
102
RTVSPropertyOp52
 70
     0
102
RTVSPropertyOp53
 70
     1
102
RTVSPropertyOp54
 70
     1
102
RTVSPropertyOp55
 70
     1
102
RTVSPropertyOp56
 70
     1
102
RTVSPropertyOp57
 70
     1
102
RTVSPost2010Prop28
280
     0
102
RTVSPost2010PropOp28
 70
     1
102
RTVSPost2010Prop29
280
     1
102
RTVSPost2010PropOp29
 70
     1
102
RTVSPost2010Prop30
280
     1
102
RTVSPost2010PropOp30
 70
     1
102
RTVSPost2010Prop31
280
     0
102
RTVSPost2010PropOp31
 70
     1
102
RTVSPost2010Prop32
280
     0
102
RTVSPost2010PropOp32
 70
     1
102
RTVSPost2010Prop33
280
     0
102
RTVSPost2010PropOp33
 70
     1
102
RTVSPost2010Prop34
280
     0
102
RTVSPost2010PropOp34
 70
     1
102
RTVSPost2010Prop35
280
     0
102
RTVSPost2010PropOp35
 70
     1
102
RTVSPost2010Prop36
280
     0
102
RTVSPost2010PropOp36
 70
     1
102
RTVSPost2010Prop37
 90
       50
102
RTVSPost2010PropOp37
 70
     1
102
RTVSPost2010Prop38
140
0.0
102
RTVSPost2010PropOp38
 70
     1
102
RTVSPost2010Prop39
140
1.0
102
RTVSPost2010PropOp39
 70
     1
102
RTVSPost2010Prop40
 90
        0
102
RTVSPost2010PropOp40
 70
     1
102
RTVSPost2010Prop41ColorIndex
 90
       18
102
RTVSPost2010Prop41ColorRGB
 90
        0
102
RTVSPost2010PropOp41
 70
     1
102
RTVSPost2010Prop42
 90
       50
102
RTVSPost2010PropOp42
 70
     1
102
RTVSPost2010Prop43
 90
        3
102
RTVSPost2010PropOp43
 70
     1
102
RTVSPost2010Prop44ColorIndex
 90
        5
102
RTVSPost2010Prop44ColorRGB
 90
      255
102
RTVSPost2010PropOp44
 70
     1
102
RTVSPost2010Prop45
280
     0
102
RTVSPost2010PropOp45
 70
     1
102
RTVSPost2010Prop46
 90
       50
102
RTVSPost2010PropOp46
 70
     1
102
RTVSPost2010Prop47
 90
       50
102
RTVSPost2010PropOp47
 70
     1
102
RTVSPost2010Prop48
 90
       50
102
RTVSPost2010PropOp48
 70
     1
102
RTVSPost2010Prop49
280
     0
102
RTVSPost2010PropOp49
 70
     1
102
RTVSPost2010Prop50
 90
       50
102
RTVSPost2010PropOp50
 70
     1
102
RTVSPost2010Prop51ColorIndex
 90
      256
102
RTVSPost2010Prop51ColorRGB
 90
-16777216
102
RTVSPost2010PropOp51
 70
     0
102
RTVSPost2010Prop52
140
1.0
102
RTVSPost2010PropOp52
 70
     0
102
RTVSPost2010Prop53
 90
        2
102
RTVSPost2010PropOp53
 70
     1
102
RTVSPost2010Prop54
  1
strokes_ogs.tif
102
RTVSPost2010PropOp54
 70
     1
102
RTVSPost2010Prop55
280
     0
102
RTVSPost2010PropOp55
 70
     1
102
RTVSPost2010Prop56
140
1.0
102
RTVSPost2010PropOp56
 70
     1
102
RTVSPost2010Prop57
140
1.0
102
RTVSPost2010PropOp57
 70
     1
  0
XRECORD
  5
295
102
{ACAD_REACTORS
330
294
102
}
330
294
100
AcDbXrecord
280
     1
102
RTVSPropertyOp0
 70
     1
102
RTVSPropertyOp1
 70
     1
102
RTVSPropertyOp2
 70
     1
102
RTVSPropertyOp3
 70
     1
102
RTVSPropertyOp4
 70
     1
102
RTVSPropertyOp5
 70
     1
102
RTVSPropertyOp6
 70
     1
102
RTVSPropertyOp7
 70
     1
102
RTVSPropertyOp8
 70
     1
102
RTVSPropertyOp9
 70
     1
102
RTVSPropertyOp10
 70
     1
102
RTVSPropertyOp11
 70
     1
102
RTVSPropertyOp12
 70
     1
102
RTVSPropertyOp13
 70
     1
102
RTVSPropertyOp14
 70
     1
102
RTVSPropertyOp15
 70
     1
102
RTVSPropertyOp16
 70
     1
102
RTVSPropertyOp17
 70
     1
102
RTVSPropertyOp18
 70
     1
102
RTVSPropertyOp19
 70
     1
102
RTVSPropertyOp20
 70
     1
102
RTVSPropertyOp21
 70
     1
102
RTVSPropertyOp22
 70
     1
102
RTVSPropertyOp23
 70
     1
102
RTVSPropertyOp24
 70
     1
102
RTVSPropertyOp25
 70
     1
102
RTVSPropertyOp26
 70
     1
102
RTVSPropertyOp27
 70
     1
102
RTVSPropertyOp28
 70
     1
102
RTVSPropertyOp29
 70
     1
102
RTVSPropertyOp30
 70
     1
102
RTVSPropertyOp31
 70
     1
102
RTVSPropertyOp32
 70
     1
102
RTVSPropertyOp33
 70
     1
102
RTVSPropertyOp34
 70
     1
102
RTVSPropertyOp35
 70
     1
102
RTVSPropertyOp36
 70
     1
102
RTVSPropertyOp37
 70
     1
102
RTVSPropertyOp38
 70
     1
102
RTVSPropertyOp39
 70
     1
102
RTVSPropertyOp40
 70
     1
102
RTVSPropertyOp41
 70
     1
102
RTVSPropertyOp42
 70
     1
102
RTVSPropertyOp43
 70
     1
102
RTVSPropertyOp44
 70
     1
102
RTVSPropertyOp45
 70
     1
102
RTVSPropertyOp46
 70
     1
102
RTVSPropertyOp47
 70
     1
102
RTVSPropertyOp48
 70
     1
102
RTVSPropertyOp49
 70
     1
102
RTVSPropertyOp50
 70
     1
102
RTVSPropertyOp51
 70
     0
102
RTVSPropertyOp52
 70
     0
102
RTVSPropertyOp53
 70
     1
102
RTVSPropertyOp54
 70
     1
102
RTVSPropertyOp55
 70
     1
102
RTVSPropertyOp56
 70
     1
102
RTVSPropertyOp57
 70
     1
102
RTVSPost2010Prop28
280
     0
102
RTVSPost2010PropOp28
 70
     1
102
RTVSPost2010Prop29
280
     1
102
RTVSPost2010PropOp29
 70
     1
102
RTVSPost2010Prop30
280
     1
102
RTVSPost2010PropOp30
 70
     1
102
RTVSPost2010Prop31
280
     0
102
RTVSPost2010PropOp31
 70
     1
102
RTVSPost2010Prop32
280
     0
102
RTVSPost2010PropOp32
 70
     1
102
RTVSPost2010Prop33
280
     0
102
RTVSPost2010PropOp33
 70
     1
102
RTVSPost2010Prop34
280
     0
102
RTVSPost2010PropOp34
 70
     1
102
RTVSPost2010Prop35
280
     0
102
RTVSPost2010PropOp35
 70
     1
102
RTVSPost2010Prop36
280
     0
102
RTVSPost2010PropOp36
 70
     1
102
RTVSPost2010Prop37
 90
       50
102
RTVSPost2010PropOp37
 70
     1
102
RTVSPost2010Prop38
140
0.0
102
RTVSPost2010PropOp38
 70
     1
102
RTVSPost2010Prop39
140
1.0
102
RTVSPost2010PropOp39
 70
     1
102
RTVSPost2010Prop40
 90
        0
102
RTVSPost2010PropOp40
 70
     1
102
RTVSPost2010Prop41ColorIndex
 90
       18
102
RTVSPost2010Prop41ColorRGB
 90
        0
102
RTVSPost2010PropOp41
 70
     1
102
RTVSPost2010Prop42
 90
       50
102
RTVSPost2010PropOp42
 70
     1
102
RTVSPost2010Prop43
 90
        3
102
RTVSPost2010PropOp43
 70
     1
102
RTVSPost2010Prop44ColorIndex
 90
        5
102
RTVSPost2010Prop44ColorRGB
 90
      255
102
RTVSPost2010PropOp44
 70
     1
102
RTVSPost2010Prop45
280
     0
102
RTVSPost2010PropOp45
 70
     1
102
RTVSPost2010Prop46
 90
       50
102
RTVSPost2010PropOp46
 70
     1
102
RTVSPost2010Prop47
 90
       50
102
RTVSPost2010PropOp47
 70
     1
102
RTVSPost2010Prop48
 90
       50
102
RTVSPost2010PropOp48
 70
     1
102
RTVSPost2010Prop49
280
     0
102
RTVSPost2010PropOp49
 70
     1
102
RTVSPost2010Prop50
 90
       50
102
RTVSPost2010PropOp50
 70
     1
102
RTVSPost2010Prop51ColorIndex
 90
      256
102
RTVSPost2010Prop51ColorRGB
 90
-16777216
102
RTVSPost2010PropOp51
 70
     0
102
RTVSPost2010Prop52
140
1.0
102
RTVSPost2010PropOp52
 70
     0
102
RTVSPost2010Prop53
 90
        2
102
RTVSPost2010PropOp53
 70
     1
102
RTVSPost2010Prop54
  1
strokes_ogs.tif
102
RTVSPost2010PropOp54
 70
     1
102
RTVSPost2010Prop55
280
     0
102
RTVSPost2010PropOp55
 70
     1
102
RTVSPost2010Prop56
140
1.0
102
RTVSPost2010PropOp56
 70
     1
102
RTVSPost2010Prop57
140
1.0
102
RTVSPost2010PropOp57
 70
     1
  0
XRECORD
  5
297
102
{ACAD_REACTORS
330
296
102
}
330
296
100
AcDbXrecord
280
     1
102
RTVSPropertyOp0
 70
     1
102
RTVSPropertyOp1
 70
     1
102
RTVSPropertyOp2
 70
     1
102
RTVSPropertyOp3
 70
     1
102
RTVSPropertyOp4
 70
     1
102
RTVSPropertyOp5
 70
     1
102
RTVSPropertyOp6
 70
     1
102
RTVSPropertyOp7
 70
     1
102
RTVSPropertyOp8
 70
     1
102
RTVSPropertyOp9
 70
     1
102
RTVSPropertyOp10
 70
     1
102
RTVSPropertyOp11
 70
     1
102
RTVSPropertyOp12
 70
     1
102
RTVSPropertyOp13
 70
     1
102
RTVSPropertyOp14
 70
     1
102
RTVSPropertyOp15
 70
     1
102
RTVSPropertyOp16
 70
     1
102
RTVSPropertyOp17
 70
     1
102
RTVSPropertyOp18
 70
     1
102
RTVSPropertyOp19
 70
     1
102
RTVSPropertyOp20
 70
     1
102
RTVSPropertyOp21
 70
     1
102
RTVSPropertyOp22
 70
     1
102
RTVSPropertyOp23
 70
     1
102
RTVSPropertyOp24
 70
     1
102
RTVSPropertyOp25
 70
     1
102
RTVSPropertyOp26
 70
     1
102
RTVSPropertyOp27
 70
     1
102
RTVSPropertyOp28
 70
     1
102
RTVSPropertyOp29
 70
     1
102
RTVSPropertyOp30
 70
     1
102
RTVSPropertyOp31
 70
     1
102
RTVSPropertyOp32
 70
     1
102
RTVSPropertyOp33
 70
     1
102
RTVSPropertyOp34
 70
     1
102
RTVSPropertyOp35
 70
     1
102
RTVSPropertyOp36
 70
     1
102
RTVSPropertyOp37
 70
     1
102
RTVSPropertyOp38
 70
     1
102
RTVSPropertyOp39
 70
     1
102
RTVSPropertyOp40
 70
     1
102
RTVSPropertyOp41
 70
     1
102
RTVSPropertyOp42
 70
     1
102
RTVSPropertyOp43
 70
     1
102
RTVSPropertyOp44
 70
     1
102
RTVSPropertyOp45
 70
     1
102
RTVSPropertyOp46
 70
     1
102
RTVSPropertyOp47
 70
     1
102
RTVSPropertyOp48
 70
     1
102
RTVSPropertyOp49
 70
     1
102
RTVSPropertyOp50
 70
     1
102
RTVSPropertyOp51
 70
     0
102
RTVSPropertyOp52
 70
     0
102
RTVSPropertyOp53
 70
     1
102
RTVSPropertyOp54
 70
     1
102
RTVSPropertyOp55
 70
     1
102
RTVSPropertyOp56
 70
     1
102
RTVSPropertyOp57
 70
     1
102
RTVSPost2010Prop28
280
     0
102
RTVSPost2010PropOp28
 70
     1
102
RTVSPost2010Prop29
280
     1
102
RTVSPost2010PropOp29
 70
     1
102
RTVSPost2010Prop30
280
     1
102
RTVSPost2010PropOp30
 70
     1
102
RTVSPost2010Prop31
280
     0
102
RTVSPost2010PropOp31
 70
     1
102
RTVSPost2010Prop32
280
     0
102
RTVSPost2010PropOp32
 70
     1
102
RTVSPost2010Prop33
280
     0
102
RTVSPost2010PropOp33
 70
     1
102
RTVSPost2010Prop34
280
     0
102
RTVSPost2010PropOp34
 70
     1
102
RTVSPost2010Prop35
280
     0
102
RTVSPost2010PropOp35
 70
     1
102
RTVSPost2010Prop36
280
     0
102
RTVSPost2010PropOp36
 70
     1
102
RTVSPost2010Prop37
 90
       50
102
RTVSPost2010PropOp37
 70
     1
102
RTVSPost2010Prop38
140
0.0
102
RTVSPost2010PropOp38
 70
     1
102
RTVSPost2010Prop39
140
1.0
102
RTVSPost2010PropOp39
 70
     1
102
RTVSPost2010Prop40
 90
        0
102
RTVSPost2010PropOp40
 70
     1
102
RTVSPost2010Prop41ColorIndex
 90
       18
102
RTVSPost2010Prop41ColorRGB
 90
        0
102
RTVSPost2010PropOp41
 70
     1
102
RTVSPost2010Prop42
 90
       50
102
RTVSPost2010PropOp42
 70
     1
102
RTVSPost2010Prop43
 90
        3
102
RTVSPost2010PropOp43
 70
     1
102
RTVSPost2010Prop44ColorIndex
 90
        5
102
RTVSPost2010Prop44ColorRGB
 90
      255
102
RTVSPost2010PropOp44
 70
     1
102
RTVSPost2010Prop45
280
     0
102
RTVSPost2010PropOp45
 70
     1
102
RTVSPost2010Prop46
 90
       50
102
RTVSPost2010PropOp46
 70
     1
102
RTVSPost2010Prop47
 90
       50
102
RTVSPost2010PropOp47
 70
     1
102
RTVSPost2010Prop48
 90
       50
102
RTVSPost2010PropOp48
 70
     1
102
RTVSPost2010Prop49
280
     0
102
RTVSPost2010PropOp49
 70
     1
102
RTVSPost2010Prop50
 90
       50
102
RTVSPost2010PropOp50
 70
     1
102
RTVSPost2010Prop51ColorIndex
 90
      256
102
RTVSPost2010Prop51ColorRGB
 90
-16777216
102
RTVSPost2010PropOp51
 70
     0
102
RTVSPost2010Prop52
140
1.0
102
RTVSPost2010PropOp52
 70
     0
102
RTVSPost2010Prop53
 90
        2
102
RTVSPost2010PropOp53
 70
     1
102
RTVSPost2010Prop54
  1
strokes_ogs.tif
102
RTVSPost2010PropOp54
 70
     1
102
RTVSPost2010Prop55
280
     0
102
RTVSPost2010PropOp55
 70
     1
102
RTVSPost2010Prop56
140
1.0
102
RTVSPost2010PropOp56
 70
     1
102
RTVSPost2010Prop57
140
1.0
102
RTVSPost2010PropOp57
 70
     1
  0
XRECORD
  5
2A7
102
{ACAD_REACTORS
330
2A6
102
}
330
2A6
100
AcDbXrecord
280
     1
102
RTVSPropertyOp0
 70
     0
102
RTVSPropertyOp1
 70
     0
102
RTVSPropertyOp2
 70
     0
102
RTVSPropertyOp3
 70
     0
102
RTVSPropertyOp4
 70
     0
102
RTVSPropertyOp5
 70
     0
102
RTVSPropertyOp6
 70
     0
102
RTVSPropertyOp7
 70
     0
102
RTVSPropertyOp8
 70
     0
102
RTVSPropertyOp9
 70
     0
102
RTVSPropertyOp10
 70
     0
102
RTVSPropertyOp11
 70
     0
102
RTVSPropertyOp12
 70
     0
102
RTVSPropertyOp13
 70
     0
102
RTVSPropertyOp14
 70
     2
102
RTVSPropertyOp15
 70
     0
102
RTVSPropertyOp16
 70
     0
102
RTVSPropertyOp17
 70
     0
102
RTVSPropertyOp18
 70
     0
102
RTVSPropertyOp19
 70
     0
102
RTVSPropertyOp20
 70
     0
102
RTVSPropertyOp21
 70
     0
102
RTVSPropertyOp22
 70
     0
102
RTVSPropertyOp23
 70
     0
102
RTVSPropertyOp24
 70
     0
102
RTVSPropertyOp25
 70
     0
102
RTVSPropertyOp26
 70
     0
102
RTVSPropertyOp27
 70
     0
102
RTVSPropertyOp28
 70
     0
102
RTVSPropertyOp29
 70
     0
102
RTVSPropertyOp30
 70
     0
102
RTVSPropertyOp31
 70
     0
102
RTVSPropertyOp32
 70
     0
102
RTVSPropertyOp33
 70
     0
102
RTVSPropertyOp34
 70
     0
102
RTVSPropertyOp35
 70
     0
102
RTVSPropertyOp36
 70
     0
102
RTVSPropertyOp37
 70
     0
102
RTVSPropertyOp38
 70
     0
102
RTVSPropertyOp39
 70
     0
102
RTVSPropertyOp40
 70
     0
102
RTVSPropertyOp41
 70
     0
102
RTVSPropertyOp42
 70
     0
102
RTVSPropertyOp43
 70
     0
102
RTVSPropertyOp44
 70
     0
102
RTVSPropertyOp45
 70
     0
102
RTVSPropertyOp46
 70
     0
102
RTVSPropertyOp47
 70
     0
102
RTVSPropertyOp48
 70
     0
102
RTVSPropertyOp49
 70
     0
102
RTVSPropertyOp50
 70
     0
102
RTVSPropertyOp51
 70
     0
102
RTVSPropertyOp52
 70
     0
102
RTVSPropertyOp53
 70
     0
102
RTVSPropertyOp54
 70
     0
102
RTVSPropertyOp55
 70
     0
102
RTVSPropertyOp56
 70
     0
102
RTVSPropertyOp57
 70
     0
102
RTVSPost2010Prop28
280
     0
102
RTVSPost2010PropOp28
 70
     0
102
RTVSPost2010Prop29
280
     1
102
RTVSPost2010PropOp29
 70
     0
102
RTVSPost2010Prop30
280
     1
102
RTVSPost2010PropOp30
 70
     0
102
RTVSPost2010Prop31
280
     0
102
RTVSPost2010PropOp31
 70
     0
102
RTVSPost2010Prop32
280
     0
102
RTVSPost2010PropOp32
 70
     0
102
RTVSPost2010Prop33
280
     0
102
RTVSPost2010PropOp33
 70
     0
102
RTVSPost2010Prop34
280
     0
102
RTVSPost2010PropOp34
 70
     0
102
RTVSPost2010Prop35
280
     0
102
RTVSPost2010PropOp35
 70
     0
102
RTVSPost2010Prop36
280
     0
102
RTVSPost2010PropOp36
 70
     0
102
RTVSPost2010Prop37
 90
       50
102
RTVSPost2010PropOp37
 70
     0
102
RTVSPost2010Prop38
140
0.0
102
RTVSPost2010PropOp38
 70
     0
102
RTVSPost2010Prop39
140
1.0
102
RTVSPost2010PropOp39
 70
     0
102
RTVSPost2010Prop40
 90
        0
102
RTVSPost2010PropOp40
 70
     0
102
RTVSPost2010Prop41ColorIndex
 90
       18
102
RTVSPost2010Prop41ColorRGB
 90
        0
102
RTVSPost2010PropOp41
 70
     0
102
RTVSPost2010Prop42
 90
       50
102
RTVSPost2010PropOp42
 70
     0
102
RTVSPost2010Prop43
 90
        3
102
RTVSPost2010PropOp43
 70
     0
102
RTVSPost2010Prop44ColorIndex
 90
        5
102
RTVSPost2010Prop44ColorRGB
 90
      255
102
RTVSPost2010PropOp44
 70
     0
102
RTVSPost2010Prop45
280
     0
102
RTVSPost2010PropOp45
 70
     0
102
RTVSPost2010Prop46
 90
       50
102
RTVSPost2010PropOp46
 70
     0
102
RTVSPost2010Prop47
 90
       50
102
RTVSPost2010PropOp47
 70
     0
102
RTVSPost2010Prop48
 90
       50
102
RTVSPost2010PropOp48
 70
     0
102
RTVSPost2010Prop49
280
     0
102
RTVSPost2010PropOp49
 70
     0
102
RTVSPost2010Prop50
 90
       50
102
RTVSPost2010PropOp50
 70
     0
102
RTVSPost2010Prop51ColorIndex
 90
      256
102
RTVSPost2010Prop51ColorRGB
 90
-16777216
102
RTVSPost2010PropOp51
 70
     0
102
RTVSPost2010Prop52
140
1.0
102
RTVSPost2010PropOp52
 70
     0
102
RTVSPost2010Prop53
 90
        2
102
RTVSPost2010PropOp53
 70
     0
102
RTVSPost2010Prop54
  1
strokes_ogs.tif
102
RTVSPost2010PropOp54
 70
     0
102
RTVSPost2010Prop55
280
     0
102
RTVSPost2010PropOp55
 70
     0
102
RTVSPost2010Prop56
140
1.0
102
RTVSPost2010PropOp56
 70
     0
102
RTVSPost2010Prop57
140
1.0
102
RTVSPost2010PropOp57
 70
     0
  0
XRECORD
  5
29F
102
{ACAD_REACTORS
330
29E
102
}
330
29E
100
AcDbXrecord
280
     1
102
RTVSPropertyOp0
 70
     1
102
RTVSPropertyOp1
 70
     1
102
RTVSPropertyOp2
 70
     1
102
RTVSPropertyOp3
 70
     1
102
RTVSPropertyOp4
 70
     1
102
RTVSPropertyOp5
 70
     1
102
RTVSPropertyOp6
 70
     1
102
RTVSPropertyOp7
 70
     1
102
RTVSPropertyOp8
 70
     1
102
RTVSPropertyOp9
 70
     1
102
RTVSPropertyOp10
 70
     1
102
RTVSPropertyOp11
 70
     1
102
RTVSPropertyOp12
 70
     1
102
RTVSPropertyOp13
 70
     1
102
RTVSPropertyOp14
 70
     1
102
RTVSPropertyOp15
 70
     1
102
RTVSPropertyOp16
 70
     1
102
RTVSPropertyOp17
 70
     1
102
RTVSPropertyOp18
 70
     1
102
RTVSPropertyOp19
 70
     1
102
RTVSPropertyOp20
 70
     1
102
RTVSPropertyOp21
 70
     1
102
RTVSPropertyOp22
 70
     1
102
RTVSPropertyOp23
 70
     1
102
RTVSPropertyOp24
 70
     1
102
RTVSPropertyOp25
 70
     1
102
RTVSPropertyOp26
 70
     1
102
RTVSPropertyOp27
 70
     1
102
RTVSPropertyOp28
 70
     1
102
RTVSPropertyOp29
 70
     1
102
RTVSPropertyOp30
 70
     1
102
RTVSPropertyOp31
 70
     1
102
RTVSPropertyOp32
 70
     1
102
RTVSPropertyOp33
 70
     1
102
RTVSPropertyOp34
 70
     1
102
RTVSPropertyOp35
 70
     1
102
RTVSPropertyOp36
 70
     1
102
RTVSPropertyOp37
 70
     1
102
RTVSPropertyOp38
 70
     1
102
RTVSPropertyOp39
 70
     1
102
RTVSPropertyOp40
 70
     1
102
RTVSPropertyOp41
 70
     1
102
RTVSPropertyOp42
 70
     1
102
RTVSPropertyOp43
 70
     1
102
RTVSPropertyOp44
 70
     1
102
RTVSPropertyOp45
 70
     1
102
RTVSPropertyOp46
 70
     1
102
RTVSPropertyOp47
 70
     1
102
RTVSPropertyOp48
 70
     1
102
RTVSPropertyOp49
 70
     1
102
RTVSPropertyOp50
 70
     1
102
RTVSPropertyOp51
 70
     0
102
RTVSPropertyOp52
 70
     0
102
RTVSPropertyOp53
 70
     1
102
RTVSPropertyOp54
 70
     1
102
RTVSPropertyOp55
 70
     1
102
RTVSPropertyOp56
 70
     1
102
RTVSPropertyOp57
 70
     1
102
RTVSPost2010Prop28
280
     0
102
RTVSPost2010PropOp28
 70
     1
102
RTVSPost2010Prop29
280
     1
102
RTVSPost2010PropOp29
 70
     1
102
RTVSPost2010Prop30
280
     1
102
RTVSPost2010PropOp30
 70
     1
102
RTVSPost2010Prop31
280
     0
102
RTVSPost2010PropOp31
 70
     1
102
RTVSPost2010Prop32
280
     0
102
RTVSPost2010PropOp32
 70
     1
102
RTVSPost2010Prop33
280
     0
102
RTVSPost2010PropOp33
 70
     1
102
RTVSPost2010Prop34
280
     0
102
RTVSPost2010PropOp34
 70
     1
102
RTVSPost2010Prop35
280
     0
102
RTVSPost2010PropOp35
 70
     1
102
RTVSPost2010Prop36
280
     0
102
RTVSPost2010PropOp36
 70
     1
102
RTVSPost2010Prop37
 90
       50
102
RTVSPost2010PropOp37
 70
     1
102
RTVSPost2010Prop38
140
0.0
102
RTVSPost2010PropOp38
 70
     1
102
RTVSPost2010Prop39
140
1.0
102
RTVSPost2010PropOp39
 70
     1
102
RTVSPost2010Prop40
 90
        0
102
RTVSPost2010PropOp40
 70
     1
102
RTVSPost2010Prop41ColorIndex
 90
       18
102
RTVSPost2010Prop41ColorRGB
 90
        0
102
RTVSPost2010PropOp41
 70
     1
102
RTVSPost2010Prop42
 90
       50
102
RTVSPost2010PropOp42
 70
     1
102
RTVSPost2010Prop43
 90
        3
102
RTVSPost2010PropOp43
 70
     1
102
RTVSPost2010Prop44ColorIndex
 90
        5
102
RTVSPost2010Prop44ColorRGB
 90
      255
102
RTVSPost2010PropOp44
 70
     1
102
RTVSPost2010Prop45
280
     0
102
RTVSPost2010PropOp45
 70
     1
102
RTVSPost2010Prop46
 90
       50
102
RTVSPost2010PropOp46
 70
     1
102
RTVSPost2010Prop47
 90
       50
102
RTVSPost2010PropOp47
 70
     1
102
RTVSPost2010Prop48
 90
       50
102
RTVSPost2010PropOp48
 70
     1
102
RTVSPost2010Prop49
280
     0
102
RTVSPost2010PropOp49
 70
     1
102
RTVSPost2010Prop50
 90
       50
102
RTVSPost2010PropOp50
 70
     1
102
RTVSPost2010Prop51ColorIndex
 90
      256
102
RTVSPost2010Prop51ColorRGB
 90
-16777216
102
RTVSPost2010PropOp51
 70
     0
102
RTVSPost2010Prop52
140
1.0
102
RTVSPost2010PropOp52
 70
     0
102
RTVSPost2010Prop53
 90
        2
102
RTVSPost2010PropOp53
 70
     1
102
RTVSPost2010Prop54
  1
strokes_ogs.tif
102
RTVSPost2010PropOp54
 70
     1
102
RTVSPost2010Prop55
280
     0
102
RTVSPost2010PropOp55
 70
     1
102
RTVSPost2010Prop56
140
1.0
102
RTVSPost2010PropOp56
 70
     1
102
RTVSPost2010Prop57
140
1.0
102
RTVSPost2010PropOp57
 70
     1
  0
XRECORD
  5
283
102
{ACAD_REACTORS
330
282
102
}
330
282
100
AcDbXrecord
280
     1
102
RTVSPropertyOp0
 70
     1
102
RTVSPropertyOp1
 70
     1
102
RTVSPropertyOp2
 70
     1
102
RTVSPropertyOp3
 70
     1
102
RTVSPropertyOp4
 70
     1
102
RTVSPropertyOp5
 70
     1
102
RTVSPropertyOp6
 70
     1
102
RTVSPropertyOp7
 70
     1
102
RTVSPropertyOp8
 70
     1
102
RTVSPropertyOp9
 70
     1
102
RTVSPropertyOp10
 70
     1
102
RTVSPropertyOp11
 70
     1
102
RTVSPropertyOp12
 70
     1
102
RTVSPropertyOp13
 70
     1
102
RTVSPropertyOp14
 70
     1
102
RTVSPropertyOp15
 70
     1
102
RTVSPropertyOp16
 70
     1
102
RTVSPropertyOp17
 70
     1
102
RTVSPropertyOp18
 70
     1
102
RTVSPropertyOp19
 70
     1
102
RTVSPropertyOp20
 70
     1
102
RTVSPropertyOp21
 70
     1
102
RTVSPropertyOp22
 70
     1
102
RTVSPropertyOp23
 70
     1
102
RTVSPropertyOp24
 70
     1
102
RTVSPropertyOp25
 70
     1
102
RTVSPropertyOp26
 70
     1
102
RTVSPropertyOp27
 70
     1
102
RTVSPropertyOp28
 70
     1
102
RTVSPropertyOp29
 70
     1
102
RTVSPropertyOp30
 70
     1
102
RTVSPropertyOp31
 70
     1
102
RTVSPropertyOp32
 70
     1
102
RTVSPropertyOp33
 70
     1
102
RTVSPropertyOp34
 70
     1
102
RTVSPropertyOp35
 70
     1
102
RTVSPropertyOp36
 70
     1
102
RTVSPropertyOp37
 70
     1
102
RTVSPropertyOp38
 70
     1
102
RTVSPropertyOp39
 70
     1
102
RTVSPropertyOp40
 70
     1
102
RTVSPropertyOp41
 70
     1
102
RTVSPropertyOp42
 70
     1
102
RTVSPropertyOp43
 70
     1
102
RTVSPropertyOp44
 70
     1
102
RTVSPropertyOp45
 70
     1
102
RTVSPropertyOp46
 70
     1
102
RTVSPropertyOp47
 70
     1
102
RTVSPropertyOp48
 70
     1
102
RTVSPropertyOp49
 70
     1
102
RTVSPropertyOp50
 70
     1
102
RTVSPropertyOp51
 70
     0
102
RTVSPropertyOp52
 70
     0
102
RTVSPropertyOp53
 70
     1
102
RTVSPropertyOp54
 70
     1
102
RTVSPropertyOp55
 70
     1
102
RTVSPropertyOp56
 70
     1
102
RTVSPropertyOp57
 70
     1
102
RTVSPost2010Prop28
280
     0
102
RTVSPost2010PropOp28
 70
     1
102
RTVSPost2010Prop29
280
     1
102
RTVSPost2010PropOp29
 70
     1
102
RTVSPost2010Prop30
280
     1
102
RTVSPost2010PropOp30
 70
     1
102
RTVSPost2010Prop31
280
     0
102
RTVSPost2010PropOp31
 70
     1
102
RTVSPost2010Prop32
280
     0
102
RTVSPost2010PropOp32
 70
     1
102
RTVSPost2010Prop33
280
     0
102
RTVSPost2010PropOp33
 70
     1
102
RTVSPost2010Prop34
280
     0
102
RTVSPost2010PropOp34
 70
     1
102
RTVSPost2010Prop35
280
     0
102
RTVSPost2010PropOp35
 70
     1
102
RTVSPost2010Prop36
280
     0
102
RTVSPost2010PropOp36
 70
     1
102
RTVSPost2010Prop37
 90
       50
102
RTVSPost2010PropOp37
 70
     1
102
RTVSPost2010Prop38
140
0.0
102
RTVSPost2010PropOp38
 70
     1
102
RTVSPost2010Prop39
140
1.0
102
RTVSPost2010PropOp39
 70
     1
102
RTVSPost2010Prop40
 90
        0
102
RTVSPost2010PropOp40
 70
     1
102
RTVSPost2010Prop41ColorIndex
 90
       18
102
RTVSPost2010Prop41ColorRGB
 90
        0
102
RTVSPost2010PropOp41
 70
     1
102
RTVSPost2010Prop42
 90
       50
102
RTVSPost2010PropOp42
 70
     1
102
RTVSPost2010Prop43
 90
        3
102
RTVSPost2010PropOp43
 70
     1
102
RTVSPost2010Prop44ColorIndex
 90
        5
102
RTVSPost2010Prop44ColorRGB
 90
      255
102
RTVSPost2010PropOp44
 70
     1
102
RTVSPost2010Prop45
280
     0
102
RTVSPost2010PropOp45
 70
     1
102
RTVSPost2010Prop46
 90
       50
102
RTVSPost2010PropOp46
 70
     1
102
RTVSPost2010Prop47
 90
       50
102
RTVSPost2010PropOp47
 70
     1
102
RTVSPost2010Prop48
 90
       50
102
RTVSPost2010PropOp48
 70
     1
102
RTVSPost2010Prop49
280
     0
102
RTVSPost2010PropOp49
 70
     1
102
RTVSPost2010Prop50
 90
       50
102
RTVSPost2010PropOp50
 70
     1
102
RTVSPost2010Prop51ColorIndex
 90
      256
102
RTVSPost2010Prop51ColorRGB
 90
-16777216
102
RTVSPost2010PropOp51
 70
     0
102
RTVSPost2010Prop52
140
1.0
102
RTVSPost2010PropOp52
 70
     0
102
RTVSPost2010Prop53
 90
        2
102
RTVSPost2010PropOp53
 70
     1
102
RTVSPost2010Prop54
  1
strokes_ogs.tif
102
RTVSPost2010PropOp54
 70
     1
102
RTVSPost2010Prop55
280
     0
102
RTVSPost2010PropOp55
 70
     1
102
RTVSPost2010Prop56
140
1.0
102
RTVSPost2010PropOp56
 70
     1
102
RTVSPost2010Prop57
140
1.0
102
RTVSPost2010PropOp57
 70
     1
  0
XRECORD
  5
285
102
{ACAD_REACTORS
330
284
102
}
330
284
100
AcDbXrecord
280
     1
102
RTVSPropertyOp0
 70
     1
102
RTVSPropertyOp1
 70
     1
102
RTVSPropertyOp2
 70
     1
102
RTVSPropertyOp3
 70
     1
102
RTVSPropertyOp4
 70
     1
102
RTVSPropertyOp5
 70
     1
102
RTVSPropertyOp6
 70
     1
102
RTVSPropertyOp7
 70
     1
102
RTVSPropertyOp8
 70
     1
102
RTVSPropertyOp9
 70
     1
102
RTVSPropertyOp10
 70
     1
102
RTVSPropertyOp11
 70
     1
102
RTVSPropertyOp12
 70
     1
102
RTVSPropertyOp13
 70
     1
102
RTVSPropertyOp14
 70
     1
102
RTVSPropertyOp15
 70
     1
102
RTVSPropertyOp16
 70
     1
102
RTVSPropertyOp17
 70
     1
102
RTVSPropertyOp18
 70
     1
102
RTVSPropertyOp19
 70
     1
102
RTVSPropertyOp20
 70
     1
102
RTVSPropertyOp21
 70
     1
102
RTVSPropertyOp22
 70
     1
102
RTVSPropertyOp23
 70
     1
102
RTVSPropertyOp24
 70
     1
102
RTVSPropertyOp25
 70
     1
102
RTVSPropertyOp26
 70
     1
102
RTVSPropertyOp27
 70
     1
102
RTVSPropertyOp28
 70
     1
102
RTVSPropertyOp29
 70
     1
102
RTVSPropertyOp30
 70
     1
102
RTVSPropertyOp31
 70
     1
102
RTVSPropertyOp32
 70
     1
102
RTVSPropertyOp33
 70
     1
102
RTVSPropertyOp34
 70
     1
102
RTVSPropertyOp35
 70
     1
102
RTVSPropertyOp36
 70
     1
102
RTVSPropertyOp37
 70
     1
102
RTVSPropertyOp38
 70
     1
102
RTVSPropertyOp39
 70
     1
102
RTVSPropertyOp40
 70
     1
102
RTVSPropertyOp41
 70
     1
102
RTVSPropertyOp42
 70
     1
102
RTVSPropertyOp43
 70
     1
102
RTVSPropertyOp44
 70
     1
102
RTVSPropertyOp45
 70
     1
102
RTVSPropertyOp46
 70
     1
102
RTVSPropertyOp47
 70
     1
102
RTVSPropertyOp48
 70
     1
102
RTVSPropertyOp49
 70
     1
102
RTVSPropertyOp50
 70
     1
102
RTVSPropertyOp51
 70
     0
102
RTVSPropertyOp52
 70
     0
102
RTVSPropertyOp53
 70
     1
102
RTVSPropertyOp54
 70
     1
102
RTVSPropertyOp55
 70
     1
102
RTVSPropertyOp56
 70
     1
102
RTVSPropertyOp57
 70
     1
102
RTVSPost2010Prop28
280
     0
102
RTVSPost2010PropOp28
 70
     1
102
RTVSPost2010Prop29
280
     1
102
RTVSPost2010PropOp29
 70
     1
102
RTVSPost2010Prop30
280
     1
102
RTVSPost2010PropOp30
 70
     1
102
RTVSPost2010Prop31
280
     0
102
RTVSPost2010PropOp31
 70
     1
102
RTVSPost2010Prop32
280
     0
102
RTVSPost2010PropOp32
 70
     1
102
RTVSPost2010Prop33
280
     0
102
RTVSPost2010PropOp33
 70
     1
102
RTVSPost2010Prop34
280
     0
102
RTVSPost2010PropOp34
 70
     1
102
RTVSPost2010Prop35
280
     0
102
RTVSPost2010PropOp35
 70
     1
102
RTVSPost2010Prop36
280
     0
102
RTVSPost2010PropOp36
 70
     1
102
RTVSPost2010Prop37
 90
       50
102
RTVSPost2010PropOp37
 70
     1
102
RTVSPost2010Prop38
140
0.0
102
RTVSPost2010PropOp38
 70
     1
102
RTVSPost2010Prop39
140
1.0
102
RTVSPost2010PropOp39
 70
     1
102
RTVSPost2010Prop40
 90
        0
102
RTVSPost2010PropOp40
 70
     1
102
RTVSPost2010Prop41ColorIndex
 90
       18
102
RTVSPost2010Prop41ColorRGB
 90
        0
102
RTVSPost2010PropOp41
 70
     1
102
RTVSPost2010Prop42
 90
       50
102
RTVSPost2010PropOp42
 70
     1
102
RTVSPost2010Prop43
 90
        3
102
RTVSPost2010PropOp43
 70
     1
102
RTVSPost2010Prop44ColorIndex
 90
        5
102
RTVSPost2010Prop44ColorRGB
 90
      255
102
RTVSPost2010PropOp44
 70
     1
102
RTVSPost2010Prop45
280
     0
102
RTVSPost2010PropOp45
 70
     1
102
RTVSPost2010Prop46
 90
       50
102
RTVSPost2010PropOp46
 70
     1
102
RTVSPost2010Prop47
 90
       50
102
RTVSPost2010PropOp47
 70
     1
102
RTVSPost2010Prop48
 90
       50
102
RTVSPost2010PropOp48
 70
     1
102
RTVSPost2010Prop49
280
     0
102
RTVSPost2010PropOp49
 70
     1
102
RTVSPost2010Prop50
 90
       50
102
RTVSPost2010PropOp50
 70
     1
102
RTVSPost2010Prop51ColorIndex
 90
      256
102
RTVSPost2010Prop51ColorRGB
 90
-16777216
102
RTVSPost2010PropOp51
 70
     0
102
RTVSPost2010Prop52
140
1.0
102
RTVSPost2010PropOp52
 70
     0
102
RTVSPost2010Prop53
 90
        2
102
RTVSPost2010PropOp53
 70
     1
102
RTVSPost2010Prop54
  1
strokes_ogs.tif
102
RTVSPost2010PropOp54
 70
     1
102
RTVSPost2010Prop55
280
     0
102
RTVSPost2010PropOp55
 70
     1
102
RTVSPost2010Prop56
140
1.0
102
RTVSPost2010PropOp56
 70
     1
102
RTVSPost2010Prop57
140
1.0
102
RTVSPost2010PropOp57
 70
     1
  0
XRECORD
  5
287
102
{ACAD_REACTORS
330
286
102
}
330
286
100
AcDbXrecord
280
     1
102
RTVSPropertyOp0
 70
     1
102
RTVSPropertyOp1
 70
     1
102
RTVSPropertyOp2
 70
     1
102
RTVSPropertyOp3
 70
     1
102
RTVSPropertyOp4
 70
     1
102
RTVSPropertyOp5
 70
     1
102
RTVSPropertyOp6
 70
     1
102
RTVSPropertyOp7
 70
     1
102
RTVSPropertyOp8
 70
     1
102
RTVSPropertyOp9
 70
     1
102
RTVSPropertyOp10
 70
     1
102
RTVSPropertyOp11
 70
     1
102
RTVSPropertyOp12
 70
     1
102
RTVSPropertyOp13
 70
     1
102
RTVSPropertyOp14
 70
     1
102
RTVSPropertyOp15
 70
     1
102
RTVSPropertyOp16
 70
     1
102
RTVSPropertyOp17
 70
     1
102
RTVSPropertyOp18
 70
     1
102
RTVSPropertyOp19
 70
     1
102
RTVSPropertyOp20
 70
     1
102
RTVSPropertyOp21
 70
     1
102
RTVSPropertyOp22
 70
     1
102
RTVSPropertyOp23
 70
     1
102
RTVSPropertyOp24
 70
     1
102
RTVSPropertyOp25
 70
     1
102
RTVSPropertyOp26
 70
     1
102
RTVSPropertyOp27
 70
     1
102
RTVSPropertyOp28
 70
     1
102
RTVSPropertyOp29
 70
     1
102
RTVSPropertyOp30
 70
     1
102
RTVSPropertyOp31
 70
     1
102
RTVSPropertyOp32
 70
     1
102
RTVSPropertyOp33
 70
     1
102
RTVSPropertyOp34
 70
     1
102
RTVSPropertyOp35
 70
     1
102
RTVSPropertyOp36
 70
     1
102
RTVSPropertyOp37
 70
     1
102
RTVSPropertyOp38
 70
     1
102
RTVSPropertyOp39
 70
     1
102
RTVSPropertyOp40
 70
     1
102
RTVSPropertyOp41
 70
     1
102
RTVSPropertyOp42
 70
     1
102
RTVSPropertyOp43
 70
     1
102
RTVSPropertyOp44
 70
     1
102
RTVSPropertyOp45
 70
     1
102
RTVSPropertyOp46
 70
     1
102
RTVSPropertyOp47
 70
     1
102
RTVSPropertyOp48
 70
     1
102
RTVSPropertyOp49
 70
     1
102
RTVSPropertyOp50
 70
     1
102
RTVSPropertyOp51
 70
     0
102
RTVSPropertyOp52
 70
     0
102
RTVSPropertyOp53
 70
     1
102
RTVSPropertyOp54
 70
     1
102
RTVSPropertyOp55
 70
     1
102
RTVSPropertyOp56
 70
     1
102
RTVSPropertyOp57
 70
     1
102
RTVSPost2010Prop28
280
     0
102
RTVSPost2010PropOp28
 70
     1
102
RTVSPost2010Prop29
280
     1
102
RTVSPost2010PropOp29
 70
     1
102
RTVSPost2010Prop30
280
     1
102
RTVSPost2010PropOp30
 70
     1
102
RTVSPost2010Prop31
280
     0
102
RTVSPost2010PropOp31
 70
     1
102
RTVSPost2010Prop32
280
     0
102
RTVSPost2010PropOp32
 70
     1
102
RTVSPost2010Prop33
280
     0
102
RTVSPost2010PropOp33
 70
     1
102
RTVSPost2010Prop34
280
     0
102
RTVSPost2010PropOp34
 70
     1
102
RTVSPost2010Prop35
280
     0
102
RTVSPost2010PropOp35
 70
     1
102
RTVSPost2010Prop36
280
     0
102
RTVSPost2010PropOp36
 70
     1
102
RTVSPost2010Prop37
 90
       50
102
RTVSPost2010PropOp37
 70
     1
102
RTVSPost2010Prop38
140
0.0
102
RTVSPost2010PropOp38
 70
     1
102
RTVSPost2010Prop39
140
1.0
102
RTVSPost2010PropOp39
 70
     1
102
RTVSPost2010Prop40
 90
        0
102
RTVSPost2010PropOp40
 70
     1
102
RTVSPost2010Prop41ColorIndex
 90
       18
102
RTVSPost2010Prop41ColorRGB
 90
        0
102
RTVSPost2010PropOp41
 70
     1
102
RTVSPost2010Prop42
 90
       50
102
RTVSPost2010PropOp42
 70
     1
102
RTVSPost2010Prop43
 90
        3
102
RTVSPost2010PropOp43
 70
     1
102
RTVSPost2010Prop44ColorIndex
 90
        5
102
RTVSPost2010Prop44ColorRGB
 90
      255
102
RTVSPost2010PropOp44
 70
     1
102
RTVSPost2010Prop45
280
     0
102
RTVSPost2010PropOp45
 70
     1
102
RTVSPost2010Prop46
 90
       50
102
RTVSPost2010PropOp46
 70
     1
102
RTVSPost2010Prop47
 90
       50
102
RTVSPost2010PropOp47
 70
     1
102
RTVSPost2010Prop48
 90
       50
102
RTVSPost2010PropOp48
 70
     1
102
RTVSPost2010Prop49
280
     0
102
RTVSPost2010PropOp49
 70
     1
102
RTVSPost2010Prop50
 90
       50
102
RTVSPost2010PropOp50
 70
     1
102
RTVSPost2010Prop51ColorIndex
 90
      256
102
RTVSPost2010Prop51ColorRGB
 90
-16777216
102
RTVSPost2010PropOp51
 70
     0
102
RTVSPost2010Prop52
140
1.0
102
RTVSPost2010PropOp52
 70
     0
102
RTVSPost2010Prop53
 90
        2
102
RTVSPost2010PropOp53
 70
     1
102
RTVSPost2010Prop54
  1
strokes_ogs.tif
102
RTVSPost2010PropOp54
 70
     1
102
RTVSPost2010Prop55
280
     0
102
RTVSPost2010PropOp55
 70
     1
102
RTVSPost2010Prop56
140
1.0
102
RTVSPost2010PropOp56
 70
     1
102
RTVSPost2010Prop57
140
1.0
102
RTVSPost2010PropOp57
 70
     1
  0
XRECORD
  5
289
102
{ACAD_REACTORS
330
288
102
}
330
288
100
AcDbXrecord
280
     1
102
RTVSPropertyOp0
 70
     1
102
RTVSPropertyOp1
 70
     1
102
RTVSPropertyOp2
 70
     1
102
RTVSPropertyOp3
 70
     1
102
RTVSPropertyOp4
 70
     1
102
RTVSPropertyOp5
 70
     1
102
RTVSPropertyOp6
 70
     1
102
RTVSPropertyOp7
 70
     1
102
RTVSPropertyOp8
 70
     1
102
RTVSPropertyOp9
 70
     1
102
RTVSPropertyOp10
 70
     1
102
RTVSPropertyOp11
 70
     1
102
RTVSPropertyOp12
 70
     1
102
RTVSPropertyOp13
 70
     1
102
RTVSPropertyOp14
 70
     1
102
RTVSPropertyOp15
 70
     1
102
RTVSPropertyOp16
 70
     1
102
RTVSPropertyOp17
 70
     1
102
RTVSPropertyOp18
 70
     1
102
RTVSPropertyOp19
 70
     1
102
RTVSPropertyOp20
 70
     1
102
RTVSPropertyOp21
 70
     1
102
RTVSPropertyOp22
 70
     1
102
RTVSPropertyOp23
 70
     1
102
RTVSPropertyOp24
 70
     1
102
RTVSPropertyOp25
 70
     1
102
RTVSPropertyOp26
 70
     1
102
RTVSPropertyOp27
 70
     1
102
RTVSPropertyOp28
 70
     1
102
RTVSPropertyOp29
 70
     1
102
RTVSPropertyOp30
 70
     1
102
RTVSPropertyOp31
 70
     1
102
RTVSPropertyOp32
 70
     1
102
RTVSPropertyOp33
 70
     1
102
RTVSPropertyOp34
 70
     1
102
RTVSPropertyOp35
 70
     1
102
RTVSPropertyOp36
 70
     1
102
RTVSPropertyOp37
 70
     1
102
RTVSPropertyOp38
 70
     1
102
RTVSPropertyOp39
 70
     1
102
RTVSPropertyOp40
 70
     1
102
RTVSPropertyOp41
 70
     1
102
RTVSPropertyOp42
 70
     1
102
RTVSPropertyOp43
 70
     1
102
RTVSPropertyOp44
 70
     1
102
RTVSPropertyOp45
 70
     1
102
RTVSPropertyOp46
 70
     1
102
RTVSPropertyOp47
 70
     1
102
RTVSPropertyOp48
 70
     1
102
RTVSPropertyOp49
 70
     1
102
RTVSPropertyOp50
 70
     1
102
RTVSPropertyOp51
 70
     0
102
RTVSPropertyOp52
 70
     0
102
RTVSPropertyOp53
 70
     1
102
RTVSPropertyOp54
 70
     1
102
RTVSPropertyOp55
 70
     1
102
RTVSPropertyOp56
 70
     1
102
RTVSPropertyOp57
 70
     1
102
RTVSPost2010Prop28
280
     0
102
RTVSPost2010PropOp28
 70
     1
102
RTVSPost2010Prop29
280
     1
102
RTVSPost2010PropOp29
 70
     1
102
RTVSPost2010Prop30
280
     1
102
RTVSPost2010PropOp30
 70
     1
102
RTVSPost2010Prop31
280
     0
102
RTVSPost2010PropOp31
 70
     1
102
RTVSPost2010Prop32
280
     0
102
RTVSPost2010PropOp32
 70
     1
102
RTVSPost2010Prop33
280
     0
102
RTVSPost2010PropOp33
 70
     1
102
RTVSPost2010Prop34
280
     0
102
RTVSPost2010PropOp34
 70
     1
102
RTVSPost2010Prop35
280
     0
102
RTVSPost2010PropOp35
 70
     1
102
RTVSPost2010Prop36
280
     0
102
RTVSPost2010PropOp36
 70
     1
102
RTVSPost2010Prop37
 90
       50
102
RTVSPost2010PropOp37
 70
     1
102
RTVSPost2010Prop38
140
0.0
102
RTVSPost2010PropOp38
 70
     1
102
RTVSPost2010Prop39
140
1.0
102
RTVSPost2010PropOp39
 70
     1
102
RTVSPost2010Prop40
 90
        0
102
RTVSPost2010PropOp40
 70
     1
102
RTVSPost2010Prop41ColorIndex
 90
       18
102
RTVSPost2010Prop41ColorRGB
 90
        0
102
RTVSPost2010PropOp41
 70
     1
102
RTVSPost2010Prop42
 90
       50
102
RTVSPost2010PropOp42
 70
     1
102
RTVSPost2010Prop43
 90
        3
102
RTVSPost2010PropOp43
 70
     1
102
RTVSPost2010Prop44ColorIndex
 90
        5
102
RTVSPost2010Prop44ColorRGB
 90
      255
102
RTVSPost2010PropOp44
 70
     1
102
RTVSPost2010Prop45
280
     0
102
RTVSPost2010PropOp45
 70
     1
102
RTVSPost2010Prop46
 90
       50
102
RTVSPost2010PropOp46
 70
     1
102
RTVSPost2010Prop47
 90
       50
102
RTVSPost2010PropOp47
 70
     1
102
RTVSPost2010Prop48
 90
       50
102
RTVSPost2010PropOp48
 70
     1
102
RTVSPost2010Prop49
280
     0
102
RTVSPost2010PropOp49
 70
     1
102
RTVSPost2010Prop50
 90
       50
102
RTVSPost2010PropOp50
 70
     1
102
RTVSPost2010Prop51ColorIndex
 90
      256
102
RTVSPost2010Prop51ColorRGB
 90
-16777216
102
RTVSPost2010PropOp51
 70
     0
102
RTVSPost2010Prop52
140
1.0
102
RTVSPost2010PropOp52
 70
     0
102
RTVSPost2010Prop53
 90
        2
102
RTVSPost2010PropOp53
 70
     1
102
RTVSPost2010Prop54
  1
strokes_ogs.tif
102
RTVSPost2010PropOp54
 70
     1
102
RTVSPost2010Prop55
280
     0
102
RTVSPost2010PropOp55
 70
     1
102
RTVSPost2010Prop56
140
1.0
102
RTVSPost2010PropOp56
 70
     1
102
RTVSPost2010Prop57
140
1.0
102
RTVSPost2010PropOp57
 70
     1
  0
XRECORD
  5
28F
102
{ACAD_REACTORS
330
28E
102
}
330
28E
100
AcDbXrecord
280
     1
102
RTVSPropertyOp0
 70
     1
102
RTVSPropertyOp1
 70
     1
102
RTVSPropertyOp2
 70
     1
102
RTVSPropertyOp3
 70
     1
102
RTVSPropertyOp4
 70
     1
102
RTVSPropertyOp5
 70
     1
102
RTVSPropertyOp6
 70
     1
102
RTVSPropertyOp7
 70
     1
102
RTVSPropertyOp8
 70
     1
102
RTVSPropertyOp9
 70
     1
102
RTVSPropertyOp10
 70
     1
102
RTVSPropertyOp11
 70
     1
102
RTVSPropertyOp12
 70
     1
102
RTVSPropertyOp13
 70
     1
102
RTVSPropertyOp14
 70
     1
102
RTVSPropertyOp15
 70
     1
102
RTVSPropertyOp16
 70
     1
102
RTVSPropertyOp17
 70
     1
102
RTVSPropertyOp18
 70
     1
102
RTVSPropertyOp19
 70
     1
102
RTVSPropertyOp20
 70
     1
102
RTVSPropertyOp21
 70
     1
102
RTVSPropertyOp22
 70
     1
102
RTVSPropertyOp23
 70
     1
102
RTVSPropertyOp24
 70
     1
102
RTVSPropertyOp25
 70
     1
102
RTVSPropertyOp26
 70
     1
102
RTVSPropertyOp27
 70
     1
102
RTVSPropertyOp28
 70
     1
102
RTVSPropertyOp29
 70
     1
102
RTVSPropertyOp30
 70
     1
102
RTVSPropertyOp31
 70
     1
102
RTVSPropertyOp32
 70
     1
102
RTVSPropertyOp33
 70
     1
102
RTVSPropertyOp34
 70
     1
102
RTVSPropertyOp35
 70
     1
102
RTVSPropertyOp36
 70
     1
102
RTVSPropertyOp37
 70
     1
102
RTVSPropertyOp38
 70
     1
102
RTVSPropertyOp39
 70
     1
102
RTVSPropertyOp40
 70
     1
102
RTVSPropertyOp41
 70
     1
102
RTVSPropertyOp42
 70
     1
102
RTVSPropertyOp43
 70
     1
102
RTVSPropertyOp44
 70
     1
102
RTVSPropertyOp45
 70
     1
102
RTVSPropertyOp46
 70
     1
102
RTVSPropertyOp47
 70
     1
102
RTVSPropertyOp48
 70
     1
102
RTVSPropertyOp49
 70
     1
102
RTVSPropertyOp50
 70
     1
102
RTVSPropertyOp51
 70
     0
102
RTVSPropertyOp52
 70
     0
102
RTVSPropertyOp53
 70
     1
102
RTVSPropertyOp54
 70
     1
102
RTVSPropertyOp55
 70
     1
102
RTVSPropertyOp56
 70
     1
102
RTVSPropertyOp57
 70
     1
102
RTVSPost2010Prop28
280
     0
102
RTVSPost2010PropOp28
 70
     1
102
RTVSPost2010Prop29
280
     1
102
RTVSPost2010PropOp29
 70
     1
102
RTVSPost2010Prop30
280
     1
102
RTVSPost2010PropOp30
 70
     1
102
RTVSPost2010Prop31
280
     0
102
RTVSPost2010PropOp31
 70
     1
102
RTVSPost2010Prop32
280
     0
102
RTVSPost2010PropOp32
 70
     1
102
RTVSPost2010Prop33
280
     0
102
RTVSPost2010PropOp33
 70
     1
102
RTVSPost2010Prop34
280
     0
102
RTVSPost2010PropOp34
 70
     1
102
RTVSPost2010Prop35
280
     0
102
RTVSPost2010PropOp35
 70
     1
102
RTVSPost2010Prop36
280
     0
102
RTVSPost2010PropOp36
 70
     1
102
RTVSPost2010Prop37
 90
       50
102
RTVSPost2010PropOp37
 70
     1
102
RTVSPost2010Prop38
140
0.0
102
RTVSPost2010PropOp38
 70
     1
102
RTVSPost2010Prop39
140
1.0
102
RTVSPost2010PropOp39
 70
     1
102
RTVSPost2010Prop40
 90
        0
102
RTVSPost2010PropOp40
 70
     1
102
RTVSPost2010Prop41ColorIndex
 90
       18
102
RTVSPost2010Prop41ColorRGB
 90
        0
102
RTVSPost2010PropOp41
 70
     1
102
RTVSPost2010Prop42
 90
       50
102
RTVSPost2010PropOp42
 70
     1
102
RTVSPost2010Prop43
 90
        3
102
RTVSPost2010PropOp43
 70
     1
102
RTVSPost2010Prop44ColorIndex
 90
        5
102
RTVSPost2010Prop44ColorRGB
 90
      255
102
RTVSPost2010PropOp44
 70
     1
102
RTVSPost2010Prop45
280
     0
102
RTVSPost2010PropOp45
 70
     1
102
RTVSPost2010Prop46
 90
       50
102
RTVSPost2010PropOp46
 70
     1
102
RTVSPost2010Prop47
 90
       50
102
RTVSPost2010PropOp47
 70
     1
102
RTVSPost2010Prop48
 90
       50
102
RTVSPost2010PropOp48
 70
     1
102
RTVSPost2010Prop49
280
     0
102
RTVSPost2010PropOp49
 70
     1
102
RTVSPost2010Prop50
 90
       50
102
RTVSPost2010PropOp50
 70
     1
102
RTVSPost2010Prop51ColorIndex
 90
      256
102
RTVSPost2010Prop51ColorRGB
 90
-16777216
102
RTVSPost2010PropOp51
 70
     0
102
RTVSPost2010Prop52
140
1.0
102
RTVSPost2010PropOp52
 70
     0
102
RTVSPost2010Prop53
 90
        2
102
RTVSPost2010PropOp53
 70
     1
102
RTVSPost2010Prop54
  1
strokes_ogs.tif
102
RTVSPost2010PropOp54
 70
     1
102
RTVSPost2010Prop55
280
     0
102
RTVSPost2010PropOp55
 70
     1
102
RTVSPost2010Prop56
140
1.0
102
RTVSPost2010PropOp56
 70
     1
102
RTVSPost2010Prop57
140
1.0
102
RTVSPost2010PropOp57
 70
     1
  0
XRECORD
  5
2A3
102
{ACAD_REACTORS
330
2A2
102
}
330
2A2
100
AcDbXrecord
280
     1
102
RTVSPropertyOp0
 70
     0
102
RTVSPropertyOp1
 70
     0
102
RTVSPropertyOp2
 70
     0
102
RTVSPropertyOp3
 70
     0
102
RTVSPropertyOp4
 70
     0
102
RTVSPropertyOp5
 70
     0
102
RTVSPropertyOp6
 70
     0
102
RTVSPropertyOp7
 70
     0
102
RTVSPropertyOp8
 70
     0
102
RTVSPropertyOp9
 70
     0
102
RTVSPropertyOp10
 70
     0
102
RTVSPropertyOp11
 70
     0
102
RTVSPropertyOp12
 70
     0
102
RTVSPropertyOp13
 70
     0
102
RTVSPropertyOp14
 70
     2
102
RTVSPropertyOp15
 70
     0
102
RTVSPropertyOp16
 70
     0
102
RTVSPropertyOp17
 70
     0
102
RTVSPropertyOp18
 70
     0
102
RTVSPropertyOp19
 70
     0
102
RTVSPropertyOp20
 70
     0
102
RTVSPropertyOp21
 70
     0
102
RTVSPropertyOp22
 70
     0
102
RTVSPropertyOp23
 70
     0
102
RTVSPropertyOp24
 70
     0
102
RTVSPropertyOp25
 70
     0
102
RTVSPropertyOp26
 70
     0
102
RTVSPropertyOp27
 70
     0
102
RTVSPropertyOp28
 70
     0
102
RTVSPropertyOp29
 70
     0
102
RTVSPropertyOp30
 70
     0
102
RTVSPropertyOp31
 70
     0
102
RTVSPropertyOp32
 70
     0
102
RTVSPropertyOp33
 70
     0
102
RTVSPropertyOp34
 70
     0
102
RTVSPropertyOp35
 70
     0
102
RTVSPropertyOp36
 70
     0
102
RTVSPropertyOp37
 70
     0
102
RTVSPropertyOp38
 70
     0
102
RTVSPropertyOp39
 70
     0
102
RTVSPropertyOp40
 70
     0
102
RTVSPropertyOp41
 70
     0
102
RTVSPropertyOp42
 70
     0
102
RTVSPropertyOp43
 70
     0
102
RTVSPropertyOp44
 70
     0
102
RTVSPropertyOp45
 70
     0
102
RTVSPropertyOp46
 70
     0
102
RTVSPropertyOp47
 70
     0
102
RTVSPropertyOp48
 70
     0
102
RTVSPropertyOp49
 70
     0
102
RTVSPropertyOp50
 70
     0
102
RTVSPropertyOp51
 70
     0
102
RTVSPropertyOp52
 70
     0
102
RTVSPropertyOp53
 70
     0
102
RTVSPropertyOp54
 70
     0
102
RTVSPropertyOp55
 70
     0
102
RTVSPropertyOp56
 70
     0
102
RTVSPropertyOp57
 70
     0
102
RTVSPost2010Prop28
280
     0
102
RTVSPost2010PropOp28
 70
     0
102
RTVSPost2010Prop29
280
     1
102
RTVSPost2010PropOp29
 70
     0
102
RTVSPost2010Prop30
280
     1
102
RTVSPost2010PropOp30
 70
     0
102
RTVSPost2010Prop31
280
     0
102
RTVSPost2010PropOp31
 70
     0
102
RTVSPost2010Prop32
280
     0
102
RTVSPost2010PropOp32
 70
     0
102
RTVSPost2010Prop33
280
     0
102
RTVSPost2010PropOp33
 70
     0
102
RTVSPost2010Prop34
280
     0
102
RTVSPost2010PropOp34
 70
     0
102
RTVSPost2010Prop35
280
     0
102
RTVSPost2010PropOp35
 70
     0
102
RTVSPost2010Prop36
280
     0
102
RTVSPost2010PropOp36
 70
     0
102
RTVSPost2010Prop37
 90
       50
102
RTVSPost2010PropOp37
 70
     0
102
RTVSPost2010Prop38
140
0.0
102
RTVSPost2010PropOp38
 70
     0
102
RTVSPost2010Prop39
140
1.0
102
RTVSPost2010PropOp39
 70
     0
102
RTVSPost2010Prop40
 90
        0
102
RTVSPost2010PropOp40
 70
     0
102
RTVSPost2010Prop41ColorIndex
 90
       18
102
RTVSPost2010Prop41ColorRGB
 90
        0
102
RTVSPost2010PropOp41
 70
     0
102
RTVSPost2010Prop42
 90
       50
102
RTVSPost2010PropOp42
 70
     0
102
RTVSPost2010Prop43
 90
        3
102
RTVSPost2010PropOp43
 70
     0
102
RTVSPost2010Prop44ColorIndex
 90
        5
102
RTVSPost2010Prop44ColorRGB
 90
      255
102
RTVSPost2010PropOp44
 70
     0
102
RTVSPost2010Prop45
280
     0
102
RTVSPost2010PropOp45
 70
     0
102
RTVSPost2010Prop46
 90
       50
102
RTVSPost2010PropOp46
 70
     0
102
RTVSPost2010Prop47
 90
       50
102
RTVSPost2010PropOp47
 70
     0
102
RTVSPost2010Prop48
 90
       50
102
RTVSPost2010PropOp48
 70
     0
102
RTVSPost2010Prop49
280
     0
102
RTVSPost2010PropOp49
 70
     0
102
RTVSPost2010Prop50
 90
       50
102
RTVSPost2010PropOp50
 70
     0
102
RTVSPost2010Prop51ColorIndex
 90
      256
102
RTVSPost2010Prop51ColorRGB
 90
-16777216
102
RTVSPost2010PropOp51
 70
     0
102
RTVSPost2010Prop52
140
1.0
102
RTVSPost2010PropOp52
 70
     0
102
RTVSPost2010Prop53
 90
        2
102
RTVSPost2010PropOp53
 70
     0
102
RTVSPost2010Prop54
  1
strokes_ogs.tif
102
RTVSPost2010PropOp54
 70
     0
102
RTVSPost2010Prop55
280
     0
102
RTVSPost2010PropOp55
 70
     0
102
RTVSPost2010Prop56
140
1.0
102
RTVSPost2010PropOp56
 70
     0
102
RTVSPost2010Prop57
140
1.0
102
RTVSPost2010PropOp57
 70
     0
  0
XRECORD
  5
29D
102
{ACAD_REACTORS
330
29C
102
}
330
29C
100
AcDbXrecord
280
     1
102
RTVSPropertyOp0
 70
     1
102
RTVSPropertyOp1
 70
     1
102
RTVSPropertyOp2
 70
     1
102
RTVSPropertyOp3
 70
     1
102
RTVSPropertyOp4
 70
     1
102
RTVSPropertyOp5
 70
     1
102
RTVSPropertyOp6
 70
     1
102
RTVSPropertyOp7
 70
     1
102
RTVSPropertyOp8
 70
     1
102
RTVSPropertyOp9
 70
     1
102
RTVSPropertyOp10
 70
     1
102
RTVSPropertyOp11
 70
     1
102
RTVSPropertyOp12
 70
     1
102
RTVSPropertyOp13
 70
     1
102
RTVSPropertyOp14
 70
     1
102
RTVSPropertyOp15
 70
     1
102
RTVSPropertyOp16
 70
     1
102
RTVSPropertyOp17
 70
     1
102
RTVSPropertyOp18
 70
     1
102
RTVSPropertyOp19
 70
     1
102
RTVSPropertyOp20
 70
     1
102
RTVSPropertyOp21
 70
     1
102
RTVSPropertyOp22
 70
     1
102
RTVSPropertyOp23
 70
     1
102
RTVSPropertyOp24
 70
     1
102
RTVSPropertyOp25
 70
     1
102
RTVSPropertyOp26
 70
     1
102
RTVSPropertyOp27
 70
     1
102
RTVSPropertyOp28
 70
     1
102
RTVSPropertyOp29
 70
     1
102
RTVSPropertyOp30
 70
     1
102
RTVSPropertyOp31
 70
     1
102
RTVSPropertyOp32
 70
     1
102
RTVSPropertyOp33
 70
     1
102
RTVSPropertyOp34
 70
     1
102
RTVSPropertyOp35
 70
     1
102
RTVSPropertyOp36
 70
     1
102
RTVSPropertyOp37
 70
     1
102
RTVSPropertyOp38
 70
     1
102
RTVSPropertyOp39
 70
     1
102
RTVSPropertyOp40
 70
     1
102
RTVSPropertyOp41
 70
     1
102
RTVSPropertyOp42
 70
     1
102
RTVSPropertyOp43
 70
     1
102
RTVSPropertyOp44
 70
     1
102
RTVSPropertyOp45
 70
     1
102
RTVSPropertyOp46
 70
     1
102
RTVSPropertyOp47
 70
     1
102
RTVSPropertyOp48
 70
     1
102
RTVSPropertyOp49
 70
     1
102
RTVSPropertyOp50
 70
     1
102
RTVSPropertyOp51
 70
     0
102
RTVSPropertyOp52
 70
     0
102
RTVSPropertyOp53
 70
     1
102
RTVSPropertyOp54
 70
     1
102
RTVSPropertyOp55
 70
     1
102
RTVSPropertyOp56
 70
     1
102
RTVSPropertyOp57
 70
     1
102
RTVSPost2010Prop28
280
     0
102
RTVSPost2010PropOp28
 70
     1
102
RTVSPost2010Prop29
280
     1
102
RTVSPost2010PropOp29
 70
     1
102
RTVSPost2010Prop30
280
     1
102
RTVSPost2010PropOp30
 70
     1
102
RTVSPost2010Prop31
280
     0
102
RTVSPost2010PropOp31
 70
     1
102
RTVSPost2010Prop32
280
     0
102
RTVSPost2010PropOp32
 70
     1
102
RTVSPost2010Prop33
280
     0
102
RTVSPost2010PropOp33
 70
     1
102
RTVSPost2010Prop34
280
     0
102
RTVSPost2010PropOp34
 70
     1
102
RTVSPost2010Prop35
280
     0
102
RTVSPost2010PropOp35
 70
     1
102
RTVSPost2010Prop36
280
     0
102
RTVSPost2010PropOp36
 70
     1
102
RTVSPost2010Prop37
 90
       50
102
RTVSPost2010PropOp37
 70
     1
102
RTVSPost2010Prop38
140
0.0
102
RTVSPost2010PropOp38
 70
     1
102
RTVSPost2010Prop39
140
1.0
102
RTVSPost2010PropOp39
 70
     1
102
RTVSPost2010Prop40
 90
        0
102
RTVSPost2010PropOp40
 70
     1
102
RTVSPost2010Prop41ColorIndex
 90
       18
102
RTVSPost2010Prop41ColorRGB
 90
        0
102
RTVSPost2010PropOp41
 70
     1
102
RTVSPost2010Prop42
 90
       50
102
RTVSPost2010PropOp42
 70
     1
102
RTVSPost2010Prop43
 90
        3
102
RTVSPost2010PropOp43
 70
     1
102
RTVSPost2010Prop44ColorIndex
 90
        5
102
RTVSPost2010Prop44ColorRGB
 90
      255
102
RTVSPost2010PropOp44
 70
     1
102
RTVSPost2010Prop45
280
     0
102
RTVSPost2010PropOp45
 70
     1
102
RTVSPost2010Prop46
 90
       50
102
RTVSPost2010PropOp46
 70
     1
102
RTVSPost2010Prop47
 90
       50
102
RTVSPost2010PropOp47
 70
     1
102
RTVSPost2010Prop48
 90
       50
102
RTVSPost2010PropOp48
 70
     1
102
RTVSPost2010Prop49
280
     0
102
RTVSPost2010PropOp49
 70
     1
102
RTVSPost2010Prop50
 90
       50
102
RTVSPost2010PropOp50
 70
     1
102
RTVSPost2010Prop51ColorIndex
 90
      256
102
RTVSPost2010Prop51ColorRGB
 90
-16777216
102
RTVSPost2010PropOp51
 70
     0
102
RTVSPost2010Prop52
140
1.0
102
RTVSPost2010PropOp52
 70
     0
102
RTVSPost2010Prop53
 90
        2
102
RTVSPost2010PropOp53
 70
     1
102
RTVSPost2010Prop54
  1
strokes_ogs.tif
102
RTVSPost2010PropOp54
 70
     1
102
RTVSPost2010Prop55
280
     0
102
RTVSPost2010PropOp55
 70
     1
102
RTVSPost2010Prop56
140
1.0
102
RTVSPost2010PropOp56
 70
     1
102
RTVSPost2010Prop57
140
1.0
102
RTVSPost2010PropOp57
 70
     1
  0
XRECORD
  5
2A5
102
{ACAD_REACTORS
330
2A4
102
}
330
2A4
100
AcDbXrecord
280
     1
102
RTVSPropertyOp0
 70
     0
102
RTVSPropertyOp1
 70
     0
102
RTVSPropertyOp2
 70
     0
102
RTVSPropertyOp3
 70
     0
102
RTVSPropertyOp4
 70
     0
102
RTVSPropertyOp5
 70
     0
102
RTVSPropertyOp6
 70
     0
102
RTVSPropertyOp7
 70
     0
102
RTVSPropertyOp8
 70
     0
102
RTVSPropertyOp9
 70
     0
102
RTVSPropertyOp10
 70
     0
102
RTVSPropertyOp11
 70
     0
102
RTVSPropertyOp12
 70
     0
102
RTVSPropertyOp13
 70
     0
102
RTVSPropertyOp14
 70
     2
102
RTVSPropertyOp15
 70
     0
102
RTVSPropertyOp16
 70
     0
102
RTVSPropertyOp17
 70
     0
102
RTVSPropertyOp18
 70
     0
102
RTVSPropertyOp19
 70
     0
102
RTVSPropertyOp20
 70
     0
102
RTVSPropertyOp21
 70
     0
102
RTVSPropertyOp22
 70
     0
102
RTVSPropertyOp23
 70
     0
102
RTVSPropertyOp24
 70
     0
102
RTVSPropertyOp25
 70
     0
102
RTVSPropertyOp26
 70
     0
102
RTVSPropertyOp27
 70
     0
102
RTVSPropertyOp28
 70
     0
102
RTVSPropertyOp29
 70
     0
102
RTVSPropertyOp30
 70
     0
102
RTVSPropertyOp31
 70
     0
102
RTVSPropertyOp32
 70
     0
102
RTVSPropertyOp33
 70
     0
102
RTVSPropertyOp34
 70
     0
102
RTVSPropertyOp35
 70
     0
102
RTVSPropertyOp36
 70
     0
102
RTVSPropertyOp37
 70
     0
102
RTVSPropertyOp38
 70
     0
102
RTVSPropertyOp39
 70
     0
102
RTVSPropertyOp40
 70
     0
102
RTVSPropertyOp41
 70
     0
102
RTVSPropertyOp42
 70
     0
102
RTVSPropertyOp43
 70
     0
102
RTVSPropertyOp44
 70
     0
102
RTVSPropertyOp45
 70
     0
102
RTVSPropertyOp46
 70
     0
102
RTVSPropertyOp47
 70
     0
102
RTVSPropertyOp48
 70
     0
102
RTVSPropertyOp49
 70
     0
102
RTVSPropertyOp50
 70
     0
102
RTVSPropertyOp51
 70
     0
102
RTVSPropertyOp52
 70
     0
102
RTVSPropertyOp53
 70
     0
102
RTVSPropertyOp54
 70
     0
102
RTVSPropertyOp55
 70
     0
102
RTVSPropertyOp56
 70
     0
102
RTVSPropertyOp57
 70
     0
102
RTVSPost2010Prop28
280
     0
102
RTVSPost2010PropOp28
 70
     0
102
RTVSPost2010Prop29
280
     1
102
RTVSPost2010PropOp29
 70
     0
102
RTVSPost2010Prop30
280
     1
102
RTVSPost2010PropOp30
 70
     0
102
RTVSPost2010Prop31
280
     0
102
RTVSPost2010PropOp31
 70
     0
102
RTVSPost2010Prop32
280
     0
102
RTVSPost2010PropOp32
 70
     0
102
RTVSPost2010Prop33
280
     0
102
RTVSPost2010PropOp33
 70
     0
102
RTVSPost2010Prop34
280
     0
102
RTVSPost2010PropOp34
 70
     0
102
RTVSPost2010Prop35
280
     0
102
RTVSPost2010PropOp35
 70
     0
102
RTVSPost2010Prop36
280
     0
102
RTVSPost2010PropOp36
 70
     0
102
RTVSPost2010Prop37
 90
       50
102
RTVSPost2010PropOp37
 70
     0
102
RTVSPost2010Prop38
140
0.0
102
RTVSPost2010PropOp38
 70
     0
102
RTVSPost2010Prop39
140
1.0
102
RTVSPost2010PropOp39
 70
     0
102
RTVSPost2010Prop40
 90
        0
102
RTVSPost2010PropOp40
 70
     0
102
RTVSPost2010Prop41ColorIndex
 90
       18
102
RTVSPost2010Prop41ColorRGB
 90
        0
102
RTVSPost2010PropOp41
 70
     0
102
RTVSPost2010Prop42
 90
       50
102
RTVSPost2010PropOp42
 70
     0
102
RTVSPost2010Prop43
 90
        3
102
RTVSPost2010PropOp43
 70
     0
102
RTVSPost2010Prop44ColorIndex
 90
        5
102
RTVSPost2010Prop44ColorRGB
 90
      255
102
RTVSPost2010PropOp44
 70
     0
102
RTVSPost2010Prop45
280
     0
102
RTVSPost2010PropOp45
 70
     0
102
RTVSPost2010Prop46
 90
       50
102
RTVSPost2010PropOp46
 70
     0
102
RTVSPost2010Prop47
 90
       50
102
RTVSPost2010PropOp47
 70
     0
102
RTVSPost2010Prop48
 90
       50
102
RTVSPost2010PropOp48
 70
     0
102
RTVSPost2010Prop49
280
     0
102
RTVSPost2010PropOp49
 70
     0
102
RTVSPost2010Prop50
 90
       50
102
RTVSPost2010PropOp50
 70
     0
102
RTVSPost2010Prop51ColorIndex
 90
      256
102
RTVSPost2010Prop51ColorRGB
 90
-16777216
102
RTVSPost2010PropOp51
 70
     0
102
RTVSPost2010Prop52
140
1.0
102
RTVSPost2010PropOp52
 70
     0
102
RTVSPost2010Prop53
 90
        2
102
RTVSPost2010PropOp53
 70
     0
102
RTVSPost2010Prop54
  1
strokes_ogs.tif
102
RTVSPost2010PropOp54
 70
     0
102
RTVSPost2010Prop55
280
     0
102
RTVSPost2010PropOp55
 70
     0
102
RTVSPost2010Prop56
140
1.0
102
RTVSPost2010PropOp56
 70
     0
102
RTVSPost2010Prop57
140
1.0
102
RTVSPost2010PropOp57
 70
     0
  0
XRECORD
  5
293
102
{ACAD_REACTORS
330
292
102
}
330
292
100
AcDbXrecord
280
     1
102
RTVSPropertyOp0
 70
     1
102
RTVSPropertyOp1
 70
     1
102
RTVSPropertyOp2
 70
     1
102
RTVSPropertyOp3
 70
     1
102
RTVSPropertyOp4
 70
     1
102
RTVSPropertyOp5
 70
     1
102
RTVSPropertyOp6
 70
     1
102
RTVSPropertyOp7
 70
     1
102
RTVSPropertyOp8
 70
     1
102
RTVSPropertyOp9
 70
     1
102
RTVSPropertyOp10
 70
     1
102
RTVSPropertyOp11
 70
     1
102
RTVSPropertyOp12
 70
     1
102
RTVSPropertyOp13
 70
     1
102
RTVSPropertyOp14
 70
     1
102
RTVSPropertyOp15
 70
     1
102
RTVSPropertyOp16
 70
     1
102
RTVSPropertyOp17
 70
     1
102
RTVSPropertyOp18
 70
     1
102
RTVSPropertyOp19
 70
     1
102
RTVSPropertyOp20
 70
     1
102
RTVSPropertyOp21
 70
     1
102
RTVSPropertyOp22
 70
     1
102
RTVSPropertyOp23
 70
     1
102
RTVSPropertyOp24
 70
     1
102
RTVSPropertyOp25
 70
     1
102
RTVSPropertyOp26
 70
     1
102
RTVSPropertyOp27
 70
     1
102
RTVSPropertyOp28
 70
     1
102
RTVSPropertyOp29
 70
     1
102
RTVSPropertyOp30
 70
     1
102
RTVSPropertyOp31
 70
     1
102
RTVSPropertyOp32
 70
     1
102
RTVSPropertyOp33
 70
     1
102
RTVSPropertyOp34
 70
     1
102
RTVSPropertyOp35
 70
     1
102
RTVSPropertyOp36
 70
     1
102
RTVSPropertyOp37
 70
     1
102
RTVSPropertyOp38
 70
     1
102
RTVSPropertyOp39
 70
     1
102
RTVSPropertyOp40
 70
     1
102
RTVSPropertyOp41
 70
     1
102
RTVSPropertyOp42
 70
     1
102
RTVSPropertyOp43
 70
     1
102
RTVSPropertyOp44
 70
     1
102
RTVSPropertyOp45
 70
     1
102
RTVSPropertyOp46
 70
     1
102
RTVSPropertyOp47
 70
     1
102
RTVSPropertyOp48
 70
     1
102
RTVSPropertyOp49
 70
     1
102
RTVSPropertyOp50
 70
     1
102
RTVSPropertyOp51
 70
     0
102
RTVSPropertyOp52
 70
     0
102
RTVSPropertyOp53
 70
     1
102
RTVSPropertyOp54
 70
     1
102
RTVSPropertyOp55
 70
     1
102
RTVSPropertyOp56
 70
     1
102
RTVSPropertyOp57
 70
     1
102
RTVSPost2010Prop28
280
     0
102
RTVSPost2010PropOp28
 70
     1
102
RTVSPost2010Prop29
280
     1
102
RTVSPost2010PropOp29
 70
     1
102
RTVSPost2010Prop30
280
     1
102
RTVSPost2010PropOp30
 70
     1
102
RTVSPost2010Prop31
280
     0
102
RTVSPost2010PropOp31
 70
     1
102
RTVSPost2010Prop32
280
     0
102
RTVSPost2010PropOp32
 70
     1
102
RTVSPost2010Prop33
280
     0
102
RTVSPost2010PropOp33
 70
     1
102
RTVSPost2010Prop34
280
     0
102
RTVSPost2010PropOp34
 70
     1
102
RTVSPost2010Prop35
280
     0
102
RTVSPost2010PropOp35
 70
     1
102
RTVSPost2010Prop36
280
     0
102
RTVSPost2010PropOp36
 70
     1
102
RTVSPost2010Prop37
 90
       50
102
RTVSPost2010PropOp37
 70
     1
102
RTVSPost2010Prop38
140
0.0
102
RTVSPost2010PropOp38
 70
     1
102
RTVSPost2010Prop39
140
1.0
102
RTVSPost2010PropOp39
 70
     1
102
RTVSPost2010Prop40
 90
        0
102
RTVSPost2010PropOp40
 70
     1
102
RTVSPost2010Prop41ColorIndex
 90
       18
102
RTVSPost2010Prop41ColorRGB
 90
        0
102
RTVSPost2010PropOp41
 70
     1
102
RTVSPost2010Prop42
 90
       50
102
RTVSPost2010PropOp42
 70
     1
102
RTVSPost2010Prop43
 90
        3
102
RTVSPost2010PropOp43
 70
     1
102
RTVSPost2010Prop44ColorIndex
 90
        5
102
RTVSPost2010Prop44ColorRGB
 90
      255
102
RTVSPost2010PropOp44
 70
     1
102
RTVSPost2010Prop45
280
     0
102
RTVSPost2010PropOp45
 70
     1
102
RTVSPost2010Prop46
 90
       50
102
RTVSPost2010PropOp46
 70
     1
102
RTVSPost2010Prop47
 90
       50
102
RTVSPost2010PropOp47
 70
     1
102
RTVSPost2010Prop48
 90
       50
102
RTVSPost2010PropOp48
 70
     1
102
RTVSPost2010Prop49
280
     0
102
RTVSPost2010PropOp49
 70
     1
102
RTVSPost2010Prop50
 90
       50
102
RTVSPost2010PropOp50
 70
     1
102
RTVSPost2010Prop51ColorIndex
 90
      256
102
RTVSPost2010Prop51ColorRGB
 90
-16777216
102
RTVSPost2010PropOp51
 70
     0
102
RTVSPost2010Prop52
140
1.0
102
RTVSPost2010PropOp52
 70
     0
102
RTVSPost2010Prop53
 90
        2
102
RTVSPost2010PropOp53
 70
     1
102
RTVSPost2010Prop54
  1
strokes_ogs.tif
102
RTVSPost2010PropOp54
 70
     1
102
RTVSPost2010Prop55
280
     0
102
RTVSPost2010PropOp55
 70
     1
102
RTVSPost2010Prop56
140
1.0
102
RTVSPost2010PropOp56
 70
     1
102
RTVSPost2010Prop57
140
1.0
102
RTVSPost2010PropOp57
 70
     1
  0
XRECORD
  5
2B1
102
{ACAD_REACTORS
330
2B0
102
}
330
2B0
100
AcDbXrecord
280
     1
102
RTVSPropertyOp0
 70
     1
102
RTVSPropertyOp1
 70
     1
102
RTVSPropertyOp2
 70
     1
102
RTVSPropertyOp3
 70
     1
102
RTVSPropertyOp4
 70
     1
102
RTVSPropertyOp5
 70
     1
102
RTVSPropertyOp6
 70
     1
102
RTVSPropertyOp7
 70
     1
102
RTVSPropertyOp8
 70
     1
102
RTVSPropertyOp9
 70
     1
102
RTVSPropertyOp10
 70
     1
102
RTVSPropertyOp11
 70
     1
102
RTVSPropertyOp12
 70
     1
102
RTVSPropertyOp13
 70
     1
102
RTVSPropertyOp14
 70
     1
102
RTVSPropertyOp15
 70
     1
102
RTVSPropertyOp16
 70
     1
102
RTVSPropertyOp17
 70
     1
102
RTVSPropertyOp18
 70
     1
102
RTVSPropertyOp19
 70
     1
102
RTVSPropertyOp20
 70
     1
102
RTVSPropertyOp21
 70
     1
102
RTVSPropertyOp22
 70
     1
102
RTVSPropertyOp23
 70
     1
102
RTVSPropertyOp24
 70
     1
102
RTVSPropertyOp25
 70
     1
102
RTVSPropertyOp26
 70
     1
102
RTVSPropertyOp27
 70
     1
102
RTVSPropertyOp28
 70
     1
102
RTVSPropertyOp29
 70
     1
102
RTVSPropertyOp30
 70
     1
102
RTVSPropertyOp31
 70
     1
102
RTVSPropertyOp32
 70
     1
102
RTVSPropertyOp33
 70
     1
102
RTVSPropertyOp34
 70
     1
102
RTVSPropertyOp35
 70
     1
102
RTVSPropertyOp36
 70
     1
102
RTVSPropertyOp37
 70
     1
102
RTVSPropertyOp38
 70
     1
102
RTVSPropertyOp39
 70
     1
102
RTVSPropertyOp40
 70
     1
102
RTVSPropertyOp41
 70
     1
102
RTVSPropertyOp42
 70
     1
102
RTVSPropertyOp43
 70
     1
102
RTVSPropertyOp44
 70
     1
102
RTVSPropertyOp45
 70
     1
102
RTVSPropertyOp46
 70
     1
102
RTVSPropertyOp47
 70
     1
102
RTVSPropertyOp48
 70
     1
102
RTVSPropertyOp49
 70
     1
102
RTVSPropertyOp50
 70
     1
102
RTVSPropertyOp51
 70
     0
102
RTVSPropertyOp52
 70
     0
102
RTVSPropertyOp53
 70
     1
102
RTVSPropertyOp54
 70
     1
102
RTVSPropertyOp55
 70
     1
102
RTVSPropertyOp56
 70
     1
102
RTVSPropertyOp57
 70
     1
102
RTVSPost2010Prop28
280
     0
102
RTVSPost2010PropOp28
 70
     1
102
RTVSPost2010Prop29
280
     1
102
RTVSPost2010PropOp29
 70
     1
102
RTVSPost2010Prop30
280
     1
102
RTVSPost2010PropOp30
 70
     1
102
RTVSPost2010Prop31
280
     0
102
RTVSPost2010PropOp31
 70
     1
102
RTVSPost2010Prop32
280
     0
102
RTVSPost2010PropOp32
 70
     1
102
RTVSPost2010Prop33
280
     0
102
RTVSPost2010PropOp33
 70
     1
102
RTVSPost2010Prop34
280
     0
102
RTVSPost2010PropOp34
 70
     1
102
RTVSPost2010Prop35
280
     0
102
RTVSPost2010PropOp35
 70
     1
102
RTVSPost2010Prop36
280
     0
102
RTVSPost2010PropOp36
 70
     1
102
RTVSPost2010Prop37
 90
       50
102
RTVSPost2010PropOp37
 70
     1
102
RTVSPost2010Prop38
140
0.0
102
RTVSPost2010PropOp38
 70
     1
102
RTVSPost2010Prop39
140
1.0
102
RTVSPost2010PropOp39
 70
     1
102
RTVSPost2010Prop40
 90
        0
102
RTVSPost2010PropOp40
 70
     1
102
RTVSPost2010Prop41ColorIndex
 90
       18
102
RTVSPost2010Prop41ColorRGB
 90
        0
102
RTVSPost2010PropOp41
 70
     1
102
RTVSPost2010Prop42
 90
       50
102
RTVSPost2010PropOp42
 70
     1
102
RTVSPost2010Prop43
 90
        3
102
RTVSPost2010PropOp43
 70
     1
102
RTVSPost2010Prop44ColorIndex
 90
        5
102
RTVSPost2010Prop44ColorRGB
 90
      255
102
RTVSPost2010PropOp44
 70
     1
102
RTVSPost2010Prop45
280
     0
102
RTVSPost2010PropOp45
 70
     1
102
RTVSPost2010Prop46
 90
       50
102
RTVSPost2010PropOp46
 70
     1
102
RTVSPost2010Prop47
 90
       50
102
RTVSPost2010PropOp47
 70
     1
102
RTVSPost2010Prop48
 90
       50
102
RTVSPost2010PropOp48
 70
     1
102
RTVSPost2010Prop49
280
     0
102
RTVSPost2010PropOp49
 70
     1
102
RTVSPost2010Prop50
 90
       50
102
RTVSPost2010PropOp50
 70
     1
102
RTVSPost2010Prop51ColorIndex
 90
      256
102
RTVSPost2010Prop51ColorRGB
 90
-16777216
102
RTVSPost2010PropOp51
 70
     0
102
RTVSPost2010Prop52
140
1.0
102
RTVSPost2010PropOp52
 70
     0
102
RTVSPost2010Prop53
 90
        2
102
RTVSPost2010PropOp53
 70
     1
102
RTVSPost2010Prop54
  1
strokes_ogs.tif
102
RTVSPost2010PropOp54
 70
     1
102
RTVSPost2010Prop55
280
     0
102
RTVSPost2010PropOp55
 70
     1
102
RTVSPost2010Prop56
140
1.0
102
RTVSPost2010PropOp56
 70
     1
102
RTVSPost2010Prop57
140
1.0
102
RTVSPost2010PropOp57
 70
     1
  0
XRECORD
  5
2AF
102
{ACAD_REACTORS
330
2AE
102
}
330
2AE
100
AcDbXrecord
280
     1
102
RTVSPropertyOp0
 70
     1
102
RTVSPropertyOp1
 70
     1
102
RTVSPropertyOp2
 70
     1
102
RTVSPropertyOp3
 70
     1
102
RTVSPropertyOp4
 70
     1
102
RTVSPropertyOp5
 70
     1
102
RTVSPropertyOp6
 70
     1
102
RTVSPropertyOp7
 70
     1
102
RTVSPropertyOp8
 70
     1
102
RTVSPropertyOp9
 70
     1
102
RTVSPropertyOp10
 70
     1
102
RTVSPropertyOp11
 70
     1
102
RTVSPropertyOp12
 70
     1
102
RTVSPropertyOp13
 70
     1
102
RTVSPropertyOp14
 70
     1
102
RTVSPropertyOp15
 70
     1
102
RTVSPropertyOp16
 70
     1
102
RTVSPropertyOp17
 70
     1
102
RTVSPropertyOp18
 70
     1
102
RTVSPropertyOp19
 70
     1
102
RTVSPropertyOp20
 70
     1
102
RTVSPropertyOp21
 70
     1
102
RTVSPropertyOp22
 70
     1
102
RTVSPropertyOp23
 70
     1
102
RTVSPropertyOp24
 70
     1
102
RTVSPropertyOp25
 70
     1
102
RTVSPropertyOp26
 70
     1
102
RTVSPropertyOp27
 70
     1
102
RTVSPropertyOp28
 70
     1
102
RTVSPropertyOp29
 70
     1
102
RTVSPropertyOp30
 70
     1
102
RTVSPropertyOp31
 70
     1
102
RTVSPropertyOp32
 70
     1
102
RTVSPropertyOp33
 70
     1
102
RTVSPropertyOp34
 70
     1
102
RTVSPropertyOp35
 70
     1
102
RTVSPropertyOp36
 70
     1
102
RTVSPropertyOp37
 70
     1
102
RTVSPropertyOp38
 70
     1
102
RTVSPropertyOp39
 70
     1
102
RTVSPropertyOp40
 70
     1
102
RTVSPropertyOp41
 70
     1
102
RTVSPropertyOp42
 70
     1
102
RTVSPropertyOp43
 70
     1
102
RTVSPropertyOp44
 70
     1
102
RTVSPropertyOp45
 70
     1
102
RTVSPropertyOp46
 70
     1
102
RTVSPropertyOp47
 70
     1
102
RTVSPropertyOp48
 70
     1
102
RTVSPropertyOp49
 70
     1
102
RTVSPropertyOp50
 70
     1
102
RTVSPropertyOp51
 70
     0
102
RTVSPropertyOp52
 70
     0
102
RTVSPropertyOp53
 70
     1
102
RTVSPropertyOp54
 70
     1
102
RTVSPropertyOp55
 70
     1
102
RTVSPropertyOp56
 70
     1
102
RTVSPropertyOp57
 70
     1
102
RTVSPost2010Prop28
280
     0
102
RTVSPost2010PropOp28
 70
     1
102
RTVSPost2010Prop29
280
     1
102
RTVSPost2010PropOp29
 70
     1
102
RTVSPost2010Prop30
280
     1
102
RTVSPost2010PropOp30
 70
     1
102
RTVSPost2010Prop31
280
     0
102
RTVSPost2010PropOp31
 70
     1
102
RTVSPost2010Prop32
280
     0
102
RTVSPost2010PropOp32
 70
     1
102
RTVSPost2010Prop33
280
     0
102
RTVSPost2010PropOp33
 70
     1
102
RTVSPost2010Prop34
280
     0
102
RTVSPost2010PropOp34
 70
     1
102
RTVSPost2010Prop35
280
     0
102
RTVSPost2010PropOp35
 70
     1
102
RTVSPost2010Prop36
280
     0
102
RTVSPost2010PropOp36
 70
     1
102
RTVSPost2010Prop37
 90
       50
102
RTVSPost2010PropOp37
 70
     1
102
RTVSPost2010Prop38
140
0.0
102
RTVSPost2010PropOp38
 70
     1
102
RTVSPost2010Prop39
140
1.0
102
RTVSPost2010PropOp39
 70
     1
102
RTVSPost2010Prop40
 90
        0
102
RTVSPost2010PropOp40
 70
     1
102
RTVSPost2010Prop41ColorIndex
 90
       18
102
RTVSPost2010Prop41ColorRGB
 90
        0
102
RTVSPost2010PropOp41
 70
     1
102
RTVSPost2010Prop42
 90
       50
102
RTVSPost2010PropOp42
 70
     1
102
RTVSPost2010Prop43
 90
        3
102
RTVSPost2010PropOp43
 70
     1
102
RTVSPost2010Prop44ColorIndex
 90
        5
102
RTVSPost2010Prop44ColorRGB
 90
      255
102
RTVSPost2010PropOp44
 70
     1
102
RTVSPost2010Prop45
280
     0
102
RTVSPost2010PropOp45
 70
     1
102
RTVSPost2010Prop46
 90
       50
102
RTVSPost2010PropOp46
 70
     1
102
RTVSPost2010Prop47
 90
       50
102
RTVSPost2010PropOp47
 70
     1
102
RTVSPost2010Prop48
 90
       50
102
RTVSPost2010PropOp48
 70
     1
102
RTVSPost2010Prop49
280
     0
102
RTVSPost2010PropOp49
 70
     1
102
RTVSPost2010Prop50
 90
       50
102
RTVSPost2010PropOp50
 70
     1
102
RTVSPost2010Prop51ColorIndex
 90
      256
102
RTVSPost2010Prop51ColorRGB
 90
-16777216
102
RTVSPost2010PropOp51
 70
     0
102
RTVSPost2010Prop52
140
1.0
102
RTVSPost2010PropOp52
 70
     0
102
RTVSPost2010Prop53
 90
        2
102
RTVSPost2010PropOp53
 70
     1
102
RTVSPost2010Prop54
  1
strokes_ogs.tif
102
RTVSPost2010PropOp54
 70
     1
102
RTVSPost2010Prop55
280
     0
102
RTVSPost2010PropOp55
 70
     1
102
RTVSPost2010Prop56
140
1.0
102
RTVSPost2010PropOp56
 70
     1
102
RTVSPost2010Prop57
140
1.0
102
RTVSPost2010PropOp57
 70
     1
  0
XRECORD
  5
2A9
102
{ACAD_REACTORS
330
2A8
102
}
330
2A8
100
AcDbXrecord
280
     1
102
RTVSPropertyOp0
 70
     1
102
RTVSPropertyOp1
 70
     1
102
RTVSPropertyOp2
 70
     1
102
RTVSPropertyOp3
 70
     1
102
RTVSPropertyOp4
 70
     1
102
RTVSPropertyOp5
 70
     1
102
RTVSPropertyOp6
 70
     1
102
RTVSPropertyOp7
 70
     1
102
RTVSPropertyOp8
 70
     1
102
RTVSPropertyOp9
 70
     1
102
RTVSPropertyOp10
 70
     1
102
RTVSPropertyOp11
 70
     1
102
RTVSPropertyOp12
 70
     1
102
RTVSPropertyOp13
 70
     1
102
RTVSPropertyOp14
 70
     1
102
RTVSPropertyOp15
 70
     1
102
RTVSPropertyOp16
 70
     1
102
RTVSPropertyOp17
 70
     1
102
RTVSPropertyOp18
 70
     1
102
RTVSPropertyOp19
 70
     1
102
RTVSPropertyOp20
 70
     1
102
RTVSPropertyOp21
 70
     1
102
RTVSPropertyOp22
 70
     1
102
RTVSPropertyOp23
 70
     1
102
RTVSPropertyOp24
 70
     1
102
RTVSPropertyOp25
 70
     1
102
RTVSPropertyOp26
 70
     1
102
RTVSPropertyOp27
 70
     1
102
RTVSPropertyOp28
 70
     1
102
RTVSPropertyOp29
 70
     1
102
RTVSPropertyOp30
 70
     1
102
RTVSPropertyOp31
 70
     1
102
RTVSPropertyOp32
 70
     1
102
RTVSPropertyOp33
 70
     1
102
RTVSPropertyOp34
 70
     1
102
RTVSPropertyOp35
 70
     1
102
RTVSPropertyOp36
 70
     1
102
RTVSPropertyOp37
 70
     1
102
RTVSPropertyOp38
 70
     1
102
RTVSPropertyOp39
 70
     1
102
RTVSPropertyOp40
 70
     1
102
RTVSPropertyOp41
 70
     1
102
RTVSPropertyOp42
 70
     1
102
RTVSPropertyOp43
 70
     1
102
RTVSPropertyOp44
 70
     1
102
RTVSPropertyOp45
 70
     1
102
RTVSPropertyOp46
 70
     1
102
RTVSPropertyOp47
 70
     1
102
RTVSPropertyOp48
 70
     1
102
RTVSPropertyOp49
 70
     1
102
RTVSPropertyOp50
 70
     1
102
RTVSPropertyOp51
 70
     0
102
RTVSPropertyOp52
 70
     0
102
RTVSPropertyOp53
 70
     1
102
RTVSPropertyOp54
 70
     1
102
RTVSPropertyOp55
 70
     1
102
RTVSPropertyOp56
 70
     1
102
RTVSPropertyOp57
 70
     1
102
RTVSPost2010Prop28
280
     0
102
RTVSPost2010PropOp28
 70
     1
102
RTVSPost2010Prop29
280
     1
102
RTVSPost2010PropOp29
 70
     1
102
RTVSPost2010Prop30
280
     1
102
RTVSPost2010PropOp30
 70
     1
102
RTVSPost2010Prop31
280
     0
102
RTVSPost2010PropOp31
 70
     1
102
RTVSPost2010Prop32
280
     0
102
RTVSPost2010PropOp32
 70
     1
102
RTVSPost2010Prop33
280
     0
102
RTVSPost2010PropOp33
 70
     1
102
RTVSPost2010Prop34
280
     0
102
RTVSPost2010PropOp34
 70
     1
102
RTVSPost2010Prop35
280
     0
102
RTVSPost2010PropOp35
 70
     1
102
RTVSPost2010Prop36
280
     0
102
RTVSPost2010PropOp36
 70
     1
102
RTVSPost2010Prop37
 90
       50
102
RTVSPost2010PropOp37
 70
     1
102
RTVSPost2010Prop38
140
0.0
102
RTVSPost2010PropOp38
 70
     1
102
RTVSPost2010Prop39
140
1.0
102
RTVSPost2010PropOp39
 70
     1
102
RTVSPost2010Prop40
 90
        0
102
RTVSPost2010PropOp40
 70
     1
102
RTVSPost2010Prop41ColorIndex
 90
       18
102
RTVSPost2010Prop41ColorRGB
 90
        0
102
RTVSPost2010PropOp41
 70
     1
102
RTVSPost2010Prop42
 90
       50
102
RTVSPost2010PropOp42
 70
     1
102
RTVSPost2010Prop43
 90
        3
102
RTVSPost2010PropOp43
 70
     1
102
RTVSPost2010Prop44ColorIndex
 90
        5
102
RTVSPost2010Prop44ColorRGB
 90
      255
102
RTVSPost2010PropOp44
 70
     1
102
RTVSPost2010Prop45
280
     0
102
RTVSPost2010PropOp45
 70
     1
102
RTVSPost2010Prop46
 90
       50
102
RTVSPost2010PropOp46
 70
     1
102
RTVSPost2010Prop47
 90
       50
102
RTVSPost2010PropOp47
 70
     1
102
RTVSPost2010Prop48
 90
       50
102
RTVSPost2010PropOp48
 70
     1
102
RTVSPost2010Prop49
280
     0
102
RTVSPost2010PropOp49
 70
     1
102
RTVSPost2010Prop50
 90
       50
102
RTVSPost2010PropOp50
 70
     1
102
RTVSPost2010Prop51ColorIndex
 90
      256
102
RTVSPost2010Prop51ColorRGB
 90
-16777216
102
RTVSPost2010PropOp51
 70
     0
102
RTVSPost2010Prop52
140
1.0
102
RTVSPost2010PropOp52
 70
     0
102
RTVSPost2010Prop53
 90
        2
102
RTVSPost2010PropOp53
 70
     1
102
RTVSPost2010Prop54
  1
strokes_ogs.tif
102
RTVSPost2010PropOp54
 70
     1
102
RTVSPost2010Prop55
280
     0
102
RTVSPost2010PropOp55
 70
     1
102
RTVSPost2010Prop56
140
1.0
102
RTVSPost2010PropOp56
 70
     1
102
RTVSPost2010Prop57
140
1.0
102
RTVSPost2010PropOp57
 70
     1
  0
XRECORD
  5
2AB
102
{ACAD_REACTORS
330
2AA
102
}
330
2AA
100
AcDbXrecord
280
     1
102
RTVSPropertyOp0
 70
     1
102
RTVSPropertyOp1
 70
     1
102
RTVSPropertyOp2
 70
     1
102
RTVSPropertyOp3
 70
     1
102
RTVSPropertyOp4
 70
     1
102
RTVSPropertyOp5
 70
     1
102
RTVSPropertyOp6
 70
     1
102
RTVSPropertyOp7
 70
     1
102
RTVSPropertyOp8
 70
     1
102
RTVSPropertyOp9
 70
     1
102
RTVSPropertyOp10
 70
     1
102
RTVSPropertyOp11
 70
     1
102
RTVSPropertyOp12
 70
     1
102
RTVSPropertyOp13
 70
     1
102
RTVSPropertyOp14
 70
     1
102
RTVSPropertyOp15
 70
     1
102
RTVSPropertyOp16
 70
     1
102
RTVSPropertyOp17
 70
     1
102
RTVSPropertyOp18
 70
     1
102
RTVSPropertyOp19
 70
     1
102
RTVSPropertyOp20
 70
     1
102
RTVSPropertyOp21
 70
     1
102
RTVSPropertyOp22
 70
     1
102
RTVSPropertyOp23
 70
     1
102
RTVSPropertyOp24
 70
     1
102
RTVSPropertyOp25
 70
     1
102
RTVSPropertyOp26
 70
     1
102
RTVSPropertyOp27
 70
     1
102
RTVSPropertyOp28
 70
     1
102
RTVSPropertyOp29
 70
     1
102
RTVSPropertyOp30
 70
     1
102
RTVSPropertyOp31
 70
     1
102
RTVSPropertyOp32
 70
     1
102
RTVSPropertyOp33
 70
     1
102
RTVSPropertyOp34
 70
     1
102
RTVSPropertyOp35
 70
     1
102
RTVSPropertyOp36
 70
     1
102
RTVSPropertyOp37
 70
     1
102
RTVSPropertyOp38
 70
     1
102
RTVSPropertyOp39
 70
     1
102
RTVSPropertyOp40
 70
     1
102
RTVSPropertyOp41
 70
     1
102
RTVSPropertyOp42
 70
     1
102
RTVSPropertyOp43
 70
     1
102
RTVSPropertyOp44
 70
     1
102
RTVSPropertyOp45
 70
     1
102
RTVSPropertyOp46
 70
     1
102
RTVSPropertyOp47
 70
     1
102
RTVSPropertyOp48
 70
     1
102
RTVSPropertyOp49
 70
     1
102
RTVSPropertyOp50
 70
     1
102
RTVSPropertyOp51
 70
     0
102
RTVSPropertyOp52
 70
     0
102
RTVSPropertyOp53
 70
     1
102
RTVSPropertyOp54
 70
     1
102
RTVSPropertyOp55
 70
     1
102
RTVSPropertyOp56
 70
     1
102
RTVSPropertyOp57
 70
     1
102
RTVSPost2010Prop28
280
     0
102
RTVSPost2010PropOp28
 70
     1
102
RTVSPost2010Prop29
280
     1
102
RTVSPost2010PropOp29
 70
     1
102
RTVSPost2010Prop30
280
     1
102
RTVSPost2010PropOp30
 70
     1
102
RTVSPost2010Prop31
280
     0
102
RTVSPost2010PropOp31
 70
     1
102
RTVSPost2010Prop32
280
     0
102
RTVSPost2010PropOp32
 70
     1
102
RTVSPost2010Prop33
280
     0
102
RTVSPost2010PropOp33
 70
     1
102
RTVSPost2010Prop34
280
     0
102
RTVSPost2010PropOp34
 70
     1
102
RTVSPost2010Prop35
280
     0
102
RTVSPost2010PropOp35
 70
     1
102
RTVSPost2010Prop36
280
     0
102
RTVSPost2010PropOp36
 70
     1
102
RTVSPost2010Prop37
 90
       50
102
RTVSPost2010PropOp37
 70
     1
102
RTVSPost2010Prop38
140
0.0
102
RTVSPost2010PropOp38
 70
     1
102
RTVSPost2010Prop39
140
1.0
102
RTVSPost2010PropOp39
 70
     1
102
RTVSPost2010Prop40
 90
        0
102
RTVSPost2010PropOp40
 70
     1
102
RTVSPost2010Prop41ColorIndex
 90
       18
102
RTVSPost2010Prop41ColorRGB
 90
        0
102
RTVSPost2010PropOp41
 70
     1
102
RTVSPost2010Prop42
 90
       50
102
RTVSPost2010PropOp42
 70
     1
102
RTVSPost2010Prop43
 90
        3
102
RTVSPost2010PropOp43
 70
     1
102
RTVSPost2010Prop44ColorIndex
 90
        5
102
RTVSPost2010Prop44ColorRGB
 90
      255
102
RTVSPost2010PropOp44
 70
     1
102
RTVSPost2010Prop45
280
     0
102
RTVSPost2010PropOp45
 70
     1
102
RTVSPost2010Prop46
 90
       50
102
RTVSPost2010PropOp46
 70
     1
102
RTVSPost2010Prop47
 90
       50
102
RTVSPost2010PropOp47
 70
     1
102
RTVSPost2010Prop48
 90
       50
102
RTVSPost2010PropOp48
 70
     1
102
RTVSPost2010Prop49
280
     0
102
RTVSPost2010PropOp49
 70
     1
102
RTVSPost2010Prop50
 90
       50
102
RTVSPost2010PropOp50
 70
     1
102
RTVSPost2010Prop51ColorIndex
 90
      256
102
RTVSPost2010Prop51ColorRGB
 90
-16777216
102
RTVSPost2010PropOp51
 70
     0
102
RTVSPost2010Prop52
140
1.0
102
RTVSPost2010PropOp52
 70
     0
102
RTVSPost2010Prop53
 90
        2
102
RTVSPost2010PropOp53
 70
     1
102
RTVSPost2010Prop54
  1
strokes_ogs.tif
102
RTVSPost2010PropOp54
 70
     1
102
RTVSPost2010Prop55
280
     0
102
RTVSPost2010PropOp55
 70
     1
102
RTVSPost2010Prop56
140
1.0
102
RTVSPost2010PropOp56
 70
     1
102
RTVSPost2010Prop57
140
1.0
102
RTVSPost2010PropOp57
 70
     1
  0
XRECORD
  5
29B
102
{ACAD_REACTORS
330
29A
102
}
330
29A
100
AcDbXrecord
280
     1
102
RTVSPropertyOp0
 70
     1
102
RTVSPropertyOp1
 70
     1
102
RTVSPropertyOp2
 70
     1
102
RTVSPropertyOp3
 70
     1
102
RTVSPropertyOp4
 70
     1
102
RTVSPropertyOp5
 70
     1
102
RTVSPropertyOp6
 70
     1
102
RTVSPropertyOp7
 70
     1
102
RTVSPropertyOp8
 70
     1
102
RTVSPropertyOp9
 70
     1
102
RTVSPropertyOp10
 70
     1
102
RTVSPropertyOp11
 70
     1
102
RTVSPropertyOp12
 70
     1
102
RTVSPropertyOp13
 70
     1
102
RTVSPropertyOp14
 70
     1
102
RTVSPropertyOp15
 70
     1
102
RTVSPropertyOp16
 70
     1
102
RTVSPropertyOp17
 70
     1
102
RTVSPropertyOp18
 70
     1
102
RTVSPropertyOp19
 70
     1
102
RTVSPropertyOp20
 70
     1
102
RTVSPropertyOp21
 70
     1
102
RTVSPropertyOp22
 70
     1
102
RTVSPropertyOp23
 70
     1
102
RTVSPropertyOp24
 70
     1
102
RTVSPropertyOp25
 70
     1
102
RTVSPropertyOp26
 70
     1
102
RTVSPropertyOp27
 70
     1
102
RTVSPropertyOp28
 70
     1
102
RTVSPropertyOp29
 70
     1
102
RTVSPropertyOp30
 70
     1
102
RTVSPropertyOp31
 70
     1
102
RTVSPropertyOp32
 70
     1
102
RTVSPropertyOp33
 70
     1
102
RTVSPropertyOp34
 70
     1
102
RTVSPropertyOp35
 70
     1
102
RTVSPropertyOp36
 70
     1
102
RTVSPropertyOp37
 70
     1
102
RTVSPropertyOp38
 70
     1
102
RTVSPropertyOp39
 70
     1
102
RTVSPropertyOp40
 70
     1
102
RTVSPropertyOp41
 70
     1
102
RTVSPropertyOp42
 70
     1
102
RTVSPropertyOp43
 70
     1
102
RTVSPropertyOp44
 70
     1
102
RTVSPropertyOp45
 70
     1
102
RTVSPropertyOp46
 70
     1
102
RTVSPropertyOp47
 70
     1
102
RTVSPropertyOp48
 70
     1
102
RTVSPropertyOp49
 70
     1
102
RTVSPropertyOp50
 70
     1
102
RTVSPropertyOp51
 70
     0
102
RTVSPropertyOp52
 70
     0
102
RTVSPropertyOp53
 70
     1
102
RTVSPropertyOp54
 70
     1
102
RTVSPropertyOp55
 70
     1
102
RTVSPropertyOp56
 70
     1
102
RTVSPropertyOp57
 70
     1
102
RTVSPost2010Prop28
280
     0
102
RTVSPost2010PropOp28
 70
     1
102
RTVSPost2010Prop29
280
     1
102
RTVSPost2010PropOp29
 70
     1
102
RTVSPost2010Prop30
280
     1
102
RTVSPost2010PropOp30
 70
     1
102
RTVSPost2010Prop31
280
     0
102
RTVSPost2010PropOp31
 70
     1
102
RTVSPost2010Prop32
280
     0
102
RTVSPost2010PropOp32
 70
     1
102
RTVSPost2010Prop33
280
     0
102
RTVSPost2010PropOp33
 70
     1
102
RTVSPost2010Prop34
280
     0
102
RTVSPost2010PropOp34
 70
     1
102
RTVSPost2010Prop35
280
     0
102
RTVSPost2010PropOp35
 70
     1
102
RTVSPost2010Prop36
280
     0
102
RTVSPost2010PropOp36
 70
     1
102
RTVSPost2010Prop37
 90
       50
102
RTVSPost2010PropOp37
 70
     1
102
RTVSPost2010Prop38
140
0.0
102
RTVSPost2010PropOp38
 70
     1
102
RTVSPost2010Prop39
140
1.0
102
RTVSPost2010PropOp39
 70
     1
102
RTVSPost2010Prop40
 90
        0
102
RTVSPost2010PropOp40
 70
     1
102
RTVSPost2010Prop41ColorIndex
 90
       18
102
RTVSPost2010Prop41ColorRGB
 90
        0
102
RTVSPost2010PropOp41
 70
     1
102
RTVSPost2010Prop42
 90
       50
102
RTVSPost2010PropOp42
 70
     1
102
RTVSPost2010Prop43
 90
        3
102
RTVSPost2010PropOp43
 70
     1
102
RTVSPost2010Prop44ColorIndex
 90
        5
102
RTVSPost2010Prop44ColorRGB
 90
      255
102
RTVSPost2010PropOp44
 70
     1
102
RTVSPost2010Prop45
280
     0
102
RTVSPost2010PropOp45
 70
     1
102
RTVSPost2010Prop46
 90
       50
102
RTVSPost2010PropOp46
 70
     1
102
RTVSPost2010Prop47
 90
       50
102
RTVSPost2010PropOp47
 70
     1
102
RTVSPost2010Prop48
 90
       50
102
RTVSPost2010PropOp48
 70
     1
102
RTVSPost2010Prop49
280
     0
102
RTVSPost2010PropOp49
 70
     1
102
RTVSPost2010Prop50
 90
       50
102
RTVSPost2010PropOp50
 70
     1
102
RTVSPost2010Prop51ColorIndex
 90
      256
102
RTVSPost2010Prop51ColorRGB
 90
-16777216
102
RTVSPost2010PropOp51
 70
     0
102
RTVSPost2010Prop52
140
1.0
102
RTVSPost2010PropOp52
 70
     0
102
RTVSPost2010Prop53
 90
        2
102
RTVSPost2010PropOp53
 70
     1
102
RTVSPost2010Prop54
  1
strokes_ogs.tif
102
RTVSPost2010PropOp54
 70
     1
102
RTVSPost2010Prop55
280
     0
102
RTVSPost2010PropOp55
 70
     1
102
RTVSPost2010Prop56
140
1.0
102
RTVSPost2010PropOp56
 70
     1
102
RTVSPost2010Prop57
140
1.0
102
RTVSPost2010PropOp57
 70
     1
  0
XRECORD
  5
28D
102
{ACAD_REACTORS
330
28C
102
}
330
28C
100
AcDbXrecord
280
     1
102
RTVSPropertyOp0
 70
     1
102
RTVSPropertyOp1
 70
     1
102
RTVSPropertyOp2
 70
     1
102
RTVSPropertyOp3
 70
     1
102
RTVSPropertyOp4
 70
     1
102
RTVSPropertyOp5
 70
     1
102
RTVSPropertyOp6
 70
     1
102
RTVSPropertyOp7
 70
     1
102
RTVSPropertyOp8
 70
     1
102
RTVSPropertyOp9
 70
     1
102
RTVSPropertyOp10
 70
     1
102
RTVSPropertyOp11
 70
     1
102
RTVSPropertyOp12
 70
     1
102
RTVSPropertyOp13
 70
     1
102
RTVSPropertyOp14
 70
     1
102
RTVSPropertyOp15
 70
     1
102
RTVSPropertyOp16
 70
     1
102
RTVSPropertyOp17
 70
     1
102
RTVSPropertyOp18
 70
     1
102
RTVSPropertyOp19
 70
     1
102
RTVSPropertyOp20
 70
     1
102
RTVSPropertyOp21
 70
     1
102
RTVSPropertyOp22
 70
     1
102
RTVSPropertyOp23
 70
     1
102
RTVSPropertyOp24
 70
     1
102
RTVSPropertyOp25
 70
     1
102
RTVSPropertyOp26
 70
     1
102
RTVSPropertyOp27
 70
     1
102
RTVSPropertyOp28
 70
     1
102
RTVSPropertyOp29
 70
     1
102
RTVSPropertyOp30
 70
     1
102
RTVSPropertyOp31
 70
     1
102
RTVSPropertyOp32
 70
     1
102
RTVSPropertyOp33
 70
     1
102
RTVSPropertyOp34
 70
     1
102
RTVSPropertyOp35
 70
     1
102
RTVSPropertyOp36
 70
     1
102
RTVSPropertyOp37
 70
     1
102
RTVSPropertyOp38
 70
     1
102
RTVSPropertyOp39
 70
     1
102
RTVSPropertyOp40
 70
     1
102
RTVSPropertyOp41
 70
     1
102
RTVSPropertyOp42
 70
     1
102
RTVSPropertyOp43
 70
     1
102
RTVSPropertyOp44
 70
     1
102
RTVSPropertyOp45
 70
     1
102
RTVSPropertyOp46
 70
     1
102
RTVSPropertyOp47
 70
     1
102
RTVSPropertyOp48
 70
     1
102
RTVSPropertyOp49
 70
     1
102
RTVSPropertyOp50
 70
     1
102
RTVSPropertyOp51
 70
     0
102
RTVSPropertyOp52
 70
     0
102
RTVSPropertyOp53
 70
     1
102
RTVSPropertyOp54
 70
     1
102
RTVSPropertyOp55
 70
     1
102
RTVSPropertyOp56
 70
     1
102
RTVSPropertyOp57
 70
     1
102
RTVSPost2010Prop28
280
     0
102
RTVSPost2010PropOp28
 70
     1
102
RTVSPost2010Prop29
280
     1
102
RTVSPost2010PropOp29
 70
     1
102
RTVSPost2010Prop30
280
     1
102
RTVSPost2010PropOp30
 70
     1
102
RTVSPost2010Prop31
280
     0
102
RTVSPost2010PropOp31
 70
     1
102
RTVSPost2010Prop32
280
     0
102
RTVSPost2010PropOp32
 70
     1
102
RTVSPost2010Prop33
280
     0
102
RTVSPost2010PropOp33
 70
     1
102
RTVSPost2010Prop34
280
     0
102
RTVSPost2010PropOp34
 70
     1
102
RTVSPost2010Prop35
280
     0
102
RTVSPost2010PropOp35
 70
     1
102
RTVSPost2010Prop36
280
     0
102
RTVSPost2010PropOp36
 70
     1
102
RTVSPost2010Prop37
 90
       50
102
RTVSPost2010PropOp37
 70
     1
102
RTVSPost2010Prop38
140
0.0
102
RTVSPost2010PropOp38
 70
     1
102
RTVSPost2010Prop39
140
1.0
102
RTVSPost2010PropOp39
 70
     1
102
RTVSPost2010Prop40
 90
        0
102
RTVSPost2010PropOp40
 70
     1
102
RTVSPost2010Prop41ColorIndex
 90
       18
102
RTVSPost2010Prop41ColorRGB
 90
        0
102
RTVSPost2010PropOp41
 70
     1
102
RTVSPost2010Prop42
 90
       50
102
RTVSPost2010PropOp42
 70
     1
102
RTVSPost2010Prop43
 90
        3
102
RTVSPost2010PropOp43
 70
     1
102
RTVSPost2010Prop44ColorIndex
 90
        5
102
RTVSPost2010Prop44ColorRGB
 90
      255
102
RTVSPost2010PropOp44
 70
     1
102
RTVSPost2010Prop45
280
     0
102
RTVSPost2010PropOp45
 70
     1
102
RTVSPost2010Prop46
 90
       50
102
RTVSPost2010PropOp46
 70
     1
102
RTVSPost2010Prop47
 90
       50
102
RTVSPost2010PropOp47
 70
     1
102
RTVSPost2010Prop48
 90
       50
102
RTVSPost2010PropOp48
 70
     1
102
RTVSPost2010Prop49
280
     0
102
RTVSPost2010PropOp49
 70
     1
102
RTVSPost2010Prop50
 90
       50
102
RTVSPost2010PropOp50
 70
     1
102
RTVSPost2010Prop51ColorIndex
 90
      256
102
RTVSPost2010Prop51ColorRGB
 90
-16777216
102
RTVSPost2010PropOp51
 70
     0
102
RTVSPost2010Prop52
140
1.0
102
RTVSPost2010PropOp52
 70
     0
102
RTVSPost2010Prop53
 90
        2
102
RTVSPost2010PropOp53
 70
     1
102
RTVSPost2010Prop54
  1
strokes_ogs.tif
102
RTVSPost2010PropOp54
 70
     1
102
RTVSPost2010Prop55
280
     0
102
RTVSPost2010PropOp55
 70
     1
102
RTVSPost2010Prop56
140
1.0
102
RTVSPost2010PropOp56
 70
     1
102
RTVSPost2010Prop57
140
1.0
102
RTVSPost2010PropOp57
 70
     1
  0
XRECORD
  5
2AD
102
{ACAD_REACTORS
330
2AC
102
}
330
2AC
100
AcDbXrecord
280
     1
102
RTVSPropertyOp0
 70
     1
102
RTVSPropertyOp1
 70
     1
102
RTVSPropertyOp2
 70
     1
102
RTVSPropertyOp3
 70
     1
102
RTVSPropertyOp4
 70
     1
102
RTVSPropertyOp5
 70
     1
102
RTVSPropertyOp6
 70
     1
102
RTVSPropertyOp7
 70
     1
102
RTVSPropertyOp8
 70
     1
102
RTVSPropertyOp9
 70
     1
102
RTVSPropertyOp10
 70
     1
102
RTVSPropertyOp11
 70
     1
102
RTVSPropertyOp12
 70
     1
102
RTVSPropertyOp13
 70
     1
102
RTVSPropertyOp14
 70
     1
102
RTVSPropertyOp15
 70
     1
102
RTVSPropertyOp16
 70
     1
102
RTVSPropertyOp17
 70
     1
102
RTVSPropertyOp18
 70
     1
102
RTVSPropertyOp19
 70
     1
102
RTVSPropertyOp20
 70
     1
102
RTVSPropertyOp21
 70
     1
102
RTVSPropertyOp22
 70
     1
102
RTVSPropertyOp23
 70
     1
102
RTVSPropertyOp24
 70
     1
102
RTVSPropertyOp25
 70
     1
102
RTVSPropertyOp26
 70
     1
102
RTVSPropertyOp27
 70
     1
102
RTVSPropertyOp28
 70
     1
102
RTVSPropertyOp29
 70
     1
102
RTVSPropertyOp30
 70
     1
102
RTVSPropertyOp31
 70
     1
102
RTVSPropertyOp32
 70
     1
102
RTVSPropertyOp33
 70
     1
102
RTVSPropertyOp34
 70
     1
102
RTVSPropertyOp35
 70
     1
102
RTVSPropertyOp36
 70
     1
102
RTVSPropertyOp37
 70
     1
102
RTVSPropertyOp38
 70
     1
102
RTVSPropertyOp39
 70
     1
102
RTVSPropertyOp40
 70
     1
102
RTVSPropertyOp41
 70
     1
102
RTVSPropertyOp42
 70
     1
102
RTVSPropertyOp43
 70
     1
102
RTVSPropertyOp44
 70
     1
102
RTVSPropertyOp45
 70
     1
102
RTVSPropertyOp46
 70
     1
102
RTVSPropertyOp47
 70
     1
102
RTVSPropertyOp48
 70
     1
102
RTVSPropertyOp49
 70
     1
102
RTVSPropertyOp50
 70
     1
102
RTVSPropertyOp51
 70
     0
102
RTVSPropertyOp52
 70
     0
102
RTVSPropertyOp53
 70
     1
102
RTVSPropertyOp54
 70
     1
102
RTVSPropertyOp55
 70
     1
102
RTVSPropertyOp56
 70
     1
102
RTVSPropertyOp57
 70
     1
102
RTVSPost2010Prop28
280
     0
102
RTVSPost2010PropOp28
 70
     1
102
RTVSPost2010Prop29
280
     1
102
RTVSPost2010PropOp29
 70
     1
102
RTVSPost2010Prop30
280
     1
102
RTVSPost2010PropOp30
 70
     1
102
RTVSPost2010Prop31
280
     0
102
RTVSPost2010PropOp31
 70
     1
102
RTVSPost2010Prop32
280
     0
102
RTVSPost2010PropOp32
 70
     1
102
RTVSPost2010Prop33
280
     0
102
RTVSPost2010PropOp33
 70
     1
102
RTVSPost2010Prop34
280
     0
102
RTVSPost2010PropOp34
 70
     1
102
RTVSPost2010Prop35
280
     0
102
RTVSPost2010PropOp35
 70
     1
102
RTVSPost2010Prop36
280
     0
102
RTVSPost2010PropOp36
 70
     1
102
RTVSPost2010Prop37
 90
       50
102
RTVSPost2010PropOp37
 70
     1
102
RTVSPost2010Prop38
140
0.0
102
RTVSPost2010PropOp38
 70
     1
102
RTVSPost2010Prop39
140
1.0
102
RTVSPost2010PropOp39
 70
     1
102
RTVSPost2010Prop40
 90
        0
102
RTVSPost2010PropOp40
 70
     1
102
RTVSPost2010Prop41ColorIndex
 90
       18
102
RTVSPost2010Prop41ColorRGB
 90
        0
102
RTVSPost2010PropOp41
 70
     1
102
RTVSPost2010Prop42
 90
       50
102
RTVSPost2010PropOp42
 70
     1
102
RTVSPost2010Prop43
 90
        3
102
RTVSPost2010PropOp43
 70
     1
102
RTVSPost2010Prop44ColorIndex
 90
        5
102
RTVSPost2010Prop44ColorRGB
 90
      255
102
RTVSPost2010PropOp44
 70
     1
102
RTVSPost2010Prop45
280
     0
102
RTVSPost2010PropOp45
 70
     1
102
RTVSPost2010Prop46
 90
       50
102
RTVSPost2010PropOp46
 70
     1
102
RTVSPost2010Prop47
 90
       50
102
RTVSPost2010PropOp47
 70
     1
102
RTVSPost2010Prop48
 90
       50
102
RTVSPost2010PropOp48
 70
     1
102
RTVSPost2010Prop49
280
     0
102
RTVSPost2010PropOp49
 70
     1
102
RTVSPost2010Prop50
 90
       50
102
RTVSPost2010PropOp50
 70
     1
102
RTVSPost2010Prop51ColorIndex
 90
      256
102
RTVSPost2010Prop51ColorRGB
 90
-16777216
102
RTVSPost2010PropOp51
 70
     0
102
RTVSPost2010Prop52
140
1.0
102
RTVSPost2010PropOp52
 70
     0
102
RTVSPost2010Prop53
 90
        2
102
RTVSPost2010PropOp53
 70
     1
102
RTVSPost2010Prop54
  1
strokes_ogs.tif
102
RTVSPost2010PropOp54
 70
     1
102
RTVSPost2010Prop55
280
     0
102
RTVSPost2010PropOp55
 70
     1
102
RTVSPost2010Prop56
140
1.0
102
RTVSPost2010PropOp56
 70
     1
102
RTVSPost2010Prop57
140
1.0
102
RTVSPost2010PropOp57
 70
     1
  0
ENDSEC
  0
EOF
