  0
SECTION
  2
HEADER
  9
$ACADVER
  1
AC1009
  9
$INSBASE
 10
0.000000000
 20
0.000000000
  9
$EXTMIN
 10
-109.652909529
 20
-28.035130972
  9
$EXTMAX
 10
303.703228090
 20
308.386440690
  9
$LIMMIN
 10
-109.652909529
 20
-28.035130972
  9
$LIMMAX
 10
303.703228090
 20
308.386440690
  9
$SNAPBASE
 10
0.000000000
 20
0.000000000
  9
$SNAPANG
 50
0.000000000
  9
$SNAPSTYLE
 70
0
  9
$GRIDMODE
 70
0
  9
$GRIDUNIT
 10
0.000000000
 20
0.000000000
  9
$DIMEXO
 40
0.000000000
  9
$DIMDLI
 40
8.000000000
  9
$DIMDLE
 40
0.000000000
  9
$DIMEXE
 40
1.000000000
  9
$DIMTIH
 70
1
  9
$DIMTOH
 70
1
  9
$DIMTAD
 70
2
  9
$DIMZIN
 70
0
  9
$FILLETRAD
 40
1.000000000
  9
$CHAMFERA
 40
1.000000000
  9
$CHAMFERB
 40
1.000000000
  9
$TDCREATE
 40
2454634.373541667
  9
$TDUPDATE
 40
2454634.373541667
  9
$ANGBASE
 50
0.000000000
  9
$ANGDIR
 70
0
  0
ENDSEC
  0
SECTION
  2
TABLES
  0
TABLE
  2
LTYPE
 70
4
  0
LTYPE
  2
CENTER
 70
64
  3
___ _ ___ _ __
 72
65
 73
4
 40
13.000000000
 49
8.500000000
 49
-1.500000000
 49
1.500000000
 49
-1.500000000
  0
LTYPE
  2
CONTINUOUS
 70
64
  3
______________
 72
65
 73
0
 40
0.000000000
  0
LTYPE
  2
DIVIDE
 70
64
  3
___ . . ___ . 
 72
65
 73
6
 40
12.999999523
 49
5.199999809
 49
-2.599999905
 49
0.000000000
 49
-2.599999905
 49
0.000000000
 49
-2.599999905
  0
LTYPE
  2
PHANTOM
 70
64
  3
___ _ _ ___ _ 
 72
65
 73
6
 40
12.999999762
 49
4.000000000
 49
-1.799999952
 49
1.799999952
 49
-1.799999952
 49
1.799999952
 49
-1.799999952
  0
ENDTAB
  0
TABLE
  2
LAYER
 70
1
  0
LAYER
  2
1
 70
0
 62
7
  6
CONTINUOUS
  0
LAYER
  2
_CONSTR
 70
0
 62
5
  6
CONTINUOUS
  0
ENDTAB
  0
TABLE
  2
STYLE
 70
1
  0
STYLE
  2
STANDARD
 70
64
 40
0.000000000
 41
1.000000000
 50
0.000000000
 71
0
 42
3.200000000
  3
TXT
  4
EXTFONT
  0
ENDTAB
  0
TABLE
  2
VIEW
 70
0
  0
ENDTAB
  0
ENDSEC
  0
SECTION
  2
BLOCKS
  0
BLOCK
  8
0
  2
*D1
 70
65
 10
0.000000000
 20
0.000000000
  3
*D
  0
TEXT
  8
1
 62
4
  6
CONTINUOUS
 72
5
 10
-11.048116712
 20
151.169269565
 40
2.800000000
  1
30
 41
1.000000667
 50
90.000000000
 11
-11.048116712
 21
155.369269565
  0
POLYLINE
  8
1
 62
4
  6
CONTINUOUS
 66
1
  0
VERTEX
  8
1
 10
-9.143116712
 20
140.260869565
  0
VERTEX
  8
1
 10
-8.843116712
 20
138.260869565
  0
VERTEX
  8
1
 10
-8.543116712
 20
140.260869565
  0
SEQEND
  8
1
  0
LINE
  8
1
 62
4
  6
CONTINUOUS
 10
-8.843116712
 20
138.260869565
 11
-8.843116712
 21
168.260869565
  0
POLYLINE
  8
1
 62
4
  6
CONTINUOUS
 66
1
  0
VERTEX
  8
1
 10
-8.543116712
 20
166.260869565
  0
VERTEX
  8
1
 10
-8.843116712
 20
168.260869565
  0
VERTEX
  8
1
 10
-9.143116712
 20
166.260869565
  0
SEQEND
  8
1
  0
LINE
  8
1
 62
4
  6
CONTINUOUS
 10
16.156883288
 20
168.260869565
 11
-10.843116712
 21
168.260869565
  0
ENDBLK
  8
0
  0
BLOCK
  8
0
  2
*D2
 70
65
 10
0.000000000
 20
0.000000000
  3
*D
  0
TEXT
  8
1
 62
4
  6
CONTINUOUS
 72
5
 10
-11.048116712
 20
118.607790903
 40
2.800000000
  1
(
 41
1.800001800
 50
90.000000000
 11
-11.048116712
 21
120.287790903
  0
TEXT
  8
1
 62
4
  6
CONTINUOUS
 72
5
 10
-11.048116712
 20
121.127790903
 40
2.800000000
  1
6.4
 41
1.199998800
 50
90.000000000
 11
-11.048116712
 21
127.847790903
  0
TEXT
  8
1
 62
4
  6
CONTINUOUS
 72
5
 10
-11.048116712
 20
128.687790903
 40
2.800000000
  1
)
 41
1.800001800
 50
90.000000000
 11
-11.048116712
 21
130.367790903
  0
LINE
  8
1
 62
4
  6
CONTINUOUS
 10
21.106883288
 20
131.897464107
 11
-10.843116712
 21
131.897464107
  0
POLYLINE
  8
1
 62
4
  6
CONTINUOUS
 66
1
  0
VERTEX
  8
1
 10
-9.143116712
 20
129.897464107
  0
VERTEX
  8
1
 10
-8.843116712
 20
131.897464107
  0
SEQEND
  8
1
  0
POLYLINE
  8
1
 62
4
  6
CONTINUOUS
 66
1
  0
VERTEX
  8
1
 10
-8.843116712
 20
128.897464107
  0
VERTEX
  8
1
 10
-8.843116712
 20
131.897464107
  0
VERTEX
  8
1
 10
-8.543116712
 20
129.897464107
  0
SEQEND
  8
1
  0
LINE
  8
1
 62
4
  6
CONTINUOUS
 10
-8.843116712
 20
131.897464107
 11
-8.843116712
 21
138.260869565
  0
POLYLINE
  8
1
 62
4
  6
CONTINUOUS
 66
1
  0
VERTEX
  8
1
 10
-8.543116712
 20
140.260869565
  0
VERTEX
  8
1
 10
-8.843116712
 20
138.260869565
  0
SEQEND
  8
1
  0
POLYLINE
  8
1
 62
4
  6
CONTINUOUS
 66
1
  0
VERTEX
  8
1
 10
-8.843116712
 20
141.260869565
  0
VERTEX
  8
1
 10
-8.843116712
 20
138.260869565
  0
VERTEX
  8
1
 10
-9.143116712
 20
140.260869565
  0
SEQEND
  8
1
  0
LINE
  8
1
 62
4
  6
CONTINUOUS
 10
16.256883288
 20
138.260869565
 11
-10.843116712
 21
138.260869565
  0
POLYLINE
  8
1
 62
4
  6
CONTINUOUS
 66
1
  0
VERTEX
  8
1
 10
-8.843116712
 20
131.897464107
  0
VERTEX
  8
1
 10
-8.843116712
 20
116.607790903
  0
SEQEND
  8
1
  0
ENDBLK
  8
0
  0
BLOCK
  8
0
  2
blk24
 70
64
 10
0.000000000
 20
0.000000000
  3
blk24
  0
ARC
  8
1
 62
7
  6
CONTINUOUS
 10
0.000000000
 20
0.000000000
 40
1.000000000
 50
269.999994235
 51
360.000000000
  0
ENDBLK
  8
0
  0
BLOCK
  8
0
  2
blk25
 70
64
 10
0.000000000
 20
0.000000000
  3
blk25
  0
ARC
  8
1
 62
7
  6
CONTINUOUS
 10
0.000000000
 20
0.000000000
 40
1.000000000
 50
90.000000000
 51
179.999993629
  0
ENDBLK
  8
0
  0
BLOCK
  8
0
  2
blk46
 70
64
 10
0.000000000
 20
0.000000000
  3
blk46
  0
ARC
  8
1
 62
7
  6
CONTINUOUS
 10
0.000000000
 20
0.000000000
 40
1.000000000
 50
90.000000000
 51
179.999993629
  0
ENDBLK
  8
0
  0
BLOCK
  8
0
  2
blk47
 70
64
 10
0.000000000
 20
0.000000000
  3
blk47
  0
ARC
  8
1
 62
7
  6
CONTINUOUS
 10
0.000000000
 20
0.000000000
 40
1.000000000
 50
269.999994235
 51
360.000000000
  0
ENDBLK
  8
0
  0
BLOCK
  8
0
  2
*D50
 70
65
 10
0.000000000
 20
0.000000000
  3
*D
  0
TEXT
  8
1
 62
4
  6
CONTINUOUS
 72
5
 10
71.185283288
 20
109.969077292
 40
2.800000000
  1
105.8
 41
1.199999314
 11
82.945283288
 21
109.969077292
  0
LINE
  8
1
 62
4
  6
CONTINUOUS
 10
24.156883288
 20
128.897464107
 11
24.156883288
 21
105.764077292
  0
POLYLINE
  8
1
 62
4
  6
CONTINUOUS
 66
1
  0
VERTEX
  8
1
 10
26.156883288
 20
108.064077292
  0
VERTEX
  8
1
 10
24.156883288
 20
107.764077292
  0
VERTEX
  8
1
 10
26.156883288
 20
107.464077292
  0
SEQEND
  8
1
  0
LINE
  8
1
 62
4
  6
CONTINUOUS
 10
24.156883288
 20
107.764077292
 11
129.956883288
 21
107.764077292
  0
POLYLINE
  8
1
 62
4
  6
CONTINUOUS
 66
1
  0
VERTEX
  8
1
 10
127.956883288
 20
107.464077292
  0
VERTEX
  8
1
 10
129.956883288
 20
107.764077292
  0
VERTEX
  8
1
 10
127.956883288
 20
108.064077292
  0
SEQEND
  8
1
  0
LINE
  8
1
 62
4
  6
CONTINUOUS
 10
129.956883288
 20
138.360869565
 11
129.956883288
 21
105.764077292
  0
ENDBLK
  8
0
  0
BLOCK
  8
0
  2
*D53
 70
65
 10
0.000000000
 20
0.000000000
  3
*D
  0
TEXT
  8
1
 62
4
  6
CONTINUOUS
 72
5
 10
139.245283289
 20
101.969077292
 40
2.800000000
  1
27.8
 41
1.099999267
 11
148.485283289
 21
101.969077292
  0
POLYLINE
  8
1
 62
4
  6
CONTINUOUS
 66
1
  0
VERTEX
  8
1
 10
131.956883288
 20
100.064077292
  0
VERTEX
  8
1
 10
129.956883288
 20
99.764077292
  0
VERTEX
  8
1
 10
131.956883288
 20
99.464077292
  0
SEQEND
  8
1
  0
LINE
  8
1
 62
4
  6
CONTINUOUS
 10
129.956883288
 20
99.764077292
 11
157.756883289
 21
99.764077292
  0
POLYLINE
  8
1
 62
4
  6
CONTINUOUS
 66
1
  0
VERTEX
  8
1
 10
155.756883289
 20
99.464077292
  0
VERTEX
  8
1
 10
157.756883289
 20
99.764077292
  0
VERTEX
  8
1
 10
155.756883289
 20
100.064077292
  0
SEQEND
  8
1
  0
LINE
  8
1
 62
4
  6
CONTINUOUS
 10
157.756883289
 20
138.610869565
 11
157.756883289
 21
97.764077292
  0
ENDBLK
  8
0
  0
BLOCK
  8
0
  2
blk68
 70
64
 10
0.000000000
 20
0.000000000
  3
blk68
  0
ARC
  8
1
 62
7
  6
CONTINUOUS
 10
0.000000000
 20
0.000000000
 40
1.000000000
 50
336.011865431
 51
383.988134569
  0
ENDBLK
  8
0
  0
BLOCK
  8
0
  2
*D99
 70
65
 10
0.000000000
 20
0.000000000
  3
*D
  0
TEXT
  8
1
 62
4
  6
CONTINUOUS
 72
5
 10
158.645283289
 20
109.969077292
 40
2.800000000
  1
(
 41
1.800001800
 11
160.325283289
 21
109.969077292
  0
TEXT
  8
1
 62
4
  6
CONTINUOUS
 72
5
 10
161.165283289
 20
109.969077292
 40
2.800000000
  1
11
 41
1.500000000
 11
165.365283289
 21
109.969077292
  0
TEXT
  8
1
 62
4
  6
CONTINUOUS
 72
5
 10
166.205283289
 20
109.969077292
 40
2.800000000
  1
)
 41
1.800001800
 11
167.885283289
 21
109.969077292
  0
LINE
  8
1
 62
4
  6
CONTINUOUS
 10
157.756883289
 20
138.610869565
 11
157.756883289
 21
105.764077292
  0
POLYLINE
  8
1
 62
4
  6
CONTINUOUS
 66
1
  0
VERTEX
  8
1
 10
159.756883289
 20
108.064077292
  0
VERTEX
  8
1
 10
157.756883289
 20
107.764077292
  0
VERTEX
  8
1
 10
159.756883289
 20
107.464077292
  0
SEQEND
  8
1
  0
LINE
  8
1
 62
4
  6
CONTINUOUS
 10
157.756883289
 20
107.764077292
 11
168.756883288
 21
107.764077292
  0
POLYLINE
  8
1
 62
4
  6
CONTINUOUS
 66
1
  0
VERTEX
  8
1
 10
166.756883288
 20
107.464077292
  0
VERTEX
  8
1
 10
168.756883288
 20
107.764077292
  0
VERTEX
  8
1
 10
166.756883288
 20
108.064077292
  0
SEQEND
  8
1
  0
LINE
  8
1
 62
4
  6
CONTINUOUS
 10
168.756883288
 20
147.510869565
 11
168.756883288
 21
105.764077292
  0
ENDBLK
  8
0
  0
BLOCK
  8
0
  2
*D100
 70
65
 10
0.000000000
 20
0.000000000
  3
*D
  0
TEXT
  8
1
 62
4
  6
CONTINUOUS
 72
5
 10
197.685283289
 20
101.969077292
 40
2.800000000
  1
(300)
 41
1.145454754
 11
209.445283289
 21
101.969077292
  0
LINE
  8
1
 62
4
  6
CONTINUOUS
 10
157.756883289
 20
138.610869565
 11
157.756883289
 21
97.764077292
  0
POLYLINE
  8
1
 62
4
  6
CONTINUOUS
 66
1
  0
VERTEX
  8
1
 10
159.756883289
 20
100.064077292
  0
VERTEX
  8
1
 10
157.756883289
 20
99.764077292
  0
VERTEX
  8
1
 10
159.756883289
 20
99.464077292
  0
SEQEND
  8
1
  0
LINE
  8
1
 62
4
  6
CONTINUOUS
 10
157.756883289
 20
99.764077292
 11
249.356883288
 21
99.764077292
  0
POLYLINE
  8
1
 62
4
  6
CONTINUOUS
 66
1
  0
VERTEX
  8
1
 10
247.356883288
 20
99.464077292
  0
VERTEX
  8
1
 10
249.356883288
 20
99.764077292
  0
VERTEX
  8
1
 10
247.356883288
 20
100.064077292
  0
SEQEND
  8
1
  0
LINE
  8
1
 62
4
  6
CONTINUOUS
 10
249.356883288
 20
144.010869647
 11
249.356883288
 21
97.764077292
  0
ENDBLK
  8
0
  0
BLOCK
  8
0
  2
*D102
 70
65
 10
0.000000000
 20
0.000000000
  3
*D
  0
TEXT
  8
1
 62
4
  6
CONTINUOUS
 72
5
 10
267.051883288
 20
146.129269647
 40
2.800000000
  1
φ
 41
1.270648030
 50
90.000000000
 11
267.051883288
 21
149.489269647
  0
TEXT
  8
1
 62
4
  6
CONTINUOUS
 72
5
 10
267.051883288
 20
151.169269647
 40
2.800000000
  1
18.5
 41
1.237498917
 50
90.000000000
 11
267.051883288
 21
160.409269647
  0
LINE
  8
1
 62
4
  6
CONTINUOUS
 10
249.356883288
 20
162.510869647
 11
271.256883288
 21
162.510869647
  0
POLYLINE
  8
1
 62
4
  6
CONTINUOUS
 66
1
  0
VERTEX
  8
1
 10
269.556883288
 20
160.510869647
  0
VERTEX
  8
1
 10
269.256883288
 20
162.510869647
  0
VERTEX
  8
1
 10
268.956883288
 20
160.510869647
  0
SEQEND
  8
1
  0
LINE
  8
1
 62
4
  6
CONTINUOUS
 10
269.256883288
 20
162.510869647
 11
269.256883288
 21
144.010869647
  0
POLYLINE
  8
1
 62
4
  6
CONTINUOUS
 66
1
  0
VERTEX
  8
1
 10
268.956883288
 20
146.010869647
  0
VERTEX
  8
1
 10
269.256883288
 20
144.010869647
  0
VERTEX
  8
1
 10
269.556883288
 20
146.010869647
  0
SEQEND
  8
1
  0
LINE
  8
1
 62
4
  6
CONTINUOUS
 10
249.356883288
 20
144.010869647
 11
271.256883288
 21
144.010869647
  0
ENDBLK
  8
0
  0
BLOCK
  8
0
  2
*D147
 70
65
 10
0.000000000
 20
0.000000000
  3
*D
  0
TEXT
  8
1
 62
4
  6
CONTINUOUS
 72
5
 10
-3.048116712
 20
143.669269565
 40
2.800000000
  1
15
 41
1.124997750
 50
90.000000000
 11
-3.048116712
 21
147.869269565
  0
LINE
  8
1
 62
4
  6
CONTINUOUS
 10
8.156883288
 20
153.260869565
 11
-2.843116712
 21
153.260869565
  0
POLYLINE
  8
1
 62
4
  6
CONTINUOUS
 66
1
  0
VERTEX
  8
1
 10
-0.543116712
 20
151.260869565
  0
VERTEX
  8
1
 10
-0.843116712
 20
153.260869565
  0
VERTEX
  8
1
 10
-1.143116712
 20
151.260869565
  0
SEQEND
  8
1
  0
LINE
  8
1
 62
4
  6
CONTINUOUS
 10
-0.843116712
 20
153.260869565
 11
-0.843116712
 21
138.260869565
  0
POLYLINE
  8
1
 62
4
  6
CONTINUOUS
 66
1
  0
VERTEX
  8
1
 10
-1.143116712
 20
140.260869565
  0
VERTEX
  8
1
 10
-0.843116712
 20
138.260869565
  0
VERTEX
  8
1
 10
-0.543116712
 20
140.260869565
  0
SEQEND
  8
1
  0
LINE
  8
1
 62
4
  6
CONTINUOUS
 10
16.256883288
 20
138.260869565
 11
-2.843116712
 21
138.260869565
  0
ENDBLK
  8
0
  0
BLOCK
  8
0
  2
*D149
 70
65
 10
0.000000000
 20
0.000000000
  3
*D
  0
TEXT
  8
1
 62
4
  6
CONTINUOUS
 72
5
 10
64.685283288
 20
101.969077292
 40
2.800000000
  1
118.8
 41
1.259998992
 11
76.445283288
 21
101.969077292
  0
LINE
  8
1
 62
4
  6
CONTINUOUS
 10
11.156883288
 20
141.776979405
 11
11.156883288
 21
97.764077292
  0
POLYLINE
  8
1
 62
4
  6
CONTINUOUS
 66
1
  0
VERTEX
  8
1
 10
13.156883288
 20
100.064077292
  0
VERTEX
  8
1
 10
11.156883288
 20
99.764077292
  0
VERTEX
  8
1
 10
13.156883288
 20
99.464077292
  0
SEQEND
  8
1
  0
LINE
  8
1
 62
4
  6
CONTINUOUS
 10
11.156883288
 20
99.764077292
 11
129.956883288
 21
99.764077292
  0
POLYLINE
  8
1
 62
4
  6
CONTINUOUS
 66
1
  0
VERTEX
  8
1
 10
127.956883288
 20
99.464077292
  0
VERTEX
  8
1
 10
129.956883288
 20
99.764077292
  0
VERTEX
  8
1
 10
127.956883288
 20
100.064077292
  0
SEQEND
  8
1
  0
LINE
  8
1
 62
4
  6
CONTINUOUS
 10
129.956883288
 20
138.360869565
 11
129.956883288
 21
97.764077292
  0
ENDBLK
  8
0
  0
BLOCK
  8
0
  2
*D156
 70
65
 10
0.000000000
 20
0.000000000
  3
*D
  0
TEXT
  8
1
 62
4
  6
CONTINUOUS
 72
5
 10
83.068161761
 20
145.146687499
 40
2.800000000
  1
φ
 41
1.270648030
 50
90.000000000
 11
83.068161761
 21
148.506687499
  0
TEXT
  8
1
 62
4
  6
CONTINUOUS
 72
5
 10
83.068161761
 20
150.186687499
 40
2.800000000
  1
30
 41
1.000000667
 50
90.000000000
 11
83.068161761
 21
154.386687499
  0
TEXT
  8
1
 62
4
  6
CONTINUOUS
 72
5
 10
81.304161761
 20
155.226687499
 40
1.400000000
  1
 0
 41
2.333335926
 50
90.000000000
 11
81.304161761
 21
158.166687499
  0
TEXT
  8
1
 62
4
  6
CONTINUOUS
 72
5
 10
83.446161761
 20
155.226687499
 40
1.400000000
  1
-0.01
 41
1.710000684
 50
90.000000000
 11
83.446161761
 21
163.206687499
  0
POLYLINE
  8
1
 62
4
  6
CONTINUOUS
 66
1
  0
VERTEX
  8
1
 10
85.573161761
 20
166.260869565
  0
VERTEX
  8
1
 10
85.273161761
 20
168.260869565
  0
VERTEX
  8
1
 10
84.973161761
 20
166.260869565
  0
SEQEND
  8
1
  0
LINE
  8
1
 62
4
  6
CONTINUOUS
 10
85.273161761
 20
168.260869565
 11
85.273161761
 21
138.260869565
  0
POLYLINE
  8
1
 62
4
  6
CONTINUOUS
 66
1
  0
VERTEX
  8
1
 10
84.973161761
 20
140.260869565
  0
VERTEX
  8
1
 10
85.273161761
 20
138.260869565
  0
VERTEX
  8
1
 10
85.573161761
 20
140.260869565
  0
SEQEND
  8
1
  0
ENDBLK
  8
0
  0
BLOCK
  8
0
  2
*D167
 70
65
 10
0.000000000
 20
0.000000000
  3
*D
  0
TEXT
  8
1
 62
4
  6
CONTINUOUS
 72
5
 10
28.537811383
 20
125.969077292
 40
2.800000000
  1
φ
 41
1.270648030
 11
31.897811383
 21
125.969077292
  0
TEXT
  8
1
 62
4
  6
CONTINUOUS
 72
5
 10
33.577811383
 20
125.969077292
 40
2.800000000
  1
6.9
 41
1.199998800
 11
40.297811383
 21
125.969077292
  0
LINE
  8
1
 62
4
  6
CONTINUOUS
 10
20.706883288
 20
132.297464107
 11
20.706883288
 21
121.764077292
  0
POLYLINE
  8
1
 62
4
  6
CONTINUOUS
 66
1
  0
VERTEX
  8
1
 10
18.706883288
 20
124.064077292
  0
VERTEX
  8
1
 10
20.706883288
 20
123.764077292
  0
SEQEND
  8
1
  0
POLYLINE
  8
1
 62
4
  6
CONTINUOUS
 66
1
  0
VERTEX
  8
1
 10
17.706883288
 20
123.764077292
  0
VERTEX
  8
1
 10
20.706883288
 20
123.764077292
  0
VERTEX
  8
1
 10
18.706883288
 20
123.464077292
  0
SEQEND
  8
1
  0
LINE
  8
1
 62
4
  6
CONTINUOUS
 10
20.706883288
 20
123.764077292
 11
27.606883288
 21
123.764077292
  0
POLYLINE
  8
1
 62
4
  6
CONTINUOUS
 66
1
  0
VERTEX
  8
1
 10
29.606883288
 20
123.464077292
  0
VERTEX
  8
1
 10
27.606883288
 20
123.764077292
  0
SEQEND
  8
1
  0
POLYLINE
  8
1
 62
4
  6
CONTINUOUS
 66
1
  0
VERTEX
  8
1
 10
30.606883288
 20
123.764077292
  0
VERTEX
  8
1
 10
27.606883288
 20
123.764077292
  0
VERTEX
  8
1
 10
29.606883288
 20
124.064077292
  0
SEQEND
  8
1
  0
LINE
  8
1
 62
4
  6
CONTINUOUS
 10
27.606883288
 20
132.297464107
 11
27.606883288
 21
121.764077292
  0
POLYLINE
  8
1
 62
4
  6
CONTINUOUS
 66
1
  0
VERTEX
  8
1
 10
27.606883288
 20
123.764077292
  0
VERTEX
  8
1
 10
42.281011383
 20
123.764077292
  0
SEQEND
  8
1
  0
ENDBLK
  8
0
  0
BLOCK
  8
0
  2
*D199
 70
65
 10
0.000000000
 20
0.000000000
  3
*D
  0
TEXT
  8
1
 62
4
  6
CONTINUOUS
 72
5
 10
-3.048116712
 20
206.169269565
 40
2.800000000
  1
27
 41
0.899998740
 50
90.000000000
 11
-3.048116712
 21
210.369269565
  0
LINE
  8
1
 62
4
  6
CONTINUOUS
 10
13.156883288
 20
221.760869565
 11
-2.843116712
 21
221.760869565
  0
POLYLINE
  8
1
 62
4
  6
CONTINUOUS
 66
1
  0
VERTEX
  8
1
 10
-0.543116712
 20
219.760869565
  0
VERTEX
  8
1
 10
-0.843116712
 20
221.760869565
  0
VERTEX
  8
1
 10
-1.143116712
 20
219.760869565
  0
SEQEND
  8
1
  0
LINE
  8
1
 62
4
  6
CONTINUOUS
 10
-0.843116712
 20
221.760869565
 11
-0.843116712
 21
194.760869565
  0
POLYLINE
  8
1
 62
4
  6
CONTINUOUS
 66
1
  0
VERTEX
  8
1
 10
-1.143116712
 20
196.760869565
  0
VERTEX
  8
1
 10
-0.843116712
 20
194.760869565
  0
VERTEX
  8
1
 10
-0.543116712
 20
196.760869565
  0
SEQEND
  8
1
  0
LINE
  8
1
 62
4
  6
CONTINUOUS
 10
13.156883288
 20
194.760869565
 11
-2.843116712
 21
194.760869565
  0
ENDBLK
  8
0
  0
BLOCK
  8
0
  2
*D241
 70
65
 10
0.000000000
 20
0.000000000
  3
*D
  0
TEXT
  8
1
 62
4
  6
CONTINUOUS
 72
5
 10
139.511106679
 20
143.746901531
 40
2.800000000
  1
φ
 41
1.270648030
 50
90.000000000
 11
139.511106679
 21
147.106901531
  0
TEXT
  8
1
 62
4
  6
CONTINUOUS
 72
5
 10
139.511106679
 20
148.786901531
 40
2.800000000
  1
29.9
 41
1.099999267
 50
90.000000000
 11
139.511106679
 21
158.026901531
  0
POLYLINE
  8
1
 62
4
  6
CONTINUOUS
 66
1
  0
VERTEX
  8
1
 10
142.016106679
 20
166.210869565
  0
VERTEX
  8
1
 10
141.716106679
 20
168.210869565
  0
VERTEX
  8
1
 10
141.416106679
 20
166.210869565
  0
SEQEND
  8
1
  0
LINE
  8
1
 62
4
  6
CONTINUOUS
 10
141.716106679
 20
168.210869565
 11
141.716106679
 21
138.310869565
  0
POLYLINE
  8
1
 62
4
  6
CONTINUOUS
 66
1
  0
VERTEX
  8
1
 10
141.416106679
 20
140.310869565
  0
VERTEX
  8
1
 10
141.716106679
 20
138.310869565
  0
VERTEX
  8
1
 10
142.016106679
 20
140.310869565
  0
SEQEND
  8
1
  0
ENDBLK
  8
0
  0
BLOCK
  8
0
  2
blk332
 70
64
 10
0.000000000
 20
0.000000000
  3
blk332
  0
ARC
  8
1
 62
4
  6
CONTINUOUS
 10
0.000000000
 20
0.000000000
 40
1.000000000
 50
306.869897646
 51
413.130102354
  0
ENDBLK
  8
0
  0
BLOCK
  8
0
  2
blk336
 70
64
 10
0.000000000
 20
0.000000000
  3
blk336
  0
ARC
  8
1
 62
4
  6
CONTINUOUS
 10
0.000000000
 20
0.000000000
 40
1.000000000
 50
126.869897646
 51
233.130102354
  0
ENDBLK
  8
0
  0
BLOCK
  8
0
  2
blk337
 70
64
 10
0.000000000
 20
0.000000000
  3
blk337
  0
ARC
  8
1
 62
4
  6
CONTINUOUS
 10
0.000000000
 20
0.000000000
 40
1.000000000
 50
306.869897646
 51
413.130102354
  0
ENDBLK
  8
0
  0
BLOCK
  8
0
  2
*D428
 70
65
 10
0.000000000
 20
0.000000000
  3
*D
  0
TEXT
  8
1
 62
4
  6
CONTINUOUS
 72
5
 10
28.537811383
 20
117.969077292
 40
2.800000000
  1
φ
 41
1.270648030
 11
31.897811383
 21
117.969077292
  0
TEXT
  8
1
 62
4
  6
CONTINUOUS
 72
5
 10
33.577811383
 20
117.969077292
 40
2.800000000
  1
7.9
 41
1.199998800
 11
40.297811383
 21
117.969077292
  0
LINE
  8
1
 62
4
  6
CONTINUOUS
 10
20.206883288
 20
136.578803002
 11
20.206883288
 21
113.764077292
  0
POLYLINE
  8
1
 62
4
  6
CONTINUOUS
 66
1
  0
VERTEX
  8
1
 10
18.206883288
 20
116.064077292
  0
VERTEX
  8
1
 10
20.206883288
 20
115.764077292
  0
SEQEND
  8
1
  0
POLYLINE
  8
1
 62
4
  6
CONTINUOUS
 66
1
  0
VERTEX
  8
1
 10
17.206883288
 20
115.764077292
  0
VERTEX
  8
1
 10
20.206883288
 20
115.764077292
  0
VERTEX
  8
1
 10
18.206883288
 20
115.464077292
  0
SEQEND
  8
1
  0
LINE
  8
1
 62
4
  6
CONTINUOUS
 10
20.206883288
 20
115.764077292
 11
28.106883288
 21
115.764077292
  0
POLYLINE
  8
1
 62
4
  6
CONTINUOUS
 66
1
  0
VERTEX
  8
1
 10
30.106883288
 20
115.464077292
  0
VERTEX
  8
1
 10
28.106883288
 20
115.764077292
  0
SEQEND
  8
1
  0
POLYLINE
  8
1
 62
4
  6
CONTINUOUS
 66
1
  0
VERTEX
  8
1
 10
31.106883288
 20
115.764077292
  0
VERTEX
  8
1
 10
28.106883288
 20
115.764077292
  0
VERTEX
  8
1
 10
30.106883288
 20
116.064077292
  0
SEQEND
  8
1
  0
LINE
  8
1
 62
4
  6
CONTINUOUS
 10
28.106883288
 20
135.913376301
 11
28.106883288
 21
113.764077292
  0
POLYLINE
  8
1
 62
4
  6
CONTINUOUS
 66
1
  0
VERTEX
  8
1
 10
28.106883288
 20
115.764077292
  0
VERTEX
  8
1
 10
42.281011383
 20
115.764077292
  0
SEQEND
  8
1
  0
ENDBLK
  8
0
  0
ENDSEC
  0
SECTION
  2
ENTITIES
  0
DIMENSION
  8
1
 62
4
  6
CONTINUOUS
  2
*D1
 70
0
 10
-8.843116712
 20
168.260869565
 11
-8.843116712
 21
153.260869565
 14
16.156883288
 24
168.260869565
 13
16.256883288
 23
138.260869565
 50
90.000000000
  0
DIMENSION
  8
1
 62
4
  6
CONTINUOUS
  2
*D2
 70
0
 10
-8.843116712
 20
138.260869565
 11
-8.843116712
 21
124.479390903
 14
16.256883288
 24
138.260869565
 13
21.106883288
 23
131.897464107
 50
90.000000000
  0
LINE
  8
1
 62
7
  6
PHANTOM
 10
35.356883288
 20
165.560869565
 11
35.956883288
 21
164.960869565
  0
LINE
  8
1
 62
7
  6
CONTINUOUS
 10
11.656883288
 20
161.760869565
 11
36.171601914
 21
161.760869565
  0
LINE
  8
1
 62
7
  6
CONTINUOUS
 10
14.381883288
 20
161.760869565
 11
12.656883288
 21
161.760869565
  0
LINE
  8
1
 62
7
  6
PHANTOM
 10
35.156883288
 20
165.560869565
 11
35.356883288
 21
165.560869565
  0
LINE
  8
1
 62
7
  6
PHANTOM
 10
12.956883288
 20
165.560869565
 11
13.156883288
 21
165.560869565
  0
LINE
  8
1
 62
7
  6
CONTINUOUS
 10
12.656883288
 20
161.760869565
 11
12.356883288
 21
162.060869565
  0
LINE
  8
1
 62
7
  6
CONTINUOUS
 10
13.156883288
 20
165.560869565
 11
13.156883288
 21
163.560869565
  0
ARC
  8
1
 62
7
  6
CONTINUOUS
 10
24.156883288
 20
163.521855444
 40
1.287635795
 50
178.263727501
 51
1.736272499
  0
LINE
  8
1
 62
7
  6
PHANTOM
 10
12.356883288
 20
164.960869565
 11
12.356883288
 21
162.234219649
  0
LINE
  8
1
 62
7
  6
CONTINUOUS
 10
35.656883288
 20
161.760869565
 11
33.931883288
 21
161.760869565
  0
LINE
  8
1
 62
7
  6
PHANTOM
 10
12.956883288
 20
165.560869565
 11
12.356883288
 21
164.960869565
  0
ARC
  8
1
 62
7
  6
CONTINUOUS
 10
11.656883288
 20
163.560869565
 40
1.500000000
 50
297.818139285
 51
0.000000000
  0
LINE
  8
1
 62
7
  6
CONTINUOUS
 10
15.481883288
 20
167.460869565
 11
32.831883288
 21
167.460869565
  0
LINE
  8
1
 62
7
  6
CONTINUOUS
 10
32.456883288
 20
167.460869565
 11
32.456883288
 21
167.960869565
  0
LINE
  8
1
 62
7
  6
CONTINUOUS
 10
30.366968302
 20
159.799217981
 11
31.300919933
 21
159.646010061
  0
LINE
  8
1
 62
7
  6
CONTINUOUS
 10
31.300919933
 20
159.646010061
 11
31.919882573
 21
159.359081276
  0
LINE
  8
1
 62
7
  6
CONTINUOUS
 10
32.156883288
 20
168.260869565
 11
32.456883288
 21
167.960869565
  0
LINE
  8
1
 62
7
  6
CONTINUOUS
 10
16.156883288
 20
168.264769565
 11
32.156883288
 21
168.260869565
  0
LINE
  8
1
 62
7
  6
CONTINUOUS
 10
16.156883288
 20
168.264769565
 11
15.856883288
 21
167.964769565
  0
LINE
  8
1
 62
7
  6
CONTINUOUS
 10
15.856883288
 20
167.460869565
 11
15.856883288
 21
167.964769565
  0
LINE
  8
1
 62
7
  6
CONTINUOUS
 10
12.356883288
 20
162.234219649
 11
12.356883288
 21
162.060869565
  0
INSERT
  8
1
 62
7
  6
CONTINUOUS
  2
blk24
 10
32.500743306
 20
163.560869565
 41
0.959858290
 42
-1.326649920
 50
180.000000000
  0
INSERT
  8
1
 62
7
  6
CONTINUOUS
  2
blk25
 10
32.500743306
 20
163.560869565
 41
1.326649920
 42
-0.860297660
 50
90.000000000
  0
LINE
  8
1
 62
7
  6
CONTINUOUS
 10
33.361040966
 20
163.560869565
 11
33.361040962
 21
165.560869565
  0
LINE
  8
1
 62
7
  6
CONTINUOUS
 10
31.540885013
 20
165.560869565
 11
31.540885016
 21
163.560869565
  0
LINE
  8
1
 62
7
  6
CONTINUOUS
 10
13.156883288
 20
165.560869565
 11
35.156883288
 21
165.560869565
  0
LINE
  8
1
 62
7
  6
CONTINUOUS
 10
23.042782895
 20
131.897464107
 11
22.642782895
 21
132.297464107
  0
LINE
  8
1
 62
7
  6
CONTINUOUS
 10
25.443927903
 20
163.560869565
 11
25.443927907
 21
165.560869565
  0
LINE
  8
1
 62
7
  6
CONTINUOUS
 10
22.869838673
 20
163.560869565
 11
22.869838677
 21
165.560869565
  0
LINE
  8
1
 62
7
  6
CONTINUOUS
 10
35.956883288
 20
162.234219649
 11
35.956883288
 21
162.060869565
  0
LINE
  8
1
 62
7
  6
CONTINUOUS
 10
25.270983681
 20
131.897464107
 11
25.670983681
 21
132.297464107
  0
LINE
  8
1
 62
7
  6
CONTINUOUS
 10
26.636816173
 20
131.897464107
 11
27.011816173
 21
132.272464107
  0
LINE
  8
1
 62
7
  6
CONTINUOUS
 10
27.011816173
 20
134.197464107
 11
26.861816173
 21
135.264769565
  0
LINE
  8
1
 62
7
  6
CONTINUOUS
 10
16.772881563
 20
165.560869565
 11
16.772881560
 21
163.560869565
  0
LINE
  8
1
 62
7
  6
CONTINUOUS
 10
21.301950403
 20
132.272464107
 11
21.301950403
 21
134.197464107
  0
LINE
  8
1
 62
7
  6
CONTINUOUS
 10
27.011816173
 20
132.272464107
 11
27.011816173
 21
134.197464107
  0
LINE
  8
1
 62
7
  6
CONTINUOUS
 10
14.952725610
 20
163.560869565
 11
14.952725614
 21
165.560869565
  0
LINE
  8
1
 62
7
  6
CONTINUOUS
 10
15.181883288
 20
165.760869565
 11
33.131883288
 21
165.760869565
  0
ARC
  8
1
 62
7
  6
CONTINUOUS
 10
24.156883288
 20
129.033402391
 40
13.512163112
 50
52.552602930
 51
127.447397070
  0
ARC
  8
1
 62
7
  6
CONTINUOUS
 10
28.508360416
 20
153.260869565
 40
15.317095633
 50
154.731163162
 51
205.268836838
  0
LINE
  8
1
 62
7
  6
CONTINUOUS
 10
30.366968302
 20
146.722521150
 11
30.366968302
 21
159.799217981
  0
LINE
  8
1
 62
7
  6
CONTINUOUS
 10
31.919882573
 20
159.359081276
 11
31.919882573
 21
147.162657853
  0
LINE
  8
1
 62
7
  6
CONTINUOUS
 10
35.156883288
 20
165.560869565
 11
35.156883288
 21
163.560869565
  0
INSERT
  8
1
 62
7
  6
CONTINUOUS
  2
blk46
 10
15.813023270
 20
163.560869565
 41
1.326649920
 42
0.860297660
 50
90.000000000
  0
INSERT
  8
1
 62
7
  6
CONTINUOUS
  2
blk47
 10
15.813023270
 20
163.560869565
 41
0.959858290
 42
1.326649920
 50
0.000000000
  0
LINE
  8
1
 62
7
  6
CONTINUOUS
 10
22.327293210
 20
138.101827161
 11
20.206883288
 21
137.995042571
  0
LINE
  8
1
 62
7
  6
CONTINUOUS
 10
33.131883288
 20
167.160869565
 11
33.131883288
 21
165.760869565
  0
DIMENSION
  8
1
 62
4
  6
CONTINUOUS
  2
*D50
 70
0
 10
129.956883288
 20
107.764077292
 11
77.056883288
 21
107.764077292
 14
129.956883288
 24
138.360869565
 13
24.156883288
 23
128.897464107
 50
0.000000000
  0
LINE
  8
1
 62
7
  6
CONTINUOUS
 10
193.356883309
 20
149.260869553
 11
212.756883288
 21
149.260869693
  0
LINE
  8
1
 62
7
  6
CONTINUOUS
 10
189.356883262
 20
157.260869606
 11
168.756883515
 21
157.260869755
  0
DIMENSION
  8
1
 62
4
  6
CONTINUOUS
  2
*D53
 70
0
 10
157.756883289
 20
99.764077292
 11
143.856883289
 21
99.764077292
 14
157.756883289
 24
138.610869565
 13
129.956883288
 23
138.360869565
 50
0.000000000
  0
LINE
  8
1
 62
7
  6
CONTINUOUS
 10
14.656883288
 20
146.722521150
 11
14.656883288
 21
139.760869565
  0
LINE
  8
1
 62
7
  6
CONTINUOUS
 10
30.366968302
 20
146.722521150
 11
14.656883288
 21
146.722521150
  0
LINE
  8
1
 62
7
  6
CONTINUOUS
 10
32.056883288
 20
138.260869565
 11
16.256883288
 21
138.260869565
  0
LINE
  8
1
 62
7
  6
CONTINUOUS
 10
31.919882573
 20
147.162657853
 11
31.053472951
 21
146.804511883
  0
LINE
  8
1
 62
7
  6
CONTINUOUS
 10
33.331883288
 20
165.560869565
 11
33.131883288
 21
165.760869565
  0
LINE
  8
1
 62
7
  6
CONTINUOUS
 10
14.981883288
 20
165.560869565
 11
15.181883288
 21
165.760869565
  0
LINE
  8
1
 62
7
  6
CONTINUOUS
 10
32.056883288
 20
138.260869565
 11
32.056883288
 21
138.260869565
  0
LINE
  8
1
 62
7
  6
CONTINUOUS
 10
31.053472951
 20
146.804511883
 11
30.366968302
 21
146.722521150
  0
LINE
  8
1
 62
7
  6
CONTINUOUS
 10
15.181883288
 20
167.160869565
 11
15.181883288
 21
165.760869565
  0
LINE
  8
1
 62
7
  6
CONTINUOUS
 10
15.481883288
 20
167.460869565
 11
15.181883288
 21
167.160869565
  0
LINE
  8
1
 62
7
  6
CONTINUOUS
 10
13.656883288
 20
139.760869565
 11
16.256883288
 21
138.260869565
  0
LINE
  8
1
 62
7
  6
CONTINUOUS
 10
34.656883288
 20
139.760869565
 11
32.056883288
 21
138.260869565
  0
LINE
  8
1
 62
7
  6
CONTINUOUS
 10
14.656883288
 20
161.760869565
 11
14.656883288
 21
159.799217981
  0
LINE
  8
1
 62
7
  6
CONTINUOUS
 10
32.831883288
 20
167.460869565
 11
33.131883288
 21
167.160869565
  0
INSERT
  8
1
 62
7
  6
CONTINUOUS
  2
blk68
 10
-19.225802614
 20
153.260869565
 41
55.980762114
 42
14.999999998
 50
0.000000000
  0
ARC
  8
1
 62
7
  6
CONTINUOUS
 10
36.171601914
 20
167.760869565
 40
6.000000000
 50
270.000000000
 51
315.000000000
  0
LINE
  8
1
 62
7
  6
CONTINUOUS
 10
45.156883288
 20
138.360869565
 11
45.256883288
 21
138.260869565
  0
LINE
  8
1
 62
7
  6
CONTINUOUS
 10
40.881754419
 20
138.360869565
 11
45.156883288
 21
138.360869565
  0
LINE
  8
1
 62
7
  6
CONTINUOUS
 10
45.156883288
 20
168.160869565
 11
45.256883288
 21
168.260869565
  0
LINE
  8
1
 62
7
  6
CONTINUOUS
 10
45.056883288
 20
168.160869565
 11
45.156883288
 21
168.160869565
  0
LINE
  8
1
 62
7
  6
PHANTOM
 10
35.956883288
 20
164.960869565
 11
35.956883288
 21
162.234219649
  0
LINE
  8
1
 62
7
  6
CONTINUOUS
 10
11.156883288
 20
161.260869565
 11
11.656883288
 21
161.760869565
  0
LINE
  8
1
 62
7
  6
CONTINUOUS
 10
34.656883288
 20
139.760869565
 11
13.156883288
 21
139.760869565
  0
LINE
  8
1
 62
7
  6
CONTINUOUS
 10
45.056883288
 20
168.160869565
 11
40.414242601
 21
163.518228878
  0
LINE
  8
1
 62
7
  6
CONTINUOUS
 10
36.419882573
 20
139.556424523
 11
40.881754419
 21
138.360869565
  0
LINE
  8
1
 62
1
  6
CENTER
 10
24.156883288
 20
128.897464107
 11
24.156883288
 21
171.262819565
  0
LINE
  8
1
 62
7
  6
CONTINUOUS
 10
34.656883288
 20
139.760869565
 11
34.866968303
 21
139.760869565
  0
LINE
  8
1
 62
7
  6
CONTINUOUS
 10
11.156883288
 20
141.776979405
 11
13.156883288
 21
139.760869565
  0
LINE
  8
1
 62
7
  6
CONTINUOUS
 10
11.156883288
 20
141.776979405
 11
11.156883288
 21
161.260869565
  0
LINE
  8
1
 62
7
  6
CONTINUOUS
 10
14.656883288
 20
159.799217981
 11
30.366968302
 21
159.799217981
  0
ARC
  8
1
 62
7
  6
CONTINUOUS
 10
34.866968303
 20
133.760869565
 40
6.000000000
 50
75.000000000
 51
90.000000000
  0
LINE
  8
1
 62
7
  6
CONTINUOUS
 10
129.856883288
 20
138.260869565
 11
45.256883288
 21
138.260869565
  0
LINE
  8
1
 62
7
  6
CONTINUOUS
 10
129.956883288
 20
138.360869565
 11
129.956883288
 21
168.160869565
  0
ARC
  8
1
 62
4
  6
CONTINUOUS
 10
198.756883289
 20
165.460869565
 40
1.000000000
 50
306.869897646
 51
53.130102354
  0
ARC
  8
1
 62
4
  6
CONTINUOUS
 10
199.956883289
 20
165.460869565
 40
1.000000000
 50
126.869897646
 51
233.130102354
  0
ARC
  8
1
 62
4
  6
CONTINUOUS
 10
198.756883289
 20
163.860869565
 40
1.000000000
 50
306.869897646
 51
53.130102354
  0
ARC
  8
1
 62
4
  6
CONTINUOUS
 10
201.556883289
 20
163.860869565
 40
1.000000000
 50
126.869897646
 51
233.130102354
  0
ARC
  8
1
 62
4
  6
CONTINUOUS
 10
200.356883289
 20
163.860869565
 40
1.000000000
 50
306.869897646
 51
53.130102354
  0
ARC
  8
1
 62
4
  6
CONTINUOUS
 10
201.556883289
 20
165.460869565
 40
1.000000000
 50
126.869897646
 51
233.130102354
  0
ARC
  8
1
 62
4
  6
CONTINUOUS
 10
187.856883305
 20
151.260869558
 40
2.499999996
 50
306.869898060
 51
53.130102768
  0
ARC
  8
1
 62
4
  6
CONTINUOUS
 10
190.856883273
 20
155.260869572
 40
2.499999996
 50
126.869898060
 51
233.130102768
  0
LINE
  8
1
 62
7
  6
CONTINUOUS
 10
151.256883289
 20
194.760869565
 11
154.756883289
 21
194.760869565
  0
LINE
  8
1
 62
7
  6
CONTINUOUS
 10
157.456883289
 20
193.310869565
 11
155.594041179
 21
193.310869565
  0
LINE
  8
1
 62
7
  6
CONTINUOUS
 10
150.419725550
 20
193.310869565
 11
129.956883289
 21
193.310869565
  0
LINE
  8
1
 62
7
  6
CONTINUOUS
 10
154.756883289
 20
221.760869565
 11
155.594041179
 21
223.210869565
  0
DIMENSION
  8
1
 62
4
  6
CONTINUOUS
  2
*D99
 70
0
 10
168.756883288
 20
107.764077292
 11
163.256883289
 21
107.764077292
 14
168.756883288
 24
147.510869565
 13
157.756883289
 23
138.610869565
 50
0.000000000
  0
DIMENSION
  8
1
 62
4
  6
CONTINUOUS
  2
*D100
 70
0
 10
249.356883288
 20
99.764077292
 11
203.556883289
 21
99.764077292
 14
249.356883288
 24
144.010869647
 13
157.756883289
 23
138.610869565
 50
0.000000000
  0
LINE
  8
1
 62
7
  6
CONTINUOUS
 10
249.356883289
 20
166.260869565
 11
249.356883289
 21
163.060869565
  0
DIMENSION
  8
1
 62
4
  6
CONTINUOUS
  2
*D102
 70
1
 10
269.256883288
 20
144.010869647
 11
269.256883288
 21
153.260869647
 14
249.356883288
 24
144.010869647
 13
249.356883288
 23
162.510869647
 50
90.000000000
  0
LINE
  8
1
 62
7
  6
CONTINUOUS
 10
250.675095734
 20
145.310869647
 11
250.863853439
 21
145.310869647
  0
LINE
  8
1
 62
7
  6
CONTINUOUS
 10
250.374741560
 20
161.210869647
 11
249.997226151
 21
160.556993777
  0
LINE
  8
1
 62
7
  6
CONTINUOUS
 10
249.997226151
 20
160.556993777
 11
249.619710741
 21
161.210869647
  0
LINE
  8
1
 62
7
  6
CONTINUOUS
 10
251.318530084
 20
161.210869647
 11
250.941014674
 21
160.556993777
  0
LINE
  8
1
 62
7
  6
CONTINUOUS
 10
250.941014674
 20
160.556993777
 11
251.241368848
 21
145.964745517
  0
LINE
  8
1
 62
7
  6
CONTINUOUS
 10
252.656883288
 20
145.877041754
 11
252.656883288
 21
160.644697540
  0
LINE
  8
1
 62
7
  6
CONTINUOUS
 10
250.941014674
 20
160.556993777
 11
250.563499265
 21
161.210869647
  0
LINE
  8
1
 62
7
  6
CONTINUOUS
 10
252.199505930
 20
161.102074898
 11
251.884803198
 21
160.556993777
  0
LINE
  8
1
 62
7
  6
CONTINUOUS
 10
251.884803198
 20
160.556993777
 11
251.507287789
 21
161.210869647
  0
LINE
  8
1
 62
7
  6
CONTINUOUS
 10
249.731307211
 20
145.310869647
 11
249.353791801
 21
145.964745517
  0
LINE
  8
1
 62
7
  6
CONTINUOUS
 10
250.675095734
 20
145.310869647
 11
250.297580325
 21
145.964745517
  0
LINE
  8
1
 62
7
  6
CONTINUOUS
 10
250.374741560
 20
161.210869647
 11
250.563499265
 21
161.210869647
  0
LINE
  8
1
 62
7
  6
CONTINUOUS
 10
249.356883288
 20
161.210869647
 11
249.619710741
 21
161.210869647
  0
LINE
  8
1
 62
7
  6
CONTINUOUS
 10
251.318530084
 20
161.210869647
 11
251.507287789
 21
161.210869647
  0
LINE
  8
1
 62
7
  6
CONTINUOUS
 10
252.656883288
 20
160.644697540
 11
252.199505930
 21
161.102074898
  0
LINE
  8
1
 62
7
  6
CONTINUOUS
 10
252.389922846
 20
145.610081312
 11
252.656883288
 21
145.877041754
  0
LINE
  8
1
 62
7
  6
CONTINUOUS
 10
250.297580325
 20
145.964745517
 11
249.920064915
 21
145.310869647
  0
LINE
  8
1
 62
7
  6
CONTINUOUS
 10
251.618884258
 20
145.310869647
 11
251.807641962
 21
145.310869647
  0
LINE
  8
1
 62
7
  6
CONTINUOUS
 10
251.241368848
 20
145.964745517
 11
250.863853439
 21
145.310869647
  0
LINE
  8
1
 62
7
  6
CONTINUOUS
 10
251.618884258
 20
145.310869647
 11
251.241368848
 21
145.964745517
  0
LINE
  8
1
 62
7
  6
CONTINUOUS
 10
252.389922846
 20
145.610081312
 11
252.185157372
 21
145.964745517
  0
LINE
  8
1
 62
1
  6
CONTINUOUS
 10
251.884803198
 20
160.556993777
 11
251.957289650
 21
157.035350359
  0
LINE
  8
1
 62
7
  6
CONTINUOUS
 10
252.185157372
 20
145.964745517
 11
251.807641962
 21
145.310869647
  0
LINE
  8
1
 62
7
  6
CONTINUOUS
 10
257.256883288
 20
160.010869647
 11
252.656883288
 21
160.010869647
  0
LINE
  8
1
 62
7
  6
CONTINUOUS
 10
257.256883288
 20
146.510869647
 11
257.256883288
 21
160.010869647
  0
LINE
  8
1
 62
7
  6
CONTINUOUS
 10
252.656883288
 20
146.510869647
 11
257.256883288
 21
146.510869647
  0
LINE
  8
1
 62
7
  6
CONTINUOUS
 10
249.731307211
 20
145.310869647
 11
249.920064915
 21
145.310869647
  0
ARC
  8
1
 62
7
  6
CONTINUOUS
 10
216.450997572
 20
145.324979188
 40
0.194114284
 50
90.000000000
 51
270.000000000
  0
LINE
  8
1
 62
7
  6
CONTINUOUS
 10
157.756883289
 20
167.910869565
 11
157.756883289
 21
138.610869565
  0
LINE
  8
1
 62
7
  6
CONTINUOUS
 10
226.756883288
 20
145.130864904
 11
216.450997572
 21
145.130864904
  0
LINE
  8
1
 62
7
  6
CONTINUOUS
 10
226.756883288
 20
145.519093472
 11
216.450997572
 21
145.519093472
  0
ARC
  8
1
 62
7
  6
CONTINUOUS
 10
216.787213374
 20
147.451394628
 40
0.530330086
 50
90.000000000
 51
270.000000000
  0
LINE
  8
1
 62
7
  6
CONTINUOUS
 10
226.756883288
 20
146.921064542
 11
216.787213374
 21
146.921064542
  0
LINE
  8
1
 62
7
  6
CONTINUOUS
 10
226.756883288
 20
147.981724714
 11
216.787213374
 21
147.981724714
  0
ARC
  8
1
 62
7
  6
CONTINUOUS
 10
216.450997572
 20
161.196760106
 40
0.194114284
 50
90.000000000
 51
270.000000000
  0
LINE
  8
1
 62
7
  6
CONTINUOUS
 10
129.956883289
 20
168.210869565
 11
129.956883289
 21
138.310869565
  0
LINE
  8
1
 62
7
  6
CONTINUOUS
 10
226.756883288
 20
161.390874390
 11
216.450997572
 21
161.390874390
  0
LINE
  8
1
 62
7
  6
CONTINUOUS
 10
226.756883288
 20
161.002645822
 11
216.450997572
 21
161.002645822
  0
LINE
  8
1
 62
7
  6
CONTINUOUS
 10
129.856883288
 20
138.260869565
 11
129.956883288
 21
138.360869565
  0
LINE
  8
1
 62
1
  6
CENTER
 10
8.156883288
 20
153.260869565
 11
260.256883288
 21
153.260869565
  0
LINE
  8
1
 62
7
  6
CONTINUOUS
 10
129.856883288
 20
168.260869565
 11
129.956883288
 21
168.160869565
  0
LINE
  8
1
 62
7
  6
CONTINUOUS
 10
129.856883288
 20
168.260869565
 11
45.256883288
 21
168.260869565
  0
LINE
  8
1
 62
7
  6
CONTINUOUS
 10
35.956883288
 20
162.060869565
 11
35.656883288
 21
161.760869565
  0
ARC
  8
1
 62
7
  6
CONTINUOUS
 10
36.656883288
 20
163.560869565
 40
1.500000000
 50
180.000000000
 51
242.181860715
  0
DIMENSION
  8
1
 62
4
  6
CONTINUOUS
  2
*D147
 70
0
 10
-0.843116712
 20
138.260869565
 11
-0.843116712
 21
145.760869565
 14
16.256883288
 24
138.260869565
 13
8.156883288
 23
153.260869565
 50
90.000000000
  0
LINE
  8
1
 62
7
  6
CONTINUOUS
 10
45.156883288
 20
168.160869565
 11
45.156883288
 21
138.360869565
  0
DIMENSION
  8
1
 62
4
  6
CONTINUOUS
  2
*D149
 70
0
 10
129.956883288
 20
99.764077292
 11
70.556883288
 21
99.764077292
 14
129.956883288
 24
138.360869565
 13
11.156883288
 23
141.776979405
 50
0.000000000
  0
CIRCLE
  8
1
 62
7
  6
CONTINUOUS
 10
24.156883288
 20
208.260869565
 40
8.300000000
  0
ARC
  8
1
 62
7
  6
CONTINUOUS
 10
216.787213374
 20
159.070344667
 40
0.530330086
 50
90.000000000
 51
270.000000000
  0
ARC
  8
1
 62
7
  6
CONTINUOUS
 10
11.656883288
 20
208.260869565
 40
1.500000000
 50
300.903922871
 51
59.096077129
  0
ARC
  8
1
 62
7
  6
CONTINUOUS
 10
32.995718053
 20
217.099704330
 40
1.500000000
 50
165.903922871
 51
284.096077129
  0
ARC
  8
1
 62
7
  6
CONTINUOUS
 10
32.995718053
 20
199.422034800
 40
1.500000000
 50
75.903922871
 51
194.096077129
  0
LINE
  8
1
 62
1
  6
CENTER
 10
24.156883288
 20
224.760869565
 11
24.156883288
 21
191.760869565
  0
DIMENSION
  8
1
 62
4
  6
CONTINUOUS
  2
*D156
 70
1
 10
85.273161761
 20
138.260869565
 11
85.273161761
 21
153.109887499
 14
85.273161761
 24
138.260869565
 13
85.273161761
 23
168.260869565
 50
90.000000000
  0
LINE
  8
1
 62
7
  6
CONTINUOUS
 10
20.856883288
 20
135.264769565
 11
27.456883288
 21
135.264769565
  0
LINE
  8
1
 62
1
  6
CONTINUOUS
 10
27.306883288
 20
136.514769565
 11
26.156883288
 21
136.442146741
  0
LINE
  8
1
 62
7
  6
CONTINUOUS
 10
28.106883288
 20
138.226649781
 11
28.106883288
 21
138.260869565
  0
LINE
  8
1
 62
7
  6
CONTINUOUS
 10
20.206883288
 20
136.745042571
 11
22.327293210
 21
136.851827161
  0
LINE
  8
1
 62
7
  6
CONTINUOUS
 10
226.756883288
 20
159.600674752
 11
216.787213374
 21
159.600674752
  0
LINE
  8
1
 62
7
  6
CONTINUOUS
 10
28.106883288
 20
136.976649781
 11
28.106883288
 21
137.302889350
  0
LINE
  8
1
 62
7
  6
CONTINUOUS
 10
226.756883288
 20
158.540014581
 11
216.787213374
 21
158.540014581
  0
LINE
  8
1
 62
7
  6
CONTINUOUS
 10
28.106883288
 20
137.302889350
 11
27.306883288
 21
137.764769565
  0
LINE
  8
1
 62
7
  6
CONTINUOUS
 10
27.306883288
 20
136.514769565
 11
28.106883288
 21
136.976649781
  0
LINE
  8
1
 62
7
  6
CONTINUOUS
 10
28.106883288
 20
136.052889350
 11
27.306883288
 21
136.514769565
  0
DIMENSION
  8
1
 62
4
  6
CONTINUOUS
  2
*D167
 70
1
 10
27.606883288
 20
123.764077292
 11
34.409411383
 21
123.764077292
 14
27.606883288
 24
132.297464107
 13
20.706883288
 23
132.297464107
 50
0.000000000
  0
LINE
  8
1
 62
7
  6
CONTINUOUS
 10
21.006883288
 20
136.116922787
 11
20.206883288
 21
136.578803002
  0
LINE
  8
1
 62
7
  6
CONTINUOUS
 10
20.372426898
 20
135.750619219
 11
21.006883288
 21
136.116922787
  0
LINE
  8
1
 62
7
  6
CONTINUOUS
 10
20.372426898
 20
135.750619219
 11
28.106883288
 21
136.001552106
  0
LINE
  8
1
 62
7
  6
CONTINUOUS
 10
27.306883288
 20
137.764769565
 11
28.106883288
 21
138.226649781
  0
LINE
  8
1
 62
7
  6
CONTINUOUS
 10
20.206883288
 20
136.905042571
 11
21.006883288
 21
137.366922787
  0
LINE
  8
1
 62
1
  6
CONTINUOUS
 10
26.156883288
 20
137.692146741
 11
27.306883288
 21
137.764769565
  0
LINE
  8
1
 62
7
  6
CONTINUOUS
 10
25.987866630
 20
136.064769565
 11
25.987866630
 21
138.260869565
  0
LINE
  8
1
 62
7
  6
CONTINUOUS
 10
22.325899946
 20
136.064769565
 11
25.987866630
 21
136.064769565
  0
LINE
  8
1
 62
7
  6
CONTINUOUS
 10
22.325899946
 20
138.260869565
 11
22.325899946
 21
136.064769565
  0
LINE
  8
1
 62
1
  6
CONTINUOUS
 10
21.006883288
 20
137.366922787
 11
22.156883288
 21
137.439545611
  0
LINE
  8
1
 62
7
  6
CONTINUOUS
 10
27.456883288
 20
135.264769565
 11
28.106883288
 21
135.913376301
  0
LINE
  8
1
 62
1
  6
CONTINUOUS
 10
22.156883288
 20
136.189545611
 11
21.006883288
 21
136.116922787
  0
LINE
  8
1
 62
7
  6
CONTINUOUS
 10
27.206883288
 20
131.897464107
 11
27.606883288
 21
132.297464107
  0
LINE
  8
1
 62
7
  6
CONTINUOUS
 10
21.006883288
 20
137.366922787
 11
20.206883288
 21
137.828803002
  0
LINE
  8
1
 62
7
  6
CONTINUOUS
 10
20.206883288
 20
138.155042571
 11
20.390181018
 21
138.260869565
  0
LINE
  8
1
 62
7
  6
CONTINUOUS
 10
27.606883288
 20
134.197464107
 11
27.456883288
 21
135.264769565
  0
LINE
  8
1
 62
7
  6
CONTINUOUS
 10
27.206883288
 20
131.897464107
 11
21.106883288
 21
131.897464107
  0
LINE
  8
1
 62
7
  6
CONTINUOUS
 10
20.706883288
 20
132.297464107
 11
20.706883288
 21
134.197464107
  0
LINE
  8
1
 62
7
  6
CONTINUOUS
 10
20.706883288
 20
134.197464107
 11
20.856883288
 21
135.264769565
  0
LINE
  8
1
 62
7
  6
CONTINUOUS
 10
21.106883288
 20
131.897464107
 11
20.706883288
 21
132.297464107
  0
LINE
  8
1
 62
7
  6
CONTINUOUS
 10
20.206883288
 20
136.905042571
 11
20.206883288
 21
136.578803002
  0
LINE
  8
1
 62
7
  6
CONTINUOUS
 10
20.706883288
 20
134.197464107
 11
27.606883288
 21
134.197464107
  0
LINE
  8
1
 62
7
  6
CONTINUOUS
 10
28.106883288
 20
135.913376301
 11
28.106883288
 21
136.052889350
  0
LINE
  8
1
 62
7
  6
CONTINUOUS
 10
25.989259894
 20
137.036245091
 11
28.106883288
 21
137.142889350
  0
LINE
  8
1
 62
7
  6
CONTINUOUS
 10
20.856883288
 20
135.264769565
 11
20.372426898
 21
135.750619219
  0
LINE
  8
1
 62
7
  6
CONTINUOUS
 10
20.206883288
 20
138.155042571
 11
20.206883288
 21
137.828803002
  0
ARC
  8
1
 62
7
  6
CONTINUOUS
 10
15.318048523
 20
199.422034800
 40
1.500000000
 50
345.903922871
 51
104.096077129
  0
CIRCLE
  8
1
 62
7
  6
CONTINUOUS
 10
24.156883288
 20
208.260869565
 40
11.800000000
  0
ARC
  8
1
 62
7
  6
CONTINUOUS
 10
24.156883288
 20
195.760869565
 40
1.500000000
 50
30.903922871
 51
149.096077129
  0
ARC
  8
1
 62
7
  6
CONTINUOUS
 10
30.366968303
 20
227.760869565
 40
6.000000000
 50
270.000000000
 51
285.000000000
  0
ARC
  8
1
 62
7
  6
CONTINUOUS
 10
36.656883288
 20
208.260869565
 40
1.500000000
 50
120.903922871
 51
239.096077129
  0
DIMENSION
  8
1
 62
4
  6
CONTINUOUS
  2
*D199
 70
1
 10
-0.843116712
 20
194.760869565
 11
-0.843116712
 21
208.260869565
 14
13.156883288
 24
194.760869565
 13
13.156883288
 23
221.760869565
 50
90.000000000
  0
LINE
  8
1
 62
7
  6
CONTINUOUS
 10
226.756883288
 20
150.410009838
 11
216.981327658
 21
150.410009838
  0
ARC
  8
1
 62
7
  6
CONTINUOUS
 10
216.981327658
 20
155.387285087
 40
0.724444370
 50
90.000000000
 51
270.000000000
  0
LINE
  8
1
 62
7
  6
CONTINUOUS
 10
226.756883288
 20
154.662840717
 11
216.981327658
 21
154.662840717
  0
LINE
  8
1
 62
7
  6
CONTINUOUS
 10
226.756883288
 20
156.111729457
 11
216.981327658
 21
156.111729457
  0
LINE
  8
1
 62
7
  6
CONTINUOUS
 10
226.756883288
 20
151.858898577
 11
216.981327658
 21
151.858898577
  0
ARC
  8
1
 62
7
  6
CONTINUOUS
 10
216.981327658
 20
151.134454208
 40
0.724444370
 50
90.000000000
 51
270.000000000
  0
ARC
  8
1
 62
7
  6
CONTINUOUS
 10
219.798966621
 20
153.260869647
 40
7.042083333
 50
125.028911263
 51
234.971088737
  0
ARC
  8
1
 62
7
  6
CONTINUOUS
 10
215.756883288
 20
158.560869647
 40
3.000000000
 50
90.000000000
 51
180.000000000
  0
ARC
  8
1
 62
7
  6
CONTINUOUS
 10
215.756883288
 20
147.960869647
 40
3.000000000
 50
180.000000000
 51
270.000000000
  0
LINE
  8
1
 62
7
  6
CONTINUOUS
 10
215.756883288
 20
159.027367718
 11
215.756883288
 21
147.494371576
  0
LINE
  8
1
 62
7
  6
CONTINUOUS
 10
45.256883288
 20
223.260869565
 11
45.156883288
 21
223.160869565
  0
LINE
  8
1
 62
7
  6
CONTINUOUS
 10
45.156883288
 20
223.160869565
 11
36.381754419
 21
223.160869565
  0
LINE
  8
1
 62
7
  6
CONTINUOUS
 10
45.256883288
 20
223.260869565
 11
45.156883288
 21
223.160869565
  0
LINE
  8
1
 62
7
  6
CONTINUOUS
 10
45.156883288
 20
193.360869565
 11
36.381754419
 21
193.360869565
  0
LINE
  8
1
 62
7
  6
CONTINUOUS
 10
215.756883288
 20
144.960869647
 11
226.756883288
 21
144.960869647
  0
LINE
  8
1
 62
7
  6
CONTINUOUS
 10
212.756883288
 20
158.560869647
 11
212.756883288
 21
147.960869647
  0
LINE
  8
1
 62
7
  6
CONTINUOUS
 10
226.756883288
 20
161.560869647
 11
215.756883288
 21
161.560869647
  0
LINE
  8
1
 62
4
  6
CONTINUOUS
 10
236.356883288
 20
161.760869647
 11
235.606883288
 21
162.510869647
  0
LINE
  8
1
 62
4
  6
CONTINUOUS
 10
230.356883288
 20
157.260869647
 11
235.606883288
 21
162.510869647
  0
LINE
  8
1
 62
4
  6
CONTINUOUS
 10
230.356883288
 20
161.260869647
 11
231.606883288
 21
162.510869647
  0
ARC
  8
1
 62
7
  6
CONTINUOUS
 10
30.366968303
 20
188.760869565
 40
6.000000000
 50
75.000000000
 51
90.000000000
  0
LINE
  8
1
 62
4
  6
CONTINUOUS
 10
234.106883288
 20
144.010869647
 11
230.356883288
 21
147.760869647
  0
LINE
  8
1
 62
4
  6
CONTINUOUS
 10
233.106883288
 20
144.010869647
 11
236.356883288
 21
147.260869647
  0
LINE
  8
1
 62
4
  6
CONTINUOUS
 10
236.356883288
 20
145.760869647
 11
230.356883288
 21
151.760869647
  0
LINE
  8
1
 62
7
  6
CONTINUOUS
 10
11.156883288
 20
215.419780097
 11
11.156883288
 21
219.760869565
  0
ARC
  8
1
 62
7
  6
CONTINUOUS
 10
15.318048523
 20
217.099704330
 40
1.500000000
 50
255.903922871
 51
14.096077129
  0
LINE
  8
1
 62
4
  6
CONTINUOUS
 10
230.356883288
 20
145.260869647
 11
236.356883288
 21
151.260869647
  0
LINE
  8
1
 62
4
  6
CONTINUOUS
 10
236.356883288
 20
149.760869647
 11
230.356883288
 21
155.760869647
  0
LINE
  8
1
 62
4
  6
CONTINUOUS
 10
230.356883288
 20
149.260869647
 11
236.356883288
 21
155.260869647
  0
LINE
  8
1
 62
4
  6
CONTINUOUS
 10
236.356883288
 20
153.760869647
 11
230.356883288
 21
159.760869647
  0
LINE
  8
1
 62
4
  6
CONTINUOUS
 10
230.356883288
 20
153.260869647
 11
236.356883288
 21
159.260869647
  0
LINE
  8
1
 62
4
  6
CONTINUOUS
 10
236.356883288
 20
157.760869647
 11
231.606883288
 21
162.510869647
  0
LINE
  8
1
 62
1
  6
CONTINUOUS
 10
250.225093873
 20
149.486388935
 11
250.297580325
 21
145.964745517
  0
LINE
  8
1
 62
7
  6
CONTINUOUS
 10
249.356883288
 20
162.510869647
 11
249.356883288
 21
144.010869647
  0
LINE
  8
1
 62
1
  6
CONTINUOUS
 10
249.997226151
 20
160.556993777
 11
250.069712603
 21
157.035350359
  0
LINE
  8
1
 62
7
  6
CONTINUOUS
 10
11.156883288
 20
196.760869565
 11
13.156883288
 21
194.760869565
  0
CIRCLE
  8
1
 62
7
  6
CONTINUOUS
 10
24.156883288
 20
208.260869565
 40
8.975000000
  0
LINE
  8
1
 62
7
  6
CONTINUOUS
 10
245.356883288
 20
162.510869647
 11
245.356883288
 21
144.010869647
  0
LINE
  8
1
 62
7
  6
CONTINUOUS
 10
239.356883288
 20
162.510869647
 11
239.356883288
 21
144.010869647
  0
LINE
  8
1
 62
4
  6
CONTINUOUS
 10
245.356883288
 20
157.760869647
 11
240.606883288
 21
162.510869647
  0
LINE
  8
1
 62
4
  6
CONTINUOUS
 10
239.356883288
 20
153.260869647
 11
245.356883288
 21
159.260869647
  0
DIMENSION
  8
1
 62
4
  6
CONTINUOUS
  2
*D241
 70
1
 10
141.716106679
 20
138.310869565
 11
141.716106679
 21
150.878501531
 14
141.716106679
 24
138.310869565
 13
141.716106679
 23
168.210869565
 50
90.000000000
  0
LINE
  8
1
 62
4
  6
CONTINUOUS
 10
245.356883288
 20
153.760869647
 11
239.356883288
 21
159.760869647
  0
LINE
  8
1
 62
4
  6
CONTINUOUS
 10
239.356883288
 20
149.260869647
 11
245.356883288
 21
155.260869647
  0
LINE
  8
1
 62
4
  6
CONTINUOUS
 10
245.356883288
 20
149.760869647
 11
239.356883288
 21
155.760869647
  0
LINE
  8
1
 62
4
  6
CONTINUOUS
 10
239.356883288
 20
145.260869647
 11
245.356883288
 21
151.260869647
  0
LINE
  8
1
 62
7
  6
CONTINUOUS
 10
38.656883288
 20
220.260869565
 11
14.656883288
 21
220.260869565
  0
ARC
  8
1
 62
7
  6
CONTINUOUS
 10
30.829960211
 20
208.260869565
 40
14.326923077
 50
303.114142751
 51
56.885857249
  0
LINE
  8
1
 62
7
  6
CONTINUOUS
 10
14.656883288
 20
196.260869565
 11
38.656883288
 21
196.260869565
  0
LINE
  8
1
 62
7
  6
CONTINUOUS
 10
14.656883288
 20
194.760869565
 11
13.161272914
 21
194.760869565
  0
LINE
  8
1
 62
7
  6
CONTINUOUS
 10
14.656883288
 20
196.260869565
 11
14.656883288
 21
194.760869565
  0
LINE
  8
1
 62
7
  6
CONTINUOUS
 10
14.656883288
 20
221.760869565
 11
13.161272914
 21
221.760869565
  0
LINE
  8
1
 62
7
  6
CONTINUOUS
 10
129.856883288
 20
193.260869565
 11
45.256883288
 21
193.260869565
  0
LINE
  8
1
 62
7
  6
CONTINUOUS
 10
14.656883288
 20
194.760869565
 11
30.366968303
 21
194.760869565
  0
LINE
  8
1
 62
7
  6
CONTINUOUS
 10
31.919882573
 20
194.556424523
 11
36.381754419
 21
193.360869565
  0
LINE
  8
1
 62
7
  6
CONTINUOUS
 10
129.856883288
 20
223.260869565
 11
45.256883288
 21
223.260869565
  0
LINE
  8
1
 62
7
  6
CONTINUOUS
 10
38.656883288
 20
196.260869565
 11
38.656883288
 21
220.260869565
  0
LINE
  8
1
 62
1
  6
CENTER
 10
8.156883288
 20
208.260869565
 11
210.756883476
 21
208.260869565
  0
LINE
  8
1
 62
7
  6
CONTINUOUS
 10
129.856883288
 20
193.260869565
 11
129.956883288
 21
193.360869565
  0
LINE
  8
1
 62
7
  6
CONTINUOUS
 10
129.856883288
 20
223.260869565
 11
129.956883288
 21
223.160869565
  0
LINE
  8
1
 62
7
  6
CONTINUOUS
 10
11.156883288
 20
201.101959034
 11
11.156883288
 21
215.419780097
  0
LINE
  8
1
 62
7
  6
CONTINUOUS
 10
11.156883288
 20
196.760869565
 11
11.156883288
 21
201.101959034
  0
LINE
  8
1
 62
7
  6
CONTINUOUS
 10
13.156883288
 20
221.760869565
 11
11.156883288
 21
219.760869565
  0
LINE
  8
1
 62
7
  6
CONTINUOUS
 10
129.956883288
 20
223.160869565
 11
129.956883288
 21
193.360869565
  0
LINE
  8
1
 62
7
  6
CONTINUOUS
 10
14.656883288
 20
221.760869565
 11
30.366968303
 21
221.760869565
  0
ARC
  8
1
 62
7
  6
CONTINUOUS
 10
54.595785922
 20
228.821563572
 40
51.529746146
 50
212.543110456
 51
219.189074040
  0
ARC
  8
1
 62
7
  6
CONTINUOUS
 10
58.487882263
 20
184.886276480
 40
56.325112579
 50
141.094113714
 51
147.173701790
  0
LINE
  8
1
 62
7
  6
CONTINUOUS
 10
45.156883288
 20
223.160869565
 11
45.156883288
 21
193.360869565
  0
LINE
  8
1
 62
7
  6
CONTINUOUS
 10
45.156883288
 20
193.360869565
 11
45.256883288
 21
193.260869565
  0
LINE
  8
1
 62
4
  6
CONTINUOUS
 10
245.356883288
 20
145.760869647
 11
239.356883288
 21
151.760869647
  0
LINE
  8
1
 62
4
  6
CONTINUOUS
 10
242.106883288
 20
144.010869647
 11
245.356883288
 21
147.260869647
  0
LINE
  8
1
 62
4
  6
CONTINUOUS
 10
243.106883288
 20
144.010869647
 11
239.356883288
 21
147.760869647
  0
LINE
  8
1
 62
4
  6
CONTINUOUS
 10
239.356883288
 20
161.260869647
 11
240.606883288
 21
162.510869647
  0
LINE
  8
1
 62
7
  6
CONTINUOUS
 10
230.356883288
 20
162.510869647
 11
230.356883288
 21
144.010869647
  0
ARC
  8
1
 62
7
  6
CONTINUOUS
 10
130.537039497
 20
153.260869565
 40
25.057001683
 50
345.147710869
 51
14.852289131
  0
LINE
  8
1
 62
7
  6
CONTINUOUS
 10
157.456883289
 20
138.310869565
 11
157.756883289
 21
138.610869565
  0
LINE
  8
1
 62
7
  6
CONTINUOUS
 10
14.656883288
 20
221.760869565
 11
14.656883288
 21
220.260869565
  0
ARC
  8
1
 62
7
  6
CONTINUOUS
 10
24.156883288
 20
220.760869565
 40
1.500000000
 50
210.903922871
 51
329.096077129
  0
LINE
  8
1
 62
7
  6
CONTINUOUS
 10
31.919882573
 20
221.965314607
 11
36.381754419
 21
223.160869565
  0
LINE
  8
1
 62
7
  6
CONTINUOUS
 10
157.756883289
 20
167.910869565
 11
157.456883289
 21
168.210869565
  0
LINE
  8
1
 62
7
  6
CONTINUOUS
 10
164.956883289
 20
203.211022010
 11
164.956883289
 21
202.260869565
  0
LINE
  8
1
 62
7
  6
CONTINUOUS
 10
164.956883153
 20
203.211022373
 11
168.056883289
 21
203.211022010
  0
LINE
  8
1
 62
7
  6
CONTINUOUS
 10
168.506883009
 20
202.260869513
 11
168.756883289
 21
202.510869565
  0
LINE
  8
1
 62
7
  6
CONTINUOUS
 10
168.756883289
 20
214.010869565
 11
168.506883009
 21
214.260869617
  0
ARC
  8
1
 62
7
  6
CONTINUOUS
 10
158.756883289
 20
200.760869565
 40
1.000000000
 50
90.000000000
 51
180.000000000
  0
ARC
  8
1
 62
7
  6
CONTINUOUS
 10
158.756883289
 20
215.760869565
 40
1.000000000
 50
180.000000000
 51
270.000000000
  0
LINE
  8
1
 62
7
  6
CONTINUOUS
 10
164.556883289
 20
201.760869565
 11
164.756883289
 21
201.960869565
  0
LINE
  8
1
 62
7
  6
CONTINUOUS
 10
164.756883289
 20
214.560869565
 11
164.556883289
 21
214.760869565
  0
LINE
  8
1
 62
7
  6
CONTINUOUS
 10
164.556883289
 20
214.760869565
 11
158.756883289
 21
214.760869565
  0
LINE
  8
1
 62
7
  6
CONTINUOUS
 10
158.756883289
 20
201.760869565
 11
164.556883289
 21
201.760869565
  0
LINE
  8
1
 62
7
  6
CONTINUOUS
 10
168.756883289
 20
214.010869565
 11
168.756883289
 21
211.760869565
  0
LINE
  8
1
 62
7
  6
CONTINUOUS
 10
168.756883289
 20
204.760869565
 11
168.756883289
 21
202.510869565
  0
LINE
  8
1
 62
7
  6
CONTINUOUS
 10
164.756883289
 20
202.260869952
 11
168.502099736
 21
202.260869513
  0
LINE
  8
1
 62
7
  6
CONTINUOUS
 10
168.056883289
 20
202.260869565
 11
168.056883289
 21
203.211022010
  0
LINE
  8
1
 62
7
  6
CONTINUOUS
 10
168.450303300
 20
204.760869457
 11
168.391995056
 21
204.239155124
  0
LINE
  8
1
 62
7
  6
CONTINUOUS
 10
168.391995056
 20
204.239155124
 11
168.056882842
 21
203.211022033
  0
LINE
  8
1
 62
7
  6
CONTINUOUS
 10
168.056882842
 20
213.310717097
 11
168.383257388
 21
212.321106768
  0
LINE
  8
1
 62
7
  6
CONTINUOUS
 10
168.383257388
 20
212.321106768
 11
168.448964058
 21
211.760869673
  0
LINE
  8
1
 62
7
  6
CONTINUOUS
 10
168.056883289
 20
213.310717121
 11
168.056883289
 21
214.260869565
  0
LINE
  8
1
 62
7
  6
CONTINUOUS
 10
164.756882860
 20
212.776414077
 11
164.956883289
 21
213.310717121
  0
LINE
  8
1
 62
7
  6
CONTINUOUS
 10
164.956883289
 20
213.310717121
 11
168.056883289
 21
213.310717121
  0
LINE
  8
1
 62
7
  6
CONTINUOUS
 10
164.956883289
 20
203.211022010
 11
164.756882860
 21
203.745325054
  0
LINE
  8
1
 62
7
  6
CONTINUOUS
 10
164.956883289
 20
214.260869565
 11
164.956883289
 21
213.310717121
  0
LINE
  8
1
 62
7
  6
CONTINUOUS
 10
168.506883061
 20
214.260869565
 11
164.756883289
 21
214.260869565
  0
LINE
  8
1
 62
7
  6
CONTINUOUS
 10
164.756883289
 20
214.560869565
 11
164.756883289
 21
211.760869565
  0
LINE
  8
1
 62
7
  6
CONTINUOUS
 10
164.756883289
 20
204.760869565
 11
164.756883289
 21
201.960869565
  0
ARC
  8
1
 62
4
  6
CONTINUOUS
 10
206.256883281
 20
206.260869648
 40
2.500000051
 50
306.869898286
 51
53.130102994
  0
ARC
  8
1
 62
4
  6
CONTINUOUS
 10
209.256883297
 20
210.260869763
 40
2.500000051
 50
126.869898286
 51
233.130102994
  0
LINE
  8
1
 62
7
  6
CONTINUOUS
 10
158.756883289
 20
214.760869565
 11
158.756883289
 21
211.760869565
  0
LINE
  8
1
 62
7
  6
CONTINUOUS
 10
158.756883289
 20
204.760869565
 11
158.756883289
 21
201.760869565
  0
ARC
  8
1
 62
4
  6
CONTINUOUS
 10
206.256883236
 20
210.260869730
 40
2.500000051
 50
306.869898286
 51
53.130102994
  0
ARC
  8
1
 62
4
  6
CONTINUOUS
 10
198.356883244
 20
209.060869565
 40
1.000000000
 50
126.869897646
 51
233.130102354
  0
ARC
  8
1
 62
4
  6
CONTINUOUS
 10
197.156883244
 20
209.060869565
 40
1.000000000
 50
306.869897646
 51
53.130102354
  0
LINE
  8
1
 62
7
  6
CONTINUOUS
 10
169.356883289
 20
209.860869565
 11
197.756883244
 21
209.860869565
  0
LINE
  8
1
 62
7
  6
CONTINUOUS
 10
197.756883244
 20
206.660869565
 11
169.356883289
 21
206.660869565
  0
LINE
  8
1
 62
7
  6
CONTINUOUS
 10
167.756883351
 20
210.335869492
 11
167.356884030
 21
210.335869492
  0
LINE
  8
1
 62
7
  6
CONTINUOUS
 10
167.356884030
 20
206.185870023
 11
167.756883351
 21
206.185870023
  0
LINE
  8
1
 62
7
  6
CONTINUOUS
 10
157.856883404
 20
211.010869743
 11
157.756883574
 21
211.010869743
  0
LINE
  8
1
 62
7
  6
CONTINUOUS
 10
157.756883574
 20
205.510869772
 11
157.856883404
 21
205.510869772
  0
LINE
  8
1
 62
7
  6
CONTINUOUS
 10
167.356883289
 20
211.760869565
 11
157.856883289
 21
211.760869565
  0
LINE
  8
1
 62
7
  6
CONTINUOUS
 10
157.856883289
 20
204.760869565
 11
167.356883289
 21
204.760869565
  0
LINE
  8
1
 62
7
  6
CONTINUOUS
 10
168.856883289
 20
211.760869565
 11
167.756883289
 21
211.760869565
  0
LINE
  8
1
 62
7
  6
CONTINUOUS
 10
167.756883289
 20
204.760869565
 11
168.856883289
 21
204.760869565
  0
ARC
  8
1
 62
7
  6
CONTINUOUS
 10
168.856883289
 20
205.260869565
 40
0.500000000
 50
270.000000000
 51
0.000000000
  0
ARC
  8
1
 62
7
  6
CONTINUOUS
 10
168.856883289
 20
211.260869565
 40
0.500000000
 50
0.000000000
 51
90.000000000
  0
ARC
  8
1
 62
4
  6
CONTINUOUS
 10
197.156883244
 20
207.460869565
 40
1.000000000
 50
306.869897646
 51
53.130102354
  0
LINE
  8
1
 62
7
  6
CONTINUOUS
 10
167.356883289
 20
204.760869565
 11
167.356883289
 21
211.760869565
  0
LINE
  8
1
 62
7
  6
CONTINUOUS
 10
157.856883289
 20
204.760869565
 11
157.856883289
 21
211.760869565
  0
LINE
  8
1
 62
7
  6
CONTINUOUS
 10
167.756883289
 20
204.760869565
 11
167.756883289
 21
211.760869565
  0
LINE
  8
1
 62
7
  6
CONTINUOUS
 10
169.356883289
 20
211.260869565
 11
169.356883289
 21
205.260869565
  0
LINE
  8
1
 62
7
  6
CONTINUOUS
 10
150.419725550
 20
223.210869565
 11
151.256883289
 21
221.760869565
  0
ARC
  8
1
 62
4
  6
CONTINUOUS
 10
187.856883278
 20
155.260869551
 40
2.499999996
 50
306.869898060
 51
53.130102768
  0
INSERT
  8
1
 62
4
  6
CONTINUOUS
  2
blk332
 10
194.856883266
 20
155.260869536
 41
2.499999996
 42
2.499999977
 50
179.999999586
  0
LINE
  8
1
 62
7
  6
CONTINUOUS
 10
207.756883244
 20
212.260869655
 11
168.756883289
 21
212.260869936
  0
LINE
  8
1
 62
7
  6
CONTINUOUS
 10
168.756883289
 20
204.260869195
 11
207.756883334
 21
204.260869475
  0
LINE
  8
1
 62
7
  6
CONTINUOUS
 10
154.756883289
 20
194.760869565
 11
155.594041179
 21
193.310869565
  0
INSERT
  8
1
 62
4
  6
CONTINUOUS
  2
blk336
 10
191.856883298
 20
151.260869594
 41
2.499999996
 42
2.499999977
 50
179.999999586
  0
INSERT
  8
1
 62
4
  6
CONTINUOUS
  2
blk337
 10
194.856883293
 20
151.260869572
 41
2.499999996
 42
2.499999977
 50
179.999999586
  0
TEXT
  8
1
 62
3
  6
CONTINUOUS
 72
5
 10
96.105220788
 20
85.780077292
 40
4.000000000
  1
ＥＭＡ－３０２０Ｓ
 41
0.834566215
 11
131.305220788
 21
85.780077292
  0
LINE
  8
1
 62
7
  6
CONTINUOUS
 10
150.419725550
 20
223.210869565
 11
129.956883289
 21
223.210869565
  0
LINE
  8
1
 62
7
  6
CONTINUOUS
 10
27.606883288
 20
132.297464107
 11
27.606883288
 21
134.197464107
  0
LINE
  8
1
 62
7
  6
CONTINUOUS
 10
21.676950403
 20
131.897464107
 11
21.301950403
 21
132.272464107
  0
LINE
  8
1
 62
7
  6
CONTINUOUS
 10
21.301950403
 20
134.197464107
 11
21.451950403
 21
135.264769565
  0
LINE
  8
1
 62
7
  6
CONTINUOUS
 10
22.642782895
 20
132.297464107
 11
22.642782895
 21
133.897464107
  0
LINE
  8
1
 62
7
  6
CONTINUOUS
 10
22.642782895
 20
133.897464107
 11
25.670983681
 21
133.897464107
  0
LINE
  8
1
 62
7
  6
CONTINUOUS
 10
25.670983681
 20
133.897464107
 11
25.670983681
 21
132.297464107
  0
LINE
  8
1
 62
7
  6
CONTINUOUS
 10
27.606883288
 20
132.297464107
 11
25.670983681
 21
132.297464107
  0
LINE
  8
1
 62
7
  6
CONTINUOUS
 10
22.642782895
 20
132.297464107
 11
20.706883288
 21
132.297464107
  0
LINE
  8
1
 62
7
  6
CONTINUOUS
 10
150.419725550
 20
193.310869565
 11
151.256883289
 21
194.760869565
  0
LINE
  8
1
 62
7
  6
CONTINUOUS
 10
157.456883289
 20
223.210869565
 11
155.594041179
 21
223.210869565
  0
LINE
  8
1
 62
7
  6
CONTINUOUS
 10
157.756883289
 20
222.910869565
 11
157.456883289
 21
223.210869565
  0
LINE
  8
1
 62
7
  6
CONTINUOUS
 10
157.456883289
 20
193.310869565
 11
157.756883289
 21
193.610869565
  0
LINE
  8
1
 62
7
  6
CONTINUOUS
 10
129.956883289
 20
223.210869565
 11
129.956883289
 21
193.310869565
  0
LINE
  8
1
 62
7
  6
CONTINUOUS
 10
157.756883289
 20
222.910869565
 11
157.756883289
 21
193.610869565
  0
ARC
  8
1
 62
7
  6
CONTINUOUS
 10
175.476727082
 20
153.260869565
 40
25.057001683
 50
165.147710869
 51
194.852289131
  0
LINE
  8
1
 62
4
  6
CONTINUOUS
 10
154.756883289
 20
159.683680476
 11
151.256883289
 21
146.838058654
  0
LINE
  8
1
 62
4
  6
CONTINUOUS
 10
151.256883289
 20
159.683680476
 11
154.756883289
 21
146.838058654
  0
LINE
  8
1
 62
7
  6
CONTINUOUS
 10
169.356883289
 20
166.260869565
 11
199.356883289
 21
166.260869565
  0
LINE
  8
1
 62
7
  6
CONTINUOUS
 10
169.356883289
 20
163.060869565
 11
199.356883289
 21
163.060869565
  0
LINE
  8
1
 62
1
  6
CONTINUOUS
 10
252.112670920
 20
149.486388935
 11
252.185157372
 21
145.964745517
  0
LINE
  8
1
 62
7
  6
CONTINUOUS
 10
212.756883288
 20
157.260869437
 11
193.356883254
 21
157.260869577
  0
LINE
  8
1
 62
7
  6
CONTINUOUS
 10
167.756883351
 20
166.735869492
 11
167.356884030
 21
166.735869492
  0
LINE
  8
1
 62
7
  6
CONTINUOUS
 10
167.356884030
 20
162.585870023
 11
167.756883351
 21
162.585870023
  0
LINE
  8
1
 62
7
  6
CONTINUOUS
 10
157.856883404
 20
167.410869743
 11
157.756883574
 21
167.410869743
  0
LINE
  8
1
 62
7
  6
CONTINUOUS
 10
157.756883574
 20
161.910869772
 11
157.856883404
 21
161.910869772
  0
LINE
  8
1
 62
7
  6
CONTINUOUS
 10
167.356883289
 20
168.160869565
 11
157.856883289
 21
168.160869565
  0
LINE
  8
1
 62
7
  6
CONTINUOUS
 10
157.856883289
 20
161.160869565
 11
167.356883289
 21
161.160869565
  0
LINE
  8
1
 62
7
  6
CONTINUOUS
 10
168.856883289
 20
168.160869565
 11
167.756883289
 21
168.160869565
  0
LINE
  8
1
 62
7
  6
CONTINUOUS
 10
167.756883289
 20
161.160869565
 11
168.856883289
 21
161.160869565
  0
ARC
  8
1
 62
7
  6
CONTINUOUS
 10
168.856883289
 20
161.660869565
 40
0.500000000
 50
270.000000000
 51
0.000000000
  0
ARC
  8
1
 62
7
  6
CONTINUOUS
 10
168.856883289
 20
167.660869565
 40
0.500000000
 50
0.000000000
 51
90.000000000
  0
LINE
  8
1
 62
7
  6
CONTINUOUS
 10
164.756882859
 20
147.010869472
 11
164.756882859
 21
159.510869658
  0
LINE
  8
1
 62
7
  6
CONTINUOUS
 10
164.956883288
 20
146.881237105
 11
164.956883288
 21
146.810869565
  0
LINE
  8
1
 62
7
  6
CONTINUOUS
 10
164.956883288
 20
159.710869565
 11
164.956883288
 21
159.640502026
  0
ARC
  8
1
 62
7
  6
CONTINUOUS
 10
158.756883288
 20
145.760869565
 40
1.000000000
 50
90.000000000
 51
180.000000000
  0
LINE
  8
1
 62
1
  6
CENTER
 10
154.756883289
 20
164.660869565
 11
252.356883289
 21
164.660869565
  0
LINE
  8
1
 62
7
  6
CONTINUOUS
 10
249.356883288
 20
144.010869647
 11
226.756883288
 21
144.010869647
  0
LINE
  8
1
 62
7
  6
CONTINUOUS
 10
226.756883288
 20
144.010869647
 11
226.756883288
 21
162.510869647
  0
LINE
  8
1
 62
7
  6
CONTINUOUS
 10
151.256883289
 20
146.838058654
 11
154.756883289
 21
146.838058654
  0
LINE
  8
1
 62
7
  6
CONTINUOUS
 10
151.256883289
 20
159.683680476
 11
154.756883289
 21
159.683680476
  0
LINE
  8
1
 62
7
  6
CONTINUOUS
 10
151.256883289
 20
159.683680476
 11
151.256883289
 21
146.838058654
  0
LINE
  8
1
 62
7
  6
CONTINUOUS
 10
154.756883289
 20
159.683680476
 11
154.756883289
 21
146.838058654
  0
LINE
  8
1
 62
7
  6
CONTINUOUS
 10
167.356883289
 20
161.160869565
 11
167.356883289
 21
168.160869565
  0
LINE
  8
1
 62
7
  6
CONTINUOUS
 10
226.756883288
 20
162.510869647
 11
249.356883288
 21
162.510869647
  0
LINE
  8
1
 62
7
  6
CONTINUOUS
 10
157.856883289
 20
161.160869565
 11
157.856883289
 21
168.160869565
  0
LINE
  8
1
 62
4
  6
CONTINUOUS
 10
245.356883288
 20
161.760869647
 11
244.606883288
 21
162.510869647
  0
LINE
  8
1
 62
7
  6
CONTINUOUS
 10
167.756883289
 20
161.160869565
 11
167.756883289
 21
168.160869565
  0
LINE
  8
1
 62
4
  6
CONTINUOUS
 10
239.356883288
 20
157.260869647
 11
244.606883288
 21
162.510869647
  0
LINE
  8
1
 62
7
  6
CONTINUOUS
 10
169.356883289
 20
167.660869565
 11
169.356883289
 21
161.660869565
  0
ARC
  8
1
 62
7
  6
CONTINUOUS
 10
158.756883288
 20
160.760869565
 40
1.000000000
 50
180.000000000
 51
270.000000000
  0
LINE
  8
1
 62
7
  6
CONTINUOUS
 10
164.556883288
 20
146.760869565
 11
164.756883288
 21
146.960869565
  0
LINE
  8
1
 62
7
  6
CONTINUOUS
 10
164.756883288
 20
159.560869565
 11
164.556883288
 21
159.760869565
  0
LINE
  8
1
 62
7
  6
CONTINUOUS
 10
164.556883288
 20
159.760869565
 11
158.756883288
 21
159.760869565
  0
LINE
  8
1
 62
7
  6
CONTINUOUS
 10
158.756883288
 20
146.760869565
 11
164.556883288
 21
146.760869565
  0
LINE
  8
1
 62
7
  6
CONTINUOUS
 10
164.956883288
 20
150.893909490
 11
164.756882859
 21
151.510869511
  0
LINE
  8
1
 62
7
  6
CONTINUOUS
 10
168.056883288
 20
159.640502026
 11
168.056883288
 21
159.710869565
  0
ARC
  8
1
 62
7
  6
CONTINUOUS
 10
166.675946621
 20
158.457021820
 40
1.818683538
 50
319.403001152
 51
40.596998848
  0
LINE
  8
1
 62
7
  6
CONTINUOUS
 10
168.056883288
 20
155.627829641
 11
168.056883288
 21
157.273541950
  0
ARC
  8
1
 62
7
  6
CONTINUOUS
 10
161.841320270
 20
153.260869565
 40
6.650993756
 50
339.152572343
 51
20.847427657
  0
LINE
  8
1
 62
7
  6
CONTINUOUS
 10
168.056883288
 20
149.248197180
 11
168.056883288
 21
150.893909490
  0
ARC
  8
1
 62
7
  6
CONTINUOUS
 10
166.675946328
 20
148.064717310
 40
1.818683760
 50
319.403007145
 51
40.596992855
  0
LINE
  8
1
 62
7
  6
CONTINUOUS
 10
168.056883288
 20
146.810869565
 11
168.056883288
 21
146.881237105
  0
LINE
  8
1
 62
7
  6
CONTINUOUS
 10
168.756883288
 20
159.010869565
 11
168.756883288
 21
147.510869565
  0
LINE
  8
1
 62
7
  6
CONTINUOUS
 10
164.956883288
 20
146.810869565
 11
168.056883288
 21
146.810869565
  0
LINE
  8
1
 62
7
  6
CONTINUOUS
 10
168.056883288
 20
159.710869565
 11
164.956883288
 21
159.710869565
  0
LINE
  8
1
 62
7
  6
CONTINUOUS
 10
164.756882859
 20
147.010869472
 11
164.956883288
 21
146.810869565
  0
LINE
  8
1
 62
7
  6
CONTINUOUS
 10
164.956883288
 20
159.710869565
 11
164.756882859
 21
159.510869658
  0
LINE
  8
1
 62
7
  6
CONTINUOUS
 10
168.756883288
 20
159.010869565
 11
168.056883288
 21
159.710869565
  0
LINE
  8
1
 62
7
  6
CONTINUOUS
 10
168.056883288
 20
146.810869565
 11
168.756883288
 21
147.510869565
  0
LINE
  8
1
 62
7
  6
CONTINUOUS
 10
164.756882859
 20
155.010869619
 11
164.956883288
 21
155.627829641
  0
LINE
  8
1
 62
7
  6
CONTINUOUS
 10
164.956883288
 20
155.627829641
 11
168.056883288
 21
155.627829641
  0
LINE
  8
1
 62
7
  6
CONTINUOUS
 10
168.056883288
 20
150.893909490
 11
164.956883288
 21
150.893909490
  0
LINE
  8
1
 62
7
  6
CONTINUOUS
 10
164.956883288
 20
157.273541950
 11
164.756882859
 21
157.582021910
  0
LINE
  8
1
 62
7
  6
CONTINUOUS
 10
164.956883288
 20
157.273541950
 11
164.956883288
 21
155.627829641
  0
LINE
  8
1
 62
7
  6
CONTINUOUS
 10
164.956883288
 20
150.893909490
 11
164.956883288
 21
149.248197180
  0
LINE
  8
1
 62
7
  6
CONTINUOUS
 10
164.756882859
 20
148.939717221
 11
164.956883288
 21
149.248197180
  0
LINE
  8
1
 62
7
  6
CONTINUOUS
 10
168.056883288
 20
157.273541950
 11
164.956883288
 21
157.273541950
  0
LINE
  8
1
 62
7
  6
CONTINUOUS
 10
164.956883288
 20
149.248197180
 11
168.056883288
 21
149.248197180
  0
LINE
  8
1
 62
7
  6
CONTINUOUS
 10
236.356883288
 20
162.510869647
 11
236.356883288
 21
144.010869647
  0
LINE
  8
1
 62
7
  6
CONTINUOUS
 10
168.756883515
 20
149.260869375
 11
189.356883316
 21
149.260869524
  0
LINE
  8
1
 62
7
  6
CONTINUOUS
 10
164.956883288
 20
146.881237105
 11
164.756882859
 21
147.189716934
  0
LINE
  8
1
 62
7
  6
CONTINUOUS
 10
168.056883288
 20
146.881237105
 11
164.956883288
 21
146.881237105
  0
LINE
  8
1
 62
7
  6
CONTINUOUS
 10
164.756883288
 20
146.960869565
 11
164.756883288
 21
159.560869565
  0
LINE
  8
1
 62
7
  6
CONTINUOUS
 10
164.756882859
 20
159.332022196
 11
164.956883288
 21
159.640502026
  0
LINE
  8
1
 62
7
  6
CONTINUOUS
 10
164.956883288
 20
159.640502026
 11
168.056883288
 21
159.640502026
  0
LINE
  8
1
 62
7
  6
CONTINUOUS
 10
158.756883288
 20
159.760869565
 11
158.756883288
 21
146.760869565
  0
LINE
  8
1
 62
7
  6
CONTINUOUS
 10
157.456883289
 20
168.210869565
 11
129.956883289
 21
168.210869565
  0
LINE
  8
1
 62
7
  6
CONTINUOUS
 10
129.956883289
 20
138.310869565
 11
157.456883289
 21
138.310869565
  0
DIMENSION
  8
1
 62
4
  6
CONTINUOUS
  2
*D428
 70
0
 10
28.106883288
 20
115.764077292
 11
34.409411383
 21
115.764077292
 14
28.106883288
 24
135.913376301
 13
20.206883288
 23
136.578803002
 50
0.000000000
  0
LINE
  8
1
 62
7
  6
CONTINUOUS
 10
151.256883289
 20
221.760869565
 11
154.756883289
 21
221.760869565
  0
LINE
  8
1
 62
7
  6
CONTINUOUS
 10
200.956883289
 20
166.260869565
 11
249.356883289
 21
166.260869565
  0
LINE
  8
1
 62
7
  6
CONTINUOUS
 10
200.956883289
 20
163.060869565
 11
249.356883289
 21
163.060869565
  0
ENDSEC
  0
EOF
