  0
SECTION
  2
HEADER
  9
$ACADVER
  1
AC1009
  9
$INSBASE
 10
0.000000000
 20
0.000000000
  9
$EXTMIN
 10
-30.025204969
 20
-18.665120458
  9
$EXTMAX
 10
330.277254664
 20
205.316325040
  9
$LIMMIN
 10
-30.025204969
 20
-18.665120458
  9
$LIMMAX
 10
330.277254664
 20
205.316325040
  9
$SNAPBASE
 10
0.000000000
 20
0.000000000
  9
$SNAPANG
 50
0.000000000
  9
$SNAPSTYLE
 70
0
  9
$GRIDMODE
 70
0
  9
$GRIDUNIT
 10
0.000000000
 20
0.000000000
  9
$DIMEXO
 40
0.000000000
  9
$DIMDLI
 40
8.000000000
  9
$DIMDLE
 40
0.000000000
  9
$DIMEXE
 40
1.000000000
  9
$DIMTIH
 70
1
  9
$DIMTOH
 70
1
  9
$DIMTAD
 70
2
  9
$DIMZIN
 70
0
  9
$FILLETRAD
 40
1.000000000
  9
$CHAMFERA
 40
1.000000000
  9
$CHAMFERB
 40
1.000000000
  9
$TDCREATE
 40
2454634.373541667
  9
$TDUPDATE
 40
2454634.373541667
  9
$ANGBASE
 50
0.000000000
  9
$ANGDIR
 70
0
  0
ENDSEC
  0
SECTION
  2
TABLES
  0
TABLE
  2
LTYPE
 70
3
  0
LTYPE
  2
CENTER
 70
64
  3
___ _ ___ _ __
 72
65
 73
4
 40
13.000000000
 49
8.500000000
 49
-1.500000000
 49
1.500000000
 49
-1.500000000
  0
LTYPE
  2
CONTINUOUS
 70
64
  3
______________
 72
65
 73
0
 40
0.000000000
  0
LTYPE
  2
DIVIDE
 70
64
  3
___ . . ___ . 
 72
65
 73
6
 40
12.999999523
 49
5.199999809
 49
-2.599999905
 49
0.000000000
 49
-2.599999905
 49
0.000000000
 49
-2.599999905
  0
ENDTAB
  0
TABLE
  2
LAYER
 70
1
  0
LAYER
  2
1
 70
0
 62
7
  6
CONTINUOUS
  0
LAYER
  2
_CONSTR
 70
0
 62
5
  6
CONTINUOUS
  0
ENDTAB
  0
TABLE
  2
STYLE
 70
1
  0
STYLE
  2
STANDARD
 70
64
 40
0.000000000
 41
1.000000000
 50
0.000000000
 71
0
 42
3.200000000
  3
TXT
  4
EXTFONT
  0
ENDTAB
  0
TABLE
  2
VIEW
 70
0
  0
ENDTAB
  0
ENDSEC
  0
SECTION
  2
BLOCKS
  0
BLOCK
  8
0
  2
blk125
 70
64
 10
0.000000000
 20
0.000000000
  3
blk125
  0
ARC
  8
1
 62
4
  6
CONTINUOUS
 10
0.000000000
 20
0.000000000
 40
1.000000000
 50
306.869897646
 51
413.130102354
  0
ENDBLK
  8
0
  0
BLOCK
  8
0
  2
*D146
 70
65
 10
0.000000000
 20
0.000000000
  3
*D
  0
TEXT
  8
1
 62
4
  6
CONTINUOUS
 72
5
 10
170.240449696
 20
128.799202899
 40
2.800000000
  1
27.8
 41
1.099999267
 11
179.480449696
 21
128.799202899
  0
POLYLINE
  8
1
 62
4
  6
CONTINUOUS
 66
1
  0
VERTEX
  8
1
 10
162.952049696
 20
126.894202899
  0
VERTEX
  8
1
 10
160.952049696
 20
126.594202899
  0
VERTEX
  8
1
 10
162.952049696
 20
126.294202899
  0
SEQEND
  8
1
  0
LINE
  8
1
 62
4
  6
CONTINUOUS
 10
160.952049696
 20
126.594202899
 11
188.752049696
 21
126.594202899
  0
POLYLINE
  8
1
 62
4
  6
CONTINUOUS
 66
1
  0
VERTEX
  8
1
 10
186.752049696
 20
126.294202899
  0
VERTEX
  8
1
 10
188.752049696
 20
126.594202899
  0
VERTEX
  8
1
 10
186.752049696
 20
126.894202899
  0
SEQEND
  8
1
  0
LINE
  8
1
 62
4
  6
CONTINUOUS
 10
188.752049696
 20
146.944202899
 11
188.752049696
 21
124.594202899
  0
ENDBLK
  8
0
  0
BLOCK
  8
0
  2
*D149
 70
65
 10
0.000000000
 20
0.000000000
  3
*D
  0
TEXT
  8
1
 62
4
  6
CONTINUOUS
 72
5
 10
98.310449696
 20
128.799202899
 40
2.800000000
  1
(
 41
1.800001800
 11
99.990449696
 21
128.799202899
  0
TEXT
  8
1
 62
4
  6
CONTINUOUS
 72
5
 10
100.830449696
 20
128.799202899
 40
2.800000000
  1
108.5
 41
1.199999314
 11
112.590449696
 21
128.799202899
  0
TEXT
  8
1
 62
4
  6
CONTINUOUS
 72
5
 10
113.430449696
 20
128.799202899
 40
2.800000000
  1
)
 41
1.800001800
 11
115.110449696
 21
128.799202899
  0
LINE
  8
1
 62
4
  6
CONTINUOUS
 10
52.452049696
 20
146.994202899
 11
52.452049696
 21
124.594202899
  0
POLYLINE
  8
1
 62
4
  6
CONTINUOUS
 66
1
  0
VERTEX
  8
1
 10
54.452049696
 20
126.894202899
  0
VERTEX
  8
1
 10
52.452049696
 20
126.594202899
  0
VERTEX
  8
1
 10
54.452049696
 20
126.294202899
  0
SEQEND
  8
1
  0
LINE
  8
1
 62
4
  6
CONTINUOUS
 10
52.452049696
 20
126.594202899
 11
160.952049696
 21
126.594202899
  0
POLYLINE
  8
1
 62
4
  6
CONTINUOUS
 66
1
  0
VERTEX
  8
1
 10
158.952049696
 20
126.294202899
  0
VERTEX
  8
1
 10
160.952049696
 20
126.594202899
  0
VERTEX
  8
1
 10
158.952049696
 20
126.894202899
  0
SEQEND
  8
1
  0
LINE
  8
1
 62
4
  6
CONTINUOUS
 10
160.952049696
 20
146.644202899
 11
160.952049696
 21
124.594202899
  0
ENDBLK
  8
0
  0
BLOCK
  8
0
  2
*D150
 70
65
 10
0.000000000
 20
0.000000000
  3
*D
  0
TEXT
  8
1
 62
4
  6
CONTINUOUS
 72
5
 10
189.640449695
 20
128.799202899
 40
2.800000000
  1
(
 41
1.800001800
 11
191.320449695
 21
128.799202899
  0
TEXT
  8
1
 62
4
  6
CONTINUOUS
 72
5
 10
192.160449695
 20
128.799202899
 40
2.800000000
  1
11
 41
1.500000000
 11
196.360449695
 21
128.799202899
  0
TEXT
  8
1
 62
4
  6
CONTINUOUS
 72
5
 10
197.200449695
 20
128.799202899
 40
2.800000000
  1
)
 41
1.800001800
 11
198.880449695
 21
128.799202899
  0
POLYLINE
  8
1
 62
4
  6
CONTINUOUS
 66
1
  0
VERTEX
  8
1
 10
190.752049696
 20
126.894202899
  0
VERTEX
  8
1
 10
188.752049696
 20
126.594202899
  0
VERTEX
  8
1
 10
190.752049696
 20
126.294202899
  0
SEQEND
  8
1
  0
LINE
  8
1
 62
4
  6
CONTINUOUS
 10
188.752049696
 20
126.594202899
 11
199.752049695
 21
126.594202899
  0
POLYLINE
  8
1
 62
4
  6
CONTINUOUS
 66
1
  0
VERTEX
  8
1
 10
197.752049695
 20
126.294202899
  0
VERTEX
  8
1
 10
199.752049695
 20
126.594202899
  0
VERTEX
  8
1
 10
197.752049695
 20
126.894202899
  0
SEQEND
  8
1
  0
LINE
  8
1
 62
4
  6
CONTINUOUS
 10
199.752049695
 20
155.844202899
 11
199.752049695
 21
124.594202899
  0
ENDBLK
  8
0
  0
BLOCK
  8
0
  2
*D151
 70
65
 10
0.000000000
 20
0.000000000
  3
*D
  0
TEXT
  8
1
 62
4
  6
CONTINUOUS
 72
5
 10
112.210449696
 20
120.799202899
 40
2.800000000
  1
(
 41
1.800001800
 11
113.890449696
 21
120.799202899
  0
TEXT
  8
1
 62
4
  6
CONTINUOUS
 72
5
 10
114.730449696
 20
120.799202899
 40
2.800000000
  1
136.3
 41
1.145453817
 11
126.490449696
 21
120.799202899
  0
TEXT
  8
1
 62
4
  6
CONTINUOUS
 72
5
 10
127.330449696
 20
120.799202899
 40
2.800000000
  1
)
 41
1.800001800
 11
129.010449696
 21
120.799202899
  0
POLYLINE
  8
1
 62
4
  6
CONTINUOUS
 66
1
  0
VERTEX
  8
1
 10
54.452049696
 20
118.894202899
  0
VERTEX
  8
1
 10
52.452049696
 20
118.594202899
  0
VERTEX
  8
1
 10
54.452049696
 20
118.294202899
  0
SEQEND
  8
1
  0
LINE
  8
1
 62
4
  6
CONTINUOUS
 10
52.452049696
 20
118.594202899
 11
188.752049696
 21
118.594202899
  0
POLYLINE
  8
1
 62
4
  6
CONTINUOUS
 66
1
  0
VERTEX
  8
1
 10
186.752049696
 20
118.294202899
  0
VERTEX
  8
1
 10
188.752049696
 20
118.594202899
  0
VERTEX
  8
1
 10
186.752049696
 20
118.894202899
  0
SEQEND
  8
1
  0
LINE
  8
1
 62
4
  6
CONTINUOUS
 10
188.752049696
 20
146.944202899
 11
188.752049696
 21
116.594202899
  0
ENDBLK
  8
0
  0
BLOCK
  8
0
  2
*D152
 70
65
 10
0.000000000
 20
0.000000000
  3
*D
  0
TEXT
  8
1
 62
4
  6
CONTINUOUS
 72
5
 10
36.884698389
 20
120.799202899
 40
2.800000000
  1
(
 41
1.800001800
 11
38.564698389
 21
120.799202899
  0
TEXT
  8
1
 62
4
  6
CONTINUOUS
 72
5
 10
39.404698389
 20
120.799202899
 40
2.800000000
  1
16.9
 41
1.237498917
 11
48.644698389
 21
120.799202899
  0
TEXT
  8
1
 62
4
  6
CONTINUOUS
 72
5
 10
49.484698389
 20
120.799202899
 40
2.800000000
  1
)
 41
1.800001800
 11
51.164698389
 21
120.799202899
  0
LINE
  8
1
 62
4
  6
CONTINUOUS
 10
35.580547081
 20
156.471553168
 11
35.580547081
 21
116.594202899
  0
POLYLINE
  8
1
 62
4
  6
CONTINUOUS
 66
1
  0
VERTEX
  8
1
 10
37.580547081
 20
118.894202899
  0
VERTEX
  8
1
 10
35.580547081
 20
118.594202899
  0
VERTEX
  8
1
 10
37.580547081
 20
118.294202899
  0
SEQEND
  8
1
  0
LINE
  8
1
 62
4
  6
CONTINUOUS
 10
35.580547081
 20
118.594202899
 11
52.452049696
 21
118.594202899
  0
POLYLINE
  8
1
 62
4
  6
CONTINUOUS
 66
1
  0
VERTEX
  8
1
 10
50.452049696
 20
118.294202899
  0
VERTEX
  8
1
 10
52.452049696
 20
118.594202899
  0
VERTEX
  8
1
 10
50.452049696
 20
118.894202899
  0
SEQEND
  8
1
  0
LINE
  8
1
 62
4
  6
CONTINUOUS
 10
52.452049696
 20
146.994202899
 11
52.452049696
 21
116.594202899
  0
ENDBLK
  8
0
  0
BLOCK
  8
0
  2
*D153
 70
65
 10
0.000000000
 20
0.000000000
  3
*D
  0
TEXT
  8
1
 62
4
  6
CONTINUOUS
 72
5
 10
17.375547081
 20
153.631002899
 40
2.800000000
  1
φ
 41
1.270648030
 50
90.000000000
 11
17.375547081
 21
156.991002899
  0
TEXT
  8
1
 62
4
  6
CONTINUOUS
 72
5
 10
17.375547081
 20
158.671002899
 40
2.800000000
  1
30
 41
1.000000667
 50
90.000000000
 11
17.375547081
 21
162.871002899
  0
TEXT
  8
1
 62
4
  6
CONTINUOUS
 72
5
 10
15.611547081
 20
163.711002899
 40
1.400000000
  1
 0
 41
2.333335926
 50
90.000000000
 11
15.611547081
 21
166.651002899
  0
TEXT
  8
1
 62
4
  6
CONTINUOUS
 72
5
 10
17.753547081
 20
163.711002899
 40
1.400000000
  1
-0.01
 41
1.710000684
 50
90.000000000
 11
17.753547081
 21
171.691002899
  0
LINE
  8
1
 62
4
  6
CONTINUOUS
 10
56.452049696
 20
176.594202899
 11
17.580547081
 21
176.594202899
  0
POLYLINE
  8
1
 62
4
  6
CONTINUOUS
 66
1
  0
VERTEX
  8
1
 10
19.880547081
 20
174.594202899
  0
VERTEX
  8
1
 10
19.580547081
 20
176.594202899
  0
VERTEX
  8
1
 10
19.280547081
 20
174.594202899
  0
SEQEND
  8
1
  0
LINE
  8
1
 62
4
  6
CONTINUOUS
 10
19.580547081
 20
176.594202899
 11
19.580547081
 21
146.594202899
  0
POLYLINE
  8
1
 62
4
  6
CONTINUOUS
 66
1
  0
VERTEX
  8
1
 10
19.280547081
 20
148.594202899
  0
VERTEX
  8
1
 10
19.580547081
 20
146.594202899
  0
VERTEX
  8
1
 10
19.880547081
 20
148.594202899
  0
SEQEND
  8
1
  0
LINE
  8
1
 62
4
  6
CONTINUOUS
 10
56.452049696
 20
146.594202899
 11
17.580547081
 21
146.594202899
  0
ENDBLK
  8
0
  0
BLOCK
  8
0
  2
*D156
 70
65
 10
0.000000000
 20
0.000000000
  3
*D
  0
TEXT
  8
1
 62
4
  6
CONTINUOUS
 72
5
 10
228.680449695
 20
120.799202899
 40
2.800000000
  1
(300)
 41
1.145454754
 11
240.440449695
 21
120.799202899
  0
LINE
  8
1
 62
4
  6
CONTINUOUS
 10
188.752049696
 20
146.944202899
 11
188.752049696
 21
116.594202899
  0
POLYLINE
  8
1
 62
4
  6
CONTINUOUS
 66
1
  0
VERTEX
  8
1
 10
190.752049696
 20
118.894202899
  0
VERTEX
  8
1
 10
188.752049696
 20
118.594202899
  0
VERTEX
  8
1
 10
190.752049696
 20
118.294202899
  0
SEQEND
  8
1
  0
LINE
  8
1
 62
4
  6
CONTINUOUS
 10
188.752049696
 20
118.594202899
 11
280.352049695
 21
118.594202899
  0
POLYLINE
  8
1
 62
4
  6
CONTINUOUS
 66
1
  0
VERTEX
  8
1
 10
278.352049695
 20
118.294202899
  0
VERTEX
  8
1
 10
280.352049695
 20
118.594202899
  0
VERTEX
  8
1
 10
278.352049695
 20
118.894202899
  0
SEQEND
  8
1
  0
LINE
  8
1
 62
4
  6
CONTINUOUS
 10
280.352049695
 20
152.344202981
 11
280.352049695
 21
116.594202899
  0
ENDBLK
  8
0
  0
BLOCK
  8
0
  2
*D157
 70
65
 10
0.000000000
 20
0.000000000
  3
*D
  0
TEXT
  8
1
 62
4
  6
CONTINUOUS
 72
5
 10
25.375547081
 20
154.462602899
 40
2.800000000
  1
φ
 41
1.270648030
 50
90.000000000
 11
25.375547081
 21
157.822602899
  0
TEXT
  8
1
 62
4
  6
CONTINUOUS
 72
5
 10
25.375547081
 20
159.502602899
 40
2.800000000
  1
15.9
 41
1.237498917
 50
90.000000000
 11
25.375547081
 21
168.742602899
  0
LINE
  8
1
 62
4
  6
CONTINUOUS
 10
39.745610591
 20
169.544202899
 11
25.580547081
 21
169.544202899
  0
POLYLINE
  8
1
 62
4
  6
CONTINUOUS
 66
1
  0
VERTEX
  8
1
 10
27.880547081
 20
167.544202899
  0
VERTEX
  8
1
 10
27.580547081
 20
169.544202899
  0
VERTEX
  8
1
 10
27.280547081
 20
167.544202899
  0
SEQEND
  8
1
  0
LINE
  8
1
 62
4
  6
CONTINUOUS
 10
27.580547081
 20
169.544202899
 11
27.580547081
 21
153.644202899
  0
POLYLINE
  8
1
 62
4
  6
CONTINUOUS
 66
1
  0
VERTEX
  8
1
 10
27.280547081
 20
155.644202899
  0
VERTEX
  8
1
 10
27.580547081
 20
153.644202899
  0
VERTEX
  8
1
 10
27.880547081
 20
155.644202899
  0
SEQEND
  8
1
  0
LINE
  8
1
 62
4
  6
CONTINUOUS
 10
39.745610591
 20
153.644202899
 11
25.580547081
 21
153.644202899
  0
ENDBLK
  8
0
  0
BLOCK
  8
0
  2
*D160
 70
65
 10
0.000000000
 20
0.000000000
  3
*D
  0
TEXT
  8
1
 62
4
  6
CONTINUOUS
 72
5
 10
170.506273087
 20
152.080234864
 40
2.800000000
  1
φ
 41
1.270648030
 50
90.000000000
 11
170.506273087
 21
155.440234864
  0
TEXT
  8
1
 62
4
  6
CONTINUOUS
 72
5
 10
170.506273087
 20
157.120234864
 40
2.800000000
  1
29.9
 41
1.099999267
 50
90.000000000
 11
170.506273087
 21
166.360234864
  0
POLYLINE
  8
1
 62
4
  6
CONTINUOUS
 66
1
  0
VERTEX
  8
1
 10
173.011273087
 20
174.544202899
  0
VERTEX
  8
1
 10
172.711273087
 20
176.544202899
  0
VERTEX
  8
1
 10
172.411273087
 20
174.544202899
  0
SEQEND
  8
1
  0
LINE
  8
1
 62
4
  6
CONTINUOUS
 10
172.711273087
 20
176.544202899
 11
172.711273087
 21
146.644202899
  0
POLYLINE
  8
1
 62
4
  6
CONTINUOUS
 66
1
  0
VERTEX
  8
1
 10
172.411273087
 20
148.644202899
  0
VERTEX
  8
1
 10
172.711273087
 20
146.644202899
  0
VERTEX
  8
1
 10
173.011273087
 20
148.644202899
  0
SEQEND
  8
1
  0
ENDBLK
  8
0
  0
BLOCK
  8
0
  2
*D243
 70
65
 10
0.000000000
 20
0.000000000
  3
*D
  0
TEXT
  8
1
 62
4
  6
CONTINUOUS
 72
5
 10
298.047049695
 20
154.462602981
 40
2.800000000
  1
φ
 41
1.270648030
 50
90.000000000
 11
298.047049695
 21
157.822602981
  0
TEXT
  8
1
 62
4
  6
CONTINUOUS
 72
5
 10
298.047049695
 20
159.502602981
 40
2.800000000
  1
18.5
 41
1.237498917
 50
90.000000000
 11
298.047049695
 21
168.742602981
  0
LINE
  8
1
 62
4
  6
CONTINUOUS
 10
280.352049695
 20
170.844202981
 11
302.252049695
 21
170.844202981
  0
POLYLINE
  8
1
 62
4
  6
CONTINUOUS
 66
1
  0
VERTEX
  8
1
 10
300.552049695
 20
168.844202981
  0
VERTEX
  8
1
 10
300.252049695
 20
170.844202981
  0
VERTEX
  8
1
 10
299.952049695
 20
168.844202981
  0
SEQEND
  8
1
  0
LINE
  8
1
 62
4
  6
CONTINUOUS
 10
300.252049695
 20
170.844202981
 11
300.252049695
 21
152.344202981
  0
POLYLINE
  8
1
 62
4
  6
CONTINUOUS
 66
1
  0
VERTEX
  8
1
 10
299.952049695
 20
154.344202981
  0
VERTEX
  8
1
 10
300.252049695
 20
152.344202981
  0
VERTEX
  8
1
 10
300.552049695
 20
154.344202981
  0
SEQEND
  8
1
  0
LINE
  8
1
 62
4
  6
CONTINUOUS
 10
280.352049695
 20
152.344202981
 11
302.252049695
 21
152.344202981
  0
ENDBLK
  8
0
  0
BLOCK
  8
0
  2
blk245
 70
64
 10
0.000000000
 20
0.000000000
  3
blk245
  0
ARC
  8
1
 62
4
  6
CONTINUOUS
 10
0.000000000
 20
0.000000000
 40
1.000000000
 50
126.869897646
 51
233.130102354
  0
ENDBLK
  8
0
  0
BLOCK
  8
0
  2
blk246
 70
64
 10
0.000000000
 20
0.000000000
  3
blk246
  0
ARC
  8
1
 62
4
  6
CONTINUOUS
 10
0.000000000
 20
0.000000000
 40
1.000000000
 50
306.869897646
 51
413.130102354
  0
ENDBLK
  8
0
  0
ENDSEC
  0
SECTION
  2
ENTITIES
  0
LINE
  8
1
 62
7
  6
CONTINUOUS
 10
188.452049696
 20
176.544202899
 11
160.952049696
 21
176.544202899
  0
LINE
  8
1
 62
7
  6
CONTINUOUS
 10
160.952049696
 20
146.644202899
 11
188.452049696
 21
146.644202899
  0
LINE
  8
1
 62
7
  6
CONTINUOUS
 10
189.752049695
 20
168.094202899
 11
189.752049695
 21
155.094202899
  0
LINE
  8
1
 62
7
  6
CONTINUOUS
 10
195.952049695
 20
167.973835359
 11
199.052049695
 21
167.973835359
  0
LINE
  8
1
 62
7
  6
CONTINUOUS
 10
195.752049266
 20
167.665355530
 11
195.952049695
 21
167.973835359
  0
LINE
  8
1
 62
7
  6
CONTINUOUS
 10
195.752049695
 20
155.294202899
 11
195.752049695
 21
167.894202899
  0
LINE
  8
1
 62
7
  6
CONTINUOUS
 10
199.052049695
 20
155.214570438
 11
195.952049695
 21
155.214570438
  0
LINE
  8
1
 62
7
  6
CONTINUOUS
 10
195.952049695
 20
155.214570438
 11
195.752049266
 21
155.523050267
  0
LINE
  8
1
 62
7
  6
CONTINUOUS
 10
199.752049921
 20
157.594202709
 11
220.352049696
 21
157.594202857
  0
LINE
  8
1
 62
7
  6
CONTINUOUS
 10
267.352049695
 20
170.844202981
 11
267.352049695
 21
152.344202981
  0
LINE
  8
1
 62
7
  6
CONTINUOUS
 10
195.952049695
 20
157.581530514
 11
199.052049695
 21
157.581530514
  0
LINE
  8
1
 62
7
  6
CONTINUOUS
 10
199.052049695
 20
165.606875283
 11
195.952049695
 21
165.606875283
  0
LINE
  8
1
 62
7
  6
CONTINUOUS
 10
195.752049266
 20
157.273050554
 11
195.952049695
 21
157.581530514
  0
LINE
  8
1
 62
7
  6
CONTINUOUS
 10
56.152049696
 20
148.344202899
 11
55.852049696
 21
148.344202899
  0
LINE
  8
1
 62
7
  6
CONTINUOUS
 10
195.952049695
 20
159.227242823
 11
195.952049695
 21
157.581530514
  0
LINE
  8
1
 62
7
  6
CONTINUOUS
 10
195.952049695
 20
165.606875283
 11
195.952049695
 21
163.961162974
  0
LINE
  8
1
 62
7
  6
CONTINUOUS
 10
195.952049695
 20
165.606875283
 11
195.752049266
 21
165.915355243
  0
LINE
  8
1
 62
7
  6
CONTINUOUS
 10
199.052049695
 20
159.227242823
 11
195.952049695
 21
159.227242823
  0
LINE
  8
1
 62
7
  6
CONTINUOUS
 10
195.952049695
 20
163.961162974
 11
199.052049695
 21
163.961162974
  0
LINE
  8
1
 62
7
  6
CONTINUOUS
 10
195.752049266
 20
163.344202953
 11
195.952049695
 21
163.961162974
  0
LINE
  8
1
 62
7
  6
CONTINUOUS
 10
199.052049695
 20
155.144202899
 11
199.752049695
 21
155.844202899
  0
LINE
  8
1
 62
7
  6
CONTINUOUS
 10
199.752049695
 20
167.344202899
 11
199.052049695
 21
168.044202899
  0
LINE
  8
1
 62
7
  6
CONTINUOUS
 10
195.952049695
 20
168.044202899
 11
195.752049266
 21
167.844202992
  0
LINE
  8
1
 62
7
  6
CONTINUOUS
 10
195.752049266
 20
155.344202805
 11
195.952049695
 21
155.144202899
  0
LINE
  8
1
 62
7
  6
CONTINUOUS
 10
199.052049695
 20
168.044202899
 11
195.952049695
 21
168.044202899
  0
LINE
  8
1
 62
7
  6
CONTINUOUS
 10
195.952049695
 20
155.144202899
 11
199.052049695
 21
155.144202899
  0
LINE
  8
1
 62
7
  6
CONTINUOUS
 10
199.752049695
 20
167.344202899
 11
199.752049695
 21
155.844202899
  0
LINE
  8
1
 62
7
  6
CONTINUOUS
 10
199.052049695
 20
155.144202899
 11
199.052049695
 21
155.214570438
  0
ARC
  8
1
 62
7
  6
CONTINUOUS
 10
197.671112735
 20
156.398050644
 40
1.818683760
 50
319.403007145
 51
40.596992855
  0
LINE
  8
1
 62
7
  6
CONTINUOUS
 10
199.052049695
 20
157.581530514
 11
199.052049695
 21
159.227242823
  0
ARC
  8
1
 62
7
  6
CONTINUOUS
 10
192.836486677
 20
161.594202899
 40
6.650993756
 50
339.152572343
 51
20.847427657
  0
LINE
  8
1
 62
7
  6
CONTINUOUS
 10
199.052049695
 20
163.961162974
 11
199.052049695
 21
165.606875283
  0
ARC
  8
1
 62
7
  6
CONTINUOUS
 10
197.671113028
 20
166.790355153
 40
1.818683538
 50
319.403001152
 51
40.596998848
  0
LINE
  8
1
 62
7
  6
CONTINUOUS
 10
199.052049695
 20
167.973835359
 11
199.052049695
 21
168.044202899
  0
LINE
  8
1
 62
7
  6
CONTINUOUS
 10
195.952049695
 20
159.227242823
 11
195.752049266
 21
159.844202845
  0
LINE
  8
1
 62
7
  6
CONTINUOUS
 10
189.752049695
 20
155.094202899
 11
195.552049695
 21
155.094202899
  0
LINE
  8
1
 62
7
  6
CONTINUOUS
 10
195.552049695
 20
168.094202899
 11
189.752049695
 21
168.094202899
  0
LINE
  8
1
 62
7
  6
CONTINUOUS
 10
195.752049695
 20
167.894202899
 11
195.552049695
 21
168.094202899
  0
LINE
  8
1
 62
7
  6
CONTINUOUS
 10
195.552049695
 20
155.094202899
 11
195.752049695
 21
155.294202899
  0
ARC
  8
1
 62
7
  6
CONTINUOUS
 10
189.752049695
 20
169.094202899
 40
1.000000000
 50
180.000000000
 51
270.000000000
  0
LINE
  8
1
 62
7
  6
CONTINUOUS
 10
200.352049696
 20
175.994202899
 11
200.352049696
 21
169.994202899
  0
LINE
  8
1
 62
4
  6
CONTINUOUS
 10
270.352049695
 20
165.594202981
 11
275.602049695
 21
170.844202981
  0
LINE
  8
1
 62
7
  6
CONTINUOUS
 10
198.752049696
 20
169.494202899
 11
198.752049696
 21
176.494202899
  0
LINE
  8
1
 62
4
  6
CONTINUOUS
 10
276.352049695
 20
170.094202981
 11
275.602049695
 21
170.844202981
  0
LINE
  8
1
 62
7
  6
CONTINUOUS
 10
188.852049696
 20
169.494202899
 11
188.852049696
 21
176.494202899
  0
LINE
  8
1
 62
7
  6
CONTINUOUS
 10
257.752049695
 20
170.844202981
 11
280.352049695
 21
170.844202981
  0
LINE
  8
1
 62
7
  6
CONTINUOUS
 10
198.352049696
 20
169.494202899
 11
198.352049696
 21
176.494202899
  0
LINE
  8
1
 62
7
  6
CONTINUOUS
 10
188.752049696
 20
176.244202899
 11
188.752049696
 21
146.944202899
  0
LINE
  8
1
 62
7
  6
CONTINUOUS
 10
185.752049696
 20
168.017013810
 11
185.752049696
 21
155.171391987
  0
LINE
  8
1
 62
7
  6
CONTINUOUS
 10
182.252049696
 20
168.017013810
 11
182.252049696
 21
155.171391987
  0
LINE
  8
1
 62
7
  6
CONTINUOUS
 10
182.252049696
 20
168.017013810
 11
185.752049696
 21
168.017013810
  0
LINE
  8
1
 62
7
  6
CONTINUOUS
 10
182.252049696
 20
155.171391987
 11
185.752049696
 21
155.171391987
  0
LINE
  8
1
 62
7
  6
CONTINUOUS
 10
257.752049695
 20
152.344202981
 11
257.752049695
 21
170.844202981
  0
LINE
  8
1
 62
7
  6
CONTINUOUS
 10
280.352049695
 20
152.344202981
 11
257.752049695
 21
152.344202981
  0
LINE
  8
1
 62
7
  6
CONTINUOUS
 10
160.952049696
 20
176.544202899
 11
160.952049696
 21
146.644202899
  0
LINE
  8
1
 62
1
  6
CENTER
 10
185.752049696
 20
172.994202899
 11
283.352049696
 21
172.994202899
  0
ARC
  8
1
 62
7
  6
CONTINUOUS
 10
189.752049695
 20
154.094202899
 40
1.000000000
 50
90.000000000
 51
180.000000000
  0
ARC
  8
1
 62
7
  6
CONTINUOUS
 10
47.580547081
 20
169.044202899
 40
0.500000000
 50
0.000000000
 51
90.000000000
  0
ARC
  8
1
 62
7
  6
CONTINUOUS
 10
36.580547081
 20
166.716852629
 40
1.000000000
 50
120.000000000
 51
180.000000000
  0
LINE
  8
1
 62
7
  6
CONTINUOUS
 10
43.280547081
 20
169.294202899
 11
43.530547081
 21
169.544202899
  0
ARC
  8
1
 62
7
  6
CONTINUOUS
 10
39.745610591
 20
168.544202899
 40
1.000000000
 50
90.000000000
 51
120.000000000
  0
LINE
  8
1
 62
7
  6
CONTINUOUS
 10
36.080547081
 20
167.582878033
 11
39.245610591
 21
169.410228302
  0
LINE
  8
1
 62
7
  6
CONTINUOUS
 10
39.745610591
 20
169.544202899
 11
40.030547081
 21
169.544202899
  0
LINE
  8
1
 62
7
  6
CONTINUOUS
 10
40.530547081
 20
165.362823336
 11
43.030547081
 21
165.362823336
  0
LINE
  8
1
 62
7
  6
CONTINUOUS
 10
40.530547081
 20
157.825582461
 11
43.030547081
 21
157.825582461
  0
LINE
  8
1
 62
7
  6
CONTINUOUS
 10
39.245610591
 20
168.710228302
 11
39.245610591
 21
154.478177495
  0
LINE
  8
1
 62
7
  6
CONTINUOUS
 10
40.030547081
 20
169.544202899
 11
40.280547081
 21
169.294202899
  0
LINE
  8
1
 62
7
  6
CONTINUOUS
 10
48.652049696
 20
164.575813202
 11
48.652049696
 21
158.612592595
  0
LINE
  8
1
 62
7
  6
CONTINUOUS
 10
47.580547081
 20
169.544202899
 11
43.530547081
 21
169.544202899
  0
LINE
  8
1
 62
7
  6
CONTINUOUS
 10
35.580547081
 20
166.716852629
 11
35.580547081
 21
156.471553168
  0
LINE
  8
1
 62
7
  6
CONTINUOUS
 10
48.652049696
 20
158.612592595
 11
51.652049696
 21
158.612592595
  0
LINE
  8
1
 62
7
  6
CONTINUOUS
 10
51.652049696
 20
158.612592595
 11
51.652049696
 21
164.575813202
  0
LINE
  8
1
 62
7
  6
CONTINUOUS
 10
51.652049696
 20
164.575813202
 11
48.652049696
 21
164.575813202
  0
LINE
  8
1
 62
7
  6
CONTINUOUS
 10
43.280547081
 20
169.294202899
 11
43.280547081
 21
153.894202899
  0
ARC
  8
1
 62
7
  6
CONTINUOUS
 10
47.580547081
 20
154.144202899
 40
0.500000000
 50
270.000000000
 51
0.000000000
  0
ARC
  8
1
 62
7
  6
CONTINUOUS
 10
36.580547081
 20
156.471553168
 40
1.000000000
 50
180.000000000
 51
240.000000000
  0
LINE
  8
1
 62
7
  6
CONTINUOUS
 10
43.280547081
 20
153.894202899
 11
43.530547081
 21
153.644202899
  0
LINE
  8
1
 62
7
  6
CONTINUOUS
 10
40.280547081
 20
154.594202899
 11
43.280547081
 21
154.594202899
  0
LINE
  8
1
 62
7
  6
CONTINUOUS
 10
40.280547081
 20
169.294202899
 11
40.280547081
 21
153.894202899
  0
LINE
  8
1
 62
7
  6
CONTINUOUS
 10
40.280547081
 20
168.594202899
 11
43.280547081
 21
168.594202899
  0
ARC
  8
1
 62
7
  6
CONTINUOUS
 10
39.745610591
 20
154.644202899
 40
1.000000000
 50
240.000000000
 51
270.000000000
  0
LINE
  8
1
 62
7
  6
CONTINUOUS
 10
36.080547081
 20
155.605527764
 11
39.245610591
 21
153.778177495
  0
LINE
  8
1
 62
7
  6
CONTINUOUS
 10
39.745610591
 20
153.644202899
 11
40.030547081
 21
153.644202899
  0
LINE
  8
1
 62
7
  6
CONTINUOUS
 10
40.030547081
 20
153.644202899
 11
40.280547081
 21
153.894202899
  0
LINE
  8
1
 62
7
  6
CONTINUOUS
 10
47.580547081
 20
153.644202899
 11
43.530547081
 21
153.644202899
  0
LINE
  8
1
 62
7
  6
CONTINUOUS
 10
48.080547081
 20
169.044202899
 11
48.080547081
 21
154.144202899
  0
LINE
  8
1
 62
7
  6
CONTINUOUS
 10
52.452049696
 20
176.194202899
 11
52.452049696
 21
146.994202899
  0
LINE
  8
1
 62
7
  6
CONTINUOUS
 10
52.652049696
 20
146.794202899
 11
55.852049696
 21
146.794202899
  0
LINE
  8
1
 62
7
  6
CONTINUOUS
 10
52.652049696
 20
146.794202899
 11
52.452049696
 21
146.994202899
  0
LINE
  8
1
 62
7
  6
CONTINUOUS
 10
55.852049696
 20
146.794202899
 11
55.852049696
 21
176.394202899
  0
LINE
  8
1
 62
7
  6
CONTINUOUS
 10
52.652049696
 20
176.394202899
 11
55.852049696
 21
176.394202899
  0
LINE
  8
1
 62
7
  6
CONTINUOUS
 10
52.652049696
 20
176.394202899
 11
52.452049696
 21
176.194202899
  0
LINE
  8
1
 62
7
  6
CONTINUOUS
 10
160.852049695
 20
146.594202899
 11
56.452049696
 21
146.594202899
  0
LINE
  8
1
 62
7
  6
CONTINUOUS
 10
160.852049695
 20
146.594202899
 11
160.952049695
 21
146.694202899
  0
LINE
  8
1
 62
7
  6
CONTINUOUS
 10
56.152049696
 20
146.894202899
 11
56.152049696
 21
176.294202899
  0
LINE
  8
1
 62
7
  6
CONTINUOUS
 10
56.152049696
 20
146.894202899
 11
56.452049696
 21
146.594202899
  0
LINE
  8
1
 62
7
  6
CONTINUOUS
 10
160.852049695
 20
176.594202899
 11
56.452049696
 21
176.594202899
  0
LINE
  8
1
 62
7
  6
CONTINUOUS
 10
160.952049695
 20
146.694202899
 11
160.952049695
 21
176.494202899
  0
LINE
  8
1
 62
7
  6
CONTINUOUS
 10
160.852049695
 20
176.594202899
 11
160.952049695
 21
176.494202899
  0
LINE
  8
1
 62
7
  6
CONTINUOUS
 10
56.152049696
 20
174.844202899
 11
55.852049696
 21
174.844202899
  0
LINE
  8
1
 62
7
  6
CONTINUOUS
 10
56.152049696
 20
176.294202899
 11
56.452049696
 21
176.594202899
  0
LINE
  8
1
 62
7
  6
CONTINUOUS
 10
51.952049696
 20
168.194202899
 11
52.452049696
 21
168.194202899
  0
LINE
  8
1
 62
7
  6
CONTINUOUS
 10
51.952049696
 20
168.294202899
 11
48.080547081
 21
168.294202899
  0
LINE
  8
1
 62
7
  6
CONTINUOUS
 10
51.952049696
 20
154.894202899
 11
48.080547081
 21
154.894202899
  0
LINE
  8
1
 62
7
  6
CONTINUOUS
 10
195.952049695
 20
168.044202899
 11
195.952049695
 21
167.973835359
  0
LINE
  8
1
 62
7
  6
CONTINUOUS
 10
195.952049695
 20
155.214570438
 11
195.952049695
 21
155.144202899
  0
LINE
  8
1
 62
7
  6
CONTINUOUS
 10
195.752049266
 20
155.344202805
 11
195.752049266
 21
167.844202992
  0
ARC
  8
1
 62
7
  6
CONTINUOUS
 10
199.852049696
 20
175.994202899
 40
0.500000000
 50
0.000000000
 51
90.000000000
  0
ARC
  8
1
 62
7
  6
CONTINUOUS
 10
199.852049696
 20
169.994202899
 40
0.500000000
 50
270.000000000
 51
0.000000000
  0
LINE
  8
1
 62
7
  6
CONTINUOUS
 10
198.752049696
 20
169.494202899
 11
199.852049696
 21
169.494202899
  0
LINE
  8
1
 62
7
  6
CONTINUOUS
 10
199.852049696
 20
176.494202899
 11
198.752049696
 21
176.494202899
  0
LINE
  8
1
 62
7
  6
CONTINUOUS
 10
188.852049696
 20
169.494202899
 11
198.352049696
 21
169.494202899
  0
LINE
  8
1
 62
7
  6
CONTINUOUS
 10
198.352049696
 20
176.494202899
 11
188.852049696
 21
176.494202899
  0
LINE
  8
1
 62
7
  6
CONTINUOUS
 10
188.752049981
 20
170.244203106
 11
188.852049811
 21
170.244203106
  0
LINE
  8
1
 62
7
  6
CONTINUOUS
 10
188.852049811
 20
175.744203076
 11
188.752049981
 21
175.744203076
  0
LINE
  8
1
 62
7
  6
CONTINUOUS
 10
198.352050437
 20
170.919203356
 11
198.752049758
 21
170.919203356
  0
LINE
  8
1
 62
7
  6
CONTINUOUS
 10
51.952049696
 20
154.894202899
 11
51.952049696
 21
168.294202899
  0
LINE
  8
1
 62
7
  6
CONTINUOUS
 10
51.952049696
 20
154.994202899
 11
52.452049696
 21
154.994202899
  0
LINE
  8
1
 62
7
  6
CONTINUOUS
 10
198.752049758
 20
175.069202826
 11
198.352050437
 21
175.069202826
  0
LINE
  8
1
 62
7
  6
CONTINUOUS
 10
188.452049696
 20
146.644202899
 11
188.752049696
 21
146.944202899
  0
LINE
  8
1
 62
7
  6
CONTINUOUS
 10
188.752049696
 20
176.244202899
 11
188.452049696
 21
176.544202899
  0
LINE
  8
1
 62
1
  6
CENTER
 10
32.580547081
 20
161.594202899
 11
291.252049695
 21
161.594202899
  0
LINE
  8
1
 62
7
  6
CONTINUOUS
 10
243.752049695
 20
165.594202771
 11
224.352049661
 21
165.594202911
  0
LINE
  8
1
 62
1
  6
CONTINUOUS
 10
283.107837327
 20
157.819722268
 11
283.180323779
 21
154.298078850
  0
INSERT
  8
1
 62
4
  6
CONTINUOUS
  2
blk125
 10
225.852049700
 20
159.594202906
 41
2.499999996
 42
2.499999977
 50
179.999999586
  0
LINE
  8
1
 62
7
  6
CONTINUOUS
 10
200.352049696
 20
171.394202899
 11
230.352049696
 21
171.394202899
  0
LINE
  8
1
 62
7
  6
CONTINUOUS
 10
200.352049696
 20
174.594202899
 11
230.352049696
 21
174.594202899
  0
LINE
  8
1
 62
4
  6
CONTINUOUS
 10
51.652049696
 20
164.575813202
 11
48.652049696
 21
158.612592595
  0
LINE
  8
1
 62
7
  6
CONTINUOUS
 10
40.030547081
 20
169.544202899
 11
40.030547081
 21
153.644202899
  0
LINE
  8
1
 62
7
  6
CONTINUOUS
 10
39.745610591
 20
169.544202899
 11
39.745610591
 21
153.644202899
  0
LINE
  8
1
 62
4
  6
CONTINUOUS
 10
48.652049696
 20
164.575813202
 11
51.652049696
 21
158.612592595
  0
LINE
  8
1
 62
7
  6
CONTINUOUS
 10
43.030547081
 20
168.594202899
 11
43.030547081
 21
165.362823336
  0
LINE
  8
1
 62
7
  6
CONTINUOUS
 10
40.530547081
 20
168.594202899
 11
40.530547081
 21
165.362823336
  0
LINE
  8
1
 62
7
  6
CONTINUOUS
 10
36.080547081
 20
166.882878033
 11
36.080547081
 21
156.305527764
  0
LINE
  8
1
 62
7
  6
CONTINUOUS
 10
43.530547081
 20
169.544202899
 11
43.530547081
 21
153.644202899
  0
LINE
  8
1
 62
4
  6
CONTINUOUS
 10
40.280547081
 20
165.112823336
 11
43.280547081
 21
158.075582461
  0
LINE
  8
1
 62
7
  6
CONTINUOUS
 10
47.580547081
 20
169.544202899
 11
47.580547081
 21
153.644202899
  0
LINE
  8
1
 62
4
  6
CONTINUOUS
 10
43.280547081
 20
165.112823336
 11
40.280547081
 21
158.075582461
  0
LINE
  8
1
 62
7
  6
CONTINUOUS
 10
43.030547081
 20
157.825582461
 11
43.280547081
 21
158.075582461
  0
LINE
  8
1
 62
7
  6
CONTINUOUS
 10
40.530547081
 20
157.825582461
 11
40.280547081
 21
158.075582461
  0
LINE
  8
1
 62
7
  6
CONTINUOUS
 10
40.530547081
 20
154.594202899
 11
40.530547081
 21
157.825582461
  0
LINE
  8
1
 62
7
  6
CONTINUOUS
 10
43.030547081
 20
154.594202899
 11
43.030547081
 21
157.825582461
  0
LINE
  8
1
 62
7
  6
CONTINUOUS
 10
40.530547081
 20
165.362823336
 11
40.280547081
 21
165.112823336
  0
LINE
  8
1
 62
7
  6
CONTINUOUS
 10
43.030547081
 20
165.362823336
 11
43.280547081
 21
165.112823336
  0
TEXT
  8
1
 62
3
  6
CONTINUOUS
 72
5
 10
102.802049696
 20
104.610202899
 40
4.000000000
  1
ＥＭＳ－３０６０Ｋ
 41
0.834566215
 11
138.002049696
 21
104.610202899
  0
DIMENSION
  8
1
 62
4
  6
CONTINUOUS
  2
*D146
 70
0
 10
188.752049696
 20
126.594202899
 11
174.852049696
 21
126.594202899
 14
188.752049696
 24
146.944202899
 13
160.952049696
 23
146.644202899
 50
0.000000000
  0
LINE
  8
1
 62
7
  6
CONTINUOUS
 10
231.952049696
 20
171.394202899
 11
280.352049696
 21
171.394202899
  0
LINE
  8
1
 62
7
  6
CONTINUOUS
 10
231.952049696
 20
174.594202899
 11
280.352049696
 21
174.594202899
  0
DIMENSION
  8
1
 62
4
  6
CONTINUOUS
  2
*D149
 70
0
 10
160.952049696
 20
126.594202899
 11
106.702049696
 21
126.594202899
 14
160.952049696
 24
146.644202899
 13
52.452049696
 23
146.994202899
 50
0.000000000
  0
DIMENSION
  8
1
 62
4
  6
CONTINUOUS
  2
*D150
 70
0
 10
199.752049695
 20
126.594202899
 11
194.252049695
 21
126.594202899
 14
199.752049695
 24
155.844202899
 13
188.752049696
 23
146.944202899
 50
0.000000000
  0
DIMENSION
  8
1
 62
4
  6
CONTINUOUS
  2
*D151
 70
0
 10
188.752049696
 20
118.594202899
 11
120.602049696
 21
118.594202899
 14
188.752049696
 24
146.944202899
 13
52.452049696
 23
146.994202899
 50
0.000000000
  0
DIMENSION
  8
1
 62
4
  6
CONTINUOUS
  2
*D152
 70
0
 10
52.452049696
 20
118.594202899
 11
44.016298389
 21
118.594202899
 14
52.452049696
 24
146.994202899
 13
35.580547081
 23
156.471553168
 50
0.000000000
  0
DIMENSION
  8
1
 62
4
  6
CONTINUOUS
  2
*D153
 70
1
 10
19.580547081
 20
146.594202899
 11
19.580547081
 21
161.594202899
 14
56.452049696
 24
146.594202899
 13
56.452049696
 23
176.594202899
 50
90.000000000
  0
LINE
  8
1
 62
7
  6
CONTINUOUS
 10
224.352049716
 20
157.594202886
 11
243.752049695
 21
157.594203026
  0
LINE
  8
1
 62
7
  6
CONTINUOUS
 10
220.352049669
 20
165.594202940
 11
199.752049921
 21
165.594203089
  0
DIMENSION
  8
1
 62
4
  6
CONTINUOUS
  2
*D156
 70
0
 10
280.352049695
 20
118.594202899
 11
234.552049695
 21
118.594202899
 14
280.352049695
 24
152.344202981
 13
188.752049696
 23
146.944202899
 50
0.000000000
  0
DIMENSION
  8
1
 62
4
  6
CONTINUOUS
  2
*D157
 70
1
 10
27.580547081
 20
153.644202899
 11
27.580547081
 21
161.594202899
 14
39.745610591
 24
153.644202899
 13
39.745610591
 23
169.544202899
 50
90.000000000
  0
LINE
  8
1
 62
4
  6
CONTINUOUS
 10
182.252049696
 20
168.017013810
 11
185.752049696
 21
155.171391987
  0
LINE
  8
1
 62
4
  6
CONTINUOUS
 10
185.752049696
 20
168.017013810
 11
182.252049696
 21
155.171391987
  0
DIMENSION
  8
1
 62
4
  6
CONTINUOUS
  2
*D160
 70
1
 10
172.711273087
 20
146.644202899
 11
172.711273087
 21
159.211834864
 14
172.711273087
 24
146.644202899
 13
172.711273087
 23
176.544202899
 50
90.000000000
  0
ARC
  8
1
 62
7
  6
CONTINUOUS
 10
206.471893488
 20
161.594202899
 40
25.057001683
 50
165.147710869
 51
194.852289131
  0
ARC
  8
1
 62
7
  6
CONTINUOUS
 10
161.532205903
 20
161.594202899
 40
25.057001683
 50
345.147710869
 51
14.852289131
  0
LINE
  8
1
 62
7
  6
CONTINUOUS
 10
261.352049695
 20
170.844202981
 11
261.352049695
 21
152.344202981
  0
LINE
  8
1
 62
4
  6
CONTINUOUS
 10
270.352049695
 20
169.594202981
 11
271.602049695
 21
170.844202981
  0
LINE
  8
1
 62
4
  6
CONTINUOUS
 10
274.102049695
 20
152.344202981
 11
270.352049695
 21
156.094202981
  0
LINE
  8
1
 62
4
  6
CONTINUOUS
 10
273.102049695
 20
152.344202981
 11
276.352049695
 21
155.594202981
  0
LINE
  8
1
 62
4
  6
CONTINUOUS
 10
276.352049695
 20
154.094202981
 11
270.352049695
 21
160.094202981
  0
LINE
  8
1
 62
4
  6
CONTINUOUS
 10
270.352049695
 20
153.594202981
 11
276.352049695
 21
159.594202981
  0
LINE
  8
1
 62
4
  6
CONTINUOUS
 10
276.352049695
 20
158.094202981
 11
270.352049695
 21
164.094202981
  0
LINE
  8
1
 62
4
  6
CONTINUOUS
 10
270.352049695
 20
157.594202981
 11
276.352049695
 21
163.594202981
  0
LINE
  8
1
 62
4
  6
CONTINUOUS
 10
276.352049695
 20
162.094202981
 11
270.352049695
 21
168.094202981
  0
LINE
  8
1
 62
4
  6
CONTINUOUS
 10
270.352049695
 20
161.594202981
 11
276.352049695
 21
167.594202981
  0
LINE
  8
1
 62
4
  6
CONTINUOUS
 10
276.352049695
 20
166.094202981
 11
271.602049695
 21
170.844202981
  0
LINE
  8
1
 62
7
  6
CONTINUOUS
 10
270.352049695
 20
170.844202981
 11
270.352049695
 21
152.344202981
  0
LINE
  8
1
 62
7
  6
CONTINUOUS
 10
276.352049695
 20
170.844202981
 11
276.352049695
 21
152.344202981
  0
LINE
  8
1
 62
1
  6
CONTINUOUS
 10
280.992392558
 20
168.890327111
 11
281.064879009
 21
165.368683693
  0
LINE
  8
1
 62
7
  6
CONTINUOUS
 10
280.352049695
 20
170.844202981
 11
280.352049695
 21
152.344202981
  0
LINE
  8
1
 62
1
  6
CONTINUOUS
 10
281.220260280
 20
157.819722268
 11
281.292746732
 21
154.298078850
  0
LINE
  8
1
 62
4
  6
CONTINUOUS
 10
267.352049695
 20
166.094202981
 11
262.602049695
 21
170.844202981
  0
LINE
  8
1
 62
4
  6
CONTINUOUS
 10
261.352049695
 20
161.594202981
 11
267.352049695
 21
167.594202981
  0
LINE
  8
1
 62
4
  6
CONTINUOUS
 10
267.352049695
 20
162.094202981
 11
261.352049695
 21
168.094202981
  0
LINE
  8
1
 62
4
  6
CONTINUOUS
 10
261.352049695
 20
157.594202981
 11
267.352049695
 21
163.594202981
  0
LINE
  8
1
 62
4
  6
CONTINUOUS
 10
267.352049695
 20
158.094202981
 11
261.352049695
 21
164.094202981
  0
LINE
  8
1
 62
4
  6
CONTINUOUS
 10
261.352049695
 20
153.594202981
 11
267.352049695
 21
159.594202981
  0
LINE
  8
1
 62
4
  6
CONTINUOUS
 10
267.352049695
 20
154.094202981
 11
261.352049695
 21
160.094202981
  0
LINE
  8
1
 62
4
  6
CONTINUOUS
 10
264.102049695
 20
152.344202981
 11
267.352049695
 21
155.594202981
  0
LINE
  8
1
 62
4
  6
CONTINUOUS
 10
265.102049695
 20
152.344202981
 11
261.352049695
 21
156.094202981
  0
LINE
  8
1
 62
4
  6
CONTINUOUS
 10
261.352049695
 20
169.594202981
 11
262.602049695
 21
170.844202981
  0
LINE
  8
1
 62
4
  6
CONTINUOUS
 10
261.352049695
 20
165.594202981
 11
266.602049695
 21
170.844202981
  0
LINE
  8
1
 62
4
  6
CONTINUOUS
 10
267.352049695
 20
170.094202981
 11
266.602049695
 21
170.844202981
  0
LINE
  8
1
 62
7
  6
CONTINUOUS
 10
257.752049695
 20
169.894202981
 11
246.752049695
 21
169.894202981
  0
LINE
  8
1
 62
7
  6
CONTINUOUS
 10
243.752049695
 20
166.894202981
 11
243.752049695
 21
156.294202981
  0
LINE
  8
1
 62
7
  6
CONTINUOUS
 10
246.752049695
 20
153.294202981
 11
257.752049695
 21
153.294202981
  0
LINE
  8
1
 62
7
  6
CONTINUOUS
 10
246.752049695
 20
167.360701051
 11
246.752049695
 21
155.827704910
  0
ARC
  8
1
 62
7
  6
CONTINUOUS
 10
246.752049695
 20
156.294202981
 40
3.000000000
 50
180.000000000
 51
270.000000000
  0
ARC
  8
1
 62
7
  6
CONTINUOUS
 10
246.752049695
 20
166.894202981
 40
3.000000000
 50
90.000000000
 51
180.000000000
  0
ARC
  8
1
 62
7
  6
CONTINUOUS
 10
250.794133028
 20
161.594202981
 40
7.042083333
 50
125.028911263
 51
234.971088737
  0
ARC
  8
1
 62
7
  6
CONTINUOUS
 10
247.976494065
 20
159.467787541
 40
0.724444370
 50
90.000000000
 51
270.000000000
  0
LINE
  8
1
 62
7
  6
CONTINUOUS
 10
257.752049695
 20
160.192231911
 11
247.976494065
 21
160.192231911
  0
LINE
  8
1
 62
7
  6
CONTINUOUS
 10
257.752049695
 20
164.445062790
 11
247.976494065
 21
164.445062790
  0
LINE
  8
1
 62
7
  6
CONTINUOUS
 10
257.752049695
 20
162.996174051
 11
247.976494065
 21
162.996174051
  0
ARC
  8
1
 62
7
  6
CONTINUOUS
 10
247.976494065
 20
163.720618420
 40
0.724444370
 50
90.000000000
 51
270.000000000
  0
LINE
  8
1
 62
7
  6
CONTINUOUS
 10
257.752049695
 20
158.743343171
 11
247.976494065
 21
158.743343171
  0
LINE
  8
1
 62
7
  6
CONTINUOUS
 10
257.752049695
 20
166.873347914
 11
247.782379781
 21
166.873347914
  0
LINE
  8
1
 62
7
  6
CONTINUOUS
 10
257.752049695
 20
167.934008086
 11
247.782379781
 21
167.934008086
  0
ARC
  8
1
 62
7
  6
CONTINUOUS
 10
247.782379781
 20
167.403678000
 40
0.530330086
 50
90.000000000
 51
270.000000000
  0
LINE
  8
1
 62
7
  6
CONTINUOUS
 10
257.752049695
 20
169.335979156
 11
247.446163979
 21
169.335979156
  0
LINE
  8
1
 62
7
  6
CONTINUOUS
 10
257.752049695
 20
169.724207723
 11
247.446163979
 21
169.724207723
  0
ARC
  8
1
 62
7
  6
CONTINUOUS
 10
247.446163979
 20
169.530093440
 40
0.194114284
 50
90.000000000
 51
270.000000000
  0
LINE
  8
1
 62
7
  6
CONTINUOUS
 10
257.752049695
 20
156.315058047
 11
247.782379781
 21
156.315058047
  0
LINE
  8
1
 62
7
  6
CONTINUOUS
 10
257.752049695
 20
155.254397875
 11
247.782379781
 21
155.254397875
  0
ARC
  8
1
 62
7
  6
CONTINUOUS
 10
247.782379781
 20
155.784727961
 40
0.530330086
 50
90.000000000
 51
270.000000000
  0
LINE
  8
1
 62
7
  6
CONTINUOUS
 10
257.752049695
 20
153.852426805
 11
247.446163979
 21
153.852426805
  0
LINE
  8
1
 62
7
  6
CONTINUOUS
 10
257.752049695
 20
153.464198238
 11
247.446163979
 21
153.464198238
  0
ARC
  8
1
 62
7
  6
CONTINUOUS
 10
247.446163979
 20
153.658312522
 40
0.194114284
 50
90.000000000
 51
270.000000000
  0
LINE
  8
1
 62
7
  6
CONTINUOUS
 10
280.726473617
 20
153.644202981
 11
280.915231322
 21
153.644202981
  0
LINE
  8
1
 62
7
  6
CONTINUOUS
 10
283.652049695
 20
154.844202981
 11
288.252049695
 21
154.844202981
  0
LINE
  8
1
 62
7
  6
CONTINUOUS
 10
288.252049695
 20
154.844202981
 11
288.252049695
 21
168.344202981
  0
LINE
  8
1
 62
7
  6
CONTINUOUS
 10
288.252049695
 20
168.344202981
 11
283.652049695
 21
168.344202981
  0
LINE
  8
1
 62
7
  6
CONTINUOUS
 10
283.180323779
 20
154.298078850
 11
282.802808369
 21
153.644202981
  0
LINE
  8
1
 62
1
  6
CONTINUOUS
 10
282.879969605
 20
168.890327111
 11
282.952456057
 21
165.368683693
  0
LINE
  8
1
 62
7
  6
CONTINUOUS
 10
283.385089253
 20
153.943414645
 11
283.180323779
 21
154.298078850
  0
LINE
  8
1
 62
7
  6
CONTINUOUS
 10
282.614050665
 20
153.644202981
 11
282.236535255
 21
154.298078850
  0
LINE
  8
1
 62
7
  6
CONTINUOUS
 10
282.236535255
 20
154.298078850
 11
281.859019846
 21
153.644202981
  0
LINE
  8
1
 62
7
  6
CONTINUOUS
 10
282.614050665
 20
153.644202981
 11
282.802808369
 21
153.644202981
  0
LINE
  8
1
 62
7
  6
CONTINUOUS
 10
281.292746732
 20
154.298078850
 11
280.915231322
 21
153.644202981
  0
LINE
  8
1
 62
7
  6
CONTINUOUS
 10
283.385089253
 20
153.943414645
 11
283.652049695
 21
154.210375087
  0
LINE
  8
1
 62
7
  6
CONTINUOUS
 10
283.652049695
 20
168.978030874
 11
283.194672337
 21
169.435408232
  0
LINE
  8
1
 62
7
  6
CONTINUOUS
 10
282.313696491
 20
169.544202981
 11
282.502454195
 21
169.544202981
  0
LINE
  8
1
 62
7
  6
CONTINUOUS
 10
280.352049695
 20
169.544202981
 11
280.614877148
 21
169.544202981
  0
LINE
  8
1
 62
7
  6
CONTINUOUS
 10
281.369907967
 20
169.544202981
 11
281.558665672
 21
169.544202981
  0
LINE
  8
1
 62
7
  6
CONTINUOUS
 10
281.670262141
 20
153.644202981
 11
281.292746732
 21
154.298078850
  0
LINE
  8
1
 62
7
  6
CONTINUOUS
 10
280.726473617
 20
153.644202981
 11
280.348958208
 21
154.298078850
  0
LINE
  8
1
 62
7
  6
CONTINUOUS
 10
282.879969605
 20
168.890327111
 11
282.502454195
 21
169.544202981
  0
LINE
  8
1
 62
7
  6
CONTINUOUS
 10
283.194672337
 20
169.435408232
 11
282.879969605
 21
168.890327111
  0
LINE
  8
1
 62
7
  6
CONTINUOUS
 10
281.936181081
 20
168.890327111
 11
281.558665672
 21
169.544202981
  0
LINE
  8
1
 62
7
  6
CONTINUOUS
 10
283.652049695
 20
154.210375087
 11
283.652049695
 21
168.978030874
  0
LINE
  8
1
 62
7
  6
CONTINUOUS
 10
281.936181081
 20
168.890327111
 11
282.236535255
 21
154.298078850
  0
LINE
  8
1
 62
7
  6
CONTINUOUS
 10
282.313696491
 20
169.544202981
 11
281.936181081
 21
168.890327111
  0
LINE
  8
1
 62
7
  6
CONTINUOUS
 10
280.992392558
 20
168.890327111
 11
280.614877148
 21
169.544202981
  0
LINE
  8
1
 62
7
  6
CONTINUOUS
 10
281.369907967
 20
169.544202981
 11
280.992392558
 21
168.890327111
  0
LINE
  8
1
 62
7
  6
CONTINUOUS
 10
281.670262141
 20
153.644202981
 11
281.859019846
 21
153.644202981
  0
DIMENSION
  8
1
 62
4
  6
CONTINUOUS
  2
*D243
 70
1
 10
300.252049695
 20
152.344202981
 11
300.252049695
 21
161.594202981
 14
280.352049695
 24
152.344202981
 13
280.352049695
 23
170.844202981
 50
90.000000000
  0
LINE
  8
1
 62
7
  6
CONTINUOUS
 10
280.352049696
 20
174.594202899
 11
280.352049696
 21
171.394202899
  0
INSERT
  8
1
 62
4
  6
CONTINUOUS
  2
blk245
 10
222.852049705
 20
159.594202927
 41
2.499999996
 42
2.499999977
 50
179.999999586
  0
INSERT
  8
1
 62
4
  6
CONTINUOUS
  2
blk246
 10
225.852049672
 20
163.594202870
 41
2.499999996
 42
2.499999977
 50
179.999999586
  0
ARC
  8
1
 62
4
  6
CONTINUOUS
 10
218.852049685
 20
163.594202884
 40
2.499999996
 50
306.869898060
 51
53.130102768
  0
ARC
  8
1
 62
4
  6
CONTINUOUS
 10
221.852049680
 20
163.594202906
 40
2.499999996
 50
126.869898060
 51
233.130102768
  0
ARC
  8
1
 62
4
  6
CONTINUOUS
 10
218.852049712
 20
159.594202891
 40
2.499999996
 50
306.869898060
 51
53.130102768
  0
ARC
  8
1
 62
4
  6
CONTINUOUS
 10
232.552049696
 20
173.794202899
 40
1.000000000
 50
126.869897646
 51
233.130102354
  0
ARC
  8
1
 62
4
  6
CONTINUOUS
 10
231.352049696
 20
172.194202899
 40
1.000000000
 50
306.869897646
 51
53.130102354
  0
ARC
  8
1
 62
4
  6
CONTINUOUS
 10
232.552049696
 20
172.194202899
 40
1.000000000
 50
126.869897646
 51
233.130102354
  0
ARC
  8
1
 62
4
  6
CONTINUOUS
 10
229.752049696
 20
172.194202899
 40
1.000000000
 50
306.869897646
 51
53.130102354
  0
ARC
  8
1
 62
4
  6
CONTINUOUS
 10
230.952049696
 20
173.794202899
 40
1.000000000
 50
126.869897646
 51
233.130102354
  0
ARC
  8
1
 62
4
  6
CONTINUOUS
 10
229.752049696
 20
173.794202899
 40
1.000000000
 50
306.869897646
 51
53.130102354
  0
ENDSEC
  0
EOF
