  0
SECTION
  2
HEADER
  9
$ACADVER
  1
AC1015
  9
$ACADMAINTVER
 70
     6
  9
$DWGCODEPAGE
  3
ANSI_932
  9
$INSBASE
 10
0.0
 20
0.0
 30
0.0
  9
$EXTMIN
 10
-116.433831
 20
0.0
 30
0.0
  9
$EXTMAX
 10
332.87345
 20
126.44328
 30
0.0
  9
$LIMMIN
 10
-116.433831
 20
0.0
  9
$LIMMAX
 10
332.87345
 20
126.44328
  9
$ORTHOMODE
 70
     0
  9
$REGENMODE
 70
     0
  9
$FILLMODE
 70
     1
  9
$QTEXTMODE
 70
     0
  9
$MIRRTEXT
 70
     1
  9
$LTSCALE
 40
1.0
  9
$ATTMODE
 70
     1
  9
$TEXTSIZE
 40
0.2
  9
$TRACEWID
 40
0.05
  9
$TEXTSTYLE
  7
Standard
  9
$CLAYER
  8
0
  9
$CELTYPE
  6
Continuous
  9
$CECOLOR
 62
    12
  9
$CELTSCALE
 40
1.0
  9
$DISPSILH
 70
     0
  9
$DIMSCALE
 40
1.0
  9
$DIMASZ
 40
3.0
  9
$DIMEXO
 40
1.0
  9
$DIMDLI
 40
10.0
  9
$DIMRND
 40
0.0
  9
$DIMDLE
 40
1.0
  9
$DIMEXE
 40
1.0
  9
$DIMTP
 40
0.0
  9
$DIMTM
 40
0.0
  9
$DIMTXT
 40
4.0
  9
$DIMCEN
 40
0.09
  9
$DIMTSZ
 40
0.0
  9
$DIMTOL
 70
     0
  9
$DIMLIM
 70
     0
  9
$DIMTIH
 70
     0
  9
$DIMTOH
 70
     0
  9
$DIMSE1
 70
     0
  9
$DIMSE2
 70
     0
  9
$DIMTAD
 70
     1
  9
$DIMZIN
 70
     8
  9
$DIMBLK
  1
OPEN30
  9
$DIMASO
 70
     1
  9
$DIMSHO
 70
     0
  9
$DIMPOST
  1

  9
$DIMAPOST
  1

  9
$DIMALT
 70
     0
  9
$DIMALTD
 70
     2
  9
$DIMALTF
 40
25.4
  9
$DIMLFAC
 40
1.0
  9
$DIMTOFL
 70
     0
  9
$DIMTVP
 40
0.0
  9
$DIMTIX
 70
     0
  9
$DIMSOXD
 70
     0
  9
$DIMSAH
 70
     0
  9
$DIMBLK1
  1
OPEN30
  9
$DIMBLK2
  1
OPEN30
  9
$DIMSTYLE
  2
Standard
  9
$DIMCLRD
 70
     7
  9
$DIMCLRE
 70
     7
  9
$DIMCLRT
 70
     7
  9
$DIMTFAC
 40
1.0
  9
$DIMGAP
 40
1.0
  9
$DIMJUST
 70
     0
  9
$DIMSD1
 70
     0
  9
$DIMSD2
 70
     0
  9
$DIMTOLJ
 70
     1
  9
$DIMTZIN
 70
     0
  9
$DIMALTZ
 70
     0
  9
$DIMALTTZ
 70
     0
  9
$DIMUPT
 70
     0
  9
$DIMDEC
 70
     2
  9
$DIMTDEC
 70
     2
  9
$DIMALTU
 70
     2
  9
$DIMALTTD
 70
     2
  9
$DIMTXSTY
  7
DIMSTANDARD
  9
$DIMAUNIT
 70
     0
  9
$DIMADEC
 70
     2
  9
$DIMALTRND
 40
0.0
  9
$DIMAZIN
 70
     2
  9
$DIMDSEP
 70
    46
  9
$DIMATFIT
 70
     3
  9
$DIMFRAC
 70
     0
  9
$DIMLDRBLK
  1

  9
$DIMLUNIT
 70
     2
  9
$DIMLWD
 70
    -1
  9
$DIMLWE
 70
    -1
  9
$DIMTMOVE
 70
     0
  9
$LUNITS
 70
     2
  9
$LUPREC
 70
     4
  9
$SKETCHINC
 40
0.1
  9
$FILLETRAD
 40
0.0
  9
$AUNITS
 70
     0
  9
$AUPREC
 70
     0
  9
$MENU
  1
ACAD
  9
$ELEVATION
 40
0.0
  9
$PELEVATION
 40
0.0
  9
$THICKNESS
 40
0.0
  9
$LIMCHECK
 70
     0
  9
$CHAMFERA
 40
0.0
  9
$CHAMFERB
 40
0.0
  9
$CHAMFERC
 40
0.0
  9
$CHAMFERD
 40
0.0
  9
$SKPOLY
 70
     0
  9
$TDCREATE
 40
2419081.375
  9
$TDUCREATE
 40
2419081.0
  9
$TDUPDATE
 40
2458229.413557778
  9
$TDUUPDATE
 40
2458229.038557778
  9
$TDINDWG
 40
0.0
  9
$TDUSRTIMER
 40
0.0
  9
$USRTIMER
 70
     1
  9
$ANGBASE
 50
0.0
  9
$ANGDIR
 70
     0
  9
$PDMODE
 70
    65
  9
$PDSIZE
 40
0.2
  9
$PLINEWID
 40
0.0
  9
$SPLFRAME
 70
     0
  9
$SPLINETYPE
 70
     6
  9
$SPLINESEGS
 70
     8
  9
$HANDSEED
  5
590
  9
$SURFTAB1
 70
     6
  9
$SURFTAB2
 70
     6
  9
$SURFTYPE
 70
     6
  9
$SURFU
 70
     6
  9
$SURFV
 70
     6
  9
$UCSBASE
  2

  9
$UCSNAME
  2

  9
$UCSORG
 10
0.0
 20
0.0
 30
0.0
  9
$UCSXDIR
 10
1.0
 20
0.0
 30
0.0
  9
$UCSYDIR
 10
0.0
 20
1.0
 30
0.0
  9
$UCSORTHOREF
  2

  9
$UCSORTHOVIEW
 70
     0
  9
$UCSORGTOP
 10
0.0
 20
0.0
 30
0.0
  9
$UCSORGBOTTOM
 10
0.0
 20
0.0
 30
0.0
  9
$UCSORGLEFT
 10
0.0
 20
0.0
 30
0.0
  9
$UCSORGRIGHT
 10
0.0
 20
0.0
 30
0.0
  9
$UCSORGFRONT
 10
0.0
 20
0.0
 30
0.0
  9
$UCSORGBACK
 10
0.0
 20
0.0
 30
0.0
  9
$PUCSBASE
  2

  9
$PUCSNAME
  2

  9
$PUCSORG
 10
0.0
 20
0.0
 30
0.0
  9
$PUCSXDIR
 10
1.0
 20
0.0
 30
0.0
  9
$PUCSYDIR
 10
0.0
 20
1.0
 30
0.0
  9
$PUCSORTHOREF
  2

  9
$PUCSORTHOVIEW
 70
     0
  9
$PUCSORGTOP
 10
0.0
 20
0.0
 30
0.0
  9
$PUCSORGBOTTOM
 10
0.0
 20
0.0
 30
0.0
  9
$PUCSORGLEFT
 10
0.0
 20
0.0
 30
0.0
  9
$PUCSORGRIGHT
 10
0.0
 20
0.0
 30
0.0
  9
$PUCSORGFRONT
 10
0.0
 20
0.0
 30
0.0
  9
$PUCSORGBACK
 10
0.0
 20
0.0
 30
0.0
  9
$USERI1
 70
     0
  9
$USERI2
 70
     0
  9
$USERI3
 70
     0
  9
$USERI4
 70
     0
  9
$USERI5
 70
     0
  9
$USERR1
 40
0.0
  9
$USERR2
 40
0.0
  9
$USERR3
 40
0.0
  9
$USERR4
 40
0.0
  9
$USERR5
 40
0.0
  9
$WORLDVIEW
 70
     1
  9
$SHADEDGE
 70
     3
  9
$SHADEDIF
 70
    70
  9
$TILEMODE
 70
     1
  9
$MAXACTVP
 70
    64
  9
$PINSBASE
 10
0.0
 20
0.0
 30
0.0
  9
$PLIMCHECK
 70
     0
  9
$PEXTMIN
 10
1.000000000000000E+20
 20
1.000000000000000E+20
 30
1.000000000000000E+20
  9
$PEXTMAX
 10
-1.000000000000000E+20
 20
-1.000000000000000E+20
 30
-1.000000000000000E+20
  9
$PLIMMIN
 10
0.0
 20
0.0
  9
$PLIMMAX
 10
12.0
 20
9.0
  9
$UNITMODE
 70
     0
  9
$VISRETAIN
 70
     1
  9
$PLINEGEN
 70
     0
  9
$PSLTSCALE
 70
     1
  9
$TREEDEPTH
 70
  3020
  9
$CMLSTYLE
  2
Standard
  9
$CMLJUST
 70
     0
  9
$CMLSCALE
 40
1.0
  9
$PROXYGRAPHICS
 70
     1
  9
$MEASUREMENT
 70
     0
  9
$CELWEIGHT
370
    -1
  9
$ENDCAPS
280
     0
  9
$JOINSTYLE
280
     0
  9
$LWDISPLAY
290
     0
  9
$INSUNITS
 70
     1
  9
$HYPERLINKBASE
  1

  9
$STYLESHEET
  1

  9
$XEDIT
290
     1
  9
$CEPSNTYPE
380
     0
  9
$PSTYLEMODE
290
     1
  9
$FINGERPRINTGUID
  2
{DFC2EEFC-F46A-40A5-81A9-AFE00A260E88}
  9
$VERSIONGUID
  2
{FAEB1C32-E019-11D5-929B-00C0DF256EC4}
  9
$EXTNAMES
290
     1
  9
$PSVPSCALE
 40
0.0
  9
$OLESTARTUP
290
     0
  0
ENDSEC
  0
SECTION
  2
CLASSES
  0
CLASS
  1
ACDBDICTIONARYWDFLT
  2
AcDbDictionaryWithDefault
  3
ObjectDBX Classes
 90
        0
280
     0
281
     0
  0
CLASS
  1
VISUALSTYLE
  2
AcDbVisualStyle
  3
ObjectDBX Classes
 90
     4095
280
     0
281
     0
  0
CLASS
  1
MATERIAL
  2
AcDbMaterial
  3
ObjectDBX Classes
 90
     1153
280
     0
281
     0
  0
CLASS
  1
SCALE
  2
AcDbScale
  3
ObjectDBX Classes
 90
     1153
280
     0
281
     0
  0
CLASS
  1
TABLESTYLE
  2
AcDbTableStyle
  3
ObjectDBX Classes
 90
     4095
280
     0
281
     0
  0
CLASS
  1
MLEADERSTYLE
  2
AcDbMLeaderStyle
  3
ACDB_MLEADERSTYLE_CLASS
 90
     4095
280
     0
281
     0
  0
CLASS
  1
SUN
  2
AcDbSun
  3
SCENEOE
 90
     1153
280
     0
281
     0
  0
CLASS
  1
DICTIONARYVAR
  2
AcDbDictionaryVar
  3
ObjectDBX Classes
 90
        0
280
     0
281
     0
  0
CLASS
  1
ACDBPLACEHOLDER
  2
AcDbPlaceHolder
  3
ObjectDBX Classes
 90
        0
280
     0
281
     0
  0
CLASS
  1
LAYOUT
  2
AcDbLayout
  3
ObjectDBX Classes
 90
        0
280
     0
281
     0
  0
ENDSEC
  0
SECTION
  2
TABLES
  0
TABLE
  2
VPORT
  5
8
102
{ACAD_XDICTIONARY
360
553
102
}
330
0
100
AcDbSymbolTable
 70
     1
  0
VPORT
  5
29
330
8
100
AcDbSymbolTableRecord
100
AcDbViewportTableRecord
  2
*Active
 70
     0
 10
0.0
 20
0.0
 11
1.0
 21
1.0
 12
224.6536405
 22
63.22164000000001
 13
0.0
 23
0.0
 14
0.5
 24
0.5
 15
0.5
 25
0.5
 16
0.0
 26
0.0
 36
1.0
 17
0.0
 27
0.0
 37
0.0
 40
126.44328
 41
3.553429498190809
 42
50.0
 43
0.0
 44
0.0
 50
0.0
 51
0.0
 71
     0
 72
   100
 73
     1
 74
     3
 75
     0
 76
     0
 77
     0
 78
     0
281
     0
 65
     1
110
0.0
120
0.0
130
0.0
111
1.0
121
0.0
131
0.0
112
0.0
122
1.0
132
0.0
 79
     0
146
0.0
  0
ENDTAB
  0
TABLE
  2
LTYPE
  5
5
330
0
100
AcDbSymbolTable
 70
    17
  0
LTYPE
  5
14
330
5
100
AcDbSymbolTableRecord
100
AcDbLinetypeTableRecord
  2
ByBlock
 70
     0
  3

 72
    65
 73
     0
 40
0.0
  0
LTYPE
  5
15
330
5
100
AcDbSymbolTableRecord
100
AcDbLinetypeTableRecord
  2
ByLayer
 70
     0
  3

 72
    65
 73
     0
 40
0.0
  0
LTYPE
  5
16
330
5
100
AcDbSymbolTableRecord
100
AcDbLinetypeTableRecord
  2
Continuous
 70
     0
  3
Solid line
 72
    65
 73
     0
 40
0.0
  0
LTYPE
  5
6E
330
5
100
AcDbSymbolTableRecord
100
AcDbLinetypeTableRecord
  2
DIVIDE
 70
     0
  3
Divide ____ . . ____ . . ____ . . ____ . . ____
 72
    65
 73
     6
 40
1.25
 49
0.5
 74
     0
 49
-0.25
 74
     0
 49
0.0
 74
     0
 49
-0.25
 74
     0
 49
0.0
 74
     0
 49
-0.25
 74
     0
  0
LTYPE
  5
6F
330
5
100
AcDbSymbolTableRecord
100
AcDbLinetypeTableRecord
  2
HIDDEN
 70
     0
  3
Hidden __ __ __ __ __ __ __ __ __ __ __ __ __ _
 72
    65
 73
     2
 40
9.525
 49
6.35
 74
     0
 49
-3.175
 74
     0
  0
LTYPE
  5
70
330
5
100
AcDbSymbolTableRecord
100
AcDbLinetypeTableRecord
  2
HIDDEN2
 70
     0
  3
Hidden (.5x) _ _ _ _ _ _ _ _ _ _ _ _ _ _ _ _ _
 72
    65
 73
     2
 40
4.7625
 49
3.175
 74
     0
 49
-1.5875
 74
     0
  0
LTYPE
  5
71
330
5
100
AcDbSymbolTableRecord
100
AcDbLinetypeTableRecord
  2
CENTER2
 70
     0
  3
Center (.5x) ___ _ ___ _ ___ _ ___ _ ___ _ ___
 72
    65
 73
     4
 40
28.575
 49
19.05
 74
     0
 49
-3.175
 74
     0
 49
3.175
 74
     0
 49
-3.175
 74
     0
  0
LTYPE
  5
72
330
5
100
AcDbSymbolTableRecord
100
AcDbLinetypeTableRecord
  2
PHANTOM2
 70
     0
  3
Phantom (.5x) ___ _ _ ___ _ _ ___ _ _ ___ _ _
 72
    65
 73
     6
 40
31.75
 49
15.875
 74
     0
 49
-3.175
 74
     0
 49
3.175
 74
     0
 49
-3.175
 74
     0
 49
3.175
 74
     0
 49
-3.175
 74
     0
  0
LTYPE
  5
73
330
5
100
AcDbSymbolTableRecord
100
AcDbLinetypeTableRecord
  2
DASHED
 70
     0
  3
Dashed __ __ __ __ __ __ __ __ __ __ __ __ __ _
 72
    65
 73
     2
 40
19.05
 49
12.7
 74
     0
 49
-6.35
 74
     0
  0
LTYPE
  5
74
330
5
100
AcDbSymbolTableRecord
100
AcDbLinetypeTableRecord
  2
CENTER
 70
     0
  3
Center ____ _ ____ _ ____ _ ____ _ ____ _ ____
 72
    65
 73
     4
 40
50.8
 49
31.75
 74
     0
 49
-6.35
 74
     0
 49
6.35
 74
     0
 49
-6.35
 74
     0
  0
LTYPE
  5
75
330
5
100
AcDbSymbolTableRecord
100
AcDbLinetypeTableRecord
  2
PHANTOM
 70
     0
  3
Phantom ______  __  __  ______  __  __  ______
 72
    65
 73
     6
 40
63.5
 49
31.75
 74
     0
 49
-6.35
 74
     0
 49
6.35
 74
     0
 49
-6.35
 74
     0
 49
6.35
 74
     0
 49
-6.35
 74
     0
  0
LTYPE
  5
76
330
5
100
AcDbSymbolTableRecord
100
AcDbLinetypeTableRecord
  2
BORDER2
 70
     0
  3
Border (.5x) __.__.__.__.__.__.__.__.__.__.__.
 72
    65
 73
     6
 40
22.225
 49
6.35
 74
     0
 49
-3.175
 74
     0
 49
6.35
 74
     0
 49
-3.175
 74
     0
 49
0.0
 74
     0
 49
-3.175
 74
     0
  0
LTYPE
  5
77
330
5
100
AcDbSymbolTableRecord
100
AcDbLinetypeTableRecord
  2
HIDDENX2
 70
     0
  3
Hidden (2x) ____ ____ ____ ____ ____ ____ ____
 72
    65
 73
     2
 40
19.05
 49
12.7
 74
     0
 49
-6.35
 74
     0
  0
LTYPE
  5
78
330
5
100
AcDbSymbolTableRecord
100
AcDbLinetypeTableRecord
  2
DOTX2
 70
     0
  3
Dot (2x) .  .  .  .  .  .  .  .  .  .  .  .  . 
 72
    65
 73
     2
 40
12.7
 49
0.0
 74
     0
 49
-12.7
 74
     0
  0
LTYPE
  5
79
330
5
100
AcDbSymbolTableRecord
100
AcDbLinetypeTableRecord
  2
DASHDOTX2
 70
     0
  3
Dash dot (2x) ____  .  ____  .  ____  .  ___
 72
    65
 73
     4
 40
50.8
 49
25.4
 74
     0
 49
-12.7
 74
     0
 49
0.0
 74
     0
 49
-12.7
 74
     0
  0
LTYPE
  5
7A
330
5
100
AcDbSymbolTableRecord
100
AcDbLinetypeTableRecord
  2
DIVIDEX2
 70
     0
  3
Divide (2x) ________  .  .  ________  .  .  _
 72
    65
 73
     6
 40
63.5
 49
25.4
 74
     0
 49
-12.7
 74
     0
 49
0.0
 74
     0
 49
-12.7
 74
     0
 49
0.0
 74
     0
 49
-12.7
 74
     0
  0
LTYPE
  5
7B
330
5
100
AcDbSymbolTableRecord
100
AcDbLinetypeTableRecord
  2
DASHEDX2
 70
     0
  3
Dashed (2x) ____  ____  ____  ____  ____  ___
 72
    65
 73
     2
 40
38.1
 49
25.4
 74
     0
 49
-12.7
 74
     0
  0
LTYPE
  5
7C
330
5
100
AcDbSymbolTableRecord
100
AcDbLinetypeTableRecord
  2
CENTERX2
 70
     0
  3
Center (2x) ________  __  ________  __  _____
 72
    65
 73
     4
 40
101.6
 49
63.5
 74
     0
 49
-12.7
 74
     0
 49
12.7
 74
     0
 49
-12.7
 74
     0
  0
LTYPE
  5
7D
330
5
100
AcDbSymbolTableRecord
100
AcDbLinetypeTableRecord
  2
PHANTOMX2
 70
     0
  3
Phantom (2x) ____________    ____    ____   _
 72
    65
 73
     6
 40
127.0
 49
63.5
 74
     0
 49
-12.7
 74
     0
 49
12.7
 74
     0
 49
-12.7
 74
     0
 49
12.7
 74
     0
 49
-12.7
 74
     0
  0
ENDTAB
  0
TABLE
  2
LAYER
  5
2
330
0
100
AcDbSymbolTable
 70
     4
  0
LAYER
  5
10
330
2
100
AcDbSymbolTableRecord
100
AcDbLayerTableRecord
  2
0
 70
     0
 62
     7
  6
Continuous
370
     0
390
F
  0
LAYER
  5
7E
330
2
100
AcDbSymbolTableRecord
100
AcDbLayerTableRecord
  2
CSLAYER2
 70
     0
 62
     7
  6
Continuous
370
     0
390
F
  0
LAYER
  5
7F
330
2
100
AcDbSymbolTableRecord
100
AcDbLayerTableRecord
  2
CSLAYER3
 70
     0
 62
     7
  6
Continuous
370
     0
390
F
  0
LAYER
  5
80
330
2
100
AcDbSymbolTableRecord
100
AcDbLayerTableRecord
  2
DEFPOINTS
 70
     0
 62
     3
  6
DIVIDE
290
     0
370
     0
390
F
  0
ENDTAB
  0
TABLE
  2
STYLE
  5
3
330
0
100
AcDbSymbolTable
 70
     5
  0
STYLE
  5
11
330
3
100
AcDbSymbolTableRecord
100
AcDbTextStyleTableRecord
  2
Standard
 70
     0
 40
0.0
 41
0.8
 50
0.0
 71
     0
 42
0.2
  3
MONOTXT.shx
  4
EXTFONT.shx
  0
STYLE
  5
81
330
3
100
AcDbSymbolTableRecord
100
AcDbTextStyleTableRecord
  2
DIMSTANDARD
 70
     0
 40
0.0
 41
0.4
 50
0.0
 71
     0
 42
0.2
  3
MONOTXT.shx
  4
EXTFONT.shx
  0
STYLE
  5
3AA
330
3
100
AcDbSymbolTableRecord
100
AcDbTextStyleTableRecord
  2
MTSTANDARD
 70
     0
 40
0.0
 41
1.0
 50
0.0
 71
     0
 42
0.2
  3
MONOTXT.shx
  4
EXTFONT.shx
  0
STYLE
  5
3AB
330
3
100
AcDbSymbolTableRecord
100
AcDbTextStyleTableRecord
  2
MTSTANDARD1
 70
     0
 40
0.0
 41
1.062753065355697
 50
0.0
 71
     0
 42
0.2
  3
MONOTXT.shx
  4
EXTFONT.shx
  0
STYLE
  5
50E
330
3
100
AcDbSymbolTableRecord
100
AcDbTextStyleTableRecord
  2
MTSTANDARD2
 70
     0
 40
0.0
 41
0.6
 50
0.0
 71
     0
 42
0.2
  3
MONOTXT.shx
  4
EXTFONT.shx
  0
ENDTAB
  0
TABLE
  2
VIEW
  5
6
330
0
100
AcDbSymbolTable
 70
     0
  0
ENDTAB
  0
TABLE
  2
UCS
  5
7
330
0
100
AcDbSymbolTable
 70
     0
  0
ENDTAB
  0
TABLE
  2
APPID
  5
9
330
0
100
AcDbSymbolTable
 70
     2
  0
APPID
  5
12
330
9
100
AcDbSymbolTableRecord
100
AcDbRegAppTableRecord
  2
ACAD
 70
     0
  0
APPID
  5
58D
330
9
100
AcDbSymbolTableRecord
100
AcDbRegAppTableRecord
  2
ACAD_MLEADERVER
 70
     0
  0
ENDTAB
  0
TABLE
  2
DIMSTYLE
  5
A
330
0
100
AcDbSymbolTable
 70
     2
100
AcDbDimStyleTable
  0
DIMSTYLE
105
27
330
A
100
AcDbSymbolTableRecord
100
AcDbDimStyleTableRecord
  2
Standard
 70
     0
 41
3.0
 42
1.0
 43
10.0
 44
1.0
 73
     0
 74
     0
 77
     3
 78
     8
 79
     2
140
4.0
141
0.0
147
1.0
176
     7
177
     7
271
     2
178
     7
179
     2
271
     2
340
11
342
86
371
    -1
372
    -1
  0
DIMSTYLE
105
513
102
{ACAD_REACTORS
330
514
330
521
330
52F
330
53C
102
}
330
A
100
AcDbSymbolTableRecord
100
AcDbDimStyleTableRecord
  2
DIMSTYEX_1
 70
     0
 41
3.0
 42
1.0
 43
0.0
 44
1.0
 73
     0
 74
     0
 77
     3
 78
     8
 79
     2
140
3.584
141
0.0
147
1.0
173
     1
176
     7
177
     7
271
     2
178
     7
179
     2
271
     2
272
     2
340
81
342
86
343
86
344
86
371
    -1
372
    -1
  0
ENDTAB
  0
TABLE
  2
BLOCK_RECORD
  5
1
330
0
100
AcDbSymbolTable
 70
    41
  0
BLOCK_RECORD
  5
1F
330
1
100
AcDbSymbolTableRecord
100
AcDbBlockTableRecord
  2
*Model_Space
340
22
  0
BLOCK_RECORD
  5
1B
330
1
100
AcDbSymbolTableRecord
100
AcDbBlockTableRecord
  2
*Paper_Space
340
1E
  0
BLOCK_RECORD
  5
82
330
1
100
AcDbSymbolTableRecord
100
AcDbBlockTableRecord
  2
_SMALL
340
0
  0
BLOCK_RECORD
  5
86
330
1
100
AcDbSymbolTableRecord
100
AcDbBlockTableRecord
  2
_OPEN30
340
0
102
{BLKREFS
331
50C
331
50D
331
51B
331
51C
331
529
331
52A
331
536
331
537
102
}
  0
BLOCK_RECORD
  5
8C
330
1
100
AcDbSymbolTableRecord
100
AcDbBlockTableRecord
  2
_OBLIQUE
340
0
  0
BLOCK_RECORD
  5
90
330
1
100
AcDbSymbolTableRecord
100
AcDbBlockTableRecord
  2
_DOT
340
0
  0
BLOCK_RECORD
  5
94
330
1
100
AcDbSymbolTableRecord
100
AcDbBlockTableRecord
  2
_DOTSMALL
340
0
  0
BLOCK_RECORD
  5
98
330
1
100
AcDbSymbolTableRecord
100
AcDbBlockTableRecord
  2
_DATUMFILLED
340
0
  0
BLOCK_RECORD
  5
9C
330
1
100
AcDbSymbolTableRecord
100
AcDbBlockTableRecord
  2
DATUMFILLED2
340
0
  0
BLOCK_RECORD
  5
A0
330
1
100
AcDbSymbolTableRecord
100
AcDbBlockTableRecord
  2
_DATUMBLANK
340
0
  0
BLOCK_RECORD
  5
A6
330
1
100
AcDbSymbolTableRecord
100
AcDbBlockTableRecord
  2
DATUMBLANK2
340
0
  0
BLOCK_RECORD
  5
AC
330
1
100
AcDbSymbolTableRecord
100
AcDbBlockTableRecord
  2
_NONE
340
0
  0
BLOCK_RECORD
  5
E1
330
1
100
AcDbSymbolTableRecord
100
AcDbBlockTableRecord
  2
BLK0
340
0
102
{BLKREFS
331
11E
102
}
  0
BLOCK_RECORD
  5
121
330
1
100
AcDbSymbolTableRecord
100
AcDbBlockTableRecord
  2
BLK1
340
0
102
{BLKREFS
331
133
102
}
  0
BLOCK_RECORD
  5
13A
330
1
100
AcDbSymbolTableRecord
100
AcDbBlockTableRecord
  2
BLK2
340
0
102
{BLKREFS
331
177
102
}
  0
BLOCK_RECORD
  5
178
330
1
100
AcDbSymbolTableRecord
100
AcDbBlockTableRecord
  2
BLK3
340
0
102
{BLKREFS
331
19C
102
}
  0
BLOCK_RECORD
  5
1A3
330
1
100
AcDbSymbolTableRecord
100
AcDbBlockTableRecord
  2
BLK4
340
0
102
{BLKREFS
331
1D9
102
}
  0
BLOCK_RECORD
  5
1DB
330
1
100
AcDbSymbolTableRecord
100
AcDbBlockTableRecord
  2
BLK5
340
0
102
{BLKREFS
331
1E6
102
}
  0
BLOCK_RECORD
  5
1EA
330
1
100
AcDbSymbolTableRecord
100
AcDbBlockTableRecord
  2
BLK6
340
0
102
{BLKREFS
331
208
102
}
  0
BLOCK_RECORD
  5
210
330
1
100
AcDbSymbolTableRecord
100
AcDbBlockTableRecord
  2
BLK7
340
0
102
{BLKREFS
331
247
102
}
  0
BLOCK_RECORD
  5
24A
330
1
100
AcDbSymbolTableRecord
100
AcDbBlockTableRecord
  2
BLK8
340
0
102
{BLKREFS
331
255
102
}
  0
BLOCK_RECORD
  5
258
330
1
100
AcDbSymbolTableRecord
100
AcDbBlockTableRecord
  2
BLK9
340
0
102
{BLKREFS
331
280
102
}
  0
BLOCK_RECORD
  5
282
330
1
100
AcDbSymbolTableRecord
100
AcDbBlockTableRecord
  2
BLK10
340
0
102
{BLKREFS
331
28F
102
}
  0
BLOCK_RECORD
  5
29F
330
1
100
AcDbSymbolTableRecord
100
AcDbBlockTableRecord
  2
BLK11
340
0
102
{BLKREFS
331
2D5
102
}
  0
BLOCK_RECORD
  5
2D9
330
1
100
AcDbSymbolTableRecord
100
AcDbBlockTableRecord
  2
BLK12
340
0
102
{BLKREFS
331
30F
102
}
  0
BLOCK_RECORD
  5
313
330
1
100
AcDbSymbolTableRecord
100
AcDbBlockTableRecord
  2
BLK13
340
0
102
{BLKREFS
331
320
102
}
  0
BLOCK_RECORD
  5
323
330
1
100
AcDbSymbolTableRecord
100
AcDbBlockTableRecord
  2
BLK14
340
0
102
{BLKREFS
331
330
102
}
  0
BLOCK_RECORD
  5
335
330
1
100
AcDbSymbolTableRecord
100
AcDbBlockTableRecord
  2
BLK15
340
0
102
{BLKREFS
331
373
102
}
  0
BLOCK_RECORD
  5
379
330
1
100
AcDbSymbolTableRecord
100
AcDbBlockTableRecord
  2
BLK16
340
0
102
{BLKREFS
331
37F
102
}
  0
BLOCK_RECORD
  5
380
330
1
100
AcDbSymbolTableRecord
100
AcDbBlockTableRecord
  2
BLK17
340
0
102
{BLKREFS
331
386
102
}
  0
BLOCK_RECORD
  5
387
330
1
100
AcDbSymbolTableRecord
100
AcDbBlockTableRecord
  2
BLK18
340
0
102
{BLKREFS
331
38D
102
}
  0
BLOCK_RECORD
  5
391
330
1
100
AcDbSymbolTableRecord
100
AcDbBlockTableRecord
  2
BLK19
340
0
102
{BLKREFS
331
397
102
}
  0
BLOCK_RECORD
  5
42D
330
1
100
AcDbSymbolTableRecord
100
AcDbBlockTableRecord
  2
BLK20
340
0
102
{BLKREFS
331
441
102
}
  0
BLOCK_RECORD
  5
446
330
1
100
AcDbSymbolTableRecord
100
AcDbBlockTableRecord
  2
BLK21
340
0
102
{BLKREFS
331
45B
102
}
  0
BLOCK_RECORD
  5
45C
330
1
100
AcDbSymbolTableRecord
100
AcDbBlockTableRecord
  2
BLK22
340
0
102
{BLKREFS
331
471
102
}
  0
BLOCK_RECORD
  5
49A
330
1
100
AcDbSymbolTableRecord
100
AcDbBlockTableRecord
  2
BLK23
340
0
102
{BLKREFS
331
4AE
102
}
  0
BLOCK_RECORD
  5
4B3
330
1
100
AcDbSymbolTableRecord
100
AcDbBlockTableRecord
  2
BLK24
340
0
102
{BLKREFS
331
4C8
102
}
  0
BLOCK_RECORD
  5
4C9
330
1
100
AcDbSymbolTableRecord
100
AcDbBlockTableRecord
  2
BLK25
340
0
102
{BLKREFS
331
4DE
102
}
  0
BLOCK_RECORD
  5
506
330
1
100
AcDbSymbolTableRecord
100
AcDbBlockTableRecord
  2
_D1
340
0
  0
BLOCK_RECORD
  5
515
330
1
100
AcDbSymbolTableRecord
100
AcDbBlockTableRecord
  2
_D2
340
0
  0
BLOCK_RECORD
  5
522
330
1
100
AcDbSymbolTableRecord
100
AcDbBlockTableRecord
  2
_D3
340
0
  0
BLOCK_RECORD
  5
530
330
1
100
AcDbSymbolTableRecord
100
AcDbBlockTableRecord
  2
_D4
340
0
  0
ENDTAB
  0
ENDSEC
  0
SECTION
  2
BLOCKS
  0
BLOCK
  5
20
330
1F
100
AcDbEntity
  8
0
100
AcDbBlockBegin
  2
*Model_Space
 70
     0
 10
0.0
 20
0.0
 30
0.0
  3
*Model_Space
  1

  0
ENDBLK
  5
21
330
1F
100
AcDbEntity
  8
0
100
AcDbBlockEnd
  0
BLOCK
  5
1C
330
1B
100
AcDbEntity
 67
     1
  8
0
100
AcDbBlockBegin
  2
*Paper_Space
 70
     0
 10
0.0
 20
0.0
 30
0.0
  3
*Paper_Space
  1

  0
ENDBLK
  5
1D
330
1B
100
AcDbEntity
 67
     1
  8
0
100
AcDbBlockEnd
  0
BLOCK
  5
83
330
82
100
AcDbEntity
  8
0
100
AcDbBlockBegin
  2
_SMALL
 70
     0
 10
0.0
 20
0.0
 30
0.0
  3
_SMALL
  1

  0
CIRCLE
  5
85
330
82
100
AcDbEntity
  8
0
  6
ByBlock
 62
     0
370
    -2
100
AcDbCircle
 10
0.0
 20
0.0
 30
0.0
 40
0.1666666666
  0
CIRCLE
  5
53D
330
82
100
AcDbEntity
  8
0
  6
ByBlock
 62
     0
370
    -2
100
AcDbCircle
 10
0.0
 20
0.0
 30
0.0
 40
0.1666666666
  0
ENDBLK
  5
84
330
82
100
AcDbEntity
  8
0
100
AcDbBlockEnd
  0
BLOCK
  5
87
330
86
100
AcDbEntity
  8
0
100
AcDbBlockBegin
  2
_OPEN30
 70
     0
 10
0.0
 20
0.0
 30
0.0
  3
_OPEN30
  1

  0
LINE
  5
89
330
86
100
AcDbEntity
  8
0
  6
ByBlock
 62
     0
370
    -2
100
AcDbLine
 10
-1.0
 20
0.26794919
 30
0.0
 11
0.0
 21
0.0
 31
0.0
  0
LINE
  5
8A
330
86
100
AcDbEntity
  8
0
  6
ByBlock
 62
     0
370
    -2
100
AcDbLine
 10
0.0
 20
0.0
 30
0.0
 11
-1.0
 21
-0.26794919
 31
0.0
  0
LINE
  5
8B
330
86
100
AcDbEntity
  8
0
  6
ByBlock
 62
     0
370
    -2
100
AcDbLine
 10
0.0
 20
0.0
 30
0.0
 11
-1.0
 21
0.0
 31
0.0
  0
LINE
  5
53E
330
86
100
AcDbEntity
  8
0
  6
ByBlock
 62
     0
370
    -2
100
AcDbLine
 10
-1.0
 20
0.26794919
 30
0.0
 11
0.0
 21
0.0
 31
0.0
  0
LINE
  5
53F
330
86
100
AcDbEntity
  8
0
  6
ByBlock
 62
     0
370
    -2
100
AcDbLine
 10
0.0
 20
0.0
 30
0.0
 11
-1.0
 21
-0.26794919
 31
0.0
  0
LINE
  5
540
330
86
100
AcDbEntity
  8
0
  6
ByBlock
 62
     0
370
    -2
100
AcDbLine
 10
0.0
 20
0.0
 30
0.0
 11
-1.0
 21
0.0
 31
0.0
  0
ENDBLK
  5
88
330
86
100
AcDbEntity
  8
0
100
AcDbBlockEnd
  0
BLOCK
  5
8D
330
8C
100
AcDbEntity
  8
0
100
AcDbBlockBegin
  2
_OBLIQUE
 70
     0
 10
0.0
 20
0.0
 30
0.0
  3
_OBLIQUE
  1

  0
LINE
  5
8F
330
8C
100
AcDbEntity
  8
0
  6
ByBlock
 62
     0
370
    -2
100
AcDbLine
 10
-0.5
 20
-0.5
 30
0.0
 11
0.5
 21
0.5
 31
0.0
  0
LINE
  5
541
330
8C
100
AcDbEntity
  8
0
  6
ByBlock
 62
     0
370
    -2
100
AcDbLine
 10
-0.5
 20
-0.5
 30
0.0
 11
0.5
 21
0.5
 31
0.0
  0
ENDBLK
  5
8E
330
8C
100
AcDbEntity
  8
0
100
AcDbBlockEnd
  0
BLOCK
  5
91
330
90
100
AcDbEntity
  8
0
100
AcDbBlockBegin
  2
_DOT
 70
     0
 10
0.0
 20
0.0
 30
0.0
  3
_DOT
  1

  0
LWPOLYLINE
  5
93
330
90
100
AcDbEntity
  8
0
  6
ByBlock
 62
     0
370
    -2
100
AcDbPolyline
 90
        2
 70
     1
 43
0.5
 10
-0.25
 20
0.0
 42
1.0
 10
0.25
 20
0.0
 42
1.0
  0
LWPOLYLINE
  5
542
330
90
100
AcDbEntity
  8
0
  6
ByBlock
 62
     0
370
    -2
100
AcDbPolyline
 90
        2
 70
     1
 43
0.5
 10
-0.25
 20
0.0
 42
1.0
 10
0.25
 20
0.0
 42
1.0
  0
ENDBLK
  5
92
330
90
100
AcDbEntity
  8
0
100
AcDbBlockEnd
  0
BLOCK
  5
95
330
94
100
AcDbEntity
  8
0
100
AcDbBlockBegin
  2
_DOTSMALL
 70
     0
 10
0.0
 20
0.0
 30
0.0
  3
_DOTSMALL
  1

  0
LWPOLYLINE
  5
97
330
94
100
AcDbEntity
  8
0
  6
ByBlock
 62
     0
370
    -2
100
AcDbPolyline
 90
        2
 70
     1
 43
0.5
 10
-0.0625
 20
0.0
 42
1.0
 10
0.0625
 20
0.0
 42
1.0
  0
LWPOLYLINE
  5
543
330
94
100
AcDbEntity
  8
0
  6
ByBlock
 62
     0
370
    -2
100
AcDbPolyline
 90
        2
 70
     1
 43
0.5
 10
-0.0625
 20
0.0
 42
1.0
 10
0.0625
 20
0.0
 42
1.0
  0
ENDBLK
  5
96
330
94
100
AcDbEntity
  8
0
100
AcDbBlockEnd
  0
BLOCK
  5
99
330
98
100
AcDbEntity
  8
0
100
AcDbBlockBegin
  2
_DATUMFILLED
 70
     0
 10
0.0
 20
0.0
 30
0.0
  3
_DATUMFILLED
  1

  0
SOLID
  5
9B
330
98
100
AcDbEntity
  8
0
  6
ByBlock
 62
     0
370
    -2
100
AcDbTrace
 10
0.0
 20
0.57735027
 30
0.0
 11
-1.0
 21
0.0
 31
0.0
 12
0.0
 22
-0.57735027
 32
0.0
 13
0.0
 23
-0.57735027
 33
0.0
  0
SOLID
  5
544
330
98
100
AcDbEntity
  8
0
  6
ByBlock
 62
     0
370
    -2
100
AcDbTrace
 10
0.0
 20
0.57735027
 30
0.0
 11
-1.0
 21
0.0
 31
0.0
 12
0.0
 22
-0.57735027
 32
0.0
 13
0.0
 23
-0.57735027
 33
0.0
  0
ENDBLK
  5
9A
330
98
100
AcDbEntity
  8
0
100
AcDbBlockEnd
  0
BLOCK
  5
9D
330
9C
100
AcDbEntity
  8
0
100
AcDbBlockBegin
  2
DATUMFILLED2
 70
     0
 10
0.0
 20
0.0
 30
0.0
  3
DATUMFILLED2
  1

  0
SOLID
  5
9F
330
9C
100
AcDbEntity
  8
0
  6
ByBlock
 62
     0
370
    -2
100
AcDbTrace
 10
0.0
 20
1.0
 30
0.0
 11
-1.0
 21
0.0
 31
0.0
 12
0.0
 22
-1.0
 32
0.0
 13
0.0
 23
-1.0
 33
0.0
  0
SOLID
  5
545
330
9C
100
AcDbEntity
  8
0
  6
ByBlock
 62
     0
370
    -2
100
AcDbTrace
 10
0.0
 20
1.0
 30
0.0
 11
-1.0
 21
0.0
 31
0.0
 12
0.0
 22
-1.0
 32
0.0
 13
0.0
 23
-1.0
 33
0.0
  0
ENDBLK
  5
9E
330
9C
100
AcDbEntity
  8
0
100
AcDbBlockEnd
  0
BLOCK
  5
A1
330
A0
100
AcDbEntity
  8
0
100
AcDbBlockBegin
  2
_DATUMBLANK
 70
     0
 10
0.0
 20
0.0
 30
0.0
  3
_DATUMBLANK
  1

  0
LINE
  5
A3
330
A0
100
AcDbEntity
  8
0
  6
ByBlock
 62
     0
370
    -2
100
AcDbLine
 10
0.0
 20
0.57735027
 30
0.0
 11
-1.0
 21
0.0
 31
0.0
  0
LINE
  5
A4
330
A0
100
AcDbEntity
  8
0
  6
ByBlock
 62
     0
370
    -2
100
AcDbLine
 10
-1.0
 20
0.0
 30
0.0
 11
0.0
 21
-0.57735027
 31
0.0
  0
LINE
  5
A5
330
A0
100
AcDbEntity
  8
0
  6
ByBlock
 62
     0
370
    -2
100
AcDbLine
 10
0.0
 20
-0.57735027
 30
0.0
 11
0.0
 21
0.57735027
 31
0.0
  0
LINE
  5
546
330
A0
100
AcDbEntity
  8
0
  6
ByBlock
 62
     0
370
    -2
100
AcDbLine
 10
0.0
 20
0.57735027
 30
0.0
 11
-1.0
 21
0.0
 31
0.0
  0
LINE
  5
547
330
A0
100
AcDbEntity
  8
0
  6
ByBlock
 62
     0
370
    -2
100
AcDbLine
 10
-1.0
 20
0.0
 30
0.0
 11
0.0
 21
-0.57735027
 31
0.0
  0
LINE
  5
548
330
A0
100
AcDbEntity
  8
0
  6
ByBlock
 62
     0
370
    -2
100
AcDbLine
 10
0.0
 20
-0.57735027
 30
0.0
 11
0.0
 21
0.57735027
 31
0.0
  0
ENDBLK
  5
A2
330
A0
100
AcDbEntity
  8
0
100
AcDbBlockEnd
  0
BLOCK
  5
A7
330
A6
100
AcDbEntity
  8
0
100
AcDbBlockBegin
  2
DATUMBLANK2
 70
     0
 10
0.0
 20
0.0
 30
0.0
  3
DATUMBLANK2
  1

  0
LINE
  5
A9
330
A6
100
AcDbEntity
  8
0
  6
ByBlock
 62
     0
370
    -2
100
AcDbLine
 10
0.0
 20
1.0
 30
0.0
 11
-1.0
 21
0.0
 31
0.0
  0
LINE
  5
AA
330
A6
100
AcDbEntity
  8
0
  6
ByBlock
 62
     0
370
    -2
100
AcDbLine
 10
-1.0
 20
0.0
 30
0.0
 11
0.0
 21
-1.0
 31
0.0
  0
LINE
  5
AB
330
A6
100
AcDbEntity
  8
0
  6
ByBlock
 62
     0
370
    -2
100
AcDbLine
 10
0.0
 20
-1.0
 30
0.0
 11
0.0
 21
1.0
 31
0.0
  0
LINE
  5
549
330
A6
100
AcDbEntity
  8
0
  6
ByBlock
 62
     0
370
    -2
100
AcDbLine
 10
0.0
 20
1.0
 30
0.0
 11
-1.0
 21
0.0
 31
0.0
  0
LINE
  5
54A
330
A6
100
AcDbEntity
  8
0
  6
ByBlock
 62
     0
370
    -2
100
AcDbLine
 10
-1.0
 20
0.0
 30
0.0
 11
0.0
 21
-1.0
 31
0.0
  0
LINE
  5
54B
330
A6
100
AcDbEntity
  8
0
  6
ByBlock
 62
     0
370
    -2
100
AcDbLine
 10
0.0
 20
-1.0
 30
0.0
 11
0.0
 21
1.0
 31
0.0
  0
ENDBLK
  5
A8
330
A6
100
AcDbEntity
  8
0
100
AcDbBlockEnd
  0
BLOCK
  5
AD
330
AC
100
AcDbEntity
  8
0
100
AcDbBlockBegin
  2
_NONE
 70
     0
 10
0.0
 20
0.0
 30
0.0
  3
_NONE
  1

  0
ENDBLK
  5
AE
330
AC
100
AcDbEntity
  8
0
100
AcDbBlockEnd
  0
BLOCK
  5
E2
330
E1
100
AcDbEntity
  8
0
100
AcDbBlockBegin
  2
BLK0
 70
     0
 10
0.0
 20
0.0
 30
0.0
  3
BLK0
  1

  0
LINE
  5
E4
330
E1
100
AcDbEntity
  8
0
  6
Continuous
 62
     3
100
AcDbLine
 10
99.266452
 20
71.884085
 30
0.0
 11
99.289354
 21
71.937161
 31
0.0
  0
LINE
  5
E5
330
E1
100
AcDbEntity
  8
0
  6
Continuous
 62
     3
100
AcDbLine
 10
99.289354
 20
71.937161
 30
0.0
 11
99.312212
 21
71.990245
 31
0.0
  0
LINE
  5
E6
330
E1
100
AcDbEntity
  8
0
  6
Continuous
 62
     3
100
AcDbLine
 10
99.312212
 20
71.990245
 30
0.0
 11
99.334986
 21
72.043341
 31
0.0
  0
LINE
  5
E7
330
E1
100
AcDbEntity
  8
0
  6
Continuous
 62
     3
100
AcDbLine
 10
99.334986
 20
72.043341
 30
0.0
 11
99.357632
 21
72.096457
 31
0.0
  0
LINE
  5
E8
330
E1
100
AcDbEntity
  8
0
  6
Continuous
 62
     3
100
AcDbLine
 10
99.357632
 20
72.096457
 30
0.0
 11
99.380106
 21
72.149597
 31
0.0
  0
LINE
  5
E9
330
E1
100
AcDbEntity
  8
0
  6
Continuous
 62
     3
100
AcDbLine
 10
99.380106
 20
72.149597
 30
0.0
 11
99.402366
 21
72.202767
 31
0.0
  0
LINE
  5
EA
330
E1
100
AcDbEntity
  8
0
  6
Continuous
 62
     3
100
AcDbLine
 10
99.402366
 20
72.202767
 30
0.0
 11
99.42437
 21
72.255977
 31
0.0
  0
LINE
  5
EB
330
E1
100
AcDbEntity
  8
0
  6
Continuous
 62
     3
100
AcDbLine
 10
99.42437
 20
72.255977
 30
0.0
 11
99.446074
 21
72.309229
 31
0.0
  0
LINE
  5
EC
330
E1
100
AcDbEntity
  8
0
  6
Continuous
 62
     3
100
AcDbLine
 10
99.446074
 20
72.309229
 30
0.0
 11
99.456802
 21
72.335873
 31
0.0
  0
LINE
  5
ED
330
E1
100
AcDbEntity
  8
0
  6
Continuous
 62
     3
100
AcDbLine
 10
99.456802
 20
72.335873
 30
0.0
 11
99.467436
 21
72.362531
 31
0.0
  0
LINE
  5
EE
330
E1
100
AcDbEntity
  8
0
  6
Continuous
 62
     3
100
AcDbLine
 10
99.467436
 20
72.362531
 30
0.0
 11
99.477976
 21
72.389203
 31
0.0
  0
LINE
  5
EF
330
E1
100
AcDbEntity
  8
0
  6
Continuous
 62
     3
100
AcDbLine
 10
99.477976
 20
72.389203
 30
0.0
 11
99.488414
 21
72.415891
 31
0.0
  0
LINE
  5
F0
330
E1
100
AcDbEntity
  8
0
  6
Continuous
 62
     3
100
AcDbLine
 10
99.488414
 20
72.415891
 30
0.0
 11
99.498744
 21
72.442593
 31
0.0
  0
LINE
  5
F1
330
E1
100
AcDbEntity
  8
0
  6
Continuous
 62
     3
100
AcDbLine
 10
99.498744
 20
72.442593
 30
0.0
 11
99.508962
 21
72.469311
 31
0.0
  0
LINE
  5
F2
330
E1
100
AcDbEntity
  8
0
  6
Continuous
 62
     3
100
AcDbLine
 10
99.508962
 20
72.469311
 30
0.0
 11
99.519064
 21
72.496047
 31
0.0
  0
LINE
  5
F3
330
E1
100
AcDbEntity
  8
0
  6
Continuous
 62
     3
100
AcDbLine
 10
99.519064
 20
72.496047
 30
0.0
 11
99.529042
 21
72.522801
 31
0.0
  0
LINE
  5
F4
330
E1
100
AcDbEntity
  8
0
  6
Continuous
 62
     3
100
AcDbLine
 10
99.529042
 20
72.522801
 30
0.0
 11
99.53889
 21
72.549575
 31
0.0
  0
LINE
  5
F5
330
E1
100
AcDbEntity
  8
0
  6
Continuous
 62
     3
100
AcDbLine
 10
99.53889
 20
72.549575
 30
0.0
 11
99.548606
 21
72.576367
 31
0.0
  0
LINE
  5
F6
330
E1
100
AcDbEntity
  8
0
  6
Continuous
 62
     3
100
AcDbLine
 10
99.548606
 20
72.576367
 30
0.0
 11
99.558182
 21
72.603179
 31
0.0
  0
LINE
  5
F7
330
E1
100
AcDbEntity
  8
0
  6
Continuous
 62
     3
100
AcDbLine
 10
99.558182
 20
72.603179
 30
0.0
 11
99.567616
 21
72.630013
 31
0.0
  0
LINE
  5
F8
330
E1
100
AcDbEntity
  8
0
  6
Continuous
 62
     3
100
AcDbLine
 10
99.567616
 20
72.630013
 30
0.0
 11
99.576898
 21
72.656869
 31
0.0
  0
LINE
  5
F9
330
E1
100
AcDbEntity
  8
0
  6
Continuous
 62
     3
100
AcDbLine
 10
99.576898
 20
72.656869
 30
0.0
 11
99.586026
 21
72.683747
 31
0.0
  0
LINE
  5
FA
330
E1
100
AcDbEntity
  8
0
  6
Continuous
 62
     3
100
AcDbLine
 10
99.586026
 20
72.683747
 30
0.0
 11
99.594992
 21
72.710647
 31
0.0
  0
LINE
  5
FB
330
E1
100
AcDbEntity
  8
0
  6
Continuous
 62
     3
100
AcDbLine
 10
99.594992
 20
72.710647
 30
0.0
 11
99.603794
 21
72.737573
 31
0.0
  0
LINE
  5
FC
330
E1
100
AcDbEntity
  8
0
  6
Continuous
 62
     3
100
AcDbLine
 10
99.603794
 20
72.737573
 30
0.0
 11
99.612424
 21
72.764525
 31
0.0
  0
LINE
  5
FD
330
E1
100
AcDbEntity
  8
0
  6
Continuous
 62
     3
100
AcDbLine
 10
99.612424
 20
72.764525
 30
0.0
 11
99.620878
 21
72.791501
 31
0.0
  0
LINE
  5
FE
330
E1
100
AcDbEntity
  8
0
  6
Continuous
 62
     3
100
AcDbLine
 10
99.620878
 20
72.791501
 30
0.0
 11
99.62915
 21
72.818505
 31
0.0
  0
LINE
  5
FF
330
E1
100
AcDbEntity
  8
0
  6
Continuous
 62
     3
100
AcDbLine
 10
99.62915
 20
72.818505
 30
0.0
 11
99.637234
 21
72.845535
 31
0.0
  0
LINE
  5
100
330
E1
100
AcDbEntity
  8
0
  6
Continuous
 62
     3
100
AcDbLine
 10
99.637234
 20
72.845535
 30
0.0
 11
99.645126
 21
72.872593
 31
0.0
  0
LINE
  5
101
330
E1
100
AcDbEntity
  8
0
  6
Continuous
 62
     3
100
AcDbLine
 10
99.645126
 20
72.872593
 30
0.0
 11
99.65282
 21
72.899681
 31
0.0
  0
LINE
  5
102
330
E1
100
AcDbEntity
  8
0
  6
Continuous
 62
     3
100
AcDbLine
 10
99.65282
 20
72.899681
 30
0.0
 11
99.660312
 21
72.926797
 31
0.0
  0
LINE
  5
103
330
E1
100
AcDbEntity
  8
0
  6
Continuous
 62
     3
100
AcDbLine
 10
99.660312
 20
72.926797
 30
0.0
 11
99.667594
 21
72.953945
 31
0.0
  0
LINE
  5
104
330
E1
100
AcDbEntity
  8
0
  6
Continuous
 62
     3
100
AcDbLine
 10
99.667594
 20
72.953945
 30
0.0
 11
99.674662
 21
72.981125
 31
0.0
  0
LINE
  5
105
330
E1
100
AcDbEntity
  8
0
  6
Continuous
 62
     3
100
AcDbLine
 10
99.674662
 20
72.981125
 30
0.0
 11
99.681512
 21
73.008335
 31
0.0
  0
LINE
  5
106
330
E1
100
AcDbEntity
  8
0
  6
Continuous
 62
     3
100
AcDbLine
 10
99.681512
 20
73.008335
 30
0.0
 11
99.688136
 21
73.035579
 31
0.0
  0
LINE
  5
107
330
E1
100
AcDbEntity
  8
0
  6
Continuous
 62
     3
100
AcDbLine
 10
99.688136
 20
73.035579
 30
0.0
 11
99.694532
 21
73.062857
 31
0.0
  0
LINE
  5
108
330
E1
100
AcDbEntity
  8
0
  6
Continuous
 62
     3
100
AcDbLine
 10
99.694532
 20
73.062857
 30
0.0
 11
99.70069
 21
73.090169
 31
0.0
  0
LINE
  5
109
330
E1
100
AcDbEntity
  8
0
  6
Continuous
 62
     3
100
AcDbLine
 10
99.70069
 20
73.090169
 30
0.0
 11
99.70661
 21
73.117515
 31
0.0
  0
LINE
  5
10A
330
E1
100
AcDbEntity
  8
0
  6
Continuous
 62
     3
100
AcDbLine
 10
99.70661
 20
73.117515
 30
0.0
 11
99.712282
 21
73.144897
 31
0.0
  0
LINE
  5
10B
330
E1
100
AcDbEntity
  8
0
  6
Continuous
 62
     3
100
AcDbLine
 10
99.712282
 20
73.144897
 30
0.0
 11
99.717704
 21
73.172317
 31
0.0
  0
LINE
  5
10C
330
E1
100
AcDbEntity
  8
0
  6
Continuous
 62
     3
100
AcDbLine
 10
99.717704
 20
73.172317
 30
0.0
 11
99.722868
 21
73.199775
 31
0.0
  0
LINE
  5
10D
330
E1
100
AcDbEntity
  8
0
  6
Continuous
 62
     3
100
AcDbLine
 10
99.722868
 20
73.199775
 30
0.0
 11
99.727772
 21
73.227269
 31
0.0
  0
LINE
  5
10E
330
E1
100
AcDbEntity
  8
0
  6
Continuous
 62
     3
100
AcDbLine
 10
99.727772
 20
73.227269
 30
0.0
 11
99.732406
 21
73.254805
 31
0.0
  0
LINE
  5
10F
330
E1
100
AcDbEntity
  8
0
  6
Continuous
 62
     3
100
AcDbLine
 10
99.732406
 20
73.254805
 30
0.0
 11
99.73677
 21
73.282379
 31
0.0
  0
LINE
  5
110
330
E1
100
AcDbEntity
  8
0
  6
Continuous
 62
     3
100
AcDbLine
 10
99.73677
 20
73.282379
 30
0.0
 11
99.740854
 21
73.309993
 31
0.0
  0
LINE
  5
111
330
E1
100
AcDbEntity
  8
0
  6
Continuous
 62
     3
100
AcDbLine
 10
99.740854
 20
73.309993
 30
0.0
 11
99.744654
 21
73.337649
 31
0.0
  0
LINE
  5
112
330
E1
100
AcDbEntity
  8
0
  6
Continuous
 62
     3
100
AcDbLine
 10
99.744654
 20
73.337649
 30
0.0
 11
99.748168
 21
73.365347
 31
0.0
  0
LINE
  5
113
330
E1
100
AcDbEntity
  8
0
  6
Continuous
 62
     3
100
AcDbLine
 10
99.748168
 20
73.365347
 30
0.0
 11
99.751386
 21
73.393089
 31
0.0
  0
LINE
  5
114
330
E1
100
AcDbEntity
  8
0
  6
Continuous
 62
     3
100
AcDbLine
 10
99.751386
 20
73.393089
 30
0.0
 11
99.754304
 21
73.420875
 31
0.0
  0
LINE
  5
115
330
E1
100
AcDbEntity
  8
0
  6
Continuous
 62
     3
100
AcDbLine
 10
99.754304
 20
73.420875
 30
0.0
 11
99.756918
 21
73.448703
 31
0.0
  0
LINE
  5
116
330
E1
100
AcDbEntity
  8
0
  6
Continuous
 62
     3
100
AcDbLine
 10
99.756918
 20
73.448703
 30
0.0
 11
99.759222
 21
73.476579
 31
0.0
  0
LINE
  5
117
330
E1
100
AcDbEntity
  8
0
  6
Continuous
 62
     3
100
AcDbLine
 10
99.759222
 20
73.476579
 30
0.0
 11
99.76121
 21
73.504499
 31
0.0
  0
LINE
  5
118
330
E1
100
AcDbEntity
  8
0
  6
Continuous
 62
     3
100
AcDbLine
 10
99.76121
 20
73.504499
 30
0.0
 11
99.762878
 21
73.532467
 31
0.0
  0
LINE
  5
119
330
E1
100
AcDbEntity
  8
0
  6
Continuous
 62
     3
100
AcDbLine
 10
99.762878
 20
73.532467
 30
0.0
 11
99.764218
 21
73.560483
 31
0.0
  0
LINE
  5
11A
330
E1
100
AcDbEntity
  8
0
  6
Continuous
 62
     3
100
AcDbLine
 10
99.764218
 20
73.560483
 30
0.0
 11
99.765228
 21
73.588547
 31
0.0
  0
LINE
  5
11B
330
E1
100
AcDbEntity
  8
0
  6
Continuous
 62
     3
100
AcDbLine
 10
99.765228
 20
73.588547
 30
0.0
 11
99.765902
 21
73.616661
 31
0.0
  0
LINE
  5
11C
330
E1
100
AcDbEntity
  8
0
  6
Continuous
 62
     3
100
AcDbLine
 10
99.765902
 20
73.616661
 30
0.0
 11
99.766268
 21
73.645841
 31
0.0
  0
LINE
  5
11D
330
E1
100
AcDbEntity
  8
0
  6
Continuous
 62
     3
100
AcDbLine
 10
99.766268
 20
73.645841
 30
0.0
 11
99.766452
 21
73.675047
 31
0.0
  0
ENDBLK
  5
E3
330
E1
100
AcDbEntity
  8
0
100
AcDbBlockEnd
  0
BLOCK
  5
122
330
121
100
AcDbEntity
  8
0
100
AcDbBlockBegin
  2
BLK1
 70
     0
 10
0.0
 20
0.0
 30
0.0
  3
BLK1
  1

  0
LINE
  5
124
330
121
100
AcDbEntity
  8
0
  6
Continuous
 62
     3
100
AcDbLine
 10
93.966452
 20
71.884085
 30
0.0
 11
93.9428
 21
71.930133
 31
0.0
  0
LINE
  5
125
330
121
100
AcDbEntity
  8
0
  6
Continuous
 62
     3
100
AcDbLine
 10
93.9428
 20
71.930133
 30
0.0
 11
93.919242
 21
71.976225
 31
0.0
  0
LINE
  5
126
330
121
100
AcDbEntity
  8
0
  6
Continuous
 62
     3
100
AcDbLine
 10
93.919242
 20
71.976225
 30
0.0
 11
93.895868
 21
72.022401
 31
0.0
  0
LINE
  5
127
330
121
100
AcDbEntity
  8
0
  6
Continuous
 62
     3
100
AcDbLine
 10
93.895868
 20
72.022401
 30
0.0
 11
93.884278
 21
72.045535
 31
0.0
  0
LINE
  5
128
330
121
100
AcDbEntity
  8
0
  6
Continuous
 62
     3
100
AcDbLine
 10
93.884278
 20
72.045535
 30
0.0
 11
93.87277
 21
72.068703
 31
0.0
  0
LINE
  5
129
330
121
100
AcDbEntity
  8
0
  6
Continuous
 62
     3
100
AcDbLine
 10
93.87277
 20
72.068703
 30
0.0
 11
93.861352
 21
72.091917
 31
0.0
  0
LINE
  5
12A
330
121
100
AcDbEntity
  8
0
  6
Continuous
 62
     3
100
AcDbLine
 10
93.861352
 20
72.091917
 30
0.0
 11
93.850038
 21
72.115175
 31
0.0
  0
LINE
  5
12B
330
121
100
AcDbEntity
  8
0
  6
Continuous
 62
     3
100
AcDbLine
 10
93.850038
 20
72.115175
 30
0.0
 11
93.83884
 21
72.138487
 31
0.0
  0
LINE
  5
12C
330
121
100
AcDbEntity
  8
0
  6
Continuous
 62
     3
100
AcDbLine
 10
93.83884
 20
72.138487
 30
0.0
 11
93.827766
 21
72.161859
 31
0.0
  0
LINE
  5
12D
330
121
100
AcDbEntity
  8
0
  6
Continuous
 62
     3
100
AcDbLine
 10
93.827766
 20
72.161859
 30
0.0
 11
93.816832
 21
72.185293
 31
0.0
  0
LINE
  5
12E
330
121
100
AcDbEntity
  8
0
  6
Continuous
 62
     3
100
AcDbLine
 10
93.816832
 20
72.185293
 30
0.0
 11
93.806046
 21
72.208795
 31
0.0
  0
LINE
  5
12F
330
121
100
AcDbEntity
  8
0
  6
Continuous
 62
     3
100
AcDbLine
 10
93.806046
 20
72.208795
 30
0.0
 11
93.795422
 21
72.232371
 31
0.0
  0
LINE
  5
130
330
121
100
AcDbEntity
  8
0
  6
Continuous
 62
     3
100
AcDbLine
 10
93.795422
 20
72.232371
 30
0.0
 11
93.78497
 21
72.256027
 31
0.0
  0
LINE
  5
131
330
121
100
AcDbEntity
  8
0
  6
Continuous
 62
     3
100
AcDbLine
 10
93.78497
 20
72.256027
 30
0.0
 11
93.775676
 21
72.277455
 31
0.0
  0
LINE
  5
132
330
121
100
AcDbEntity
  8
0
  6
Continuous
 62
     3
100
AcDbLine
 10
93.775676
 20
72.277455
 30
0.0
 11
93.766456
 21
72.298917
 31
0.0
  0
ENDBLK
  5
123
330
121
100
AcDbEntity
  8
0
100
AcDbBlockEnd
  0
BLOCK
  5
13B
330
13A
100
AcDbEntity
  8
0
100
AcDbBlockBegin
  2
BLK2
 70
     0
 10
0.0
 20
0.0
 30
0.0
  3
BLK2
  1

  0
LINE
  5
13D
330
13A
100
AcDbEntity
  8
0
  6
Continuous
 62
     3
100
AcDbLine
 10
93.266454
 20
70.996801
 30
0.0
 11
93.289356
 21
71.056969
 31
0.0
  0
LINE
  5
13E
330
13A
100
AcDbEntity
  8
0
  6
Continuous
 62
     3
100
AcDbLine
 10
93.289356
 20
71.056969
 30
0.0
 11
93.312216
 21
71.117145
 31
0.0
  0
LINE
  5
13F
330
13A
100
AcDbEntity
  8
0
  6
Continuous
 62
     3
100
AcDbLine
 10
93.312216
 20
71.117145
 30
0.0
 11
93.33499
 21
71.177331
 31
0.0
  0
LINE
  5
140
330
13A
100
AcDbEntity
  8
0
  6
Continuous
 62
     3
100
AcDbLine
 10
93.33499
 20
71.177331
 30
0.0
 11
93.357636
 21
71.237533
 31
0.0
  0
LINE
  5
141
330
13A
100
AcDbEntity
  8
0
  6
Continuous
 62
     3
100
AcDbLine
 10
93.357636
 20
71.237533
 30
0.0
 11
93.38011
 21
71.297759
 31
0.0
  0
LINE
  5
142
330
13A
100
AcDbEntity
  8
0
  6
Continuous
 62
     3
100
AcDbLine
 10
93.38011
 20
71.297759
 30
0.0
 11
93.40237
 21
71.358011
 31
0.0
  0
LINE
  5
143
330
13A
100
AcDbEntity
  8
0
  6
Continuous
 62
     3
100
AcDbLine
 10
93.40237
 20
71.358011
 30
0.0
 11
93.424374
 21
71.418297
 31
0.0
  0
LINE
  5
144
330
13A
100
AcDbEntity
  8
0
  6
Continuous
 62
     3
100
AcDbLine
 10
93.424374
 20
71.418297
 30
0.0
 11
93.44608
 21
71.478623
 31
0.0
  0
LINE
  5
145
330
13A
100
AcDbEntity
  8
0
  6
Continuous
 62
     3
100
AcDbLine
 10
93.44608
 20
71.478623
 30
0.0
 11
93.456806
 21
71.508801
 31
0.0
  0
LINE
  5
146
330
13A
100
AcDbEntity
  8
0
  6
Continuous
 62
     3
100
AcDbLine
 10
93.456806
 20
71.508801
 30
0.0
 11
93.467442
 21
71.538991
 31
0.0
  0
LINE
  5
147
330
13A
100
AcDbEntity
  8
0
  6
Continuous
 62
     3
100
AcDbLine
 10
93.467442
 20
71.538991
 30
0.0
 11
93.47798
 21
71.569195
 31
0.0
  0
LINE
  5
148
330
13A
100
AcDbEntity
  8
0
  6
Continuous
 62
     3
100
AcDbLine
 10
93.47798
 20
71.569195
 30
0.0
 11
93.488418
 21
71.599411
 31
0.0
  0
LINE
  5
149
330
13A
100
AcDbEntity
  8
0
  6
Continuous
 62
     3
100
AcDbLine
 10
93.488418
 20
71.599411
 30
0.0
 11
93.49875
 21
71.629641
 31
0.0
  0
LINE
  5
14A
330
13A
100
AcDbEntity
  8
0
  6
Continuous
 62
     3
100
AcDbLine
 10
93.49875
 20
71.629641
 30
0.0
 11
93.508968
 21
71.659887
 31
0.0
  0
LINE
  5
14B
330
13A
100
AcDbEntity
  8
0
  6
Continuous
 62
     3
100
AcDbLine
 10
93.508968
 20
71.659887
 30
0.0
 11
93.519068
 21
71.690147
 31
0.0
  0
LINE
  5
14C
330
13A
100
AcDbEntity
  8
0
  6
Continuous
 62
     3
100
AcDbLine
 10
93.519068
 20
71.690147
 30
0.0
 11
93.529046
 21
71.720423
 31
0.0
  0
LINE
  5
14D
330
13A
100
AcDbEntity
  8
0
  6
Continuous
 62
     3
100
AcDbLine
 10
93.529046
 20
71.720423
 30
0.0
 11
93.538896
 21
71.750715
 31
0.0
  0
LINE
  5
14E
330
13A
100
AcDbEntity
  8
0
  6
Continuous
 62
     3
100
AcDbLine
 10
93.538896
 20
71.750715
 30
0.0
 11
93.548612
 21
71.781025
 31
0.0
  0
LINE
  5
14F
330
13A
100
AcDbEntity
  8
0
  6
Continuous
 62
     3
100
AcDbLine
 10
93.548612
 20
71.781025
 30
0.0
 11
93.558188
 21
71.811355
 31
0.0
  0
LINE
  5
150
330
13A
100
AcDbEntity
  8
0
  6
Continuous
 62
     3
100
AcDbLine
 10
93.558188
 20
71.811355
 30
0.0
 11
93.56762
 21
71.841701
 31
0.0
  0
LINE
  5
151
330
13A
100
AcDbEntity
  8
0
  6
Continuous
 62
     3
100
AcDbLine
 10
93.56762
 20
71.841701
 30
0.0
 11
93.576904
 21
71.872067
 31
0.0
  0
LINE
  5
152
330
13A
100
AcDbEntity
  8
0
  6
Continuous
 62
     3
100
AcDbLine
 10
93.576904
 20
71.872067
 30
0.0
 11
93.58603
 21
71.902455
 31
0.0
  0
LINE
  5
153
330
13A
100
AcDbEntity
  8
0
  6
Continuous
 62
     3
100
AcDbLine
 10
93.58603
 20
71.902455
 30
0.0
 11
93.594998
 21
71.932861
 31
0.0
  0
LINE
  5
154
330
13A
100
AcDbEntity
  8
0
  6
Continuous
 62
     3
100
AcDbLine
 10
93.594998
 20
71.932861
 30
0.0
 11
93.603798
 21
71.963291
 31
0.0
  0
LINE
  5
155
330
13A
100
AcDbEntity
  8
0
  6
Continuous
 62
     3
100
AcDbLine
 10
93.603798
 20
71.963291
 30
0.0
 11
93.61243
 21
71.993741
 31
0.0
  0
LINE
  5
156
330
13A
100
AcDbEntity
  8
0
  6
Continuous
 62
     3
100
AcDbLine
 10
93.61243
 20
71.993741
 30
0.0
 11
93.620882
 21
72.024215
 31
0.0
  0
LINE
  5
157
330
13A
100
AcDbEntity
  8
0
  6
Continuous
 62
     3
100
AcDbLine
 10
93.620882
 20
72.024215
 30
0.0
 11
93.629154
 21
72.054713
 31
0.0
  0
LINE
  5
158
330
13A
100
AcDbEntity
  8
0
  6
Continuous
 62
     3
100
AcDbLine
 10
93.629154
 20
72.054713
 30
0.0
 11
93.63724
 21
72.085235
 31
0.0
  0
LINE
  5
159
330
13A
100
AcDbEntity
  8
0
  6
Continuous
 62
     3
100
AcDbLine
 10
93.63724
 20
72.085235
 30
0.0
 11
93.645132
 21
72.115783
 31
0.0
  0
LINE
  5
15A
330
13A
100
AcDbEntity
  8
0
  6
Continuous
 62
     3
100
AcDbLine
 10
93.645132
 20
72.115783
 30
0.0
 11
93.652826
 21
72.146355
 31
0.0
  0
LINE
  5
15B
330
13A
100
AcDbEntity
  8
0
  6
Continuous
 62
     3
100
AcDbLine
 10
93.652826
 20
72.146355
 30
0.0
 11
93.660316
 21
72.176955
 31
0.0
  0
LINE
  5
15C
330
13A
100
AcDbEntity
  8
0
  6
Continuous
 62
     3
100
AcDbLine
 10
93.660316
 20
72.176955
 30
0.0
 11
93.6676
 21
72.207581
 31
0.0
  0
LINE
  5
15D
330
13A
100
AcDbEntity
  8
0
  6
Continuous
 62
     3
100
AcDbLine
 10
93.6676
 20
72.207581
 30
0.0
 11
93.674668
 21
72.238235
 31
0.0
  0
LINE
  5
15E
330
13A
100
AcDbEntity
  8
0
  6
Continuous
 62
     3
100
AcDbLine
 10
93.674668
 20
72.238235
 30
0.0
 11
93.681516
 21
72.268917
 31
0.0
  0
LINE
  5
15F
330
13A
100
AcDbEntity
  8
0
  6
Continuous
 62
     3
100
AcDbLine
 10
93.681516
 20
72.268917
 30
0.0
 11
93.688142
 21
72.299629
 31
0.0
  0
LINE
  5
160
330
13A
100
AcDbEntity
  8
0
  6
Continuous
 62
     3
100
AcDbLine
 10
93.688142
 20
72.299629
 30
0.0
 11
93.694536
 21
72.330371
 31
0.0
  0
LINE
  5
161
330
13A
100
AcDbEntity
  8
0
  6
Continuous
 62
     3
100
AcDbLine
 10
93.694536
 20
72.330371
 30
0.0
 11
93.700696
 21
72.361143
 31
0.0
  0
LINE
  5
162
330
13A
100
AcDbEntity
  8
0
  6
Continuous
 62
     3
100
AcDbLine
 10
93.700696
 20
72.361143
 30
0.0
 11
93.706614
 21
72.391947
 31
0.0
  0
LINE
  5
163
330
13A
100
AcDbEntity
  8
0
  6
Continuous
 62
     3
100
AcDbLine
 10
93.706614
 20
72.391947
 30
0.0
 11
93.712288
 21
72.422783
 31
0.0
  0
LINE
  5
164
330
13A
100
AcDbEntity
  8
0
  6
Continuous
 62
     3
100
AcDbLine
 10
93.712288
 20
72.422783
 30
0.0
 11
93.717708
 21
72.453651
 31
0.0
  0
LINE
  5
165
330
13A
100
AcDbEntity
  8
0
  6
Continuous
 62
     3
100
AcDbLine
 10
93.717708
 20
72.453651
 30
0.0
 11
93.722874
 21
72.484553
 31
0.0
  0
LINE
  5
166
330
13A
100
AcDbEntity
  8
0
  6
Continuous
 62
     3
100
AcDbLine
 10
93.722874
 20
72.484553
 30
0.0
 11
93.727776
 21
72.515487
 31
0.0
  0
LINE
  5
167
330
13A
100
AcDbEntity
  8
0
  6
Continuous
 62
     3
100
AcDbLine
 10
93.727776
 20
72.515487
 30
0.0
 11
93.732412
 21
72.546457
 31
0.0
  0
LINE
  5
168
330
13A
100
AcDbEntity
  8
0
  6
Continuous
 62
     3
100
AcDbLine
 10
93.732412
 20
72.546457
 30
0.0
 11
93.736774
 21
72.577463
 31
0.0
  0
LINE
  5
169
330
13A
100
AcDbEntity
  8
0
  6
Continuous
 62
     3
100
AcDbLine
 10
93.736774
 20
72.577463
 30
0.0
 11
93.740858
 21
72.608505
 31
0.0
  0
LINE
  5
16A
330
13A
100
AcDbEntity
  8
0
  6
Continuous
 62
     3
100
AcDbLine
 10
93.740858
 20
72.608505
 30
0.0
 11
93.74466
 21
72.639583
 31
0.0
  0
LINE
  5
16B
330
13A
100
AcDbEntity
  8
0
  6
Continuous
 62
     3
100
AcDbLine
 10
93.74466
 20
72.639583
 30
0.0
 11
93.748172
 21
72.670701
 31
0.0
  0
LINE
  5
16C
330
13A
100
AcDbEntity
  8
0
  6
Continuous
 62
     3
100
AcDbLine
 10
93.748172
 20
72.670701
 30
0.0
 11
93.75139
 21
72.701855
 31
0.0
  0
LINE
  5
16D
330
13A
100
AcDbEntity
  8
0
  6
Continuous
 62
     3
100
AcDbLine
 10
93.75139
 20
72.701855
 30
0.0
 11
93.754308
 21
72.733047
 31
0.0
  0
LINE
  5
16E
330
13A
100
AcDbEntity
  8
0
  6
Continuous
 62
     3
100
AcDbLine
 10
93.754308
 20
72.733047
 30
0.0
 11
93.756922
 21
72.764281
 31
0.0
  0
LINE
  5
16F
330
13A
100
AcDbEntity
  8
0
  6
Continuous
 62
     3
100
AcDbLine
 10
93.756922
 20
72.764281
 30
0.0
 11
93.759226
 21
72.795553
 31
0.0
  0
LINE
  5
170
330
13A
100
AcDbEntity
  8
0
  6
Continuous
 62
     3
100
AcDbLine
 10
93.759226
 20
72.795553
 30
0.0
 11
93.761214
 21
72.826867
 31
0.0
  0
LINE
  5
171
330
13A
100
AcDbEntity
  8
0
  6
Continuous
 62
     3
100
AcDbLine
 10
93.761214
 20
72.826867
 30
0.0
 11
93.76288
 21
72.858223
 31
0.0
  0
LINE
  5
172
330
13A
100
AcDbEntity
  8
0
  6
Continuous
 62
     3
100
AcDbLine
 10
93.76288
 20
72.858223
 30
0.0
 11
93.764222
 21
72.889621
 31
0.0
  0
LINE
  5
173
330
13A
100
AcDbEntity
  8
0
  6
Continuous
 62
     3
100
AcDbLine
 10
93.764222
 20
72.889621
 30
0.0
 11
93.765232
 21
72.921063
 31
0.0
  0
LINE
  5
174
330
13A
100
AcDbEntity
  8
0
  6
Continuous
 62
     3
100
AcDbLine
 10
93.765232
 20
72.921063
 30
0.0
 11
93.765904
 21
72.952549
 31
0.0
  0
LINE
  5
175
330
13A
100
AcDbEntity
  8
0
  6
Continuous
 62
     3
100
AcDbLine
 10
93.765904
 20
72.952549
 30
0.0
 11
93.766272
 21
72.985491
 31
0.0
  0
LINE
  5
176
330
13A
100
AcDbEntity
  8
0
  6
Continuous
 62
     3
100
AcDbLine
 10
93.766272
 20
72.985491
 30
0.0
 11
93.766456
 21
73.018457
 31
0.0
  0
ENDBLK
  5
13C
330
13A
100
AcDbEntity
  8
0
100
AcDbBlockEnd
  0
BLOCK
  5
179
330
178
100
AcDbEntity
  8
0
100
AcDbBlockBegin
  2
BLK3
 70
     0
 10
0.0
 20
0.0
 30
0.0
  3
BLK3
  1

  0
LINE
  5
17B
330
178
100
AcDbEntity
  8
0
  6
Continuous
 62
     3
100
AcDbLine
 10
93.266454
 20
75.040113
 30
0.0
 11
93.299212
 21
74.969515
 31
0.0
  0
LINE
  5
17C
330
178
100
AcDbEntity
  8
0
  6
Continuous
 62
     3
100
AcDbLine
 10
93.299212
 20
74.969515
 30
0.0
 11
93.33154
 21
74.898777
 31
0.0
  0
LINE
  5
17D
330
178
100
AcDbEntity
  8
0
  6
Continuous
 62
     3
100
AcDbLine
 10
93.33154
 20
74.898777
 30
0.0
 11
93.363012
 21
74.827759
 31
0.0
  0
LINE
  5
17E
330
178
100
AcDbEntity
  8
0
  6
Continuous
 62
     3
100
AcDbLine
 10
93.363012
 20
74.827759
 30
0.0
 11
93.378292
 21
74.792101
 31
0.0
  0
LINE
  5
17F
330
178
100
AcDbEntity
  8
0
  6
Continuous
 62
     3
100
AcDbLine
 10
93.378292
 20
74.792101
 30
0.0
 11
93.393196
 21
74.756321
 31
0.0
  0
LINE
  5
180
330
178
100
AcDbEntity
  8
0
  6
Continuous
 62
     3
100
AcDbLine
 10
93.393196
 20
74.756321
 30
0.0
 11
93.413778
 21
74.704927
 31
0.0
  0
LINE
  5
181
330
178
100
AcDbEntity
  8
0
  6
Continuous
 62
     3
100
AcDbLine
 10
93.413778
 20
74.704927
 30
0.0
 11
93.43351
 21
74.653255
 31
0.0
  0
LINE
  5
182
330
178
100
AcDbEntity
  8
0
  6
Continuous
 62
     3
100
AcDbLine
 10
93.43351
 20
74.653255
 30
0.0
 11
93.452422
 21
74.601313
 31
0.0
  0
LINE
  5
183
330
178
100
AcDbEntity
  8
0
  6
Continuous
 62
     3
100
AcDbLine
 10
93.452422
 20
74.601313
 30
0.0
 11
93.470538
 21
74.549113
 31
0.0
  0
LINE
  5
184
330
178
100
AcDbEntity
  8
0
  6
Continuous
 62
     3
100
AcDbLine
 10
93.470538
 20
74.549113
 30
0.0
 11
93.487888
 21
74.496663
 31
0.0
  0
LINE
  5
185
330
178
100
AcDbEntity
  8
0
  6
Continuous
 62
     3
100
AcDbLine
 10
93.487888
 20
74.496663
 30
0.0
 11
93.504496
 21
74.443971
 31
0.0
  0
LINE
  5
186
330
178
100
AcDbEntity
  8
0
  6
Continuous
 62
     3
100
AcDbLine
 10
93.504496
 20
74.443971
 30
0.0
 11
93.520394
 21
74.391045
 31
0.0
  0
LINE
  5
187
330
178
100
AcDbEntity
  8
0
  6
Continuous
 62
     3
100
AcDbLine
 10
93.520394
 20
74.391045
 30
0.0
 11
93.535606
 21
74.337895
 31
0.0
  0
LINE
  5
188
330
178
100
AcDbEntity
  8
0
  6
Continuous
 62
     3
100
AcDbLine
 10
93.535606
 20
74.337895
 30
0.0
 11
93.550162
 21
74.284533
 31
0.0
  0
LINE
  5
189
330
178
100
AcDbEntity
  8
0
  6
Continuous
 62
     3
100
AcDbLine
 10
93.550162
 20
74.284533
 30
0.0
 11
93.564086
 21
74.230963
 31
0.0
  0
LINE
  5
18A
330
178
100
AcDbEntity
  8
0
  6
Continuous
 62
     3
100
AcDbLine
 10
93.564086
 20
74.230963
 30
0.0
 11
93.577408
 21
74.177195
 31
0.0
  0
LINE
  5
18B
330
178
100
AcDbEntity
  8
0
  6
Continuous
 62
     3
100
AcDbLine
 10
93.577408
 20
74.177195
 30
0.0
 11
93.590154
 21
74.123241
 31
0.0
  0
LINE
  5
18C
330
178
100
AcDbEntity
  8
0
  6
Continuous
 62
     3
100
AcDbLine
 10
93.590154
 20
74.123241
 30
0.0
 11
93.602352
 21
74.069107
 31
0.0
  0
LINE
  5
18D
330
178
100
AcDbEntity
  8
0
  6
Continuous
 62
     3
100
AcDbLine
 10
93.602352
 20
74.069107
 30
0.0
 11
93.61403
 21
74.014803
 31
0.0
  0
LINE
  5
18E
330
178
100
AcDbEntity
  8
0
  6
Continuous
 62
     3
100
AcDbLine
 10
93.61403
 20
74.014803
 30
0.0
 11
93.625216
 21
73.960339
 31
0.0
  0
LINE
  5
18F
330
178
100
AcDbEntity
  8
0
  6
Continuous
 62
     3
100
AcDbLine
 10
93.625216
 20
73.960339
 30
0.0
 11
93.635934
 21
73.905721
 31
0.0
  0
LINE
  5
190
330
178
100
AcDbEntity
  8
0
  6
Continuous
 62
     3
100
AcDbLine
 10
93.635934
 20
73.905721
 30
0.0
 11
93.646216
 21
73.850961
 31
0.0
  0
LINE
  5
191
330
178
100
AcDbEntity
  8
0
  6
Continuous
 62
     3
100
AcDbLine
 10
93.646216
 20
73.850961
 30
0.0
 11
93.656086
 21
73.796067
 31
0.0
  0
LINE
  5
192
330
178
100
AcDbEntity
  8
0
  6
Continuous
 62
     3
100
AcDbLine
 10
93.656086
 20
73.796067
 30
0.0
 11
93.665572
 21
73.741047
 31
0.0
  0
LINE
  5
193
330
178
100
AcDbEntity
  8
0
  6
Continuous
 62
     3
100
AcDbLine
 10
93.665572
 20
73.741047
 30
0.0
 11
93.674702
 21
73.685911
 31
0.0
  0
LINE
  5
194
330
178
100
AcDbEntity
  8
0
  6
Continuous
 62
     3
100
AcDbLine
 10
93.674702
 20
73.685911
 30
0.0
 11
93.683504
 21
73.630667
 31
0.0
  0
LINE
  5
195
330
178
100
AcDbEntity
  8
0
  6
Continuous
 62
     3
100
AcDbLine
 10
93.683504
 20
73.630667
 30
0.0
 11
93.692004
 21
73.575325
 31
0.0
  0
LINE
  5
196
330
178
100
AcDbEntity
  8
0
  6
Continuous
 62
     3
100
AcDbLine
 10
93.692004
 20
73.575325
 30
0.0
 11
93.70023
 21
73.519893
 31
0.0
  0
LINE
  5
197
330
178
100
AcDbEntity
  8
0
  6
Continuous
 62
     3
100
AcDbLine
 10
93.70023
 20
73.519893
 30
0.0
 11
93.708208
 21
73.464381
 31
0.0
  0
LINE
  5
198
330
178
100
AcDbEntity
  8
0
  6
Continuous
 62
     3
100
AcDbLine
 10
93.708208
 20
73.464381
 30
0.0
 11
93.723538
 21
73.353149
 31
0.0
  0
LINE
  5
199
330
178
100
AcDbEntity
  8
0
  6
Continuous
 62
     3
100
AcDbLine
 10
93.723538
 20
73.353149
 30
0.0
 11
93.738208
 21
73.241705
 31
0.0
  0
LINE
  5
19A
330
178
100
AcDbEntity
  8
0
  6
Continuous
 62
     3
100
AcDbLine
 10
93.738208
 20
73.241705
 30
0.0
 11
93.752442
 21
73.130117
 31
0.0
  0
LINE
  5
19B
330
178
100
AcDbEntity
  8
0
  6
Continuous
 62
     3
100
AcDbLine
 10
93.752442
 20
73.130117
 30
0.0
 11
93.766456
 21
73.018457
 31
0.0
  0
ENDBLK
  5
17A
330
178
100
AcDbEntity
  8
0
100
AcDbBlockEnd
  0
BLOCK
  5
1A4
330
1A3
100
AcDbEntity
  8
0
100
AcDbBlockBegin
  2
BLK4
 70
     0
 10
0.0
 20
0.0
 30
0.0
  3
BLK4
  1

  0
LINE
  5
1A6
330
1A3
100
AcDbEntity
  8
0
  6
Continuous
 62
     3
100
AcDbLine
 10
99.766452
 20
84.168535
 30
0.0
 11
99.765898
 21
84.086477
 31
0.0
  0
LINE
  5
1A7
330
1A3
100
AcDbEntity
  8
0
  6
Continuous
 62
     3
100
AcDbLine
 10
99.765898
 20
84.086477
 30
0.0
 11
99.765434
 21
84.045467
 31
0.0
  0
LINE
  5
1A8
330
1A3
100
AcDbEntity
  8
0
  6
Continuous
 62
     3
100
AcDbLine
 10
99.765434
 20
84.045467
 30
0.0
 11
99.764746
 21
84.004477
 31
0.0
  0
LINE
  5
1A9
330
1A3
100
AcDbEntity
  8
0
  6
Continuous
 62
     3
100
AcDbLine
 10
99.764746
 20
84.004477
 30
0.0
 11
99.763724
 21
83.961835
 31
0.0
  0
LINE
  5
1AA
330
1A3
100
AcDbEntity
  8
0
  6
Continuous
 62
     3
100
AcDbLine
 10
99.763724
 20
83.961835
 30
0.0
 11
99.762384
 21
83.919225
 31
0.0
  0
LINE
  5
1AB
330
1A3
100
AcDbEntity
  8
0
  6
Continuous
 62
     3
100
AcDbLine
 10
99.762384
 20
83.919225
 30
0.0
 11
99.760728
 21
83.876643
 31
0.0
  0
LINE
  5
1AC
330
1A3
100
AcDbEntity
  8
0
  6
Continuous
 62
     3
100
AcDbLine
 10
99.760728
 20
83.876643
 30
0.0
 11
99.758764
 21
83.834093
 31
0.0
  0
LINE
  5
1AD
330
1A3
100
AcDbEntity
  8
0
  6
Continuous
 62
     3
100
AcDbLine
 10
99.758764
 20
83.834093
 30
0.0
 11
99.756494
 21
83.791571
 31
0.0
  0
LINE
  5
1AE
330
1A3
100
AcDbEntity
  8
0
  6
Continuous
 62
     3
100
AcDbLine
 10
99.756494
 20
83.791571
 30
0.0
 11
99.753926
 21
83.749079
 31
0.0
  0
LINE
  5
1AF
330
1A3
100
AcDbEntity
  8
0
  6
Continuous
 62
     3
100
AcDbLine
 10
99.753926
 20
83.749079
 30
0.0
 11
99.751064
 21
83.706617
 31
0.0
  0
LINE
  5
1B0
330
1A3
100
AcDbEntity
  8
0
  6
Continuous
 62
     3
100
AcDbLine
 10
99.751064
 20
83.706617
 30
0.0
 11
99.747912
 21
83.664181
 31
0.0
  0
LINE
  5
1B1
330
1A3
100
AcDbEntity
  8
0
  6
Continuous
 62
     3
100
AcDbLine
 10
99.747912
 20
83.664181
 30
0.0
 11
99.744476
 21
83.621773
 31
0.0
  0
LINE
  5
1B2
330
1A3
100
AcDbEntity
  8
0
  6
Continuous
 62
     3
100
AcDbLine
 10
99.744476
 20
83.621773
 30
0.0
 11
99.74076
 21
83.579393
 31
0.0
  0
LINE
  5
1B3
330
1A3
100
AcDbEntity
  8
0
  6
Continuous
 62
     3
100
AcDbLine
 10
99.74076
 20
83.579393
 30
0.0
 11
99.736772
 21
83.537039
 31
0.0
  0
LINE
  5
1B4
330
1A3
100
AcDbEntity
  8
0
  6
Continuous
 62
     3
100
AcDbLine
 10
99.736772
 20
83.537039
 30
0.0
 11
99.732514
 21
83.494711
 31
0.0
  0
LINE
  5
1B5
330
1A3
100
AcDbEntity
  8
0
  6
Continuous
 62
     3
100
AcDbLine
 10
99.732514
 20
83.494711
 30
0.0
 11
99.727992
 21
83.452409
 31
0.0
  0
LINE
  5
1B6
330
1A3
100
AcDbEntity
  8
0
  6
Continuous
 62
     3
100
AcDbLine
 10
99.727992
 20
83.452409
 30
0.0
 11
99.723212
 21
83.410131
 31
0.0
  0
LINE
  5
1B7
330
1A3
100
AcDbEntity
  8
0
  6
Continuous
 62
     3
100
AcDbLine
 10
99.723212
 20
83.410131
 30
0.0
 11
99.718178
 21
83.367879
 31
0.0
  0
LINE
  5
1B8
330
1A3
100
AcDbEntity
  8
0
  6
Continuous
 62
     3
100
AcDbLine
 10
99.718178
 20
83.367879
 30
0.0
 11
99.712896
 21
83.325651
 31
0.0
  0
LINE
  5
1B9
330
1A3
100
AcDbEntity
  8
0
  6
Continuous
 62
     3
100
AcDbLine
 10
99.712896
 20
83.325651
 30
0.0
 11
99.70737
 21
83.283447
 31
0.0
  0
LINE
  5
1BA
330
1A3
100
AcDbEntity
  8
0
  6
Continuous
 62
     3
100
AcDbLine
 10
99.70737
 20
83.283447
 30
0.0
 11
99.701606
 21
83.241265
 31
0.0
  0
LINE
  5
1BB
330
1A3
100
AcDbEntity
  8
0
  6
Continuous
 62
     3
100
AcDbLine
 10
99.701606
 20
83.241265
 30
0.0
 11
99.695608
 21
83.199105
 31
0.0
  0
LINE
  5
1BC
330
1A3
100
AcDbEntity
  8
0
  6
Continuous
 62
     3
100
AcDbLine
 10
99.695608
 20
83.199105
 30
0.0
 11
99.689382
 21
83.156969
 31
0.0
  0
LINE
  5
1BD
330
1A3
100
AcDbEntity
  8
0
  6
Continuous
 62
     3
100
AcDbLine
 10
99.689382
 20
83.156969
 30
0.0
 11
99.682932
 21
83.114855
 31
0.0
  0
LINE
  5
1BE
330
1A3
100
AcDbEntity
  8
0
  6
Continuous
 62
     3
100
AcDbLine
 10
99.682932
 20
83.114855
 30
0.0
 11
99.676266
 21
83.072761
 31
0.0
  0
LINE
  5
1BF
330
1A3
100
AcDbEntity
  8
0
  6
Continuous
 62
     3
100
AcDbLine
 10
99.676266
 20
83.072761
 30
0.0
 11
99.669384
 21
83.030687
 31
0.0
  0
LINE
  5
1C0
330
1A3
100
AcDbEntity
  8
0
  6
Continuous
 62
     3
100
AcDbLine
 10
99.669384
 20
83.030687
 30
0.0
 11
99.662296
 21
82.988635
 31
0.0
  0
LINE
  5
1C1
330
1A3
100
AcDbEntity
  8
0
  6
Continuous
 62
     3
100
AcDbLine
 10
99.662296
 20
82.988635
 30
0.0
 11
99.655006
 21
82.946603
 31
0.0
  0
LINE
  5
1C2
330
1A3
100
AcDbEntity
  8
0
  6
Continuous
 62
     3
100
AcDbLine
 10
99.655006
 20
82.946603
 30
0.0
 11
99.647516
 21
82.904589
 31
0.0
  0
LINE
  5
1C3
330
1A3
100
AcDbEntity
  8
0
  6
Continuous
 62
     3
100
AcDbLine
 10
99.647516
 20
82.904589
 30
0.0
 11
99.639834
 21
82.862593
 31
0.0
  0
LINE
  5
1C4
330
1A3
100
AcDbEntity
  8
0
  6
Continuous
 62
     3
100
AcDbLine
 10
99.639834
 20
82.862593
 30
0.0
 11
99.631964
 21
82.820617
 31
0.0
  0
LINE
  5
1C5
330
1A3
100
AcDbEntity
  8
0
  6
Continuous
 62
     3
100
AcDbLine
 10
99.631964
 20
82.820617
 30
0.0
 11
99.623912
 21
82.778657
 31
0.0
  0
LINE
  5
1C6
330
1A3
100
AcDbEntity
  8
0
  6
Continuous
 62
     3
100
AcDbLine
 10
99.623912
 20
82.778657
 30
0.0
 11
99.615682
 21
82.736715
 31
0.0
  0
LINE
  5
1C7
330
1A3
100
AcDbEntity
  8
0
  6
Continuous
 62
     3
100
AcDbLine
 10
99.615682
 20
82.736715
 30
0.0
 11
99.60728
 21
82.694791
 31
0.0
  0
LINE
  5
1C8
330
1A3
100
AcDbEntity
  8
0
  6
Continuous
 62
     3
100
AcDbLine
 10
99.60728
 20
82.694791
 30
0.0
 11
99.59871
 21
82.652881
 31
0.0
  0
LINE
  5
1C9
330
1A3
100
AcDbEntity
  8
0
  6
Continuous
 62
     3
100
AcDbLine
 10
99.59871
 20
82.652881
 30
0.0
 11
99.589978
 21
82.610989
 31
0.0
  0
LINE
  5
1CA
330
1A3
100
AcDbEntity
  8
0
  6
Continuous
 62
     3
100
AcDbLine
 10
99.589978
 20
82.610989
 30
0.0
 11
99.58109
 21
82.569111
 31
0.0
  0
LINE
  5
1CB
330
1A3
100
AcDbEntity
  8
0
  6
Continuous
 62
     3
100
AcDbLine
 10
99.58109
 20
82.569111
 30
0.0
 11
99.56286
 21
82.485399
 31
0.0
  0
LINE
  5
1CC
330
1A3
100
AcDbEntity
  8
0
  6
Continuous
 62
     3
100
AcDbLine
 10
99.56286
 20
82.485399
 30
0.0
 11
99.544062
 21
82.401743
 31
0.0
  0
LINE
  5
1CD
330
1A3
100
AcDbEntity
  8
0
  6
Continuous
 62
     3
100
AcDbLine
 10
99.544062
 20
82.401743
 30
0.0
 11
99.524736
 21
82.318137
 31
0.0
  0
LINE
  5
1CE
330
1A3
100
AcDbEntity
  8
0
  6
Continuous
 62
     3
100
AcDbLine
 10
99.524736
 20
82.318137
 30
0.0
 11
99.504924
 21
82.234579
 31
0.0
  0
LINE
  5
1CF
330
1A3
100
AcDbEntity
  8
0
  6
Continuous
 62
     3
100
AcDbLine
 10
99.504924
 20
82.234579
 30
0.0
 11
99.484664
 21
82.151065
 31
0.0
  0
LINE
  5
1D0
330
1A3
100
AcDbEntity
  8
0
  6
Continuous
 62
     3
100
AcDbLine
 10
99.484664
 20
82.151065
 30
0.0
 11
99.464
 21
82.067591
 31
0.0
  0
LINE
  5
1D1
330
1A3
100
AcDbEntity
  8
0
  6
Continuous
 62
     3
100
AcDbLine
 10
99.464
 20
82.067591
 30
0.0
 11
99.44297
 21
81.984151
 31
0.0
  0
LINE
  5
1D2
330
1A3
100
AcDbEntity
  8
0
  6
Continuous
 62
     3
100
AcDbLine
 10
99.44297
 20
81.984151
 30
0.0
 11
99.421616
 21
81.900743
 31
0.0
  0
LINE
  5
1D3
330
1A3
100
AcDbEntity
  8
0
  6
Continuous
 62
     3
100
AcDbLine
 10
99.421616
 20
81.900743
 30
0.0
 11
99.399976
 21
81.817363
 31
0.0
  0
LINE
  5
1D4
330
1A3
100
AcDbEntity
  8
0
  6
Continuous
 62
     3
100
AcDbLine
 10
99.399976
 20
81.817363
 30
0.0
 11
99.378094
 21
81.734005
 31
0.0
  0
LINE
  5
1D5
330
1A3
100
AcDbEntity
  8
0
  6
Continuous
 62
     3
100
AcDbLine
 10
99.378094
 20
81.734005
 30
0.0
 11
99.35601
 21
81.650669
 31
0.0
  0
LINE
  5
1D6
330
1A3
100
AcDbEntity
  8
0
  6
Continuous
 62
     3
100
AcDbLine
 10
99.35601
 20
81.650669
 30
0.0
 11
99.333762
 21
81.567347
 31
0.0
  0
LINE
  5
1D7
330
1A3
100
AcDbEntity
  8
0
  6
Continuous
 62
     3
100
AcDbLine
 10
99.333762
 20
81.567347
 30
0.0
 11
99.311392
 21
81.484039
 31
0.0
  0
LINE
  5
1D8
330
1A3
100
AcDbEntity
  8
0
  6
Continuous
 62
     3
100
AcDbLine
 10
99.311392
 20
81.484039
 30
0.0
 11
99.266452
 21
81.317439
 31
0.0
  0
ENDBLK
  5
1A5
330
1A3
100
AcDbEntity
  8
0
100
AcDbBlockEnd
  0
BLOCK
  5
1DC
330
1DB
100
AcDbEntity
  8
0
100
AcDbBlockBegin
  2
BLK5
 70
     0
 10
0.0
 20
0.0
 30
0.0
  3
BLK5
  1

  0
LINE
  5
1DE
330
1DB
100
AcDbEntity
  8
0
  6
Continuous
 62
     3
100
AcDbLine
 10
93.966452
 20
81.317439
 30
0.0
 11
93.940118
 21
81.396825
 31
0.0
  0
LINE
  5
1DF
330
1DB
100
AcDbEntity
  8
0
  6
Continuous
 62
     3
100
AcDbLine
 10
93.940118
 20
81.396825
 30
0.0
 11
93.914026
 21
81.476285
 31
0.0
  0
LINE
  5
1E0
330
1DB
100
AcDbEntity
  8
0
  6
Continuous
 62
     3
100
AcDbLine
 10
93.914026
 20
81.476285
 30
0.0
 11
93.888416
 21
81.555891
 31
0.0
  0
LINE
  5
1E1
330
1DB
100
AcDbEntity
  8
0
  6
Continuous
 62
     3
100
AcDbLine
 10
93.888416
 20
81.555891
 30
0.0
 11
93.863528
 21
81.635717
 31
0.0
  0
LINE
  5
1E2
330
1DB
100
AcDbEntity
  8
0
  6
Continuous
 62
     3
100
AcDbLine
 10
93.863528
 20
81.635717
 30
0.0
 11
93.83833
 21
81.719881
 31
0.0
  0
LINE
  5
1E3
330
1DB
100
AcDbEntity
  8
0
  6
Continuous
 62
     3
100
AcDbLine
 10
93.83833
 20
81.719881
 30
0.0
 11
93.813928
 21
81.804289
 31
0.0
  0
LINE
  5
1E4
330
1DB
100
AcDbEntity
  8
0
  6
Continuous
 62
     3
100
AcDbLine
 10
93.813928
 20
81.804289
 30
0.0
 11
93.79006
 21
81.888859
 31
0.0
  0
LINE
  5
1E5
330
1DB
100
AcDbEntity
  8
0
  6
Continuous
 62
     3
100
AcDbLine
 10
93.79006
 20
81.888859
 30
0.0
 11
93.766456
 21
81.973511
 31
0.0
  0
ENDBLK
  5
1DD
330
1DB
100
AcDbEntity
  8
0
100
AcDbBlockEnd
  0
BLOCK
  5
1EB
330
1EA
100
AcDbEntity
  8
0
100
AcDbBlockBegin
  2
BLK6
 70
     0
 10
0.0
 20
0.0
 30
0.0
  3
BLK6
  1

  0
LINE
  5
1ED
330
1EA
100
AcDbEntity
  8
0
  6
Continuous
 62
     3
100
AcDbLine
 10
99.266452
 20
78.533609
 30
0.0
 11
99.32433
 21
78.425641
 31
0.0
  0
LINE
  5
1EE
330
1EA
100
AcDbEntity
  8
0
  6
Continuous
 62
     3
100
AcDbLine
 10
99.32433
 20
78.425641
 30
0.0
 11
99.352824
 21
78.371499
 31
0.0
  0
LINE
  5
1EF
330
1EA
100
AcDbEntity
  8
0
  6
Continuous
 62
     3
100
AcDbLine
 10
99.352824
 20
78.371499
 30
0.0
 11
99.380782
 21
78.317169
 31
0.0
  0
LINE
  5
1F0
330
1EA
100
AcDbEntity
  8
0
  6
Continuous
 62
     3
100
AcDbLine
 10
99.380782
 20
78.317169
 30
0.0
 11
99.408028
 21
78.262587
 31
0.0
  0
LINE
  5
1F1
330
1EA
100
AcDbEntity
  8
0
  6
Continuous
 62
     3
100
AcDbLine
 10
99.408028
 20
78.262587
 30
0.0
 11
99.434382
 21
78.207693
 31
0.0
  0
LINE
  5
1F2
330
1EA
100
AcDbEntity
  8
0
  6
Continuous
 62
     3
100
AcDbLine
 10
99.434382
 20
78.207693
 30
0.0
 11
99.459666
 21
78.152421
 31
0.0
  0
LINE
  5
1F3
330
1EA
100
AcDbEntity
  8
0
  6
Continuous
 62
     3
100
AcDbLine
 10
99.459666
 20
78.152421
 30
0.0
 11
99.483702
 21
78.096709
 31
0.0
  0
LINE
  5
1F4
330
1EA
100
AcDbEntity
  8
0
  6
Continuous
 62
     3
100
AcDbLine
 10
99.483702
 20
78.096709
 30
0.0
 11
99.499184
 21
78.058729
 31
0.0
  0
LINE
  5
1F5
330
1EA
100
AcDbEntity
  8
0
  6
Continuous
 62
     3
100
AcDbLine
 10
99.499184
 20
78.058729
 30
0.0
 11
99.514032
 21
78.020527
 31
0.0
  0
LINE
  5
1F6
330
1EA
100
AcDbEntity
  8
0
  6
Continuous
 62
     3
100
AcDbLine
 10
99.514032
 20
78.020527
 30
0.0
 11
99.528268
 21
77.982109
 31
0.0
  0
LINE
  5
1F7
330
1EA
100
AcDbEntity
  8
0
  6
Continuous
 62
     3
100
AcDbLine
 10
99.528268
 20
77.982109
 30
0.0
 11
99.54191
 21
77.943483
 31
0.0
  0
LINE
  5
1F8
330
1EA
100
AcDbEntity
  8
0
  6
Continuous
 62
     3
100
AcDbLine
 10
99.54191
 20
77.943483
 30
0.0
 11
99.554982
 21
77.904657
 31
0.0
  0
LINE
  5
1F9
330
1EA
100
AcDbEntity
  8
0
  6
Continuous
 62
     3
100
AcDbLine
 10
99.554982
 20
77.904657
 30
0.0
 11
99.567504
 21
77.865635
 31
0.0
  0
LINE
  5
1FA
330
1EA
100
AcDbEntity
  8
0
  6
Continuous
 62
     3
100
AcDbLine
 10
99.567504
 20
77.865635
 30
0.0
 11
99.579494
 21
77.826425
 31
0.0
  0
LINE
  5
1FB
330
1EA
100
AcDbEntity
  8
0
  6
Continuous
 62
     3
100
AcDbLine
 10
99.579494
 20
77.826425
 30
0.0
 11
99.590972
 21
77.787037
 31
0.0
  0
LINE
  5
1FC
330
1EA
100
AcDbEntity
  8
0
  6
Continuous
 62
     3
100
AcDbLine
 10
99.590972
 20
77.787037
 30
0.0
 11
99.601962
 21
77.747477
 31
0.0
  0
LINE
  5
1FD
330
1EA
100
AcDbEntity
  8
0
  6
Continuous
 62
     3
100
AcDbLine
 10
99.601962
 20
77.747477
 30
0.0
 11
99.612482
 21
77.707751
 31
0.0
  0
LINE
  5
1FE
330
1EA
100
AcDbEntity
  8
0
  6
Continuous
 62
     3
100
AcDbLine
 10
99.612482
 20
77.707751
 30
0.0
 11
99.632196
 21
77.627831
 31
0.0
  0
LINE
  5
1FF
330
1EA
100
AcDbEntity
  8
0
  6
Continuous
 62
     3
100
AcDbLine
 10
99.632196
 20
77.627831
 30
0.0
 11
99.650276
 21
77.547335
 31
0.0
  0
LINE
  5
200
330
1EA
100
AcDbEntity
  8
0
  6
Continuous
 62
     3
100
AcDbLine
 10
99.650276
 20
77.547335
 30
0.0
 11
99.666886
 21
77.466323
 31
0.0
  0
LINE
  5
201
330
1EA
100
AcDbEntity
  8
0
  6
Continuous
 62
     3
100
AcDbLine
 10
99.666886
 20
77.466323
 30
0.0
 11
99.68219
 21
77.384851
 31
0.0
  0
LINE
  5
202
330
1EA
100
AcDbEntity
  8
0
  6
Continuous
 62
     3
100
AcDbLine
 10
99.68219
 20
77.384851
 30
0.0
 11
99.69635
 21
77.302975
 31
0.0
  0
LINE
  5
203
330
1EA
100
AcDbEntity
  8
0
  6
Continuous
 62
     3
100
AcDbLine
 10
99.69635
 20
77.302975
 30
0.0
 11
99.709532
 21
77.220755
 31
0.0
  0
LINE
  5
204
330
1EA
100
AcDbEntity
  8
0
  6
Continuous
 62
     3
100
AcDbLine
 10
99.709532
 20
77.220755
 30
0.0
 11
99.721896
 21
77.138249
 31
0.0
  0
LINE
  5
205
330
1EA
100
AcDbEntity
  8
0
  6
Continuous
 62
     3
100
AcDbLine
 10
99.721896
 20
77.138249
 30
0.0
 11
99.733606
 21
77.055511
 31
0.0
  0
LINE
  5
206
330
1EA
100
AcDbEntity
  8
0
  6
Continuous
 62
     3
100
AcDbLine
 10
99.733606
 20
77.055511
 30
0.0
 11
99.744828
 21
76.972601
 31
0.0
  0
LINE
  5
207
330
1EA
100
AcDbEntity
  8
0
  6
Continuous
 62
     3
100
AcDbLine
 10
99.744828
 20
76.972601
 30
0.0
 11
99.766452
 21
76.806491
 31
0.0
  0
ENDBLK
  5
1EC
330
1EA
100
AcDbEntity
  8
0
100
AcDbBlockEnd
  0
BLOCK
  5
211
330
210
100
AcDbEntity
  8
0
100
AcDbBlockBegin
  2
BLK7
 70
     0
 10
0.0
 20
0.0
 30
0.0
  3
BLK7
  1

  0
LINE
  5
213
330
210
100
AcDbEntity
  8
0
  6
Continuous
 62
     3
100
AcDbLine
 10
99.766452
 20
90.560689
 30
0.0
 11
99.765854
 21
90.528293
 31
0.0
  0
LINE
  5
214
330
210
100
AcDbEntity
  8
0
  6
Continuous
 62
     3
100
AcDbLine
 10
99.765854
 20
90.528293
 30
0.0
 11
99.765394
 21
90.512131
 31
0.0
  0
LINE
  5
215
330
210
100
AcDbEntity
  8
0
  6
Continuous
 62
     3
100
AcDbLine
 10
99.765394
 20
90.512131
 30
0.0
 11
99.764746
 21
90.496015
 31
0.0
  0
LINE
  5
216
330
210
100
AcDbEntity
  8
0
  6
Continuous
 62
     3
100
AcDbLine
 10
99.764746
 20
90.496015
 30
0.0
 11
99.76372
 21
90.477859
 31
0.0
  0
LINE
  5
217
330
210
100
AcDbEntity
  8
0
  6
Continuous
 62
     3
100
AcDbLine
 10
99.76372
 20
90.477859
 30
0.0
 11
99.762374
 21
90.459779
 31
0.0
  0
LINE
  5
218
330
210
100
AcDbEntity
  8
0
  6
Continuous
 62
     3
100
AcDbLine
 10
99.762374
 20
90.459779
 30
0.0
 11
99.760714
 21
90.441773
 31
0.0
  0
LINE
  5
219
330
210
100
AcDbEntity
  8
0
  6
Continuous
 62
     3
100
AcDbLine
 10
99.760714
 20
90.441773
 30
0.0
 11
99.758746
 21
90.423841
 31
0.0
  0
LINE
  5
21A
330
210
100
AcDbEntity
  8
0
  6
Continuous
 62
     3
100
AcDbLine
 10
99.758746
 20
90.423841
 30
0.0
 11
99.756472
 21
90.405981
 31
0.0
  0
LINE
  5
21B
330
210
100
AcDbEntity
  8
0
  6
Continuous
 62
     3
100
AcDbLine
 10
99.756472
 20
90.405981
 30
0.0
 11
99.7539
 21
90.388193
 31
0.0
  0
LINE
  5
21C
330
210
100
AcDbEntity
  8
0
  6
Continuous
 62
     3
100
AcDbLine
 10
99.7539
 20
90.388193
 30
0.0
 11
99.751034
 21
90.370473
 31
0.0
  0
LINE
  5
21D
330
210
100
AcDbEntity
  8
0
  6
Continuous
 62
     3
100
AcDbLine
 10
99.751034
 20
90.370473
 30
0.0
 11
99.747878
 21
90.352823
 31
0.0
  0
LINE
  5
21E
330
210
100
AcDbEntity
  8
0
  6
Continuous
 62
     3
100
AcDbLine
 10
99.747878
 20
90.352823
 30
0.0
 11
99.74444
 21
90.335239
 31
0.0
  0
LINE
  5
21F
330
210
100
AcDbEntity
  8
0
  6
Continuous
 62
     3
100
AcDbLine
 10
99.74444
 20
90.335239
 30
0.0
 11
99.740722
 21
90.317723
 31
0.0
  0
LINE
  5
220
330
210
100
AcDbEntity
  8
0
  6
Continuous
 62
     3
100
AcDbLine
 10
99.740722
 20
90.317723
 30
0.0
 11
99.73673
 21
90.300269
 31
0.0
  0
LINE
  5
221
330
210
100
AcDbEntity
  8
0
  6
Continuous
 62
     3
100
AcDbLine
 10
99.73673
 20
90.300269
 30
0.0
 11
99.73247
 21
90.282881
 31
0.0
  0
LINE
  5
222
330
210
100
AcDbEntity
  8
0
  6
Continuous
 62
     3
100
AcDbLine
 10
99.73247
 20
90.282881
 30
0.0
 11
99.727946
 21
90.265555
 31
0.0
  0
LINE
  5
223
330
210
100
AcDbEntity
  8
0
  6
Continuous
 62
     3
100
AcDbLine
 10
99.727946
 20
90.265555
 30
0.0
 11
99.723164
 21
90.248291
 31
0.0
  0
LINE
  5
224
330
210
100
AcDbEntity
  8
0
  6
Continuous
 62
     3
100
AcDbLine
 10
99.723164
 20
90.248291
 30
0.0
 11
99.718128
 21
90.231087
 31
0.0
  0
LINE
  5
225
330
210
100
AcDbEntity
  8
0
  6
Continuous
 62
     3
100
AcDbLine
 10
99.718128
 20
90.231087
 30
0.0
 11
99.712842
 21
90.213941
 31
0.0
  0
LINE
  5
226
330
210
100
AcDbEntity
  8
0
  6
Continuous
 62
     3
100
AcDbLine
 10
99.712842
 20
90.213941
 30
0.0
 11
99.707316
 21
90.196855
 31
0.0
  0
LINE
  5
227
330
210
100
AcDbEntity
  8
0
  6
Continuous
 62
     3
100
AcDbLine
 10
99.707316
 20
90.196855
 30
0.0
 11
99.70155
 21
90.179823
 31
0.0
  0
LINE
  5
228
330
210
100
AcDbEntity
  8
0
  6
Continuous
 62
     3
100
AcDbLine
 10
99.70155
 20
90.179823
 30
0.0
 11
99.69555
 21
90.162847
 31
0.0
  0
LINE
  5
229
330
210
100
AcDbEntity
  8
0
  6
Continuous
 62
     3
100
AcDbLine
 10
99.69555
 20
90.162847
 30
0.0
 11
99.689324
 21
90.145925
 31
0.0
  0
LINE
  5
22A
330
210
100
AcDbEntity
  8
0
  6
Continuous
 62
     3
100
AcDbLine
 10
99.689324
 20
90.145925
 30
0.0
 11
99.682874
 21
90.129057
 31
0.0
  0
LINE
  5
22B
330
210
100
AcDbEntity
  8
0
  6
Continuous
 62
     3
100
AcDbLine
 10
99.682874
 20
90.129057
 30
0.0
 11
99.676206
 21
90.112241
 31
0.0
  0
LINE
  5
22C
330
210
100
AcDbEntity
  8
0
  6
Continuous
 62
     3
100
AcDbLine
 10
99.676206
 20
90.112241
 30
0.0
 11
99.669324
 21
90.095475
 31
0.0
  0
LINE
  5
22D
330
210
100
AcDbEntity
  8
0
  6
Continuous
 62
     3
100
AcDbLine
 10
99.669324
 20
90.095475
 30
0.0
 11
99.662236
 21
90.078757
 31
0.0
  0
LINE
  5
22E
330
210
100
AcDbEntity
  8
0
  6
Continuous
 62
     3
100
AcDbLine
 10
99.662236
 20
90.078757
 30
0.0
 11
99.654944
 21
90.062089
 31
0.0
  0
LINE
  5
22F
330
210
100
AcDbEntity
  8
0
  6
Continuous
 62
     3
100
AcDbLine
 10
99.654944
 20
90.062089
 30
0.0
 11
99.647454
 21
90.045467
 31
0.0
  0
LINE
  5
230
330
210
100
AcDbEntity
  8
0
  6
Continuous
 62
     3
100
AcDbLine
 10
99.647454
 20
90.045467
 30
0.0
 11
99.639772
 21
90.028889
 31
0.0
  0
LINE
  5
231
330
210
100
AcDbEntity
  8
0
  6
Continuous
 62
     3
100
AcDbLine
 10
99.639772
 20
90.028889
 30
0.0
 11
99.631902
 21
90.012359
 31
0.0
  0
LINE
  5
232
330
210
100
AcDbEntity
  8
0
  6
Continuous
 62
     3
100
AcDbLine
 10
99.631902
 20
90.012359
 30
0.0
 11
99.62385
 21
89.995869
 31
0.0
  0
LINE
  5
233
330
210
100
AcDbEntity
  8
0
  6
Continuous
 62
     3
100
AcDbLine
 10
99.62385
 20
89.995869
 30
0.0
 11
99.615622
 21
89.979423
 31
0.0
  0
LINE
  5
234
330
210
100
AcDbEntity
  8
0
  6
Continuous
 62
     3
100
AcDbLine
 10
99.615622
 20
89.979423
 30
0.0
 11
99.60722
 21
89.963017
 31
0.0
  0
LINE
  5
235
330
210
100
AcDbEntity
  8
0
  6
Continuous
 62
     3
100
AcDbLine
 10
99.60722
 20
89.963017
 30
0.0
 11
99.59865
 21
89.946653
 31
0.0
  0
LINE
  5
236
330
210
100
AcDbEntity
  8
0
  6
Continuous
 62
     3
100
AcDbLine
 10
99.59865
 20
89.946653
 30
0.0
 11
99.58992
 21
89.930325
 31
0.0
  0
LINE
  5
237
330
210
100
AcDbEntity
  8
0
  6
Continuous
 62
     3
100
AcDbLine
 10
99.58992
 20
89.930325
 30
0.0
 11
99.581032
 21
89.914035
 31
0.0
  0
LINE
  5
238
330
210
100
AcDbEntity
  8
0
  6
Continuous
 62
     3
100
AcDbLine
 10
99.581032
 20
89.914035
 30
0.0
 11
99.57199
 21
89.897781
 31
0.0
  0
LINE
  5
239
330
210
100
AcDbEntity
  8
0
  6
Continuous
 62
     3
100
AcDbLine
 10
99.57199
 20
89.897781
 30
0.0
 11
99.562804
 21
89.881563
 31
0.0
  0
LINE
  5
23A
330
210
100
AcDbEntity
  8
0
  6
Continuous
 62
     3
100
AcDbLine
 10
99.562804
 20
89.881563
 30
0.0
 11
99.544008
 21
89.849225
 31
0.0
  0
LINE
  5
23B
330
210
100
AcDbEntity
  8
0
  6
Continuous
 62
     3
100
AcDbLine
 10
99.544008
 20
89.849225
 30
0.0
 11
99.524684
 21
89.817011
 31
0.0
  0
LINE
  5
23C
330
210
100
AcDbEntity
  8
0
  6
Continuous
 62
     3
100
AcDbLine
 10
99.524684
 20
89.817011
 30
0.0
 11
99.504876
 21
89.784915
 31
0.0
  0
LINE
  5
23D
330
210
100
AcDbEntity
  8
0
  6
Continuous
 62
     3
100
AcDbLine
 10
99.504876
 20
89.784915
 30
0.0
 11
99.48462
 21
89.752923
 31
0.0
  0
LINE
  5
23E
330
210
100
AcDbEntity
  8
0
  6
Continuous
 62
     3
100
AcDbLine
 10
99.48462
 20
89.752923
 30
0.0
 11
99.463958
 21
89.721027
 31
0.0
  0
LINE
  5
23F
330
210
100
AcDbEntity
  8
0
  6
Continuous
 62
     3
100
AcDbLine
 10
99.463958
 20
89.721027
 30
0.0
 11
99.442932
 21
89.689219
 31
0.0
  0
LINE
  5
240
330
210
100
AcDbEntity
  8
0
  6
Continuous
 62
     3
100
AcDbLine
 10
99.442932
 20
89.689219
 30
0.0
 11
99.421582
 21
89.657487
 31
0.0
  0
LINE
  5
241
330
210
100
AcDbEntity
  8
0
  6
Continuous
 62
     3
100
AcDbLine
 10
99.421582
 20
89.657487
 30
0.0
 11
99.399948
 21
89.625823
 31
0.0
  0
LINE
  5
242
330
210
100
AcDbEntity
  8
0
  6
Continuous
 62
     3
100
AcDbLine
 10
99.399948
 20
89.625823
 30
0.0
 11
99.37807
 21
89.594217
 31
0.0
  0
LINE
  5
243
330
210
100
AcDbEntity
  8
0
  6
Continuous
 62
     3
100
AcDbLine
 10
99.37807
 20
89.594217
 30
0.0
 11
99.35599
 21
89.562657
 31
0.0
  0
LINE
  5
244
330
210
100
AcDbEntity
  8
0
  6
Continuous
 62
     3
100
AcDbLine
 10
99.35599
 20
89.562657
 30
0.0
 11
99.333748
 21
89.531137
 31
0.0
  0
LINE
  5
245
330
210
100
AcDbEntity
  8
0
  6
Continuous
 62
     3
100
AcDbLine
 10
99.333748
 20
89.531137
 30
0.0
 11
99.311382
 21
89.499647
 31
0.0
  0
LINE
  5
246
330
210
100
AcDbEntity
  8
0
  6
Continuous
 62
     3
100
AcDbLine
 10
99.311382
 20
89.499647
 30
0.0
 11
99.266452
 21
89.436713
 31
0.0
  0
ENDBLK
  5
212
330
210
100
AcDbEntity
  8
0
100
AcDbBlockEnd
  0
BLOCK
  5
24B
330
24A
100
AcDbEntity
  8
0
100
AcDbBlockBegin
  2
BLK8
 70
     0
 10
0.0
 20
0.0
 30
0.0
  3
BLK8
  1

  0
LINE
  5
24D
330
24A
100
AcDbEntity
  8
0
  6
Continuous
 62
     3
100
AcDbLine
 10
93.966452
 20
89.436713
 30
0.0
 11
93.940294
 21
89.467751
 31
0.0
  0
LINE
  5
24E
330
24A
100
AcDbEntity
  8
0
  6
Continuous
 62
     3
100
AcDbLine
 10
93.940294
 20
89.467751
 30
0.0
 11
93.914308
 21
89.498923
 31
0.0
  0
LINE
  5
24F
330
24A
100
AcDbEntity
  8
0
  6
Continuous
 62
     3
100
AcDbLine
 10
93.914308
 20
89.498923
 30
0.0
 11
93.888664
 21
89.530357
 31
0.0
  0
LINE
  5
250
330
24A
100
AcDbEntity
  8
0
  6
Continuous
 62
     3
100
AcDbLine
 10
93.888664
 20
89.530357
 30
0.0
 11
93.863528
 21
89.562187
 31
0.0
  0
LINE
  5
251
330
24A
100
AcDbEntity
  8
0
  6
Continuous
 62
     3
100
AcDbLine
 10
93.863528
 20
89.562187
 30
0.0
 11
93.838646
 21
89.595003
 31
0.0
  0
LINE
  5
252
330
24A
100
AcDbEntity
  8
0
  6
Continuous
 62
     3
100
AcDbLine
 10
93.838646
 20
89.595003
 30
0.0
 11
93.81429
 21
89.628227
 31
0.0
  0
LINE
  5
253
330
24A
100
AcDbEntity
  8
0
  6
Continuous
 62
     3
100
AcDbLine
 10
93.81429
 20
89.628227
 30
0.0
 11
93.790284
 21
89.661721
 31
0.0
  0
LINE
  5
254
330
24A
100
AcDbEntity
  8
0
  6
Continuous
 62
     3
100
AcDbLine
 10
93.790284
 20
89.661721
 30
0.0
 11
93.766456
 21
89.695353
 31
0.0
  0
ENDBLK
  5
24C
330
24A
100
AcDbEntity
  8
0
100
AcDbBlockEnd
  0
BLOCK
  5
259
330
258
100
AcDbEntity
  8
0
100
AcDbBlockBegin
  2
BLK9
 70
     0
 10
0.0
 20
0.0
 30
0.0
  3
BLK9
  1

  0
LINE
  5
25B
330
258
100
AcDbEntity
  8
0
  6
Continuous
 62
     3
100
AcDbLine
 10
99.766452
 20
76.806491
 30
0.0
 11
99.765688
 21
76.763039
 31
0.0
  0
LINE
  5
25C
330
258
100
AcDbEntity
  8
0
  6
Continuous
 62
     3
100
AcDbLine
 10
99.765688
 20
76.763039
 30
0.0
 11
99.764708
 21
76.719623
 31
0.0
  0
LINE
  5
25D
330
258
100
AcDbEntity
  8
0
  6
Continuous
 62
     3
100
AcDbLine
 10
99.764708
 20
76.719623
 30
0.0
 11
99.7633
 21
76.676281
 31
0.0
  0
LINE
  5
25E
330
258
100
AcDbEntity
  8
0
  6
Continuous
 62
     3
100
AcDbLine
 10
99.7633
 20
76.676281
 30
0.0
 11
99.761252
 21
76.633047
 31
0.0
  0
LINE
  5
25F
330
258
100
AcDbEntity
  8
0
  6
Continuous
 62
     3
100
AcDbLine
 10
99.761252
 20
76.633047
 30
0.0
 11
99.759672
 21
76.607721
 31
0.0
  0
LINE
  5
260
330
258
100
AcDbEntity
  8
0
  6
Continuous
 62
     3
100
AcDbLine
 10
99.759672
 20
76.607721
 30
0.0
 11
99.7578
 21
76.582443
 31
0.0
  0
LINE
  5
261
330
258
100
AcDbEntity
  8
0
  6
Continuous
 62
     3
100
AcDbLine
 10
99.7578
 20
76.582443
 30
0.0
 11
99.755644
 21
76.557215
 31
0.0
  0
LINE
  5
262
330
258
100
AcDbEntity
  8
0
  6
Continuous
 62
     3
100
AcDbLine
 10
99.755644
 20
76.557215
 30
0.0
 11
99.753204
 21
76.532035
 31
0.0
  0
LINE
  5
263
330
258
100
AcDbEntity
  8
0
  6
Continuous
 62
     3
100
AcDbLine
 10
99.753204
 20
76.532035
 30
0.0
 11
99.75049
 21
76.506903
 31
0.0
  0
LINE
  5
264
330
258
100
AcDbEntity
  8
0
  6
Continuous
 62
     3
100
AcDbLine
 10
99.75049
 20
76.506903
 30
0.0
 11
99.747502
 21
76.481817
 31
0.0
  0
LINE
  5
265
330
258
100
AcDbEntity
  8
0
  6
Continuous
 62
     3
100
AcDbLine
 10
99.747502
 20
76.481817
 30
0.0
 11
99.74073
 21
76.431781
 31
0.0
  0
LINE
  5
266
330
258
100
AcDbEntity
  8
0
  6
Continuous
 62
     3
100
AcDbLine
 10
99.74073
 20
76.431781
 30
0.0
 11
99.732924
 21
76.381921
 31
0.0
  0
LINE
  5
267
330
258
100
AcDbEntity
  8
0
  6
Continuous
 62
     3
100
AcDbLine
 10
99.732924
 20
76.381921
 30
0.0
 11
99.724122
 21
76.332231
 31
0.0
  0
LINE
  5
268
330
258
100
AcDbEntity
  8
0
  6
Continuous
 62
     3
100
AcDbLine
 10
99.724122
 20
76.332231
 30
0.0
 11
99.71436
 21
76.282705
 31
0.0
  0
LINE
  5
269
330
258
100
AcDbEntity
  8
0
  6
Continuous
 62
     3
100
AcDbLine
 10
99.71436
 20
76.282705
 30
0.0
 11
99.703676
 21
76.233337
 31
0.0
  0
LINE
  5
26A
330
258
100
AcDbEntity
  8
0
  6
Continuous
 62
     3
100
AcDbLine
 10
99.703676
 20
76.233337
 30
0.0
 11
99.692106
 21
76.184119
 31
0.0
  0
LINE
  5
26B
330
258
100
AcDbEntity
  8
0
  6
Continuous
 62
     3
100
AcDbLine
 10
99.692106
 20
76.184119
 30
0.0
 11
99.679688
 21
76.135047
 31
0.0
  0
LINE
  5
26C
330
258
100
AcDbEntity
  8
0
  6
Continuous
 62
     3
100
AcDbLine
 10
99.679688
 20
76.135047
 30
0.0
 11
99.666458
 21
76.086113
 31
0.0
  0
LINE
  5
26D
330
258
100
AcDbEntity
  8
0
  6
Continuous
 62
     3
100
AcDbLine
 10
99.666458
 20
76.086113
 30
0.0
 11
99.652452
 21
76.037313
 31
0.0
  0
LINE
  5
26E
330
258
100
AcDbEntity
  8
0
  6
Continuous
 62
     3
100
AcDbLine
 10
99.652452
 20
76.037313
 30
0.0
 11
99.63771
 21
75.988637
 31
0.0
  0
LINE
  5
26F
330
258
100
AcDbEntity
  8
0
  6
Continuous
 62
     3
100
AcDbLine
 10
99.63771
 20
75.988637
 30
0.0
 11
99.622266
 21
75.940083
 31
0.0
  0
LINE
  5
270
330
258
100
AcDbEntity
  8
0
  6
Continuous
 62
     3
100
AcDbLine
 10
99.622266
 20
75.940083
 30
0.0
 11
99.606158
 21
75.891641
 31
0.0
  0
LINE
  5
271
330
258
100
AcDbEntity
  8
0
  6
Continuous
 62
     3
100
AcDbLine
 10
99.606158
 20
75.891641
 30
0.0
 11
99.589422
 21
75.843305
 31
0.0
  0
LINE
  5
272
330
258
100
AcDbEntity
  8
0
  6
Continuous
 62
     3
100
AcDbLine
 10
99.589422
 20
75.843305
 30
0.0
 11
99.572096
 21
75.795071
 31
0.0
  0
LINE
  5
273
330
258
100
AcDbEntity
  8
0
  6
Continuous
 62
     3
100
AcDbLine
 10
99.572096
 20
75.795071
 30
0.0
 11
99.554216
 21
75.746931
 31
0.0
  0
LINE
  5
274
330
258
100
AcDbEntity
  8
0
  6
Continuous
 62
     3
100
AcDbLine
 10
99.554216
 20
75.746931
 30
0.0
 11
99.53582
 21
75.698881
 31
0.0
  0
LINE
  5
275
330
258
100
AcDbEntity
  8
0
  6
Continuous
 62
     3
100
AcDbLine
 10
99.53582
 20
75.698881
 30
0.0
 11
99.516944
 21
75.650911
 31
0.0
  0
LINE
  5
276
330
258
100
AcDbEntity
  8
0
  6
Continuous
 62
     3
100
AcDbLine
 10
99.516944
 20
75.650911
 30
0.0
 11
99.497626
 21
75.603017
 31
0.0
  0
LINE
  5
277
330
258
100
AcDbEntity
  8
0
  6
Continuous
 62
     3
100
AcDbLine
 10
99.497626
 20
75.603017
 30
0.0
 11
99.477902
 21
75.555193
 31
0.0
  0
LINE
  5
278
330
258
100
AcDbEntity
  8
0
  6
Continuous
 62
     3
100
AcDbLine
 10
99.477902
 20
75.555193
 30
0.0
 11
99.457808
 21
75.507431
 31
0.0
  0
LINE
  5
279
330
258
100
AcDbEntity
  8
0
  6
Continuous
 62
     3
100
AcDbLine
 10
99.457808
 20
75.507431
 30
0.0
 11
99.437382
 21
75.459727
 31
0.0
  0
LINE
  5
27A
330
258
100
AcDbEntity
  8
0
  6
Continuous
 62
     3
100
AcDbLine
 10
99.437382
 20
75.459727
 30
0.0
 11
99.416662
 21
75.412073
 31
0.0
  0
LINE
  5
27B
330
258
100
AcDbEntity
  8
0
  6
Continuous
 62
     3
100
AcDbLine
 10
99.416662
 20
75.412073
 30
0.0
 11
99.395684
 21
75.364463
 31
0.0
  0
LINE
  5
27C
330
258
100
AcDbEntity
  8
0
  6
Continuous
 62
     3
100
AcDbLine
 10
99.395684
 20
75.364463
 30
0.0
 11
99.374482
 21
75.316889
 31
0.0
  0
LINE
  5
27D
330
258
100
AcDbEntity
  8
0
  6
Continuous
 62
     3
100
AcDbLine
 10
99.374482
 20
75.316889
 30
0.0
 11
99.353098
 21
75.269349
 31
0.0
  0
LINE
  5
27E
330
258
100
AcDbEntity
  8
0
  6
Continuous
 62
     3
100
AcDbLine
 10
99.353098
 20
75.269349
 30
0.0
 11
99.309922
 21
75.174337
 31
0.0
  0
LINE
  5
27F
330
258
100
AcDbEntity
  8
0
  6
Continuous
 62
     3
100
AcDbLine
 10
99.309922
 20
75.174337
 30
0.0
 11
99.266452
 21
75.079375
 31
0.0
  0
ENDBLK
  5
25A
330
258
100
AcDbEntity
  8
0
100
AcDbBlockEnd
  0
BLOCK
  5
283
330
282
100
AcDbEntity
  8
0
100
AcDbBlockBegin
  2
BLK10
 70
     0
 10
0.0
 20
0.0
 30
0.0
  3
BLK10
  1

  0
LINE
  5
285
330
282
100
AcDbEntity
  8
0
  6
Continuous
 62
     3
100
AcDbLine
 10
93.966452
 20
75.079375
 30
0.0
 11
93.92722
 21
75.151967
 31
0.0
  0
LINE
  5
286
330
282
100
AcDbEntity
  8
0
  6
Continuous
 62
     3
100
AcDbLine
 10
93.92722
 20
75.151967
 30
0.0
 11
93.90776
 21
75.188339
 31
0.0
  0
LINE
  5
287
330
282
100
AcDbEntity
  8
0
  6
Continuous
 62
     3
100
AcDbLine
 10
93.90776
 20
75.188339
 30
0.0
 11
93.888486
 21
75.224801
 31
0.0
  0
LINE
  5
288
330
282
100
AcDbEntity
  8
0
  6
Continuous
 62
     3
100
AcDbLine
 10
93.888486
 20
75.224801
 30
0.0
 11
93.86946
 21
75.261387
 31
0.0
  0
LINE
  5
289
330
282
100
AcDbEntity
  8
0
  6
Continuous
 62
     3
100
AcDbLine
 10
93.86946
 20
75.261387
 30
0.0
 11
93.850746
 21
75.298123
 31
0.0
  0
LINE
  5
28A
330
282
100
AcDbEntity
  8
0
  6
Continuous
 62
     3
100
AcDbLine
 10
93.850746
 20
75.298123
 30
0.0
 11
93.832404
 21
75.335041
 31
0.0
  0
LINE
  5
28B
330
282
100
AcDbEntity
  8
0
  6
Continuous
 62
     3
100
AcDbLine
 10
93.832404
 20
75.335041
 30
0.0
 11
93.814496
 21
75.372173
 31
0.0
  0
LINE
  5
28C
330
282
100
AcDbEntity
  8
0
  6
Continuous
 62
     3
100
AcDbLine
 10
93.814496
 20
75.372173
 30
0.0
 11
93.802274
 21
75.398227
 31
0.0
  0
LINE
  5
28D
330
282
100
AcDbEntity
  8
0
  6
Continuous
 62
     3
100
AcDbLine
 10
93.802274
 20
75.398227
 30
0.0
 11
93.790234
 21
75.424371
 31
0.0
  0
LINE
  5
28E
330
282
100
AcDbEntity
  8
0
  6
Continuous
 62
     3
100
AcDbLine
 10
93.790234
 20
75.424371
 30
0.0
 11
93.766456
 21
75.476805
 31
0.0
  0
ENDBLK
  5
284
330
282
100
AcDbEntity
  8
0
100
AcDbBlockEnd
  0
BLOCK
  5
2A0
330
29F
100
AcDbEntity
  8
0
100
AcDbBlockBegin
  2
BLK11
 70
     0
 10
0.0
 20
0.0
 30
0.0
  3
BLK11
  1

  0
LINE
  5
2A2
330
29F
100
AcDbEntity
  8
0
  6
Continuous
 62
     3
100
AcDbLine
 10
93.766456
 20
87.284525
 30
0.0
 11
93.765898
 21
87.213445
 31
0.0
  0
LINE
  5
2A3
330
29F
100
AcDbEntity
  8
0
  6
Continuous
 62
     3
100
AcDbLine
 10
93.765898
 20
87.213445
 30
0.0
 11
93.765434
 21
87.177927
 31
0.0
  0
LINE
  5
2A4
330
29F
100
AcDbEntity
  8
0
  6
Continuous
 62
     3
100
AcDbLine
 10
93.765434
 20
87.177927
 30
0.0
 11
93.76475
 21
87.142433
 31
0.0
  0
LINE
  5
2A5
330
29F
100
AcDbEntity
  8
0
  6
Continuous
 62
     3
100
AcDbLine
 10
93.76475
 20
87.142433
 30
0.0
 11
93.763728
 21
87.105311
 31
0.0
  0
LINE
  5
2A6
330
29F
100
AcDbEntity
  8
0
  6
Continuous
 62
     3
100
AcDbLine
 10
93.763728
 20
87.105311
 30
0.0
 11
93.762386
 21
87.068225
 31
0.0
  0
LINE
  5
2A7
330
29F
100
AcDbEntity
  8
0
  6
Continuous
 62
     3
100
AcDbLine
 10
93.762386
 20
87.068225
 30
0.0
 11
93.76073
 21
87.031175
 31
0.0
  0
LINE
  5
2A8
330
29F
100
AcDbEntity
  8
0
  6
Continuous
 62
     3
100
AcDbLine
 10
93.76073
 20
87.031175
 30
0.0
 11
93.758766
 21
86.994159
 31
0.0
  0
LINE
  5
2A9
330
29F
100
AcDbEntity
  8
0
  6
Continuous
 62
     3
100
AcDbLine
 10
93.758766
 20
86.994159
 30
0.0
 11
93.756496
 21
86.957177
 31
0.0
  0
LINE
  5
2AA
330
29F
100
AcDbEntity
  8
0
  6
Continuous
 62
     3
100
AcDbLine
 10
93.756496
 20
86.957177
 30
0.0
 11
93.753928
 21
86.920229
 31
0.0
  0
LINE
  5
2AB
330
29F
100
AcDbEntity
  8
0
  6
Continuous
 62
     3
100
AcDbLine
 10
93.753928
 20
86.920229
 30
0.0
 11
93.751064
 21
86.883313
 31
0.0
  0
LINE
  5
2AC
330
29F
100
AcDbEntity
  8
0
  6
Continuous
 62
     3
100
AcDbLine
 10
93.751064
 20
86.883313
 30
0.0
 11
93.747912
 21
86.846431
 31
0.0
  0
LINE
  5
2AD
330
29F
100
AcDbEntity
  8
0
  6
Continuous
 62
     3
100
AcDbLine
 10
93.747912
 20
86.846431
 30
0.0
 11
93.744476
 21
86.809579
 31
0.0
  0
LINE
  5
2AE
330
29F
100
AcDbEntity
  8
0
  6
Continuous
 62
     3
100
AcDbLine
 10
93.744476
 20
86.809579
 30
0.0
 11
93.740762
 21
86.772759
 31
0.0
  0
LINE
  5
2AF
330
29F
100
AcDbEntity
  8
0
  6
Continuous
 62
     3
100
AcDbLine
 10
93.740762
 20
86.772759
 30
0.0
 11
93.736772
 21
86.735969
 31
0.0
  0
LINE
  5
2B0
330
29F
100
AcDbEntity
  8
0
  6
Continuous
 62
     3
100
AcDbLine
 10
93.736772
 20
86.735969
 30
0.0
 11
93.732514
 21
86.699211
 31
0.0
  0
LINE
  5
2B1
330
29F
100
AcDbEntity
  8
0
  6
Continuous
 62
     3
100
AcDbLine
 10
93.732514
 20
86.699211
 30
0.0
 11
93.727994
 21
86.662481
 31
0.0
  0
LINE
  5
2B2
330
29F
100
AcDbEntity
  8
0
  6
Continuous
 62
     3
100
AcDbLine
 10
93.727994
 20
86.662481
 30
0.0
 11
93.723214
 21
86.625781
 31
0.0
  0
LINE
  5
2B3
330
29F
100
AcDbEntity
  8
0
  6
Continuous
 62
     3
100
AcDbLine
 10
93.723214
 20
86.625781
 30
0.0
 11
93.71818
 21
86.589107
 31
0.0
  0
LINE
  5
2B4
330
29F
100
AcDbEntity
  8
0
  6
Continuous
 62
     3
100
AcDbLine
 10
93.71818
 20
86.589107
 30
0.0
 11
93.712896
 21
86.552463
 31
0.0
  0
LINE
  5
2B5
330
29F
100
AcDbEntity
  8
0
  6
Continuous
 62
     3
100
AcDbLine
 10
93.712896
 20
86.552463
 30
0.0
 11
93.70737
 21
86.515845
 31
0.0
  0
LINE
  5
2B6
330
29F
100
AcDbEntity
  8
0
  6
Continuous
 62
     3
100
AcDbLine
 10
93.70737
 20
86.515845
 30
0.0
 11
93.701606
 21
86.479255
 31
0.0
  0
LINE
  5
2B7
330
29F
100
AcDbEntity
  8
0
  6
Continuous
 62
     3
100
AcDbLine
 10
93.701606
 20
86.479255
 30
0.0
 11
93.695608
 21
86.442691
 31
0.0
  0
LINE
  5
2B8
330
29F
100
AcDbEntity
  8
0
  6
Continuous
 62
     3
100
AcDbLine
 10
93.695608
 20
86.442691
 30
0.0
 11
93.689382
 21
86.406151
 31
0.0
  0
LINE
  5
2B9
330
29F
100
AcDbEntity
  8
0
  6
Continuous
 62
     3
100
AcDbLine
 10
93.689382
 20
86.406151
 30
0.0
 11
93.682934
 21
86.369637
 31
0.0
  0
LINE
  5
2BA
330
29F
100
AcDbEntity
  8
0
  6
Continuous
 62
     3
100
AcDbLine
 10
93.682934
 20
86.369637
 30
0.0
 11
93.676266
 21
86.333149
 31
0.0
  0
LINE
  5
2BB
330
29F
100
AcDbEntity
  8
0
  6
Continuous
 62
     3
100
AcDbLine
 10
93.676266
 20
86.333149
 30
0.0
 11
93.669386
 21
86.296683
 31
0.0
  0
LINE
  5
2BC
330
29F
100
AcDbEntity
  8
0
  6
Continuous
 62
     3
100
AcDbLine
 10
93.669386
 20
86.296683
 30
0.0
 11
93.662298
 21
86.260241
 31
0.0
  0
LINE
  5
2BD
330
29F
100
AcDbEntity
  8
0
  6
Continuous
 62
     3
100
AcDbLine
 10
93.662298
 20
86.260241
 30
0.0
 11
93.655006
 21
86.223821
 31
0.0
  0
LINE
  5
2BE
330
29F
100
AcDbEntity
  8
0
  6
Continuous
 62
     3
100
AcDbLine
 10
93.655006
 20
86.223821
 30
0.0
 11
93.647516
 21
86.187423
 31
0.0
  0
LINE
  5
2BF
330
29F
100
AcDbEntity
  8
0
  6
Continuous
 62
     3
100
AcDbLine
 10
93.647516
 20
86.187423
 30
0.0
 11
93.639834
 21
86.151047
 31
0.0
  0
LINE
  5
2C0
330
29F
100
AcDbEntity
  8
0
  6
Continuous
 62
     3
100
AcDbLine
 10
93.639834
 20
86.151047
 30
0.0
 11
93.631966
 21
86.114693
 31
0.0
  0
LINE
  5
2C1
330
29F
100
AcDbEntity
  8
0
  6
Continuous
 62
     3
100
AcDbLine
 10
93.631966
 20
86.114693
 30
0.0
 11
93.623914
 21
86.078357
 31
0.0
  0
LINE
  5
2C2
330
29F
100
AcDbEntity
  8
0
  6
Continuous
 62
     3
100
AcDbLine
 10
93.623914
 20
86.078357
 30
0.0
 11
93.615684
 21
86.042043
 31
0.0
  0
LINE
  5
2C3
330
29F
100
AcDbEntity
  8
0
  6
Continuous
 62
     3
100
AcDbLine
 10
93.615684
 20
86.042043
 30
0.0
 11
93.607282
 21
86.005747
 31
0.0
  0
LINE
  5
2C4
330
29F
100
AcDbEntity
  8
0
  6
Continuous
 62
     3
100
AcDbLine
 10
93.607282
 20
86.005747
 30
0.0
 11
93.598712
 21
85.969471
 31
0.0
  0
LINE
  5
2C5
330
29F
100
AcDbEntity
  8
0
  6
Continuous
 62
     3
100
AcDbLine
 10
93.598712
 20
85.969471
 30
0.0
 11
93.58998
 21
85.933213
 31
0.0
  0
LINE
  5
2C6
330
29F
100
AcDbEntity
  8
0
  6
Continuous
 62
     3
100
AcDbLine
 10
93.58998
 20
85.933213
 30
0.0
 11
93.58109
 21
85.896971
 31
0.0
  0
LINE
  5
2C7
330
29F
100
AcDbEntity
  8
0
  6
Continuous
 62
     3
100
AcDbLine
 10
93.58109
 20
85.896971
 30
0.0
 11
93.56286
 21
85.824541
 31
0.0
  0
LINE
  5
2C8
330
29F
100
AcDbEntity
  8
0
  6
Continuous
 62
     3
100
AcDbLine
 10
93.56286
 20
85.824541
 30
0.0
 11
93.544062
 21
85.752173
 31
0.0
  0
LINE
  5
2C9
330
29F
100
AcDbEntity
  8
0
  6
Continuous
 62
     3
100
AcDbLine
 10
93.544062
 20
85.752173
 30
0.0
 11
93.524738
 21
85.679865
 31
0.0
  0
LINE
  5
2CA
330
29F
100
AcDbEntity
  8
0
  6
Continuous
 62
     3
100
AcDbLine
 10
93.524738
 20
85.679865
 30
0.0
 11
93.504926
 21
85.607611
 31
0.0
  0
LINE
  5
2CB
330
29F
100
AcDbEntity
  8
0
  6
Continuous
 62
     3
100
AcDbLine
 10
93.504926
 20
85.607611
 30
0.0
 11
93.484666
 21
85.535407
 31
0.0
  0
LINE
  5
2CC
330
29F
100
AcDbEntity
  8
0
  6
Continuous
 62
     3
100
AcDbLine
 10
93.484666
 20
85.535407
 30
0.0
 11
93.464002
 21
85.463247
 31
0.0
  0
LINE
  5
2CD
330
29F
100
AcDbEntity
  8
0
  6
Continuous
 62
     3
100
AcDbLine
 10
93.464002
 20
85.463247
 30
0.0
 11
93.442972
 21
85.391129
 31
0.0
  0
LINE
  5
2CE
330
29F
100
AcDbEntity
  8
0
  6
Continuous
 62
     3
100
AcDbLine
 10
93.442972
 20
85.391129
 30
0.0
 11
93.421618
 21
85.319049
 31
0.0
  0
LINE
  5
2CF
330
29F
100
AcDbEntity
  8
0
  6
Continuous
 62
     3
100
AcDbLine
 10
93.421618
 20
85.319049
 30
0.0
 11
93.399978
 21
85.246999
 31
0.0
  0
LINE
  5
2D0
330
29F
100
AcDbEntity
  8
0
  6
Continuous
 62
     3
100
AcDbLine
 10
93.399978
 20
85.246999
 30
0.0
 11
93.378096
 21
85.174977
 31
0.0
  0
LINE
  5
2D1
330
29F
100
AcDbEntity
  8
0
  6
Continuous
 62
     3
100
AcDbLine
 10
93.378096
 20
85.174977
 30
0.0
 11
93.356012
 21
85.102977
 31
0.0
  0
LINE
  5
2D2
330
29F
100
AcDbEntity
  8
0
  6
Continuous
 62
     3
100
AcDbLine
 10
93.356012
 20
85.102977
 30
0.0
 11
93.333764
 21
85.030995
 31
0.0
  0
LINE
  5
2D3
330
29F
100
AcDbEntity
  8
0
  6
Continuous
 62
     3
100
AcDbLine
 10
93.333764
 20
85.030995
 30
0.0
 11
93.311396
 21
84.959027
 31
0.0
  0
LINE
  5
2D4
330
29F
100
AcDbEntity
  8
0
  6
Continuous
 62
     3
100
AcDbLine
 10
93.311396
 20
84.959027
 30
0.0
 11
93.266454
 21
84.815115
 31
0.0
  0
ENDBLK
  5
2A1
330
29F
100
AcDbEntity
  8
0
100
AcDbBlockEnd
  0
BLOCK
  5
2DA
330
2D9
100
AcDbEntity
  8
0
100
AcDbBlockBegin
  2
BLK12
 70
     0
 10
0.0
 20
0.0
 30
0.0
  3
BLK12
  1

  0
LINE
  5
2DC
330
2D9
100
AcDbEntity
  8
0
  6
Continuous
 62
     3
100
AcDbLine
 10
93.766456
 20
79.285145
 30
0.0
 11
93.765898
 21
79.213037
 31
0.0
  0
LINE
  5
2DD
330
2D9
100
AcDbEntity
  8
0
  6
Continuous
 62
     3
100
AcDbLine
 10
93.765898
 20
79.213037
 30
0.0
 11
93.765436
 21
79.177003
 31
0.0
  0
LINE
  5
2DE
330
2D9
100
AcDbEntity
  8
0
  6
Continuous
 62
     3
100
AcDbLine
 10
93.765436
 20
79.177003
 30
0.0
 11
93.76475
 21
79.140995
 31
0.0
  0
LINE
  5
2DF
330
2D9
100
AcDbEntity
  8
0
  6
Continuous
 62
     3
100
AcDbLine
 10
93.76475
 20
79.140995
 30
0.0
 11
93.763728
 21
79.103357
 31
0.0
  0
LINE
  5
2E0
330
2D9
100
AcDbEntity
  8
0
  6
Continuous
 62
     3
100
AcDbLine
 10
93.763728
 20
79.103357
 30
0.0
 11
93.762386
 21
79.065757
 31
0.0
  0
LINE
  5
2E1
330
2D9
100
AcDbEntity
  8
0
  6
Continuous
 62
     3
100
AcDbLine
 10
93.762386
 20
79.065757
 30
0.0
 11
93.76073
 21
79.028189
 31
0.0
  0
LINE
  5
2E2
330
2D9
100
AcDbEntity
  8
0
  6
Continuous
 62
     3
100
AcDbLine
 10
93.76073
 20
79.028189
 30
0.0
 11
93.758766
 21
78.990657
 31
0.0
  0
LINE
  5
2E3
330
2D9
100
AcDbEntity
  8
0
  6
Continuous
 62
     3
100
AcDbLine
 10
93.758766
 20
78.990657
 30
0.0
 11
93.756496
 21
78.953157
 31
0.0
  0
LINE
  5
2E4
330
2D9
100
AcDbEntity
  8
0
  6
Continuous
 62
     3
100
AcDbLine
 10
93.756496
 20
78.953157
 30
0.0
 11
93.753928
 21
78.915691
 31
0.0
  0
LINE
  5
2E5
330
2D9
100
AcDbEntity
  8
0
  6
Continuous
 62
     3
100
AcDbLine
 10
93.753928
 20
78.915691
 30
0.0
 11
93.751066
 21
78.878257
 31
0.0
  0
LINE
  5
2E6
330
2D9
100
AcDbEntity
  8
0
  6
Continuous
 62
     3
100
AcDbLine
 10
93.751066
 20
78.878257
 30
0.0
 11
93.747914
 21
78.840855
 31
0.0
  0
LINE
  5
2E7
330
2D9
100
AcDbEntity
  8
0
  6
Continuous
 62
     3
100
AcDbLine
 10
93.747914
 20
78.840855
 30
0.0
 11
93.744478
 21
78.803485
 31
0.0
  0
LINE
  5
2E8
330
2D9
100
AcDbEntity
  8
0
  6
Continuous
 62
     3
100
AcDbLine
 10
93.744478
 20
78.803485
 30
0.0
 11
93.740762
 21
78.766145
 31
0.0
  0
LINE
  5
2E9
330
2D9
100
AcDbEntity
  8
0
  6
Continuous
 62
     3
100
AcDbLine
 10
93.740762
 20
78.766145
 30
0.0
 11
93.736772
 21
78.728835
 31
0.0
  0
LINE
  5
2EA
330
2D9
100
AcDbEntity
  8
0
  6
Continuous
 62
     3
100
AcDbLine
 10
93.736772
 20
78.728835
 30
0.0
 11
93.732516
 21
78.691555
 31
0.0
  0
LINE
  5
2EB
330
2D9
100
AcDbEntity
  8
0
  6
Continuous
 62
     3
100
AcDbLine
 10
93.732516
 20
78.691555
 30
0.0
 11
93.727994
 21
78.654305
 31
0.0
  0
LINE
  5
2EC
330
2D9
100
AcDbEntity
  8
0
  6
Continuous
 62
     3
100
AcDbLine
 10
93.727994
 20
78.654305
 30
0.0
 11
93.723214
 21
78.617083
 31
0.0
  0
LINE
  5
2ED
330
2D9
100
AcDbEntity
  8
0
  6
Continuous
 62
     3
100
AcDbLine
 10
93.723214
 20
78.617083
 30
0.0
 11
93.71818
 21
78.579887
 31
0.0
  0
LINE
  5
2EE
330
2D9
100
AcDbEntity
  8
0
  6
Continuous
 62
     3
100
AcDbLine
 10
93.71818
 20
78.579887
 30
0.0
 11
93.712896
 21
78.542721
 31
0.0
  0
LINE
  5
2EF
330
2D9
100
AcDbEntity
  8
0
  6
Continuous
 62
     3
100
AcDbLine
 10
93.712896
 20
78.542721
 30
0.0
 11
93.70737
 21
78.505581
 31
0.0
  0
LINE
  5
2F0
330
2D9
100
AcDbEntity
  8
0
  6
Continuous
 62
     3
100
AcDbLine
 10
93.70737
 20
78.505581
 30
0.0
 11
93.701606
 21
78.468467
 31
0.0
  0
LINE
  5
2F1
330
2D9
100
AcDbEntity
  8
0
  6
Continuous
 62
     3
100
AcDbLine
 10
93.701606
 20
78.468467
 30
0.0
 11
93.695608
 21
78.431379
 31
0.0
  0
LINE
  5
2F2
330
2D9
100
AcDbEntity
  8
0
  6
Continuous
 62
     3
100
AcDbLine
 10
93.695608
 20
78.431379
 30
0.0
 11
93.689382
 21
78.394317
 31
0.0
  0
LINE
  5
2F3
330
2D9
100
AcDbEntity
  8
0
  6
Continuous
 62
     3
100
AcDbLine
 10
93.689382
 20
78.394317
 30
0.0
 11
93.682934
 21
78.357279
 31
0.0
  0
LINE
  5
2F4
330
2D9
100
AcDbEntity
  8
0
  6
Continuous
 62
     3
100
AcDbLine
 10
93.682934
 20
78.357279
 30
0.0
 11
93.676266
 21
78.320265
 31
0.0
  0
LINE
  5
2F5
330
2D9
100
AcDbEntity
  8
0
  6
Continuous
 62
     3
100
AcDbLine
 10
93.676266
 20
78.320265
 30
0.0
 11
93.669386
 21
78.283275
 31
0.0
  0
LINE
  5
2F6
330
2D9
100
AcDbEntity
  8
0
  6
Continuous
 62
     3
100
AcDbLine
 10
93.669386
 20
78.283275
 30
0.0
 11
93.662298
 21
78.246307
 31
0.0
  0
LINE
  5
2F7
330
2D9
100
AcDbEntity
  8
0
  6
Continuous
 62
     3
100
AcDbLine
 10
93.662298
 20
78.246307
 30
0.0
 11
93.655006
 21
78.209363
 31
0.0
  0
LINE
  5
2F8
330
2D9
100
AcDbEntity
  8
0
  6
Continuous
 62
     3
100
AcDbLine
 10
93.655006
 20
78.209363
 30
0.0
 11
93.647516
 21
78.172439
 31
0.0
  0
LINE
  5
2F9
330
2D9
100
AcDbEntity
  8
0
  6
Continuous
 62
     3
100
AcDbLine
 10
93.647516
 20
78.172439
 30
0.0
 11
93.639836
 21
78.135537
 31
0.0
  0
LINE
  5
2FA
330
2D9
100
AcDbEntity
  8
0
  6
Continuous
 62
     3
100
AcDbLine
 10
93.639836
 20
78.135537
 30
0.0
 11
93.631966
 21
78.098655
 31
0.0
  0
LINE
  5
2FB
330
2D9
100
AcDbEntity
  8
0
  6
Continuous
 62
     3
100
AcDbLine
 10
93.631966
 20
78.098655
 30
0.0
 11
93.623914
 21
78.061795
 31
0.0
  0
LINE
  5
2FC
330
2D9
100
AcDbEntity
  8
0
  6
Continuous
 62
     3
100
AcDbLine
 10
93.623914
 20
78.061795
 30
0.0
 11
93.615684
 21
78.024953
 31
0.0
  0
LINE
  5
2FD
330
2D9
100
AcDbEntity
  8
0
  6
Continuous
 62
     3
100
AcDbLine
 10
93.615684
 20
78.024953
 30
0.0
 11
93.607282
 21
77.988131
 31
0.0
  0
LINE
  5
2FE
330
2D9
100
AcDbEntity
  8
0
  6
Continuous
 62
     3
100
AcDbLine
 10
93.607282
 20
77.988131
 30
0.0
 11
93.598712
 21
77.951327
 31
0.0
  0
LINE
  5
2FF
330
2D9
100
AcDbEntity
  8
0
  6
Continuous
 62
     3
100
AcDbLine
 10
93.598712
 20
77.951327
 30
0.0
 11
93.58998
 21
77.914541
 31
0.0
  0
LINE
  5
300
330
2D9
100
AcDbEntity
  8
0
  6
Continuous
 62
     3
100
AcDbLine
 10
93.58998
 20
77.914541
 30
0.0
 11
93.58109
 21
77.877771
 31
0.0
  0
LINE
  5
301
330
2D9
100
AcDbEntity
  8
0
  6
Continuous
 62
     3
100
AcDbLine
 10
93.58109
 20
77.877771
 30
0.0
 11
93.562862
 21
77.804283
 31
0.0
  0
LINE
  5
302
330
2D9
100
AcDbEntity
  8
0
  6
Continuous
 62
     3
100
AcDbLine
 10
93.562862
 20
77.804283
 30
0.0
 11
93.544064
 21
77.730859
 31
0.0
  0
LINE
  5
303
330
2D9
100
AcDbEntity
  8
0
  6
Continuous
 62
     3
100
AcDbLine
 10
93.544064
 20
77.730859
 30
0.0
 11
93.524738
 21
77.657493
 31
0.0
  0
LINE
  5
304
330
2D9
100
AcDbEntity
  8
0
  6
Continuous
 62
     3
100
AcDbLine
 10
93.524738
 20
77.657493
 30
0.0
 11
93.504926
 21
77.584179
 31
0.0
  0
LINE
  5
305
330
2D9
100
AcDbEntity
  8
0
  6
Continuous
 62
     3
100
AcDbLine
 10
93.504926
 20
77.584179
 30
0.0
 11
93.484666
 21
77.510915
 31
0.0
  0
LINE
  5
306
330
2D9
100
AcDbEntity
  8
0
  6
Continuous
 62
     3
100
AcDbLine
 10
93.484666
 20
77.510915
 30
0.0
 11
93.464002
 21
77.437697
 31
0.0
  0
LINE
  5
307
330
2D9
100
AcDbEntity
  8
0
  6
Continuous
 62
     3
100
AcDbLine
 10
93.464002
 20
77.437697
 30
0.0
 11
93.442972
 21
77.364517
 31
0.0
  0
LINE
  5
308
330
2D9
100
AcDbEntity
  8
0
  6
Continuous
 62
     3
100
AcDbLine
 10
93.442972
 20
77.364517
 30
0.0
 11
93.421618
 21
77.291375
 31
0.0
  0
LINE
  5
309
330
2D9
100
AcDbEntity
  8
0
  6
Continuous
 62
     3
100
AcDbLine
 10
93.421618
 20
77.291375
 30
0.0
 11
93.399978
 21
77.218263
 31
0.0
  0
LINE
  5
30A
330
2D9
100
AcDbEntity
  8
0
  6
Continuous
 62
     3
100
AcDbLine
 10
93.399978
 20
77.218263
 30
0.0
 11
93.378096
 21
77.145179
 31
0.0
  0
LINE
  5
30B
330
2D9
100
AcDbEntity
  8
0
  6
Continuous
 62
     3
100
AcDbLine
 10
93.378096
 20
77.145179
 30
0.0
 11
93.356012
 21
77.072117
 31
0.0
  0
LINE
  5
30C
330
2D9
100
AcDbEntity
  8
0
  6
Continuous
 62
     3
100
AcDbLine
 10
93.356012
 20
77.072117
 30
0.0
 11
93.333764
 21
76.999073
 31
0.0
  0
LINE
  5
30D
330
2D9
100
AcDbEntity
  8
0
  6
Continuous
 62
     3
100
AcDbLine
 10
93.333764
 20
76.999073
 30
0.0
 11
93.311396
 21
76.926041
 31
0.0
  0
LINE
  5
30E
330
2D9
100
AcDbEntity
  8
0
  6
Continuous
 62
     3
100
AcDbLine
 10
93.311396
 20
76.926041
 30
0.0
 11
93.266454
 21
76.780003
 31
0.0
  0
ENDBLK
  5
2DB
330
2D9
100
AcDbEntity
  8
0
100
AcDbBlockEnd
  0
BLOCK
  5
314
330
313
100
AcDbEntity
  8
0
100
AcDbBlockBegin
  2
BLK13
 70
     0
 10
0.0
 20
0.0
 30
0.0
  3
BLK13
  1

  0
LINE
  5
316
330
313
100
AcDbEntity
  8
0
  6
Continuous
 62
     3
100
AcDbLine
 10
93.266454
 20
75.234997
 30
0.0
 11
93.320804
 21
75.233317
 31
0.0
  0
LINE
  5
317
330
313
100
AcDbEntity
  8
0
  6
Continuous
 62
     3
100
AcDbLine
 10
93.320804
 20
75.233317
 30
0.0
 11
93.37514
 21
75.231405
 31
0.0
  0
LINE
  5
318
330
313
100
AcDbEntity
  8
0
  6
Continuous
 62
     3
100
AcDbLine
 10
93.37514
 20
75.231405
 30
0.0
 11
93.429442
 21
75.229029
 31
0.0
  0
LINE
  5
319
330
313
100
AcDbEntity
  8
0
  6
Continuous
 62
     3
100
AcDbLine
 10
93.429442
 20
75.229029
 30
0.0
 11
93.483698
 21
75.225959
 31
0.0
  0
LINE
  5
31A
330
313
100
AcDbEntity
  8
0
  6
Continuous
 62
     3
100
AcDbLine
 10
93.483698
 20
75.225959
 30
0.0
 11
93.519102
 21
75.223487
 31
0.0
  0
LINE
  5
31B
330
313
100
AcDbEntity
  8
0
  6
Continuous
 62
     3
100
AcDbLine
 10
93.519102
 20
75.223487
 30
0.0
 11
93.554482
 21
75.220669
 31
0.0
  0
LINE
  5
31C
330
313
100
AcDbEntity
  8
0
  6
Continuous
 62
     3
100
AcDbLine
 10
93.554482
 20
75.220669
 30
0.0
 11
93.589842
 21
75.217555
 31
0.0
  0
LINE
  5
31D
330
313
100
AcDbEntity
  8
0
  6
Continuous
 62
     3
100
AcDbLine
 10
93.589842
 20
75.217555
 30
0.0
 11
93.625184
 21
75.214193
 31
0.0
  0
LINE
  5
31E
330
313
100
AcDbEntity
  8
0
  6
Continuous
 62
     3
100
AcDbLine
 10
93.625184
 20
75.214193
 30
0.0
 11
93.695834
 21
75.206927
 31
0.0
  0
LINE
  5
31F
330
313
100
AcDbEntity
  8
0
  6
Continuous
 62
     3
100
AcDbLine
 10
93.695834
 20
75.206927
 30
0.0
 11
93.766456
 21
75.199267
 31
0.0
  0
ENDBLK
  5
315
330
313
100
AcDbEntity
  8
0
100
AcDbBlockEnd
  0
BLOCK
  5
324
330
323
100
AcDbEntity
  8
0
100
AcDbBlockBegin
  2
BLK14
 70
     0
 10
0.0
 20
0.0
 30
0.0
  3
BLK14
  1

  0
LINE
  5
326
330
323
100
AcDbEntity
  8
0
  6
Continuous
 62
     3
100
AcDbLine
 10
93.766456
 20
91.198029
 30
0.0
 11
93.695834
 21
91.205689
 31
0.0
  0
LINE
  5
327
330
323
100
AcDbEntity
  8
0
  6
Continuous
 62
     3
100
AcDbLine
 10
93.695834
 20
91.205689
 30
0.0
 11
93.625184
 21
91.212957
 31
0.0
  0
LINE
  5
328
330
323
100
AcDbEntity
  8
0
  6
Continuous
 62
     3
100
AcDbLine
 10
93.625184
 20
91.212957
 30
0.0
 11
93.589842
 21
91.216317
 31
0.0
  0
LINE
  5
329
330
323
100
AcDbEntity
  8
0
  6
Continuous
 62
     3
100
AcDbLine
 10
93.589842
 20
91.216317
 30
0.0
 11
93.554482
 21
91.219433
 31
0.0
  0
LINE
  5
32A
330
323
100
AcDbEntity
  8
0
  6
Continuous
 62
     3
100
AcDbLine
 10
93.554482
 20
91.219433
 30
0.0
 11
93.519102
 21
91.222249
 31
0.0
  0
LINE
  5
32B
330
323
100
AcDbEntity
  8
0
  6
Continuous
 62
     3
100
AcDbLine
 10
93.519102
 20
91.222249
 30
0.0
 11
93.483698
 21
91.224721
 31
0.0
  0
LINE
  5
32C
330
323
100
AcDbEntity
  8
0
  6
Continuous
 62
     3
100
AcDbLine
 10
93.483698
 20
91.224721
 30
0.0
 11
93.429442
 21
91.227793
 31
0.0
  0
LINE
  5
32D
330
323
100
AcDbEntity
  8
0
  6
Continuous
 62
     3
100
AcDbLine
 10
93.429442
 20
91.227793
 30
0.0
 11
93.37514
 21
91.230167
 31
0.0
  0
LINE
  5
32E
330
323
100
AcDbEntity
  8
0
  6
Continuous
 62
     3
100
AcDbLine
 10
93.37514
 20
91.230167
 30
0.0
 11
93.320804
 21
91.232079
 31
0.0
  0
LINE
  5
32F
330
323
100
AcDbEntity
  8
0
  6
Continuous
 62
     3
100
AcDbLine
 10
93.320804
 20
91.232079
 30
0.0
 11
93.266454
 21
91.233759
 31
0.0
  0
ENDBLK
  5
325
330
323
100
AcDbEntity
  8
0
100
AcDbBlockEnd
  0
BLOCK
  5
336
330
335
100
AcDbEntity
  8
0
100
AcDbBlockBegin
  2
BLK15
 70
     0
 10
0.0
 20
0.0
 30
0.0
  3
BLK15
  1

  0
LINE
  5
338
330
335
100
AcDbEntity
  8
0
  6
Continuous
 62
     3
100
AcDbLine
 10
93.766456
 20
75.199267
 30
0.0
 11
93.761254
 21
75.195679
 31
0.0
  0
LINE
  5
339
330
335
100
AcDbEntity
  8
0
  6
Continuous
 62
     3
100
AcDbLine
 10
93.761254
 20
75.195679
 30
0.0
 11
93.75483
 21
75.191417
 31
0.0
  0
LINE
  5
33A
330
335
100
AcDbEntity
  8
0
  6
Continuous
 62
     3
100
AcDbLine
 10
93.75483
 20
75.191417
 30
0.0
 11
93.748342
 21
75.187333
 31
0.0
  0
LINE
  5
33B
330
335
100
AcDbEntity
  8
0
  6
Continuous
 62
     3
100
AcDbLine
 10
93.748342
 20
75.187333
 30
0.0
 11
93.741796
 21
75.183425
 31
0.0
  0
LINE
  5
33C
330
335
100
AcDbEntity
  8
0
  6
Continuous
 62
     3
100
AcDbLine
 10
93.741796
 20
75.183425
 30
0.0
 11
93.735188
 21
75.179687
 31
0.0
  0
LINE
  5
33D
330
335
100
AcDbEntity
  8
0
  6
Continuous
 62
     3
100
AcDbLine
 10
93.735188
 20
75.179687
 30
0.0
 11
93.728522
 21
75.176119
 31
0.0
  0
LINE
  5
33E
330
335
100
AcDbEntity
  8
0
  6
Continuous
 62
     3
100
AcDbLine
 10
93.728522
 20
75.176119
 30
0.0
 11
93.721798
 21
75.172719
 31
0.0
  0
LINE
  5
33F
330
335
100
AcDbEntity
  8
0
  6
Continuous
 62
     3
100
AcDbLine
 10
93.721798
 20
75.172719
 30
0.0
 11
93.715018
 21
75.169481
 31
0.0
  0
LINE
  5
340
330
335
100
AcDbEntity
  8
0
  6
Continuous
 62
     3
100
AcDbLine
 10
93.715018
 20
75.169481
 30
0.0
 11
93.70818
 21
75.166403
 31
0.0
  0
LINE
  5
341
330
335
100
AcDbEntity
  8
0
  6
Continuous
 62
     3
100
AcDbLine
 10
93.70818
 20
75.166403
 30
0.0
 11
93.70129
 21
75.163483
 31
0.0
  0
LINE
  5
342
330
335
100
AcDbEntity
  8
0
  6
Continuous
 62
     3
100
AcDbLine
 10
93.70129
 20
75.163483
 30
0.0
 11
93.694344
 21
75.160719
 31
0.0
  0
LINE
  5
343
330
335
100
AcDbEntity
  8
0
  6
Continuous
 62
     3
100
AcDbLine
 10
93.694344
 20
75.160719
 30
0.0
 11
93.687346
 21
75.158107
 31
0.0
  0
LINE
  5
344
330
335
100
AcDbEntity
  8
0
  6
Continuous
 62
     3
100
AcDbLine
 10
93.687346
 20
75.158107
 30
0.0
 11
93.680296
 21
75.155645
 31
0.0
  0
LINE
  5
345
330
335
100
AcDbEntity
  8
0
  6
Continuous
 62
     3
100
AcDbLine
 10
93.680296
 20
75.155645
 30
0.0
 11
93.673196
 21
75.153329
 31
0.0
  0
LINE
  5
346
330
335
100
AcDbEntity
  8
0
  6
Continuous
 62
     3
100
AcDbLine
 10
93.673196
 20
75.153329
 30
0.0
 11
93.666044
 21
75.151155
 31
0.0
  0
LINE
  5
347
330
335
100
AcDbEntity
  8
0
  6
Continuous
 62
     3
100
AcDbLine
 10
93.666044
 20
75.151155
 30
0.0
 11
93.658844
 21
75.149125
 31
0.0
  0
LINE
  5
348
330
335
100
AcDbEntity
  8
0
  6
Continuous
 62
     3
100
AcDbLine
 10
93.658844
 20
75.149125
 30
0.0
 11
93.651596
 21
75.147231
 31
0.0
  0
LINE
  5
349
330
335
100
AcDbEntity
  8
0
  6
Continuous
 62
     3
100
AcDbLine
 10
93.651596
 20
75.147231
 30
0.0
 11
93.644302
 21
75.145473
 31
0.0
  0
LINE
  5
34A
330
335
100
AcDbEntity
  8
0
  6
Continuous
 62
     3
100
AcDbLine
 10
93.644302
 20
75.145473
 30
0.0
 11
93.63696
 21
75.143847
 31
0.0
  0
LINE
  5
34B
330
335
100
AcDbEntity
  8
0
  6
Continuous
 62
     3
100
AcDbLine
 10
93.63696
 20
75.143847
 30
0.0
 11
93.629574
 21
75.142351
 31
0.0
  0
LINE
  5
34C
330
335
100
AcDbEntity
  8
0
  6
Continuous
 62
     3
100
AcDbLine
 10
93.629574
 20
75.142351
 30
0.0
 11
93.622144
 21
75.140983
 31
0.0
  0
LINE
  5
34D
330
335
100
AcDbEntity
  8
0
  6
Continuous
 62
     3
100
AcDbLine
 10
93.622144
 20
75.140983
 30
0.0
 11
93.614672
 21
75.139737
 31
0.0
  0
LINE
  5
34E
330
335
100
AcDbEntity
  8
0
  6
Continuous
 62
     3
100
AcDbLine
 10
93.614672
 20
75.139737
 30
0.0
 11
93.607156
 21
75.138613
 31
0.0
  0
LINE
  5
34F
330
335
100
AcDbEntity
  8
0
  6
Continuous
 62
     3
100
AcDbLine
 10
93.607156
 20
75.138613
 30
0.0
 11
93.5996
 21
75.137609
 31
0.0
  0
LINE
  5
350
330
335
100
AcDbEntity
  8
0
  6
Continuous
 62
     3
100
AcDbLine
 10
93.5996
 20
75.137609
 30
0.0
 11
93.592004
 21
75.136719
 31
0.0
  0
LINE
  5
351
330
335
100
AcDbEntity
  8
0
  6
Continuous
 62
     3
100
AcDbLine
 10
93.592004
 20
75.136719
 30
0.0
 11
93.584368
 21
75.135941
 31
0.0
  0
LINE
  5
352
330
335
100
AcDbEntity
  8
0
  6
Continuous
 62
     3
100
AcDbLine
 10
93.584368
 20
75.135941
 30
0.0
 11
93.576694
 21
75.135275
 31
0.0
  0
LINE
  5
353
330
335
100
AcDbEntity
  8
0
  6
Continuous
 62
     3
100
AcDbLine
 10
93.576694
 20
75.135275
 30
0.0
 11
93.568982
 21
75.134715
 31
0.0
  0
LINE
  5
354
330
335
100
AcDbEntity
  8
0
  6
Continuous
 62
     3
100
AcDbLine
 10
93.568982
 20
75.134715
 30
0.0
 11
93.561234
 21
75.134259
 31
0.0
  0
LINE
  5
355
330
335
100
AcDbEntity
  8
0
  6
Continuous
 62
     3
100
AcDbLine
 10
93.561234
 20
75.134259
 30
0.0
 11
93.553452
 21
75.133905
 31
0.0
  0
LINE
  5
356
330
335
100
AcDbEntity
  8
0
  6
Continuous
 62
     3
100
AcDbLine
 10
93.553452
 20
75.133905
 30
0.0
 11
93.545636
 21
75.133649
 31
0.0
  0
LINE
  5
357
330
335
100
AcDbEntity
  8
0
  6
Continuous
 62
     3
100
AcDbLine
 10
93.545636
 20
75.133649
 30
0.0
 11
93.537786
 21
75.133489
 31
0.0
  0
LINE
  5
358
330
335
100
AcDbEntity
  8
0
  6
Continuous
 62
     3
100
AcDbLine
 10
93.537786
 20
75.133489
 30
0.0
 11
93.529902
 21
75.133423
 31
0.0
  0
LINE
  5
359
330
335
100
AcDbEntity
  8
0
  6
Continuous
 62
     3
100
AcDbLine
 10
93.529902
 20
75.133423
 30
0.0
 11
93.521988
 21
75.133445
 31
0.0
  0
LINE
  5
35A
330
335
100
AcDbEntity
  8
0
  6
Continuous
 62
     3
100
AcDbLine
 10
93.521988
 20
75.133445
 30
0.0
 11
93.514044
 21
75.133557
 31
0.0
  0
LINE
  5
35B
330
335
100
AcDbEntity
  8
0
  6
Continuous
 62
     3
100
AcDbLine
 10
93.514044
 20
75.133557
 30
0.0
 11
93.50607
 21
75.133753
 31
0.0
  0
LINE
  5
35C
330
335
100
AcDbEntity
  8
0
  6
Continuous
 62
     3
100
AcDbLine
 10
93.50607
 20
75.133753
 30
0.0
 11
93.498068
 21
75.134029
 31
0.0
  0
LINE
  5
35D
330
335
100
AcDbEntity
  8
0
  6
Continuous
 62
     3
100
AcDbLine
 10
93.498068
 20
75.134029
 30
0.0
 11
93.490038
 21
75.134385
 31
0.0
  0
LINE
  5
35E
330
335
100
AcDbEntity
  8
0
  6
Continuous
 62
     3
100
AcDbLine
 10
93.490038
 20
75.134385
 30
0.0
 11
93.481982
 21
75.134817
 31
0.0
  0
LINE
  5
35F
330
335
100
AcDbEntity
  8
0
  6
Continuous
 62
     3
100
AcDbLine
 10
93.481982
 20
75.134817
 30
0.0
 11
93.473902
 21
75.135323
 31
0.0
  0
LINE
  5
360
330
335
100
AcDbEntity
  8
0
  6
Continuous
 62
     3
100
AcDbLine
 10
93.473902
 20
75.135323
 30
0.0
 11
93.465796
 21
75.135899
 31
0.0
  0
LINE
  5
361
330
335
100
AcDbEntity
  8
0
  6
Continuous
 62
     3
100
AcDbLine
 10
93.465796
 20
75.135899
 30
0.0
 11
93.457666
 21
75.136543
 31
0.0
  0
LINE
  5
362
330
335
100
AcDbEntity
  8
0
  6
Continuous
 62
     3
100
AcDbLine
 10
93.457666
 20
75.136543
 30
0.0
 11
93.449514
 21
75.137251
 31
0.0
  0
LINE
  5
363
330
335
100
AcDbEntity
  8
0
  6
Continuous
 62
     3
100
AcDbLine
 10
93.449514
 20
75.137251
 30
0.0
 11
93.44134
 21
75.138021
 31
0.0
  0
LINE
  5
364
330
335
100
AcDbEntity
  8
0
  6
Continuous
 62
     3
100
AcDbLine
 10
93.44134
 20
75.138021
 30
0.0
 11
93.433146
 21
75.138851
 31
0.0
  0
LINE
  5
365
330
335
100
AcDbEntity
  8
0
  6
Continuous
 62
     3
100
AcDbLine
 10
93.433146
 20
75.138851
 30
0.0
 11
93.424934
 21
75.139737
 31
0.0
  0
LINE
  5
366
330
335
100
AcDbEntity
  8
0
  6
Continuous
 62
     3
100
AcDbLine
 10
93.424934
 20
75.139737
 30
0.0
 11
93.4167
 21
75.140677
 31
0.0
  0
LINE
  5
367
330
335
100
AcDbEntity
  8
0
  6
Continuous
 62
     3
100
AcDbLine
 10
93.4167
 20
75.140677
 30
0.0
 11
93.40845
 21
75.141667
 31
0.0
  0
LINE
  5
368
330
335
100
AcDbEntity
  8
0
  6
Continuous
 62
     3
100
AcDbLine
 10
93.40845
 20
75.141667
 30
0.0
 11
93.400184
 21
75.142705
 31
0.0
  0
LINE
  5
369
330
335
100
AcDbEntity
  8
0
  6
Continuous
 62
     3
100
AcDbLine
 10
93.400184
 20
75.142705
 30
0.0
 11
93.391902
 21
75.143789
 31
0.0
  0
LINE
  5
36A
330
335
100
AcDbEntity
  8
0
  6
Continuous
 62
     3
100
AcDbLine
 10
93.391902
 20
75.143789
 30
0.0
 11
93.383606
 21
75.144915
 31
0.0
  0
LINE
  5
36B
330
335
100
AcDbEntity
  8
0
  6
Continuous
 62
     3
100
AcDbLine
 10
93.383606
 20
75.144915
 30
0.0
 11
93.375294
 21
75.146079
 31
0.0
  0
LINE
  5
36C
330
335
100
AcDbEntity
  8
0
  6
Continuous
 62
     3
100
AcDbLine
 10
93.375294
 20
75.146079
 30
0.0
 11
93.366972
 21
75.147281
 31
0.0
  0
LINE
  5
36D
330
335
100
AcDbEntity
  8
0
  6
Continuous
 62
     3
100
AcDbLine
 10
93.366972
 20
75.147281
 30
0.0
 11
93.35029
 21
75.149783
 31
0.0
  0
LINE
  5
36E
330
335
100
AcDbEntity
  8
0
  6
Continuous
 62
     3
100
AcDbLine
 10
93.35029
 20
75.149783
 30
0.0
 11
93.33357
 21
75.152399
 31
0.0
  0
LINE
  5
36F
330
335
100
AcDbEntity
  8
0
  6
Continuous
 62
     3
100
AcDbLine
 10
93.33357
 20
75.152399
 30
0.0
 11
93.316818
 21
75.155105
 31
0.0
  0
LINE
  5
370
330
335
100
AcDbEntity
  8
0
  6
Continuous
 62
     3
100
AcDbLine
 10
93.316818
 20
75.155105
 30
0.0
 11
93.300044
 21
75.157877
 31
0.0
  0
LINE
  5
371
330
335
100
AcDbEntity
  8
0
  6
Continuous
 62
     3
100
AcDbLine
 10
93.300044
 20
75.157877
 30
0.0
 11
93.283252
 21
75.160695
 31
0.0
  0
LINE
  5
372
330
335
100
AcDbEntity
  8
0
  6
Continuous
 62
     3
100
AcDbLine
 10
93.283252
 20
75.160695
 30
0.0
 11
93.266454
 21
75.163535
 31
0.0
  0
ENDBLK
  5
337
330
335
100
AcDbEntity
  8
0
100
AcDbBlockEnd
  0
BLOCK
  5
37A
330
379
100
AcDbEntity
  8
0
100
AcDbBlockBegin
  2
BLK16
 70
     0
 10
0.0
 20
0.0
 30
0.0
  3
BLK16
  1

  0
LINE
  5
37C
330
379
100
AcDbEntity
  8
0
  6
Continuous
 62
     3
100
AcDbLine
 10
-56.028854
 20
95.445963
 30
0.0
 11
-56.125294
 21
95.278889
 31
0.0
  0
LINE
  5
37D
330
379
100
AcDbEntity
  8
0
  6
Continuous
 62
     3
100
AcDbLine
 10
-56.125294
 20
95.278889
 30
0.0
 11
-56.413066
 21
94.780455
 31
0.0
  0
LINE
  5
37E
330
379
100
AcDbEntity
  8
0
  6
Continuous
 62
     3
100
AcDbLine
 10
-56.413066
 20
94.780455
 30
0.0
 11
-56.88734
 21
93.958993
 31
0.0
  0
ENDBLK
  5
37B
330
379
100
AcDbEntity
  8
0
100
AcDbBlockEnd
  0
BLOCK
  5
381
330
380
100
AcDbEntity
  8
0
100
AcDbBlockBegin
  2
BLK17
 70
     0
 10
0.0
 20
0.0
 30
0.0
  3
BLK17
  1

  0
LINE
  5
383
330
380
100
AcDbEntity
  8
0
  6
Continuous
 62
     3
100
AcDbLine
 10
-60.979734
 20
93.958993
 30
0.0
 11
-61.454008
 21
94.780455
 31
0.0
  0
LINE
  5
384
330
380
100
AcDbEntity
  8
0
  6
Continuous
 62
     3
100
AcDbLine
 10
-61.454008
 20
94.780455
 30
0.0
 11
-61.74178
 21
95.278889
 31
0.0
  0
LINE
  5
385
330
380
100
AcDbEntity
  8
0
  6
Continuous
 62
     3
100
AcDbLine
 10
-61.74178
 20
95.278889
 30
0.0
 11
-61.83825
 21
95.445963
 31
0.0
  0
ENDBLK
  5
382
330
380
100
AcDbEntity
  8
0
100
AcDbBlockEnd
  0
BLOCK
  5
388
330
387
100
AcDbEntity
  8
0
100
AcDbBlockBegin
  2
BLK18
 70
     0
 10
0.0
 20
0.0
 30
0.0
  3
BLK18
  1

  0
LINE
  5
38A
330
387
100
AcDbEntity
  8
0
  6
Continuous
 62
     3
100
AcDbLine
 10
-56.88734
 20
56.932931
 30
0.0
 11
-56.413066
 21
56.111469
 31
0.0
  0
LINE
  5
38B
330
387
100
AcDbEntity
  8
0
  6
Continuous
 62
     3
100
AcDbLine
 10
-56.413066
 20
56.111469
 30
0.0
 11
-56.125294
 21
55.613037
 31
0.0
  0
LINE
  5
38C
330
387
100
AcDbEntity
  8
0
  6
Continuous
 62
     3
100
AcDbLine
 10
-56.125294
 20
55.613037
 30
0.0
 11
-56.028854
 21
55.445963
 31
0.0
  0
ENDBLK
  5
389
330
387
100
AcDbEntity
  8
0
100
AcDbBlockEnd
  0
BLOCK
  5
392
330
391
100
AcDbEntity
  8
0
100
AcDbBlockBegin
  2
BLK19
 70
     0
 10
0.0
 20
0.0
 30
0.0
  3
BLK19
  1

  0
LINE
  5
394
330
391
100
AcDbEntity
  8
0
  6
Continuous
 62
     3
100
AcDbLine
 10
-61.83825
 20
55.445963
 30
0.0
 11
-61.74178
 21
55.613037
 31
0.0
  0
LINE
  5
395
330
391
100
AcDbEntity
  8
0
  6
Continuous
 62
     3
100
AcDbLine
 10
-61.74178
 20
55.613037
 30
0.0
 11
-61.454008
 21
56.111469
 31
0.0
  0
LINE
  5
396
330
391
100
AcDbEntity
  8
0
  6
Continuous
 62
     3
100
AcDbLine
 10
-61.454008
 20
56.111469
 30
0.0
 11
-60.979734
 21
56.932931
 31
0.0
  0
ENDBLK
  5
393
330
391
100
AcDbEntity
  8
0
100
AcDbBlockEnd
  0
BLOCK
  5
42E
330
42D
100
AcDbEntity
  8
0
100
AcDbBlockBegin
  2
BLK20
 70
     0
 10
0.0
 20
0.0
 30
0.0
  3
BLK20
  1

  0
LINE
  5
430
330
42D
100
AcDbEntity
  8
CSLAYER2
  6
Continuous
 62
     3
100
AcDbLine
 10
277.11332
 20
55.459097
 30
0.0
 11
277.064266
 21
55.464847
 31
0.0
  0
LINE
  5
431
330
42D
100
AcDbEntity
  8
CSLAYER2
  6
Continuous
 62
     3
100
AcDbLine
 10
277.064266
 20
55.464847
 30
0.0
 11
277.015586
 21
55.482053
 31
0.0
  0
LINE
  5
432
330
42D
100
AcDbEntity
  8
CSLAYER2
  6
Continuous
 62
     3
100
AcDbLine
 10
277.015586
 20
55.482053
 30
0.0
 11
276.96765
 21
55.510583
 31
0.0
  0
LINE
  5
433
330
42D
100
AcDbEntity
  8
CSLAYER2
  6
Continuous
 62
     3
100
AcDbLine
 10
276.96765
 20
55.510583
 30
0.0
 11
276.920822
 21
55.550221
 31
0.0
  0
LINE
  5
434
330
42D
100
AcDbEntity
  8
CSLAYER2
  6
Continuous
 62
     3
100
AcDbLine
 10
276.920822
 20
55.550221
 30
0.0
 11
276.87546
 21
55.600665
 31
0.0
  0
LINE
  5
435
330
42D
100
AcDbEntity
  8
CSLAYER2
  6
Continuous
 62
     3
100
AcDbLine
 10
276.87546
 20
55.600665
 30
0.0
 11
276.831908
 21
55.661531
 31
0.0
  0
LINE
  5
436
330
42D
100
AcDbEntity
  8
CSLAYER2
  6
Continuous
 62
     3
100
AcDbLine
 10
276.831908
 20
55.661531
 30
0.0
 11
276.790496
 21
55.732357
 31
0.0
  0
LINE
  5
437
330
42D
100
AcDbEntity
  8
CSLAYER2
  6
Continuous
 62
     3
100
AcDbLine
 10
276.790496
 20
55.732357
 30
0.0
 11
276.751542
 21
55.812603
 31
0.0
  0
LINE
  5
438
330
42D
100
AcDbEntity
  8
CSLAYER2
  6
Continuous
 62
     3
100
AcDbLine
 10
276.751542
 20
55.812603
 30
0.0
 11
276.715342
 21
55.901657
 31
0.0
  0
LINE
  5
439
330
42D
100
AcDbEntity
  8
CSLAYER2
  6
Continuous
 62
     3
100
AcDbLine
 10
276.715342
 20
55.901657
 30
0.0
 11
276.68217
 21
55.998843
 31
0.0
  0
LINE
  5
43A
330
42D
100
AcDbEntity
  8
CSLAYER2
  6
Continuous
 62
     3
100
AcDbLine
 10
276.68217
 20
55.998843
 30
0.0
 11
276.65228
 21
56.103419
 31
0.0
  0
LINE
  5
43B
330
42D
100
AcDbEntity
  8
CSLAYER2
  6
Continuous
 62
     3
100
AcDbLine
 10
276.65228
 20
56.103419
 30
0.0
 11
276.625898
 21
56.214593
 31
0.0
  0
LINE
  5
43C
330
42D
100
AcDbEntity
  8
CSLAYER2
  6
Continuous
 62
     3
100
AcDbLine
 10
276.625898
 20
56.214593
 30
0.0
 11
276.603228
 21
56.331517
 31
0.0
  0
LINE
  5
43D
330
42D
100
AcDbEntity
  8
CSLAYER2
  6
Continuous
 62
     3
100
AcDbLine
 10
276.603228
 20
56.331517
 30
0.0
 11
276.584438
 21
56.453299
 31
0.0
  0
LINE
  5
43E
330
42D
100
AcDbEntity
  8
CSLAYER2
  6
Continuous
 62
     3
100
AcDbLine
 10
276.584438
 20
56.453299
 30
0.0
 11
276.569672
 21
56.579015
 31
0.0
  0
LINE
  5
43F
330
42D
100
AcDbEntity
  8
CSLAYER2
  6
Continuous
 62
     3
100
AcDbLine
 10
276.569672
 20
56.579015
 30
0.0
 11
276.559046
 21
56.707707
 31
0.0
  0
LINE
  5
440
330
42D
100
AcDbEntity
  8
CSLAYER2
  6
Continuous
 62
     3
100
AcDbLine
 10
276.559046
 20
56.707707
 30
0.0
 11
276.552636
 21
56.838397
 31
0.0
  0
ENDBLK
  5
42F
330
42D
100
AcDbEntity
  8
0
100
AcDbBlockEnd
  0
BLOCK
  5
447
330
446
100
AcDbEntity
  8
0
100
AcDbBlockBegin
  2
BLK21
 70
     0
 10
0.0
 20
0.0
 30
0.0
  3
BLK21
  1

  0
LINE
  5
449
330
446
100
AcDbEntity
  8
CSLAYER2
  6
Continuous
 62
     3
100
AcDbLine
 10
312.064718
 20
55.909071
 30
0.0
 11
312.015664
 21
55.920605
 31
0.0
  0
LINE
  5
44A
330
446
100
AcDbEntity
  8
CSLAYER2
  6
Continuous
 62
     3
100
AcDbLine
 10
312.015664
 20
55.920605
 30
0.0
 11
311.966984
 21
55.955117
 31
0.0
  0
LINE
  5
44B
330
446
100
AcDbEntity
  8
CSLAYER2
  6
Continuous
 62
     3
100
AcDbLine
 10
311.966984
 20
55.955117
 30
0.0
 11
311.919048
 21
56.012347
 31
0.0
  0
LINE
  5
44C
330
446
100
AcDbEntity
  8
CSLAYER2
  6
Continuous
 62
     3
100
AcDbLine
 10
311.919048
 20
56.012347
 30
0.0
 11
311.872222
 21
56.091857
 31
0.0
  0
LINE
  5
44D
330
446
100
AcDbEntity
  8
CSLAYER2
  6
Continuous
 62
     3
100
AcDbLine
 10
311.872222
 20
56.091857
 30
0.0
 11
311.826858
 21
56.193043
 31
0.0
  0
LINE
  5
44E
330
446
100
AcDbEntity
  8
CSLAYER2
  6
Continuous
 62
     3
100
AcDbLine
 10
311.826858
 20
56.193043
 30
0.0
 11
311.783306
 21
56.315135
 31
0.0
  0
LINE
  5
44F
330
446
100
AcDbEntity
  8
CSLAYER2
  6
Continuous
 62
     3
100
AcDbLine
 10
311.783306
 20
56.315135
 30
0.0
 11
311.741896
 21
56.457205
 31
0.0
  0
LINE
  5
450
330
446
100
AcDbEntity
  8
CSLAYER2
  6
Continuous
 62
     3
100
AcDbLine
 10
311.741896
 20
56.457205
 30
0.0
 11
311.702942
 21
56.618167
 31
0.0
  0
LINE
  5
451
330
446
100
AcDbEntity
  8
CSLAYER2
  6
Continuous
 62
     3
100
AcDbLine
 10
311.702942
 20
56.618167
 30
0.0
 11
311.666742
 21
56.796803
 31
0.0
  0
LINE
  5
452
330
446
100
AcDbEntity
  8
CSLAYER2
  6
Continuous
 62
     3
100
AcDbLine
 10
311.666742
 20
56.796803
 30
0.0
 11
311.63357
 21
56.991747
 31
0.0
  0
LINE
  5
453
330
446
100
AcDbEntity
  8
CSLAYER2
  6
Continuous
 62
     3
100
AcDbLine
 10
311.63357
 20
56.991747
 30
0.0
 11
311.60368
 21
57.201519
 31
0.0
  0
LINE
  5
454
330
446
100
AcDbEntity
  8
CSLAYER2
  6
Continuous
 62
     3
100
AcDbLine
 10
311.60368
 20
57.201519
 30
0.0
 11
311.577298
 21
57.424523
 31
0.0
  0
LINE
  5
455
330
446
100
AcDbEntity
  8
CSLAYER2
  6
Continuous
 62
     3
100
AcDbLine
 10
311.577298
 20
57.424523
 30
0.0
 11
311.554626
 21
57.659059
 31
0.0
  0
LINE
  5
456
330
446
100
AcDbEntity
  8
CSLAYER2
  6
Continuous
 62
     3
100
AcDbLine
 10
311.554626
 20
57.659059
 30
0.0
 11
311.535836
 21
57.903345
 31
0.0
  0
LINE
  5
457
330
446
100
AcDbEntity
  8
CSLAYER2
  6
Continuous
 62
     3
100
AcDbLine
 10
311.535836
 20
57.903345
 30
0.0
 11
311.521072
 21
58.155519
 31
0.0
  0
LINE
  5
458
330
446
100
AcDbEntity
  8
CSLAYER2
  6
Continuous
 62
     3
100
AcDbLine
 10
311.521072
 20
58.155519
 30
0.0
 11
311.510446
 21
58.413663
 31
0.0
  0
LINE
  5
459
330
446
100
AcDbEntity
  8
CSLAYER2
  6
Continuous
 62
     3
100
AcDbLine
 10
311.510446
 20
58.413663
 30
0.0
 11
311.504036
 21
58.675813
 31
0.0
  0
LINE
  5
45A
330
446
100
AcDbEntity
  8
CSLAYER2
  6
Continuous
 62
     3
100
AcDbLine
 10
311.504036
 20
58.675813
 30
0.0
 11
311.501894
 21
58.939973
 31
0.0
  0
ENDBLK
  5
448
330
446
100
AcDbEntity
  8
0
100
AcDbBlockEnd
  0
BLOCK
  5
45D
330
45C
100
AcDbEntity
  8
0
100
AcDbBlockBegin
  2
BLK22
 70
     0
 10
0.0
 20
0.0
 30
0.0
  3
BLK22
  1

  0
LINE
  5
45F
330
45C
100
AcDbEntity
  8
CSLAYER2
  6
Continuous
 62
     3
100
AcDbLine
 10
317.242704
 20
58.939975
 30
0.0
 11
317.240562
 21
58.675813
 31
0.0
  0
LINE
  5
460
330
45C
100
AcDbEntity
  8
CSLAYER2
  6
Continuous
 62
     3
100
AcDbLine
 10
317.240562
 20
58.675813
 30
0.0
 11
317.234152
 21
58.413663
 31
0.0
  0
LINE
  5
461
330
45C
100
AcDbEntity
  8
CSLAYER2
  6
Continuous
 62
     3
100
AcDbLine
 10
317.234152
 20
58.413663
 30
0.0
 11
317.223526
 21
58.155519
 31
0.0
  0
LINE
  5
462
330
45C
100
AcDbEntity
  8
CSLAYER2
  6
Continuous
 62
     3
100
AcDbLine
 10
317.223526
 20
58.155519
 30
0.0
 11
317.20876
 21
57.903345
 31
0.0
  0
LINE
  5
463
330
45C
100
AcDbEntity
  8
CSLAYER2
  6
Continuous
 62
     3
100
AcDbLine
 10
317.20876
 20
57.903345
 30
0.0
 11
317.189972
 21
57.659059
 31
0.0
  0
LINE
  5
464
330
45C
100
AcDbEntity
  8
CSLAYER2
  6
Continuous
 62
     3
100
AcDbLine
 10
317.189972
 20
57.659059
 30
0.0
 11
317.1673
 21
57.424523
 31
0.0
  0
LINE
  5
465
330
45C
100
AcDbEntity
  8
CSLAYER2
  6
Continuous
 62
     3
100
AcDbLine
 10
317.1673
 20
57.424523
 30
0.0
 11
317.140918
 21
57.201519
 31
0.0
  0
LINE
  5
466
330
45C
100
AcDbEntity
  8
CSLAYER2
  6
Continuous
 62
     3
100
AcDbLine
 10
317.140918
 20
57.201519
 30
0.0
 11
317.111028
 21
56.991747
 31
0.0
  0
LINE
  5
467
330
45C
100
AcDbEntity
  8
CSLAYER2
  6
Continuous
 62
     3
100
AcDbLine
 10
317.111028
 20
56.991747
 30
0.0
 11
317.077856
 21
56.796803
 31
0.0
  0
LINE
  5
468
330
45C
100
AcDbEntity
  8
CSLAYER2
  6
Continuous
 62
     3
100
AcDbLine
 10
317.077856
 20
56.796803
 30
0.0
 11
317.041656
 21
56.618169
 31
0.0
  0
LINE
  5
469
330
45C
100
AcDbEntity
  8
CSLAYER2
  6
Continuous
 62
     3
100
AcDbLine
 10
317.041656
 20
56.618169
 30
0.0
 11
317.002702
 21
56.457205
 31
0.0
  0
LINE
  5
46A
330
45C
100
AcDbEntity
  8
CSLAYER2
  6
Continuous
 62
     3
100
AcDbLine
 10
317.002702
 20
56.457205
 30
0.0
 11
316.961292
 21
56.315135
 31
0.0
  0
LINE
  5
46B
330
45C
100
AcDbEntity
  8
CSLAYER2
  6
Continuous
 62
     3
100
AcDbLine
 10
316.961292
 20
56.315135
 30
0.0
 11
316.91774
 21
56.193043
 31
0.0
  0
LINE
  5
46C
330
45C
100
AcDbEntity
  8
CSLAYER2
  6
Continuous
 62
     3
100
AcDbLine
 10
316.91774
 20
56.193043
 30
0.0
 11
316.872376
 21
56.091857
 31
0.0
  0
LINE
  5
46D
330
45C
100
AcDbEntity
  8
CSLAYER2
  6
Continuous
 62
     3
100
AcDbLine
 10
316.872376
 20
56.091857
 30
0.0
 11
316.82555
 21
56.012347
 31
0.0
  0
LINE
  5
46E
330
45C
100
AcDbEntity
  8
CSLAYER2
  6
Continuous
 62
     3
100
AcDbLine
 10
316.82555
 20
56.012347
 30
0.0
 11
316.777614
 21
55.955117
 31
0.0
  0
LINE
  5
46F
330
45C
100
AcDbEntity
  8
CSLAYER2
  6
Continuous
 62
     3
100
AcDbLine
 10
316.777614
 20
55.955117
 30
0.0
 11
316.728934
 21
55.920605
 31
0.0
  0
LINE
  5
470
330
45C
100
AcDbEntity
  8
CSLAYER2
  6
Continuous
 62
     3
100
AcDbLine
 10
316.728934
 20
55.920605
 30
0.0
 11
316.67988
 21
55.909071
 31
0.0
  0
ENDBLK
  5
45E
330
45C
100
AcDbEntity
  8
0
100
AcDbBlockEnd
  0
BLOCK
  5
49B
330
49A
100
AcDbEntity
  8
0
100
AcDbBlockBegin
  2
BLK23
 70
     0
 10
0.0
 20
0.0
 30
0.0
  3
BLK23
  1

  0
LINE
  5
49D
330
49A
100
AcDbEntity
  8
CSLAYER2
  6
Continuous
 62
     3
100
AcDbLine
 10
276.550494
 20
60.909859
 30
0.0
 11
276.552636
 21
61.041551
 31
0.0
  0
LINE
  5
49E
330
49A
100
AcDbEntity
  8
CSLAYER2
  6
Continuous
 62
     3
100
AcDbLine
 10
276.552636
 20
61.041551
 30
0.0
 11
276.559046
 21
61.172241
 31
0.0
  0
LINE
  5
49F
330
49A
100
AcDbEntity
  8
CSLAYER2
  6
Continuous
 62
     3
100
AcDbLine
 10
276.559046
 20
61.172241
 30
0.0
 11
276.569672
 21
61.300933
 31
0.0
  0
LINE
  5
4A0
330
49A
100
AcDbEntity
  8
CSLAYER2
  6
Continuous
 62
     3
100
AcDbLine
 10
276.569672
 20
61.300933
 30
0.0
 11
276.584438
 21
61.426649
 31
0.0
  0
LINE
  5
4A1
330
49A
100
AcDbEntity
  8
CSLAYER2
  6
Continuous
 62
     3
100
AcDbLine
 10
276.584438
 20
61.426649
 30
0.0
 11
276.603228
 21
61.548433
 31
0.0
  0
LINE
  5
4A2
330
49A
100
AcDbEntity
  8
CSLAYER2
  6
Continuous
 62
     3
100
AcDbLine
 10
276.603228
 20
61.548433
 30
0.0
 11
276.625898
 21
61.665355
 31
0.0
  0
LINE
  5
4A3
330
49A
100
AcDbEntity
  8
CSLAYER2
  6
Continuous
 62
     3
100
AcDbLine
 10
276.625898
 20
61.665355
 30
0.0
 11
276.65228
 21
61.776529
 31
0.0
  0
LINE
  5
4A4
330
49A
100
AcDbEntity
  8
CSLAYER2
  6
Continuous
 62
     3
100
AcDbLine
 10
276.65228
 20
61.776529
 30
0.0
 11
276.68217
 21
61.881107
 31
0.0
  0
LINE
  5
4A5
330
49A
100
AcDbEntity
  8
CSLAYER2
  6
Continuous
 62
     3
100
AcDbLine
 10
276.68217
 20
61.881107
 30
0.0
 11
276.715342
 21
61.978293
 31
0.0
  0
LINE
  5
4A6
330
49A
100
AcDbEntity
  8
CSLAYER2
  6
Continuous
 62
     3
100
AcDbLine
 10
276.715342
 20
61.978293
 30
0.0
 11
276.751542
 21
62.067347
 31
0.0
  0
LINE
  5
4A7
330
49A
100
AcDbEntity
  8
CSLAYER2
  6
Continuous
 62
     3
100
AcDbLine
 10
276.751542
 20
62.067347
 30
0.0
 11
276.790496
 21
62.147591
 31
0.0
  0
LINE
  5
4A8
330
49A
100
AcDbEntity
  8
CSLAYER2
  6
Continuous
 62
     3
100
AcDbLine
 10
276.790496
 20
62.147591
 30
0.0
 11
276.831908
 21
62.218417
 31
0.0
  0
LINE
  5
4A9
330
49A
100
AcDbEntity
  8
CSLAYER2
  6
Continuous
 62
     3
100
AcDbLine
 10
276.831908
 20
62.218417
 30
0.0
 11
276.87546
 21
62.279283
 31
0.0
  0
LINE
  5
4AA
330
49A
100
AcDbEntity
  8
CSLAYER2
  6
Continuous
 62
     3
100
AcDbLine
 10
276.87546
 20
62.279283
 30
0.0
 11
276.920822
 21
62.329727
 31
0.0
  0
LINE
  5
4AB
330
49A
100
AcDbEntity
  8
CSLAYER2
  6
Continuous
 62
     3
100
AcDbLine
 10
276.920822
 20
62.329727
 30
0.0
 11
276.96765
 21
62.369365
 31
0.0
  0
LINE
  5
4AC
330
49A
100
AcDbEntity
  8
CSLAYER2
  6
Continuous
 62
     3
100
AcDbLine
 10
276.96765
 20
62.369365
 30
0.0
 11
277.015586
 21
62.397895
 31
0.0
  0
LINE
  5
4AD
330
49A
100
AcDbEntity
  8
CSLAYER2
  6
Continuous
 62
     3
100
AcDbLine
 10
277.015586
 20
62.397895
 30
0.0
 11
277.064266
 21
62.415101
 31
0.0
  0
ENDBLK
  5
49C
330
49A
100
AcDbEntity
  8
0
100
AcDbBlockEnd
  0
BLOCK
  5
4B4
330
4B3
100
AcDbEntity
  8
0
100
AcDbBlockBegin
  2
BLK24
 70
     0
 10
0.0
 20
0.0
 30
0.0
  3
BLK24
  1

  0
LINE
  5
4B6
330
4B3
100
AcDbEntity
  8
CSLAYER2
  6
Continuous
 62
     3
100
AcDbLine
 10
311.501894
 20
58.939975
 30
0.0
 11
311.504036
 21
59.204135
 31
0.0
  0
LINE
  5
4B7
330
4B3
100
AcDbEntity
  8
CSLAYER2
  6
Continuous
 62
     3
100
AcDbLine
 10
311.504036
 20
59.204135
 30
0.0
 11
311.510446
 21
59.466285
 31
0.0
  0
LINE
  5
4B8
330
4B3
100
AcDbEntity
  8
CSLAYER2
  6
Continuous
 62
     3
100
AcDbLine
 10
311.510446
 20
59.466285
 30
0.0
 11
311.521072
 21
59.724429
 31
0.0
  0
LINE
  5
4B9
330
4B3
100
AcDbEntity
  8
CSLAYER2
  6
Continuous
 62
     3
100
AcDbLine
 10
311.521072
 20
59.724429
 30
0.0
 11
311.535836
 21
59.976603
 31
0.0
  0
LINE
  5
4BA
330
4B3
100
AcDbEntity
  8
CSLAYER2
  6
Continuous
 62
     3
100
AcDbLine
 10
311.535836
 20
59.976603
 30
0.0
 11
311.554626
 21
60.220889
 31
0.0
  0
LINE
  5
4BB
330
4B3
100
AcDbEntity
  8
CSLAYER2
  6
Continuous
 62
     3
100
AcDbLine
 10
311.554626
 20
60.220889
 30
0.0
 11
311.577298
 21
60.455425
 31
0.0
  0
LINE
  5
4BC
330
4B3
100
AcDbEntity
  8
CSLAYER2
  6
Continuous
 62
     3
100
AcDbLine
 10
311.577298
 20
60.455425
 30
0.0
 11
311.60368
 21
60.678429
 31
0.0
  0
LINE
  5
4BD
330
4B3
100
AcDbEntity
  8
CSLAYER2
  6
Continuous
 62
     3
100
AcDbLine
 10
311.60368
 20
60.678429
 30
0.0
 11
311.63357
 21
60.888201
 31
0.0
  0
LINE
  5
4BE
330
4B3
100
AcDbEntity
  8
CSLAYER2
  6
Continuous
 62
     3
100
AcDbLine
 10
311.63357
 20
60.888201
 30
0.0
 11
311.666742
 21
61.083145
 31
0.0
  0
LINE
  5
4BF
330
4B3
100
AcDbEntity
  8
CSLAYER2
  6
Continuous
 62
     3
100
AcDbLine
 10
311.666742
 20
61.083145
 30
0.0
 11
311.702942
 21
61.261781
 31
0.0
  0
LINE
  5
4C0
330
4B3
100
AcDbEntity
  8
CSLAYER2
  6
Continuous
 62
     3
100
AcDbLine
 10
311.702942
 20
61.261781
 30
0.0
 11
311.741896
 21
61.422745
 31
0.0
  0
LINE
  5
4C1
330
4B3
100
AcDbEntity
  8
CSLAYER2
  6
Continuous
 62
     3
100
AcDbLine
 10
311.741896
 20
61.422745
 30
0.0
 11
311.783306
 21
61.564813
 31
0.0
  0
LINE
  5
4C2
330
4B3
100
AcDbEntity
  8
CSLAYER2
  6
Continuous
 62
     3
100
AcDbLine
 10
311.783306
 20
61.564813
 30
0.0
 11
311.826858
 21
61.686905
 31
0.0
  0
LINE
  5
4C3
330
4B3
100
AcDbEntity
  8
CSLAYER2
  6
Continuous
 62
     3
100
AcDbLine
 10
311.826858
 20
61.686905
 30
0.0
 11
311.87222
 21
61.788091
 31
0.0
  0
LINE
  5
4C4
330
4B3
100
AcDbEntity
  8
CSLAYER2
  6
Continuous
 62
     3
100
AcDbLine
 10
311.87222
 20
61.788091
 30
0.0
 11
311.919048
 21
61.867601
 31
0.0
  0
LINE
  5
4C5
330
4B3
100
AcDbEntity
  8
CSLAYER2
  6
Continuous
 62
     3
100
AcDbLine
 10
311.919048
 20
61.867601
 30
0.0
 11
311.966984
 21
61.924831
 31
0.0
  0
LINE
  5
4C6
330
4B3
100
AcDbEntity
  8
CSLAYER2
  6
Continuous
 62
     3
100
AcDbLine
 10
311.966984
 20
61.924831
 30
0.0
 11
312.015664
 21
61.959343
 31
0.0
  0
LINE
  5
4C7
330
4B3
100
AcDbEntity
  8
CSLAYER2
  6
Continuous
 62
     3
100
AcDbLine
 10
312.015664
 20
61.959343
 30
0.0
 11
312.064718
 21
61.970877
 31
0.0
  0
ENDBLK
  5
4B5
330
4B3
100
AcDbEntity
  8
0
100
AcDbBlockEnd
  0
BLOCK
  5
4CA
330
4C9
100
AcDbEntity
  8
0
100
AcDbBlockBegin
  2
BLK25
 70
     0
 10
0.0
 20
0.0
 30
0.0
  3
BLK25
  1

  0
LINE
  5
4CC
330
4C9
100
AcDbEntity
  8
CSLAYER2
  6
Continuous
 62
     3
100
AcDbLine
 10
316.67988
 20
61.970877
 30
0.0
 11
316.728934
 21
61.959343
 31
0.0
  0
LINE
  5
4CD
330
4C9
100
AcDbEntity
  8
CSLAYER2
  6
Continuous
 62
     3
100
AcDbLine
 10
316.728934
 20
61.959343
 30
0.0
 11
316.777614
 21
61.924831
 31
0.0
  0
LINE
  5
4CE
330
4C9
100
AcDbEntity
  8
CSLAYER2
  6
Continuous
 62
     3
100
AcDbLine
 10
316.777614
 20
61.924831
 30
0.0
 11
316.82555
 21
61.867601
 31
0.0
  0
LINE
  5
4CF
330
4C9
100
AcDbEntity
  8
CSLAYER2
  6
Continuous
 62
     3
100
AcDbLine
 10
316.82555
 20
61.867601
 30
0.0
 11
316.872376
 21
61.788091
 31
0.0
  0
LINE
  5
4D0
330
4C9
100
AcDbEntity
  8
CSLAYER2
  6
Continuous
 62
     3
100
AcDbLine
 10
316.872376
 20
61.788091
 30
0.0
 11
316.91774
 21
61.686905
 31
0.0
  0
LINE
  5
4D1
330
4C9
100
AcDbEntity
  8
CSLAYER2
  6
Continuous
 62
     3
100
AcDbLine
 10
316.91774
 20
61.686905
 30
0.0
 11
316.961292
 21
61.564813
 31
0.0
  0
LINE
  5
4D2
330
4C9
100
AcDbEntity
  8
CSLAYER2
  6
Continuous
 62
     3
100
AcDbLine
 10
316.961292
 20
61.564813
 30
0.0
 11
317.002702
 21
61.422745
 31
0.0
  0
LINE
  5
4D3
330
4C9
100
AcDbEntity
  8
CSLAYER2
  6
Continuous
 62
     3
100
AcDbLine
 10
317.002702
 20
61.422745
 30
0.0
 11
317.041656
 21
61.261781
 31
0.0
  0
LINE
  5
4D4
330
4C9
100
AcDbEntity
  8
CSLAYER2
  6
Continuous
 62
     3
100
AcDbLine
 10
317.041656
 20
61.261781
 30
0.0
 11
317.077856
 21
61.083145
 31
0.0
  0
LINE
  5
4D5
330
4C9
100
AcDbEntity
  8
CSLAYER2
  6
Continuous
 62
     3
100
AcDbLine
 10
317.077856
 20
61.083145
 30
0.0
 11
317.111028
 21
60.888201
 31
0.0
  0
LINE
  5
4D6
330
4C9
100
AcDbEntity
  8
CSLAYER2
  6
Continuous
 62
     3
100
AcDbLine
 10
317.111028
 20
60.888201
 30
0.0
 11
317.140918
 21
60.678429
 31
0.0
  0
LINE
  5
4D7
330
4C9
100
AcDbEntity
  8
CSLAYER2
  6
Continuous
 62
     3
100
AcDbLine
 10
317.140918
 20
60.678429
 30
0.0
 11
317.1673
 21
60.455425
 31
0.0
  0
LINE
  5
4D8
330
4C9
100
AcDbEntity
  8
CSLAYER2
  6
Continuous
 62
     3
100
AcDbLine
 10
317.1673
 20
60.455425
 30
0.0
 11
317.189972
 21
60.220889
 31
0.0
  0
LINE
  5
4D9
330
4C9
100
AcDbEntity
  8
CSLAYER2
  6
Continuous
 62
     3
100
AcDbLine
 10
317.189972
 20
60.220889
 30
0.0
 11
317.20876
 21
59.976603
 31
0.0
  0
LINE
  5
4DA
330
4C9
100
AcDbEntity
  8
CSLAYER2
  6
Continuous
 62
     3
100
AcDbLine
 10
317.20876
 20
59.976603
 30
0.0
 11
317.223526
 21
59.724429
 31
0.0
  0
LINE
  5
4DB
330
4C9
100
AcDbEntity
  8
CSLAYER2
  6
Continuous
 62
     3
100
AcDbLine
 10
317.223526
 20
59.724429
 30
0.0
 11
317.234152
 21
59.466285
 31
0.0
  0
LINE
  5
4DC
330
4C9
100
AcDbEntity
  8
CSLAYER2
  6
Continuous
 62
     3
100
AcDbLine
 10
317.234152
 20
59.466285
 30
0.0
 11
317.240562
 21
59.204135
 31
0.0
  0
LINE
  5
4DD
330
4C9
100
AcDbEntity
  8
CSLAYER2
  6
Continuous
 62
     3
100
AcDbLine
 10
317.240562
 20
59.204135
 30
0.0
 11
317.242704
 21
58.939975
 31
0.0
  0
ENDBLK
  5
4CB
330
4C9
100
AcDbEntity
  8
0
100
AcDbBlockEnd
  0
BLOCK
  5
507
330
506
100
AcDbEntity
  8
0
100
AcDbBlockBegin
  2
_D1
 70
     0
 10
0.0
 20
0.0
 30
0.0
  3
_D1
  1

  0
LINE
  5
509
330
506
100
AcDbEntity
  8
0
  6
Continuous
 62
     7
100
AcDbLine
 10
-87.73353
 20
55.460963
 30
0.0
 11
-108.313831
 21
55.460963
 31
0.0
  0
LINE
  5
50A
330
506
100
AcDbEntity
  8
0
  6
Continuous
 62
     7
100
AcDbLine
 10
-107.313831
 20
55.460963
 30
0.0
 11
-107.313831
 21
95.430963
 31
0.0
  0
LINE
  5
50B
330
506
100
AcDbEntity
  8
0
  6
Continuous
 62
     7
100
AcDbLine
 10
-87.73353
 20
95.430963
 30
0.0
 11
-108.313831
 21
95.430963
 31
0.0
  0
INSERT
  5
50C
330
506
100
AcDbEntity
  8
0
  6
Continuous
 62
     7
100
AcDbBlockReference
  2
_OPEN30
 10
-107.313831
 20
55.460963
 30
0.0
 41
2.954423259036624
 42
2.954423259036624
 43
2.954423259036624
 50
270.0
  0
INSERT
  5
50D
330
506
100
AcDbEntity
  8
0
  6
Continuous
 62
     7
100
AcDbBlockReference
  2
_OPEN30
 10
-107.313831
 20
95.430963
 30
0.0
 41
2.954423259036631
 42
2.954423259036631
 43
2.954423259036631
 50
90.0
  0
MTEXT
  5
50F
330
506
100
AcDbEntity
  8
0
  6
Continuous
 62
     7
100
AcDbMText
 10
-107.313831
 20
68.02996300000001
 30
0.0
 40
4.0
 41
0.0
 71
     7
 72
     5
  1
φ{\W0.5x;40{\H1.00x;\A2\S 0^ -0.01;}}
  7
MTSTANDARD2
 11
0.0
 21
1.0
 31
0.0
 73
     1
 44
0.7999999999999999
  0
POINT
  5
510
330
506
100
AcDbEntity
  8
DEFPOINTS
  6
Continuous
 62
     7
100
AcDbPoint
 10
-86.73353
 20
55.460963
 30
0.0
  0
POINT
  5
511
330
506
100
AcDbEntity
  8
DEFPOINTS
  6
Continuous
 62
     7
100
AcDbPoint
 10
-86.73353
 20
95.430963
 30
0.0
  0
POINT
  5
512
330
506
100
AcDbEntity
  8
DEFPOINTS
  6
Continuous
 62
     7
100
AcDbPoint
 10
-107.313831
 20
95.430963
 30
0.0
  0
ENDBLK
  5
508
330
506
100
AcDbEntity
  8
0
100
AcDbBlockEnd
  0
BLOCK
  5
516
330
515
100
AcDbEntity
  8
0
100
AcDbBlockBegin
  2
_D2
 70
     0
 10
0.0
 20
0.0
 30
0.0
  3
_D2
  1

  0
LINE
  5
518
330
515
100
AcDbEntity
  8
0
  6
Continuous
 62
     7
100
AcDbLine
 10
-86.933534
 20
96.230963
 30
0.0
 11
-86.933534
 21
123.44328
 31
0.0
  0
LINE
  5
519
330
515
100
AcDbEntity
  8
0
  6
Continuous
 62
     7
100
AcDbLine
 10
-86.933534
 20
122.44328
 30
0.0
 11
85.866456
 21
122.44328
 31
0.0
  0
LINE
  5
51A
330
515
100
AcDbEntity
  8
0
  6
Continuous
 62
     7
100
AcDbLine
 10
85.86645600000001
 20
96.195963
 30
0.0
 11
85.86645599999999
 21
123.44328
 31
0.0
  0
INSERT
  5
51B
330
515
100
AcDbEntity
  8
0
  6
Continuous
 62
     7
100
AcDbBlockReference
  2
_OPEN30
 10
-86.933534
 20
122.44328
 30
0.0
 41
2.954423259036631
 42
2.954423259036631
 43
2.954423259036631
 50
180.0
  0
INSERT
  5
51C
330
515
100
AcDbEntity
  8
0
  6
Continuous
 62
     7
100
AcDbBlockReference
  2
_OPEN30
 10
85.866456
 20
122.44328
 30
0.0
 41
2.954423259036631
 42
2.954423259036631
 43
2.954423259036631
  0
MTEXT
  5
51D
330
515
100
AcDbEntity
  8
0
  6
Continuous
 62
     7
100
AcDbMText
 10
-4.241538999999998
 20
122.44328
 30
0.0
 40
4.0
 41
0.0
 71
     7
 72
     5
  1
{\W0.5x;172.8}
  7
MTSTANDARD2
 73
     1
 44
0.7999999999999999
  0
POINT
  5
51E
330
515
100
AcDbEntity
  8
DEFPOINTS
  6
Continuous
 62
     7
100
AcDbPoint
 10
-86.933534
 20
95.230963
 30
0.0
  0
POINT
  5
51F
330
515
100
AcDbEntity
  8
DEFPOINTS
  6
Continuous
 62
     7
100
AcDbPoint
 10
85.866456
 20
95.195963
 30
0.0
  0
POINT
  5
520
330
515
100
AcDbEntity
  8
DEFPOINTS
  6
Continuous
 62
     7
100
AcDbPoint
 10
85.866456
 20
122.44328
 30
0.0
  0
ENDBLK
  5
517
330
515
100
AcDbEntity
  8
0
100
AcDbBlockEnd
  0
BLOCK
  5
523
330
522
100
AcDbEntity
  8
0
100
AcDbBlockBegin
  2
_D3
 70
     0
 10
0.0
 20
0.0
 30
0.0
  3
_D3
  1

  0
LINE
  5
525
330
522
100
AcDbEntity
  8
0
  6
Continuous
 62
     7
100
AcDbLine
 10
85.866456
 20
96.195963
 30
0.0
 11
85.866456
 21
110.165299
 31
0.0
  0
LINE
  5
526
330
522
100
AcDbEntity
  8
0
  6
Continuous
 62
     7
100
AcDbLine
 10
85.866456
 20
109.165299
 30
0.0
 11
99.766452
 21
109.165299
 31
0.0
  0
LINE
  5
527
330
522
100
AcDbEntity
  8
0
  6
Continuous
 62
     7
100
AcDbLine
 10
99.766452
 20
92.198647
 30
0.0
 11
99.76645199999999
 21
110.165299
 31
0.0
  0
LINE
  5
528
330
522
100
AcDbEntity
  8
0
  6
Continuous
 62
     7
100
AcDbLine
 10
99.766452
 20
109.165299
 30
0.0
 11
119.554449
 21
109.165299
 31
0.0
  0
INSERT
  5
529
330
522
100
AcDbEntity
  8
0
  6
Continuous
 62
     7
100
AcDbBlockReference
  2
_OPEN30
 10
85.866456
 20
109.165299
 30
0.0
 41
2.954423259036631
 42
2.954423259036631
 43
2.954423259036631
 50
180.0
  0
INSERT
  5
52A
330
522
100
AcDbEntity
  8
0
  6
Continuous
 62
     7
100
AcDbBlockReference
  2
_OPEN30
 10
99.766452
 20
109.165299
 30
0.0
 41
2.954423259036631
 42
2.954423259036631
 43
2.954423259036631
  0
MTEXT
  5
52B
330
522
100
AcDbEntity
  8
0
  6
Continuous
 62
     7
100
AcDbMText
 10
110.266449
 20
110.165298
 30
0.0
 40
4.0
 41
0.0
 71
     7
 72
     5
  1
{\W0.5x;(13.9)}
  7
MTSTANDARD2
 73
     1
 44
0.7999999999999999
  0
POINT
  5
52C
330
522
100
AcDbEntity
  8
DEFPOINTS
  6
Continuous
 62
     7
100
AcDbPoint
 10
85.866456
 20
95.195963
 30
0.0
  0
POINT
  5
52D
330
522
100
AcDbEntity
  8
DEFPOINTS
  6
Continuous
 62
     7
100
AcDbPoint
 10
99.766452
 20
91.198647
 30
0.0
  0
POINT
  5
52E
330
522
100
AcDbEntity
  8
DEFPOINTS
  6
Continuous
 62
     7
100
AcDbPoint
 10
99.766452
 20
109.165299
 30
0.0
  0
ENDBLK
  5
524
330
522
100
AcDbEntity
  8
0
100
AcDbBlockEnd
  0
BLOCK
  5
531
330
530
100
AcDbEntity
  8
0
100
AcDbBlockBegin
  2
_D4
 70
     0
 10
0.0
 20
0.0
 30
0.0
  3
_D4
  1

  0
LINE
  5
533
330
530
100
AcDbEntity
  8
0
  6
Continuous
 62
     7
100
AcDbLine
 10
85.86645600000001
 20
96.195963
 30
0.0
 11
85.86645599999999
 21
123.44328
 31
0.0
  0
LINE
  5
534
330
530
100
AcDbEntity
  8
0
  6
Continuous
 62
     7
100
AcDbLine
 10
85.866456
 20
122.44328
 30
0.0
 11
332.829924
 21
122.44328
 31
0.0
  0
LINE
  5
535
330
530
100
AcDbEntity
  8
0
  6
Continuous
 62
     7
100
AcDbLine
 10
332.829924
 20
95.575107
 30
0.0
 11
332.829924
 21
123.44328
 31
0.0
  0
INSERT
  5
536
330
530
100
AcDbEntity
  8
0
  6
Continuous
 62
     7
100
AcDbBlockReference
  2
_OPEN30
 10
85.866456
 20
122.44328
 30
0.0
 41
2.954423259036631
 42
2.954423259036631
 43
2.954423259036631
 50
180.0
  0
INSERT
  5
537
330
530
100
AcDbEntity
  8
0
  6
Continuous
 62
     7
100
AcDbBlockReference
  2
_OPEN30
 10
332.829924
 20
122.44328
 30
0.0
 41
2.954423259036616
 42
2.954423259036616
 43
2.954423259036616
  0
MTEXT
  5
538
330
530
100
AcDbEntity
  8
0
  6
Continuous
 62
     7
100
AcDbMText
 10
205.00419
 20
122.44328
 30
0.0
 40
4.0
 41
0.0
 71
     7
 72
     5
  1
{\W0.5x;(300)}
  7
MTSTANDARD2
 73
     1
 44
0.7999999999999999
  0
POINT
  5
539
330
530
100
AcDbEntity
  8
DEFPOINTS
  6
Continuous
 62
     7
100
AcDbPoint
 10
85.866456
 20
95.195963
 30
0.0
  0
POINT
  5
53A
330
530
100
AcDbEntity
  8
DEFPOINTS
  6
Continuous
 62
     7
100
AcDbPoint
 10
332.829924
 20
94.575107
 30
0.0
  0
POINT
  5
53B
330
530
100
AcDbEntity
  8
DEFPOINTS
  6
Continuous
 62
     7
100
AcDbPoint
 10
332.829924
 20
122.44328
 30
0.0
  0
ENDBLK
  5
532
330
530
100
AcDbEntity
  8
0
100
AcDbBlockEnd
  0
ENDSEC
  0
SECTION
  2
ENTITIES
  0
LINE
  5
AF
330
1F
100
AcDbEntity
  8
0
  6
Continuous
 62
     3
100
AcDbLine
 10
90.426456
 20
60.496139
 30
0.0
 11
98.266456
 21
60.496139
 31
0.0
  0
LINE
  5
B0
330
1F
100
AcDbEntity
  8
0
  6
Continuous
 62
     3
100
AcDbLine
 10
98.266456
 20
70.496139
 30
0.0
 11
90.426456
 21
70.496139
 31
0.0
  0
LINE
  5
B1
330
1F
100
AcDbEntity
  8
0
  6
Continuous
 62
     3
100
AcDbLine
 10
99.266452
 20
60.596139
 30
0.0
 11
100.266454
 21
60.596139
 31
0.0
  0
LINE
  5
B2
330
1F
100
AcDbEntity
  8
0
  6
Continuous
 62
     3
100
AcDbLine
 10
100.266454
 20
70.396141
 30
0.0
 11
99.266452
 21
70.396141
 31
0.0
  0
LINE
  5
B3
330
1F
100
AcDbEntity
  8
0
  6
Continuous
 62
     3
100
AcDbLine
 10
98.266456
 20
60.596139
 30
0.0
 11
98.76645
 21
60.596139
 31
0.0
  0
LINE
  5
B4
330
1F
100
AcDbEntity
  8
0
  6
Continuous
 62
     3
100
AcDbLine
 10
98.76645
 20
70.396141
 30
0.0
 11
98.266456
 21
70.396141
 31
0.0
  0
LINE
  5
B5
330
1F
100
AcDbEntity
  8
0
  6
Continuous
 62
     3
100
AcDbLine
 10
85.866456
 20
60.996139
 30
0.0
 11
90.426456
 21
60.996139
 31
0.0
  0
LINE
  5
B6
330
1F
100
AcDbEntity
  8
0
  6
Continuous
 62
     3
100
AcDbLine
 10
90.426456
 20
69.996139
 30
0.0
 11
85.866456
 21
69.996139
 31
0.0
  0
LINE
  5
B7
330
1F
100
AcDbEntity
  8
0
  6
Continuous
 62
     3
100
AcDbLine
 10
98.76645
 20
61.896141
 30
0.0
 11
99.266452
 21
61.896141
 31
0.0
  0
LINE
  5
B8
330
1F
100
AcDbEntity
  8
0
  6
Continuous
 62
     3
100
AcDbLine
 10
99.266452
 20
69.096139
 30
0.0
 11
98.76645
 21
69.096139
 31
0.0
  0
LINE
  5
B9
330
1F
100
AcDbEntity
  8
0
  6
Continuous
 62
     3
100
AcDbLine
 10
168.048154
 20
72.988819
 30
0.0
 11
99.766452
 21
72.988819
 31
0.0
  0
LINE
  5
BA
330
1F
100
AcDbEntity
  8
0
  6
Continuous
 62
     3
100
AcDbLine
 10
99.766452
 20
77.498647
 30
0.0
 11
166.423518
 21
77.498647
 31
0.0
  0
LINE
  5
BB
330
1F
100
AcDbEntity
  8
0
  6
Continuous
 62
     3
100
AcDbLine
 10
165.372064
 20
88.898647
 30
0.0
 11
99.766452
 21
88.898647
 31
0.0
  0
LINE
  5
BC
330
1F
100
AcDbEntity
  8
0
  6
Continuous
 62
     3
100
AcDbLine
 10
99.266452
 20
74.698647
 30
0.0
 11
99.766452
 21
75.198647
 31
0.0
  0
LINE
  5
BD
330
1F
100
AcDbEntity
  8
0
  6
Continuous
 62
     3
100
AcDbLine
 10
99.766452
 20
91.198647
 30
0.0
 11
99.266452
 21
91.698647
 31
0.0
  0
LINE
  5
BE
330
1F
100
AcDbEntity
  8
0
  6
Continuous
 62
     3
100
AcDbLine
 10
93.766456
 20
74.898647
 30
0.0
 11
93.966452
 21
74.698647
 31
0.0
  0
LINE
  5
BF
330
1F
100
AcDbEntity
  8
0
  6
Continuous
 62
     3
100
AcDbLine
 10
93.966452
 20
74.698647
 30
0.0
 11
99.266452
 21
74.698647
 31
0.0
  0
LINE
  5
C0
330
1F
100
AcDbEntity
  8
0
  6
Continuous
 62
     3
100
AcDbLine
 10
93.966452
 20
91.698647
 30
0.0
 11
93.766456
 21
91.498649
 31
0.0
  0
LINE
  5
C1
330
1F
100
AcDbEntity
  8
0
  6
Continuous
 62
     3
100
AcDbLine
 10
99.266452
 20
91.698647
 30
0.0
 11
93.966452
 21
91.698647
 31
0.0
  0
LINE
  5
C2
330
1F
100
AcDbEntity
  8
0
  6
Continuous
 62
     3
100
AcDbLine
 10
93.766456
 20
91.198647
 30
0.0
 11
93.765836
 21
91.199267
 31
0.0
  0
LINE
  5
C3
330
1F
100
AcDbEntity
  8
0
  6
Continuous
 62
     3
100
AcDbLine
 10
93.765836
 20
75.198029
 30
0.0
 11
93.766456
 21
75.198647
 31
0.0
  0
LINE
  5
C4
330
1F
100
AcDbEntity
  8
0
  6
Continuous
 62
     3
100
AcDbLine
 10
85.666452
 20
95.395963
 30
0.0
 11
64.36645
 21
95.395963
 31
0.0
  0
LINE
  5
C5
330
1F
100
AcDbEntity
  8
0
  6
Continuous
 62
     3
100
AcDbLine
 10
64.36645
 20
55.495961
 30
0.0
 11
85.666452
 21
55.495961
 31
0.0
  0
LINE
  5
C6
330
1F
100
AcDbEntity
  8
0
  6
Continuous
 62
     3
100
AcDbLine
 10
85.666452
 20
55.495961
 30
0.0
 11
85.866456
 21
55.695961
 31
0.0
  0
LINE
  5
C7
330
1F
100
AcDbEntity
  8
0
  6
Continuous
 62
     3
100
AcDbLine
 10
85.866456
 20
95.195963
 30
0.0
 11
85.666452
 21
95.395963
 31
0.0
  0
LINE
  5
C8
330
1F
100
AcDbEntity
  8
0
  6
Continuous
 62
     3
100
AcDbLine
 10
64.36645
 20
95.395963
 30
0.0
 11
64.266448
 21
95.295963
 31
0.0
  0
LINE
  5
C9
330
1F
100
AcDbEntity
  8
0
  6
Continuous
 62
     3
100
AcDbLine
 10
64.266448
 20
55.595961
 30
0.0
 11
64.36645
 21
55.495961
 31
0.0
  0
LINE
  5
CA
330
1F
100
AcDbEntity
  8
0
  6
Continuous
 62
     3
100
AcDbLine
 10
-61.83825
 20
95.445963
 30
0.0
 11
-62.933544
 21
95.445963
 31
0.0
  0
LINE
  5
CB
330
1F
100
AcDbEntity
  8
0
  6
Continuous
 62
     3
100
AcDbLine
 10
-49.756762
 20
95.445963
 30
0.0
 11
-56.028854
 21
95.445963
 31
0.0
  0
LINE
  5
CC
330
1F
100
AcDbEntity
  8
0
  6
Continuous
 62
     3
100
AcDbLine
 10
55.26646
 20
95.445963
 30
0.0
 11
-46.410348
 21
95.445963
 31
0.0
  0
LINE
  5
CD
330
1F
100
AcDbEntity
  8
0
  6
Continuous
 62
     3
100
AcDbLine
 10
-56.028854
 20
55.445963
 30
0.0
 11
55.26646
 21
55.445963
 31
0.0
  0
LINE
  5
CE
330
1F
100
AcDbEntity
  8
0
  6
Continuous
 62
     3
100
AcDbLine
 10
-62.933544
 20
55.445963
 30
0.0
 11
-61.83825
 21
55.445963
 31
0.0
  0
LINE
  5
CF
330
1F
100
AcDbEntity
  8
0
  6
Continuous
 62
     3
100
AcDbLine
 10
64.266448
 20
95.430963
 30
0.0
 11
55.26646
 21
95.430963
 31
0.0
  0
LINE
  5
D0
330
1F
100
AcDbEntity
  8
0
  6
Continuous
 62
     3
100
AcDbLine
 10
55.26646
 20
55.460963
 30
0.0
 11
64.266448
 21
55.460963
 31
0.0
  0
LINE
  5
D1
330
1F
100
AcDbEntity
  8
0
  6
Continuous
 62
     3
100
AcDbLine
 10
-86.73353
 20
95.430963
 30
0.0
 11
-86.933534
 21
95.230963
 31
0.0
  0
LINE
  5
D2
330
1F
100
AcDbEntity
  8
0
  6
Continuous
 62
     3
100
AcDbLine
 10
-86.933534
 20
55.660963
 30
0.0
 11
-86.73353
 21
55.460963
 31
0.0
  0
LINE
  5
D3
330
1F
100
AcDbEntity
  8
0
  6
Continuous
 62
     3
100
AcDbLine
 10
-62.933544
 20
95.430963
 30
0.0
 11
-86.73353
 21
95.430963
 31
0.0
  0
LINE
  5
D4
330
1F
100
AcDbEntity
  8
0
  6
Continuous
 62
     3
100
AcDbLine
 10
-86.73353
 20
55.460963
 30
0.0
 11
-62.933544
 21
55.460963
 31
0.0
  0
LINE
  5
D5
330
1F
100
AcDbEntity
  8
0
  6
Continuous
 62
     3
100
AcDbLine
 10
98.266456
 20
63.060523
 30
0.0
 11
98.266456
 21
60.496139
 31
0.0
  0
LINE
  5
D6
330
1F
100
AcDbEntity
  8
0
  6
Continuous
 62
     3
100
AcDbLine
 10
98.266456
 20
70.496139
 30
0.0
 11
98.266456
 21
63.060523
 31
0.0
  0
LINE
  5
D7
330
1F
100
AcDbEntity
  8
0
  6
Continuous
 62
     3
100
AcDbLine
 10
90.426456
 20
63.060523
 30
0.0
 11
90.426456
 21
60.496139
 31
0.0
  0
LINE
  5
D8
330
1F
100
AcDbEntity
  8
0
  6
Continuous
 62
     3
100
AcDbLine
 10
90.426456
 20
70.496139
 30
0.0
 11
90.426456
 21
63.060523
 31
0.0
  0
LINE
  5
D9
330
1F
100
AcDbEntity
  8
0
  6
Continuous
 62
     3
100
AcDbLine
 10
100.266454
 20
63.109235
 30
0.0
 11
100.266454
 21
60.596139
 31
0.0
  0
LINE
  5
DA
330
1F
100
AcDbEntity
  8
0
  6
Continuous
 62
     3
100
AcDbLine
 10
100.266454
 20
70.396141
 30
0.0
 11
100.266454
 21
63.109235
 31
0.0
  0
LINE
  5
DB
330
1F
100
AcDbEntity
  8
0
  6
Continuous
 62
     3
100
AcDbLine
 10
99.266452
 20
63.109235
 30
0.0
 11
99.266452
 21
60.596139
 31
0.0
  0
LINE
  5
DC
330
1F
100
AcDbEntity
  8
0
  6
Continuous
 62
     3
100
AcDbLine
 10
99.266452
 20
70.396141
 30
0.0
 11
99.266452
 21
63.109235
 31
0.0
  0
LINE
  5
DD
330
1F
100
AcDbEntity
  8
0
  6
Continuous
 62
     3
100
AcDbLine
 10
98.76645
 20
63.109235
 30
0.0
 11
98.76645
 21
60.596139
 31
0.0
  0
LINE
  5
DE
330
1F
100
AcDbEntity
  8
0
  6
Continuous
 62
     3
100
AcDbLine
 10
98.76645
 20
70.396141
 30
0.0
 11
98.76645
 21
63.109235
 31
0.0
  0
LINE
  5
DF
330
1F
100
AcDbEntity
  8
0
  6
Continuous
 62
     3
100
AcDbLine
 10
98.76645
 20
70.265543
 30
0.0
 11
99.266452
 21
70.265543
 31
0.0
  0
LINE
  5
E0
330
1F
100
AcDbEntity
  8
0
  6
Continuous
 62
     3
100
AcDbLine
 10
99.266452
 20
70.396141
 30
0.0
 11
99.266452
 21
71.884085
 31
0.0
  0
INSERT
  5
11E
330
1F
100
AcDbEntity
  8
0
  6
Continuous
 62
     7
100
AcDbBlockReference
  2
BLK0
 10
0.0
 20
0.0
 30
0.0
  0
LINE
  5
11F
330
1F
100
AcDbEntity
  8
0
  6
Continuous
 62
     3
100
AcDbLine
 10
99.766452
 20
73.675047
 30
0.0
 11
99.766452
 21
70.396141
 31
0.0
  0
LINE
  5
120
330
1F
100
AcDbEntity
  8
0
  6
Continuous
 62
     3
100
AcDbLine
 10
93.966452
 20
71.884085
 30
0.0
 11
93.966452
 21
70.496139
 31
0.0
  0
INSERT
  5
133
330
1F
100
AcDbEntity
  8
0
  6
Continuous
 62
     7
100
AcDbBlockReference
  2
BLK1
 10
0.0
 20
0.0
 30
0.0
  0
LINE
  5
134
330
1F
100
AcDbEntity
  8
0
  6
Continuous
 62
     3
100
AcDbLine
 10
93.766456
 20
70.529337
 30
0.0
 11
93.766456
 21
72.298917
 31
0.0
  0
LINE
  5
135
330
1F
100
AcDbEntity
  8
0
  6
Continuous
 62
     3
100
AcDbLine
 10
93.966452
 20
71.884085
 30
0.0
 11
99.266452
 21
71.884085
 31
0.0
  0
LINE
  5
136
330
1F
100
AcDbEntity
  8
0
  6
Continuous
 62
     3
100
AcDbLine
 10
99.469144
 20
74.901337
 30
0.0
 11
99.766452
 21
73.675047
 31
0.0
  0
LINE
  5
137
330
1F
100
AcDbEntity
  8
0
  6
Continuous
 62
     3
100
AcDbLine
 10
93.766456
 20
72.298917
 30
0.0
 11
93.766456
 21
74.898647
 31
0.0
  0
LINE
  5
138
330
1F
100
AcDbEntity
  8
0
  6
Continuous
 62
     3
100
AcDbLine
 10
99.766452
 20
75.198647
 30
0.0
 11
99.766452
 21
73.675047
 31
0.0
  0
LINE
  5
139
330
1F
100
AcDbEntity
  8
0
  6
Continuous
 62
     3
100
AcDbLine
 10
93.266454
 20
70.496139
 30
0.0
 11
93.266454
 21
70.996801
 31
0.0
  0
INSERT
  5
177
330
1F
100
AcDbEntity
  8
0
  6
Continuous
 62
     7
100
AcDbBlockReference
  2
BLK2
 10
0.0
 20
0.0
 30
0.0
  0
INSERT
  5
19C
330
1F
100
AcDbEntity
  8
0
  6
Continuous
 62
     7
100
AcDbBlockReference
  2
BLK3
 10
0.0
 20
0.0
 30
0.0
  0
LINE
  5
19D
330
1F
100
AcDbEntity
  8
0
  6
Continuous
 62
     3
100
AcDbLine
 10
86.066452
 20
70.996801
 30
0.0
 11
93.266454
 21
70.996801
 31
0.0
  0
LINE
  5
19E
330
1F
100
AcDbEntity
  8
0
  6
Continuous
 62
     3
100
AcDbLine
 10
86.066452
 20
75.040113
 30
0.0
 11
93.266454
 21
75.040113
 31
0.0
  0
LINE
  5
19F
330
1F
100
AcDbEntity
  8
0
  6
Continuous
 62
     3
100
AcDbLine
 10
86.066452
 20
70.996801
 30
0.0
 11
86.066452
 21
69.996139
 31
0.0
  0
LINE
  5
1A0
330
1F
100
AcDbEntity
  8
0
  6
Continuous
 62
     3
100
AcDbLine
 10
93.266454
 20
75.040113
 30
0.0
 11
93.266454
 21
75.163535
 31
0.0
  0
LINE
  5
1A1
330
1F
100
AcDbEntity
  8
0
  6
Continuous
 62
     3
100
AcDbLine
 10
86.066452
 20
75.163535
 30
0.0
 11
86.066452
 21
75.040113
 31
0.0
  0
LINE
  5
1A2
330
1F
100
AcDbEntity
  8
0
  6
Continuous
 62
     3
100
AcDbLine
 10
99.266452
 20
87.019629
 30
0.0
 11
99.766452
 21
84.168535
 31
0.0
  0
INSERT
  5
1D9
330
1F
100
AcDbEntity
  8
0
  6
Continuous
 62
     7
100
AcDbBlockReference
  2
BLK4
 10
0.0
 20
0.0
 30
0.0
  0
LINE
  5
1DA
330
1F
100
AcDbEntity
  8
0
  6
Continuous
 62
     3
100
AcDbLine
 10
93.966452
 20
81.317439
 30
0.0
 11
99.266452
 21
81.317439
 31
0.0
  0
INSERT
  5
1E6
330
1F
100
AcDbEntity
  8
0
  6
Continuous
 62
     7
100
AcDbBlockReference
  2
BLK5
 10
0.0
 20
0.0
 30
0.0
  0
LINE
  5
1E7
330
1F
100
AcDbEntity
  8
0
  6
Continuous
 62
     3
100
AcDbLine
 10
93.766456
 20
86.363557
 30
0.0
 11
93.966452
 21
87.019629
 31
0.0
  0
LINE
  5
1E8
330
1F
100
AcDbEntity
  8
0
  6
Continuous
 62
     3
100
AcDbLine
 10
93.966452
 20
87.019629
 30
0.0
 11
99.266452
 21
87.019629
 31
0.0
  0
LINE
  5
1E9
330
1F
100
AcDbEntity
  8
0
  6
Continuous
 62
     3
100
AcDbLine
 10
93.766456
 20
81.973511
 30
0.0
 11
93.766456
 21
86.363557
 31
0.0
  0
INSERT
  5
208
330
1F
100
AcDbEntity
  8
0
  6
Continuous
 62
     7
100
AcDbBlockReference
  2
BLK6
 10
0.0
 20
0.0
 30
0.0
  0
LINE
  5
209
330
1F
100
AcDbEntity
  8
0
  6
Continuous
 62
     3
100
AcDbLine
 10
99.266452
 20
78.533609
 30
0.0
 11
99.266452
 21
81.317439
 31
0.0
  0
LINE
  5
20A
330
1F
100
AcDbEntity
  8
0
  6
Continuous
 62
     3
100
AcDbLine
 10
99.766452
 20
84.168535
 30
0.0
 11
99.766452
 21
76.806491
 31
0.0
  0
LINE
  5
20B
330
1F
100
AcDbEntity
  8
0
  6
Continuous
 62
     3
100
AcDbLine
 10
93.966452
 20
81.317439
 30
0.0
 11
93.966452
 21
78.533609
 31
0.0
  0
LINE
  5
20C
330
1F
100
AcDbEntity
  8
0
  6
Continuous
 62
     3
100
AcDbLine
 10
93.766456
 20
78.136179
 30
0.0
 11
93.966452
 21
78.533609
 31
0.0
  0
LINE
  5
20D
330
1F
100
AcDbEntity
  8
0
  6
Continuous
 62
     3
100
AcDbLine
 10
93.766456
 20
78.136179
 30
0.0
 11
93.766456
 21
81.973511
 31
0.0
  0
LINE
  5
20E
330
1F
100
AcDbEntity
  8
0
  6
Continuous
 62
     3
100
AcDbLine
 10
93.966452
 20
78.533609
 30
0.0
 11
99.266452
 21
78.533609
 31
0.0
  0
LINE
  5
20F
330
1F
100
AcDbEntity
  8
0
  6
Continuous
 62
     3
100
AcDbLine
 10
99.266452
 20
87.019629
 30
0.0
 11
99.266452
 21
89.436713
 31
0.0
  0
INSERT
  5
247
330
1F
100
AcDbEntity
  8
0
  6
Continuous
 62
     7
100
AcDbBlockReference
  2
BLK7
 10
0.0
 20
0.0
 30
0.0
  0
LINE
  5
248
330
1F
100
AcDbEntity
  8
0
  6
Continuous
 62
     3
100
AcDbLine
 10
99.766452
 20
90.560689
 30
0.0
 11
99.766452
 21
84.168535
 31
0.0
  0
LINE
  5
249
330
1F
100
AcDbEntity
  8
0
  6
Continuous
 62
     3
100
AcDbLine
 10
93.966452
 20
89.436713
 30
0.0
 11
93.966452
 21
87.019629
 31
0.0
  0
INSERT
  5
255
330
1F
100
AcDbEntity
  8
0
  6
Continuous
 62
     7
100
AcDbBlockReference
  2
BLK8
 10
0.0
 20
0.0
 30
0.0
  0
LINE
  5
256
330
1F
100
AcDbEntity
  8
0
  6
Continuous
 62
     3
100
AcDbLine
 10
93.766456
 20
86.363557
 30
0.0
 11
93.766456
 21
89.695353
 31
0.0
  0
LINE
  5
257
330
1F
100
AcDbEntity
  8
0
  6
Continuous
 62
     3
100
AcDbLine
 10
93.966452
 20
89.436713
 30
0.0
 11
99.266452
 21
89.436713
 31
0.0
  0
INSERT
  5
280
330
1F
100
AcDbEntity
  8
0
  6
Continuous
 62
     7
100
AcDbBlockReference
  2
BLK9
 10
0.0
 20
0.0
 30
0.0
  0
LINE
  5
281
330
1F
100
AcDbEntity
  8
0
  6
Continuous
 62
     3
100
AcDbLine
 10
93.966452
 20
75.079375
 30
0.0
 11
99.266452
 21
75.079375
 31
0.0
  0
INSERT
  5
28F
330
1F
100
AcDbEntity
  8
0
  6
Continuous
 62
     7
100
AcDbBlockReference
  2
BLK10
 10
0.0
 20
0.0
 30
0.0
  0
LINE
  5
290
330
1F
100
AcDbEntity
  8
0
  6
Continuous
 62
     3
100
AcDbLine
 10
93.766456
 20
75.476805
 30
0.0
 11
93.766456
 21
78.136179
 31
0.0
  0
LINE
  5
291
330
1F
100
AcDbEntity
  8
0
  6
Continuous
 62
     3
100
AcDbLine
 10
99.266452
 20
91.684667
 30
0.0
 11
99.766452
 21
90.560689
 31
0.0
  0
LINE
  5
292
330
1F
100
AcDbEntity
  8
0
  6
Continuous
 62
     3
100
AcDbLine
 10
93.766456
 20
91.426025
 30
0.0
 11
93.966452
 21
91.684667
 31
0.0
  0
LINE
  5
293
330
1F
100
AcDbEntity
  8
0
  6
Continuous
 62
     3
100
AcDbLine
 10
93.966452
 20
91.684667
 30
0.0
 11
99.266452
 21
91.684667
 31
0.0
  0
LINE
  5
294
330
1F
100
AcDbEntity
  8
0
  6
Continuous
 62
     3
100
AcDbLine
 10
93.766456
 20
89.695353
 30
0.0
 11
93.766456
 21
91.426025
 31
0.0
  0
LINE
  5
295
330
1F
100
AcDbEntity
  8
0
  6
Continuous
 62
     3
100
AcDbLine
 10
99.266452
 20
74.698647
 30
0.0
 11
99.266452
 21
75.079375
 31
0.0
  0
LINE
  5
296
330
1F
100
AcDbEntity
  8
0
  6
Continuous
 62
     3
100
AcDbLine
 10
99.766452
 20
76.806491
 30
0.0
 11
99.766452
 21
75.198647
 31
0.0
  0
LINE
  5
297
330
1F
100
AcDbEntity
  8
0
  6
Continuous
 62
     3
100
AcDbLine
 10
99.266452
 20
91.684667
 30
0.0
 11
99.266452
 21
91.698647
 31
0.0
  0
LINE
  5
298
330
1F
100
AcDbEntity
  8
0
  6
Continuous
 62
     3
100
AcDbLine
 10
99.766452
 20
91.198647
 30
0.0
 11
99.766452
 21
90.560689
 31
0.0
  0
LINE
  5
299
330
1F
100
AcDbEntity
  8
0
  6
Continuous
 62
     3
100
AcDbLine
 10
93.966452
 20
75.079375
 30
0.0
 11
93.966452
 21
74.698647
 31
0.0
  0
LINE
  5
29A
330
1F
100
AcDbEntity
  8
0
  6
Continuous
 62
     3
100
AcDbLine
 10
93.766456
 20
74.898647
 30
0.0
 11
93.766456
 21
75.476805
 31
0.0
  0
LINE
  5
29B
330
1F
100
AcDbEntity
  8
0
  6
Continuous
 62
     3
100
AcDbLine
 10
93.966452
 20
91.698647
 30
0.0
 11
93.966452
 21
91.684667
 31
0.0
  0
LINE
  5
29C
330
1F
100
AcDbEntity
  8
0
  6
Continuous
 62
     3
100
AcDbLine
 10
93.766456
 20
91.426025
 30
0.0
 11
93.766456
 21
91.498649
 31
0.0
  0
LINE
  5
29D
330
1F
100
AcDbEntity
  8
0
  6
Continuous
 62
     3
100
AcDbLine
 10
93.266454
 20
81.790285
 30
0.0
 11
93.766456
 21
79.285145
 31
0.0
  0
LINE
  5
29E
330
1F
100
AcDbEntity
  8
0
  6
Continuous
 62
     3
100
AcDbLine
 10
93.266454
 20
81.790285
 30
0.0
 11
93.266454
 21
84.815115
 31
0.0
  0
INSERT
  5
2D5
330
1F
100
AcDbEntity
  8
0
  6
Continuous
 62
     7
100
AcDbBlockReference
  2
BLK11
 10
0.0
 20
0.0
 30
0.0
  0
LINE
  5
2D6
330
1F
100
AcDbEntity
  8
0
  6
Continuous
 62
     3
100
AcDbLine
 10
86.066452
 20
84.815115
 30
0.0
 11
86.066452
 21
81.790285
 31
0.0
  0
LINE
  5
2D7
330
1F
100
AcDbEntity
  8
0
  6
Continuous
 62
     3
100
AcDbLine
 10
86.066452
 20
81.790285
 30
0.0
 11
93.266454
 21
81.790285
 31
0.0
  0
LINE
  5
2D8
330
1F
100
AcDbEntity
  8
0
  6
Continuous
 62
     3
100
AcDbLine
 10
86.066452
 20
84.815115
 30
0.0
 11
93.266454
 21
84.815115
 31
0.0
  0
INSERT
  5
30F
330
1F
100
AcDbEntity
  8
0
  6
Continuous
 62
     7
100
AcDbBlockReference
  2
BLK12
 10
0.0
 20
0.0
 30
0.0
  0
LINE
  5
310
330
1F
100
AcDbEntity
  8
0
  6
Continuous
 62
     3
100
AcDbLine
 10
86.066452
 20
76.780003
 30
0.0
 11
93.266454
 21
76.780003
 31
0.0
  0
LINE
  5
311
330
1F
100
AcDbEntity
  8
0
  6
Continuous
 62
     3
100
AcDbLine
 10
93.266454
 20
89.753935
 30
0.0
 11
93.766456
 21
87.284525
 31
0.0
  0
LINE
  5
312
330
1F
100
AcDbEntity
  8
0
  6
Continuous
 62
     3
100
AcDbLine
 10
86.066452
 20
89.753935
 30
0.0
 11
93.266454
 21
89.753935
 31
0.0
  0
INSERT
  5
320
330
1F
100
AcDbEntity
  8
0
  6
Continuous
 62
     7
100
AcDbBlockReference
  2
BLK13
 10
0.0
 20
0.0
 30
0.0
  0
LINE
  5
321
330
1F
100
AcDbEntity
  8
0
  6
Continuous
 62
     3
100
AcDbLine
 10
93.266454
 20
75.234997
 30
0.0
 11
93.266454
 21
76.780003
 31
0.0
  0
LINE
  5
322
330
1F
100
AcDbEntity
  8
0
  6
Continuous
 62
     3
100
AcDbLine
 10
93.266454
 20
89.753935
 30
0.0
 11
93.266454
 21
91.233759
 31
0.0
  0
INSERT
  5
330
330
1F
100
AcDbEntity
  8
0
  6
Continuous
 62
     7
100
AcDbBlockReference
  2
BLK14
 10
0.0
 20
0.0
 30
0.0
  0
LINE
  5
331
330
1F
100
AcDbEntity
  8
0
  6
Continuous
 62
     3
100
AcDbLine
 10
86.066452
 20
76.780003
 30
0.0
 11
86.066452
 21
75.234997
 31
0.0
  0
LINE
  5
332
330
1F
100
AcDbEntity
  8
0
  6
Continuous
 62
     3
100
AcDbLine
 10
86.066452
 20
91.233759
 30
0.0
 11
86.066452
 21
89.753935
 31
0.0
  0
LINE
  5
333
330
1F
100
AcDbEntity
  8
0
  6
Continuous
 62
     3
100
AcDbLine
 10
86.066452
 20
75.234997
 30
0.0
 11
93.266454
 21
75.234997
 31
0.0
  0
LINE
  5
334
330
1F
100
AcDbEntity
  8
0
  6
Continuous
 62
     3
100
AcDbLine
 10
86.066452
 20
91.233759
 30
0.0
 11
93.266454
 21
91.233759
 31
0.0
  0
INSERT
  5
373
330
1F
100
AcDbEntity
  8
0
  6
Continuous
 62
     7
100
AcDbBlockReference
  2
BLK15
 10
0.0
 20
0.0
 30
0.0
  0
LINE
  5
374
330
1F
100
AcDbEntity
  8
0
  6
Continuous
 62
     3
100
AcDbLine
 10
86.066452
 20
75.163535
 30
0.0
 11
93.266454
 21
75.163535
 31
0.0
  0
LINE
  5
375
330
1F
100
AcDbEntity
  8
0
  6
Continuous
 62
     3
100
AcDbLine
 10
85.866456
 20
95.195963
 30
0.0
 11
85.866456
 21
55.695961
 31
0.0
  0
ARC
  5
376
330
1F
100
AcDbEntity
  8
0
  6
Continuous
 62
     3
100
AcDbCircle
 10
-48.835556
 20
96.396689
 30
0.0
 40
12.38642122612323
100
AcDbArc
 50
191.350122
 51
196.9554949999999
  0
LINE
  5
377
330
1F
100
AcDbEntity
  8
0
  6
Continuous
 62
     3
100
AcDbLine
 10
-60.68356
 20
92.784453
 30
0.0
 11
-57.183544
 21
92.784453
 31
0.0
  0
ARC
  5
378
330
1F
100
AcDbEntity
  8
0
  6
Continuous
 62
     3
100
AcDbCircle
 10
-69.045548
 20
96.400529
 30
0.0
 40
12.40093310517601
100
AcDbArc
 50
343.046403
 51
348.6452460000001
  0
INSERT
  5
37F
330
1F
100
AcDbEntity
  8
0
  6
Continuous
 62
     7
100
AcDbBlockReference
  2
BLK16
 10
0.0
 20
0.0
 30
0.0
  0
INSERT
  5
386
330
1F
100
AcDbEntity
  8
0
  6
Continuous
 62
     7
100
AcDbBlockReference
  2
BLK17
 10
0.0
 20
0.0
 30
0.0
  0
INSERT
  5
38D
330
1F
100
AcDbEntity
  8
0
  6
Continuous
 62
     7
100
AcDbBlockReference
  2
BLK18
 10
0.0
 20
0.0
 30
0.0
  0
ARC
  5
38E
330
1F
100
AcDbEntity
  8
0
  6
Continuous
 62
     3
100
AcDbCircle
 10
-69.045548
 20
54.491397
 30
0.0
 40
12.40093310517602
100
AcDbArc
 50
11.35475400000002
 51
16.95359699999998
  0
LINE
  5
38F
330
1F
100
AcDbEntity
  8
0
  6
Continuous
 62
     3
100
AcDbLine
 10
-60.68356
 20
58.107473
 30
0.0
 11
-57.183544
 21
58.107473
 31
0.0
  0
ARC
  5
390
330
1F
100
AcDbEntity
  8
0
  6
Continuous
 62
     3
100
AcDbCircle
 10
-48.835556
 20
54.495235
 30
0.0
 40
12.38642122612324
100
AcDbArc
 50
163.044505
 51
168.649878
  0
INSERT
  5
397
330
1F
100
AcDbEntity
  8
0
  6
Continuous
 62
     7
100
AcDbBlockReference
  2
BLK19
 10
0.0
 20
0.0
 30
0.0
  0
LINE
  5
398
330
1F
100
AcDbEntity
  8
0
  6
Continuous
 62
     3
100
AcDbLine
 10
-49.756762
 20
95.445963
 30
0.0
 11
-49.737464
 21
95.412555
 31
0.0
  0
LINE
  5
399
330
1F
100
AcDbEntity
  8
0
  6
Continuous
 62
     3
100
AcDbLine
 10
-49.737464
 20
95.412555
 30
0.0
 11
-49.58355
 21
95.145963
 31
0.0
  0
LINE
  5
39A
330
1F
100
AcDbEntity
  8
0
  6
Continuous
 62
     3
100
AcDbLine
 10
-49.58355
 20
95.145963
 30
0.0
 11
-46.583544
 21
95.145963
 31
0.0
  0
LINE
  5
39B
330
1F
100
AcDbEntity
  8
0
  6
Continuous
 62
     3
100
AcDbLine
 10
-46.583544
 20
95.145963
 30
0.0
 11
-46.42963
 21
95.412555
 31
0.0
  0
LINE
  5
39C
330
1F
100
AcDbEntity
  8
0
  6
Continuous
 62
     3
100
AcDbLine
 10
-46.42963
 20
95.412555
 30
0.0
 11
-46.410348
 21
95.445963
 31
0.0
  0
LINE
  5
39D
330
1F
100
AcDbEntity
  8
0
  6
Continuous
 62
     3
100
AcDbLine
 10
64.266448
 20
95.430963
 30
0.0
 11
64.266448
 21
55.460963
 31
0.0
  0
LINE
  5
39E
330
1F
100
AcDbEntity
  8
0
  6
Continuous
 62
     3
100
AcDbLine
 10
-86.933534
 20
75.445963
 30
0.0
 11
-86.933534
 21
95.230963
 31
0.0
  0
LINE
  5
39F
330
1F
100
AcDbEntity
  8
0
  6
Continuous
 62
     3
100
AcDbLine
 10
-86.933534
 20
55.660963
 30
0.0
 11
-86.933534
 21
75.445963
 31
0.0
  0
LINE
  5
3A0
330
1F
100
AcDbEntity
  8
0
  6
Continuous
 62
     3
100
AcDbLine
 10
-60.979734
 20
93.958993
 30
0.0
 11
-60.68356
 21
93.445961
 31
0.0
  0
LINE
  5
3A1
330
1F
100
AcDbEntity
  8
0
  6
Continuous
 62
     3
100
AcDbLine
 10
-60.68356
 20
93.445961
 30
0.0
 11
-60.68356
 21
92.784453
 31
0.0
  0
LINE
  5
3A2
330
1F
100
AcDbEntity
  8
0
  6
Continuous
 62
     3
100
AcDbLine
 10
-60.68356
 20
93.445961
 30
0.0
 11
-57.183544
 21
93.445961
 31
0.0
  0
LINE
  5
3A3
330
1F
100
AcDbEntity
  8
0
  6
Continuous
 62
     3
100
AcDbLine
 10
-57.183544
 20
93.445961
 30
0.0
 11
-57.183544
 21
92.784453
 31
0.0
  0
LINE
  5
3A4
330
1F
100
AcDbEntity
  8
0
  6
Continuous
 62
     3
100
AcDbLine
 10
-57.183544
 20
93.445961
 30
0.0
 11
-56.88734
 21
93.958993
 31
0.0
  0
LINE
  5
3A5
330
1F
100
AcDbEntity
  8
0
  6
Continuous
 62
     3
100
AcDbLine
 10
-57.183544
 20
57.445963
 30
0.0
 11
-56.88734
 21
56.932931
 31
0.0
  0
LINE
  5
3A6
330
1F
100
AcDbEntity
  8
0
  6
Continuous
 62
     3
100
AcDbLine
 10
-57.183544
 20
57.445963
 30
0.0
 11
-57.183544
 21
58.107473
 31
0.0
  0
LINE
  5
3A7
330
1F
100
AcDbEntity
  8
0
  6
Continuous
 62
     3
100
AcDbLine
 10
-60.68356
 20
57.445963
 30
0.0
 11
-57.183544
 21
57.445963
 31
0.0
  0
LINE
  5
3A8
330
1F
100
AcDbEntity
  8
0
  6
Continuous
 62
     3
100
AcDbLine
 10
-60.68356
 20
57.445963
 30
0.0
 11
-60.68356
 21
58.107473
 31
0.0
  0
LINE
  5
3A9
330
1F
100
AcDbEntity
  8
0
  6
Continuous
 62
     3
100
AcDbLine
 10
-60.979734
 20
56.932931
 30
0.0
 11
-60.68356
 21
57.445963
 31
0.0
  0
MTEXT
  5
3AC
330
1F
100
AcDbEntity
  8
CSLAYER3
  6
Continuous
 62
     3
100
AcDbMText
 10
60.434921
 20
33.943283
 30
0.0
 40
7.0
 41
0.0
 71
     7
 72
     5
  1
{\W0.5x;EM-4020 EM-4040}
  7
MTSTANDARD1
 73
     1
 44
0.7321428571428571
  0
ARC
  5
3AD
330
1F
100
AcDbEntity
  8
0
  6
Continuous
 62
     3
100
AcDbCircle
 10
190.556784
 20
85.473021
 30
0.0
 40
25.4166301406175
100
AcDbArc
 50
157.380135
 51
202.6198650000001
  0
ARC
  5
3AE
330
1F
100
AcDbEntity
  8
0
  6
Continuous
 62
     3
100
AcDbCircle
 10
143.633776
 20
65.921767
 30
0.0
 40
25.4166301406175
100
AcDbArc
 50
328.865183
 51
22.619865
  0
ARC
  5
3AF
330
1F
100
AcDbEntity
  8
0
  6
Continuous
 62
     3
100
AcDbCircle
 10
196.556784
 20
85.473021
 30
0.0
 40
25.4166301406175
100
AcDbArc
 50
157.380135
 51
202.6198650000001
  0
ARC
  5
3B0
330
1F
100
AcDbEntity
  8
0
  6
Continuous
 62
     3
100
AcDbCircle
 10
149.633776
 20
65.921767
 30
0.0
 40
25.4166301406175
100
AcDbArc
 50
325.531381
 51
22.619865
  0
LINE
  5
3B1
330
1F
100
AcDbEntity
  8
0
  6
Continuous
 62
     3
100
AcDbLine
 10
332.829924
 20
74.075107
 30
0.0
 11
332.829924
 21
84.325107
 31
0.0
  0
LINE
  5
3B2
330
1F
100
AcDbEntity
  8
0
  6
Continuous
 62
     3
100
AcDbLine
 10
332.829924
 20
74.075107
 30
0.0
 11
326.629924
 21
74.075107
 31
0.0
  0
LINE
  5
3B3
330
1F
100
AcDbEntity
  8
0
  6
Continuous
 62
     3
100
AcDbLine
 10
332.029924
 20
76.976289
 30
0.0
 11
326.629924
 21
76.976289
 31
0.0
  0
LINE
  5
3B4
330
1F
100
AcDbEntity
  8
0
  6
Continuous
 62
     3
100
AcDbLine
 10
332.029924
 20
76.208369
 30
0.0
 11
326.629924
 21
76.208369
 31
0.0
  0
LINE
  5
3B5
330
1F
100
AcDbEntity
  8
0
  6
Continuous
 62
     3
100
AcDbLine
 10
332.029924
 20
75.244187
 30
0.0
 11
326.629924
 21
75.244187
 31
0.0
  0
LINE
  5
3B6
330
1F
100
AcDbEntity
  8
0
  6
Continuous
 62
     3
100
AcDbLine
 10
332.029924
 20
76.976289
 30
0.0
 11
332.029924
 21
75.244187
 31
0.0
  0
LINE
  5
3B7
330
1F
100
AcDbEntity
  8
0
  6
Continuous
 62
     3
100
AcDbLine
 10
313.129924
 20
71.325107
 30
0.0
 11
308.629924
 21
71.325107
 31
0.0
  0
LINE
  5
3B8
330
1F
100
AcDbEntity
  8
0
  6
Continuous
 62
     3
100
AcDbLine
 10
284.629924
 20
72.825107
 30
0.0
 11
308.629924
 21
71.325107
 31
0.0
  0
LINE
  5
3B9
330
1F
100
AcDbEntity
  8
0
  6
Continuous
 62
     3
100
AcDbLine
 10
313.129924
 20
75.002439
 30
0.0
 11
313.129924
 21
70.525107
 31
0.0
  0
LINE
  5
3BA
330
1F
100
AcDbEntity
  8
0
  6
Continuous
 62
     3
100
AcDbLine
 10
326.129924
 20
70.125107
 30
0.0
 11
325.41373
 21
70.125107
 31
0.0
  0
ARC
  5
3BB
330
1F
100
AcDbEntity
  8
0
  6
Continuous
 62
     3
100
AcDbCircle
 10
326.129924
 20
70.625107
 30
0.0
 40
0.4999999999999998
100
AcDbArc
 50
270.0
 51
0.0
  0
LINE
  5
3BC
330
1F
100
AcDbEntity
  8
0
  6
Continuous
 62
     3
100
AcDbLine
 10
324.829924
 20
69.325107
 30
0.0
 11
314.329924
 21
69.325107
 31
0.0
  0
ARC
  5
3BD
330
1F
100
AcDbEntity
  8
0
  6
Continuous
 62
     3
100
AcDbCircle
 10
314.329924
 20
70.525107
 30
0.0
 40
1.2
100
AcDbArc
 50
180.0
 51
270.0000020000006
  0
ARC
  5
3BE
330
1F
100
AcDbEntity
  8
0
  6
Continuous
 62
     3
100
AcDbCircle
 10
324.829924
 20
70.125107
 30
0.0
 40
0.7999999999999998
100
AcDbArc
 50
270.000002000002
 51
0.0
  0
LINE
  5
3BF
330
1F
100
AcDbEntity
  8
0
  6
Continuous
 62
     3
100
AcDbLine
 10
316.629924
 20
73.325337
 30
0.0
 11
324.985788
 21
73.325337
 31
0.0
  0
LINE
  5
3C0
330
1F
100
AcDbEntity
  8
0
  6
Continuous
 62
     3
100
AcDbLine
 10
316.629924
 20
72.037065
 30
0.0
 11
324.985788
 21
72.037065
 31
0.0
  0
LINE
  5
3C1
330
1F
100
AcDbEntity
  8
0
  6
Continuous
 62
     3
100
AcDbLine
 10
316.629924
 20
71.088651
 30
0.0
 11
325.09565
 21
71.088651
 31
0.0
  0
LINE
  5
3C2
330
1F
100
AcDbEntity
  8
0
  6
Continuous
 62
     3
100
AcDbLine
 10
316.629924
 20
70.020103
 30
0.0
 11
325.09565
 21
70.020103
 31
0.0
  0
ARC
  5
3C3
330
1F
100
AcDbEntity
  8
0
  6
Continuous
 62
     3
100
AcDbCircle
 10
324.985788
 20
72.681201
 30
0.0
 40
0.6441364861105886
100
AcDbArc
 50
270.0000019999982
 51
89.99999800000178
  0
ARC
  5
3C4
330
1F
100
AcDbEntity
  8
0
  6
Continuous
 62
     3
100
AcDbCircle
 10
325.09565
 20
70.554377
 30
0.0
 40
0.5342738771925556
100
AcDbArc
 50
270.0
 51
90.0
  0
LINE
  5
3C5
330
1F
100
AcDbEntity
  8
0
  6
Continuous
 62
     3
100
AcDbLine
 10
284.629924
 20
75.846675
 30
0.0
 11
284.629924
 21
72.825107
 31
0.0
  0
LINE
  5
3C6
330
1F
100
AcDbEntity
  8
0
  6
Continuous
 62
     3
100
AcDbLine
 10
276.303076
 20
69.825107
 30
0.0
 11
278.303076
 21
71.825107
 31
0.0
  0
LINE
  5
3C7
330
1F
100
AcDbEntity
  8
0
  6
Continuous
 62
     3
100
AcDbLine
 10
268.303076
 20
70.825107
 30
0.0
 11
277.303076
 21
70.825107
 31
0.0
  0
ARC
  5
3C8
330
1F
100
AcDbEntity
  8
0
  6
Continuous
 62
     3
100
AcDbCircle
 10
268.303076
 20
73.825107
 30
0.0
 40
2.999999999999998
100
AcDbArc
 50
180.0
 51
270.0000019999995
  0
LINE
  5
3C9
330
1F
100
AcDbEntity
  8
0
  6
Continuous
 62
     3
100
AcDbLine
 10
276.303076
 20
69.825107
 30
0.0
 11
269.786316
 21
69.825107
 31
0.0
  0
ARC
  5
3CA
330
1F
100
AcDbEntity
  8
0
  6
Continuous
 62
     3
100
AcDbCircle
 10
269.786316
 20
71.425107
 30
0.0
 40
1.599999999999999
100
AcDbArc
 50
202.0243129999998
 51
270.0000019999999
  0
LINE
  5
3CB
330
1F
100
AcDbEntity
  8
0
  6
Continuous
 62
     3
100
AcDbLine
 10
277.303076
 20
75.910687
 30
0.0
 11
269.456704
 21
75.910687
 31
0.0
  0
LINE
  5
3CC
330
1F
100
AcDbEntity
  8
0
  6
Continuous
 62
     3
100
AcDbLine
 10
277.303076
 20
73.603429
 30
0.0
 11
269.456704
 21
73.603429
 31
0.0
  0
LINE
  5
3CD
330
1F
100
AcDbEntity
  8
0
  6
Continuous
 62
     3
100
AcDbLine
 10
277.303076
 20
73.603429
 30
0.0
 11
277.303076
 21
70.825107
 31
0.0
  0
ARC
  5
3CE
330
1F
100
AcDbEntity
  8
0
  6
Continuous
 62
     3
100
AcDbCircle
 10
269.456704
 20
74.757057
 30
0.0
 40
1.153629407326412
100
AcDbArc
 50
89.99999800000103
 51
270.0000019999989
  0
ARC
  5
3CF
330
1F
100
AcDbEntity
  8
0
  6
Continuous
 62
     3
100
AcDbCircle
 10
277.303076
 20
74.757057
 30
0.0
 40
1.153629407326412
100
AcDbArc
 50
89.99999800000103
 51
270.0000019999989
  0
LINE
  5
3D0
330
1F
100
AcDbEntity
  8
0
  6
Continuous
 62
     3
100
AcDbLine
 10
278.303076
 20
72.920107
 30
0.0
 11
281.224924
 21
72.920107
 31
0.0
  0
LINE
  5
3D1
330
1F
100
AcDbEntity
  8
0
  6
Continuous
 62
     3
100
AcDbLine
 10
282.129924
 20
73.825107
 30
0.0
 11
281.224924
 21
72.920107
 31
0.0
  0
LINE
  5
3D2
330
1F
100
AcDbEntity
  8
0
  6
Continuous
 62
     3
100
AcDbLine
 10
282.129924
 20
73.825107
 30
0.0
 11
284.629924
 21
73.825107
 31
0.0
  0
LINE
  5
3D3
330
1F
100
AcDbEntity
  8
0
  6
Continuous
 62
     3
100
AcDbLine
 10
284.629924
 20
73.825107
 30
0.0
 11
284.629924
 21
72.825107
 31
0.0
  0
LINE
  5
3D4
330
1F
100
AcDbEntity
  8
0
  6
Continuous
 62
     3
100
AcDbLine
 10
281.724924
 20
73.420107
 30
0.0
 11
278.303076
 21
73.420107
 31
0.0
  0
LINE
  5
3D5
330
1F
100
AcDbEntity
  8
0
  6
Continuous
 62
     3
100
AcDbLine
 10
281.224924
 20
72.920107
 30
0.0
 11
281.224924
 21
75.846675
 31
0.0
  0
LINE
  5
3D6
330
1F
100
AcDbEntity
  8
0
  6
Continuous
 62
     3
100
AcDbLine
 10
282.129924
 20
73.825107
 30
0.0
 11
282.129924
 21
75.846675
 31
0.0
  0
LINE
  5
3D7
330
1F
100
AcDbEntity
  8
0
  6
Continuous
 62
     3
100
AcDbLine
 10
316.629924
 20
75.002439
 30
0.0
 11
316.629924
 21
69.325107
 31
0.0
  0
ARC
  5
3D8
330
1F
100
AcDbEntity
  8
0
  6
Continuous
 62
     3
100
AcDbCircle
 10
310.329924
 20
71.325107
 30
0.0
 40
1.5
100
AcDbArc
 50
0.0
 51
180.0
  0
LINE
  5
3D9
330
1F
100
AcDbEntity
  8
0
  6
Continuous
 62
     3
100
AcDbLine
 10
310.829924
 20
71.325107
 30
0.0
 11
310.070116
 21
72.802435
 31
0.0
  0
LINE
  5
3DA
330
1F
100
AcDbEntity
  8
0
  6
Continuous
 62
     3
100
AcDbLine
 10
310.26767
 20
71.325107
 30
0.0
 11
309.59511
 21
72.632795
 31
0.0
  0
LINE
  5
3DB
330
1F
100
AcDbEntity
  8
0
  6
Continuous
 62
     3
100
AcDbLine
 10
332.829924
 20
94.575107
 30
0.0
 11
332.829924
 21
84.325107
 31
0.0
  0
LINE
  5
3DC
330
1F
100
AcDbEntity
  8
0
  6
Continuous
 62
     3
100
AcDbLine
 10
332.829924
 20
94.575107
 30
0.0
 11
326.629924
 21
94.575107
 31
0.0
  0
LINE
  5
3DD
330
1F
100
AcDbEntity
  8
0
  6
Continuous
 62
     3
100
AcDbLine
 10
313.129924
 20
97.325107
 30
0.0
 11
308.629924
 21
97.325107
 31
0.0
  0
LINE
  5
3DE
330
1F
100
AcDbEntity
  8
0
  6
Continuous
 62
     3
100
AcDbLine
 10
284.629924
 20
95.825107
 30
0.0
 11
308.629924
 21
97.325107
 31
0.0
  0
LINE
  5
3DF
330
1F
100
AcDbEntity
  8
0
  6
Continuous
 62
     3
100
AcDbLine
 10
308.629924
 20
97.325107
 30
0.0
 11
308.629924
 21
71.325107
 31
0.0
  0
LINE
  5
3E0
330
1F
100
AcDbEntity
  8
0
  6
Continuous
 62
     3
100
AcDbLine
 10
326.629924
 20
98.025107
 30
0.0
 11
326.629924
 21
70.625107
 31
0.0
  0
LINE
  5
3E1
330
1F
100
AcDbEntity
  8
0
  6
Continuous
 62
     3
100
AcDbLine
 10
313.129924
 20
70.525107
 30
0.0
 11
313.129924
 21
98.125107
 31
0.0
  0
LINE
  5
3E2
330
1F
100
AcDbEntity
  8
0
  6
Continuous
 62
     3
100
AcDbLine
 10
326.129924
 20
98.525107
 30
0.0
 11
325.41373
 21
98.525107
 31
0.0
  0
ARC
  5
3E3
330
1F
100
AcDbEntity
  8
0
  6
Continuous
 62
     3
100
AcDbCircle
 10
326.129924
 20
98.025107
 30
0.0
 40
0.4999999999999998
100
AcDbArc
 50
0.0000029999993249
 51
90.0
  0
LINE
  5
3E4
330
1F
100
AcDbEntity
  8
0
  6
Continuous
 62
     3
100
AcDbLine
 10
324.829924
 20
99.325107
 30
0.0
 11
314.329924
 21
99.325107
 31
0.0
  0
ARC
  5
3E5
330
1F
100
AcDbEntity
  8
0
  6
Continuous
 62
     3
100
AcDbCircle
 10
314.329924
 20
98.125107
 30
0.0
 40
1.2
100
AcDbArc
 50
89.99999799999937
 51
180.0
  0
ARC
  5
3E6
330
1F
100
AcDbEntity
  8
0
  6
Continuous
 62
     3
100
AcDbCircle
 10
324.829924
 20
98.525107
 30
0.0
 40
0.7999999999999998
100
AcDbArc
 50
0.0000029999999355
 51
89.999997999998
  0
LINE
  5
3E7
330
1F
100
AcDbEntity
  8
0
  6
Continuous
 62
     3
100
AcDbLine
 10
316.629924
 20
92.011453
 30
0.0
 11
324.899822
 21
92.011453
 31
0.0
  0
LINE
  5
3E8
330
1F
100
AcDbEntity
  8
0
  6
Continuous
 62
     3
100
AcDbLine
 10
316.629924
 20
93.471657
 30
0.0
 11
324.899822
 21
93.471657
 31
0.0
  0
LINE
  5
3E9
330
1F
100
AcDbEntity
  8
0
  6
Continuous
 62
     3
100
AcDbLine
 10
316.629924
 20
95.324875
 30
0.0
 11
324.985788
 21
95.324875
 31
0.0
  0
LINE
  5
3EA
330
1F
100
AcDbEntity
  8
0
  6
Continuous
 62
     3
100
AcDbLine
 10
316.629924
 20
96.613147
 30
0.0
 11
324.985788
 21
96.613147
 31
0.0
  0
LINE
  5
3EB
330
1F
100
AcDbEntity
  8
0
  6
Continuous
 62
     3
100
AcDbLine
 10
316.629924
 20
97.561561
 30
0.0
 11
325.09565
 21
97.561561
 31
0.0
  0
LINE
  5
3EC
330
1F
100
AcDbEntity
  8
0
  6
Continuous
 62
     3
100
AcDbLine
 10
316.629924
 20
98.630109
 30
0.0
 11
325.09565
 21
98.630109
 31
0.0
  0
ARC
  5
3ED
330
1F
100
AcDbEntity
  8
0
  6
Continuous
 62
     3
100
AcDbCircle
 10
324.899822
 20
92.741555
 30
0.0
 40
0.7301013147692098
100
AcDbArc
 50
270.0000020000004
 51
89.99999799999958
  0
ARC
  5
3EE
330
1F
100
AcDbEntity
  8
0
  6
Continuous
 62
     3
100
AcDbCircle
 10
324.985788
 20
95.969011
 30
0.0
 40
0.6441364861105886
100
AcDbArc
 50
270.0000019999982
 51
89.99999800000178
  0
ARC
  5
3EF
330
1F
100
AcDbEntity
  8
0
  6
Continuous
 62
     3
100
AcDbCircle
 10
325.09565
 20
98.095835
 30
0.0
 40
0.5342738771925556
100
AcDbArc
 50
270.0
 51
90.0
  0
LINE
  5
3F0
330
1F
100
AcDbEntity
  8
0
  6
Continuous
 62
     3
100
AcDbLine
 10
284.629924
 20
73.825107
 30
0.0
 11
284.629924
 21
95.825107
 31
0.0
  0
LINE
  5
3F1
330
1F
100
AcDbEntity
  8
0
  6
Continuous
 62
     3
100
AcDbLine
 10
278.303076
 20
71.825107
 30
0.0
 11
278.303076
 21
96.825107
 31
0.0
  0
LINE
  5
3F2
330
1F
100
AcDbEntity
  8
0
  6
Continuous
 62
     3
100
AcDbLine
 10
276.303076
 20
98.825107
 30
0.0
 11
278.303076
 21
96.825107
 31
0.0
  0
LINE
  5
3F3
330
1F
100
AcDbEntity
  8
0
  6
Continuous
 62
     3
100
AcDbLine
 10
268.303076
 20
97.825107
 30
0.0
 11
277.303076
 21
97.825107
 31
0.0
  0
ARC
  5
3F4
330
1F
100
AcDbEntity
  8
0
  6
Continuous
 62
     3
100
AcDbCircle
 10
268.303076
 20
94.825107
 30
0.0
 40
2.999999999999998
100
AcDbArc
 50
89.99999800000046
 51
180.0
  0
LINE
  5
3F5
330
1F
100
AcDbEntity
  8
0
  6
Continuous
 62
     3
100
AcDbLine
 10
276.303076
 20
98.825107
 30
0.0
 11
269.786316
 21
98.825107
 31
0.0
  0
ARC
  5
3F6
330
1F
100
AcDbEntity
  8
0
  6
Continuous
 62
     3
100
AcDbCircle
 10
269.786316
 20
97.225107
 30
0.0
 40
1.599999999999999
100
AcDbArc
 50
89.99999800000005
 51
157.9756870000002
  0
LINE
  5
3F7
330
1F
100
AcDbEntity
  8
0
  6
Continuous
 62
     3
100
AcDbLine
 10
277.303076
 20
92.739525
 30
0.0
 11
269.456704
 21
92.739525
 31
0.0
  0
LINE
  5
3F8
330
1F
100
AcDbEntity
  8
0
  6
Continuous
 62
     3
100
AcDbLine
 10
277.303076
 20
95.046783
 30
0.0
 11
269.456704
 21
95.046783
 31
0.0
  0
LINE
  5
3F9
330
1F
100
AcDbEntity
  8
0
  6
Continuous
 62
     3
100
AcDbLine
 10
277.303076
 20
95.046783
 30
0.0
 11
277.303076
 21
73.603429
 31
0.0
  0
LINE
  5
3FA
330
1F
100
AcDbEntity
  8
0
  6
Continuous
 62
     3
100
AcDbLine
 10
277.303076
 20
95.046783
 30
0.0
 11
277.303076
 21
97.825107
 31
0.0
  0
ARC
  5
3FB
330
1F
100
AcDbEntity
  8
0
  6
Continuous
 62
     3
100
AcDbCircle
 10
269.456704
 20
93.893155
 30
0.0
 40
1.153629407326412
100
AcDbArc
 50
89.99999800000103
 51
270.0000019999989
  0
ARC
  5
3FC
330
1F
100
AcDbEntity
  8
0
  6
Continuous
 62
     3
100
AcDbCircle
 10
277.303076
 20
93.893155
 30
0.0
 40
1.153629407326412
100
AcDbArc
 50
89.99999800000103
 51
270.0000019999989
  0
LINE
  5
3FD
330
1F
100
AcDbEntity
  8
0
  6
Continuous
 62
     3
100
AcDbLine
 10
278.303076
 20
95.730107
 30
0.0
 11
281.224924
 21
95.730107
 31
0.0
  0
LINE
  5
3FE
330
1F
100
AcDbEntity
  8
0
  6
Continuous
 62
     3
100
AcDbLine
 10
282.129924
 20
94.825107
 30
0.0
 11
281.224924
 21
95.730107
 31
0.0
  0
LINE
  5
3FF
330
1F
100
AcDbEntity
  8
0
  6
Continuous
 62
     3
100
AcDbLine
 10
282.129924
 20
94.825107
 30
0.0
 11
284.629924
 21
94.825107
 31
0.0
  0
LINE
  5
400
330
1F
100
AcDbEntity
  8
0
  6
Continuous
 62
     3
100
AcDbLine
 10
284.629924
 20
94.825107
 30
0.0
 11
284.629924
 21
95.825107
 31
0.0
  0
LINE
  5
401
330
1F
100
AcDbEntity
  8
0
  6
Continuous
 62
     3
100
AcDbLine
 10
281.724924
 20
95.230107
 30
0.0
 11
278.303076
 21
95.230107
 31
0.0
  0
LINE
  5
402
330
1F
100
AcDbEntity
  8
0
  6
Continuous
 62
     3
100
AcDbLine
 10
281.224924
 20
95.730107
 30
0.0
 11
281.224924
 21
91.042937
 31
0.0
  0
LINE
  5
403
330
1F
100
AcDbEntity
  8
0
  6
Continuous
 62
     3
100
AcDbLine
 10
282.129924
 20
94.825107
 30
0.0
 11
282.129924
 21
73.825107
 31
0.0
  0
LINE
  5
404
330
1F
100
AcDbEntity
  8
0
  6
Continuous
 62
     3
100
AcDbLine
 10
316.629924
 20
73.325337
 30
0.0
 11
316.629924
 21
99.325107
 31
0.0
  0
LINE
  5
405
330
1F
100
AcDbEntity
  8
CSLAYER2
  6
Continuous
 62
     3
100
AcDbLine
 10
326.629924
 20
77.422585
 30
0.0
 11
332.87345
 21
77.422585
 31
0.0
  0
LINE
  5
406
330
1F
100
AcDbEntity
  8
CSLAYER2
  6
Continuous
 62
     3
100
AcDbLine
 10
332.87345
 20
77.422585
 30
0.0
 11
332.87345
 21
83.444807
 31
0.0
  0
LINE
  5
407
330
1F
100
AcDbEntity
  8
CSLAYER2
  6
Continuous
 62
     3
100
AcDbLine
 10
280.64334
 20
83.444807
 30
0.0
 11
280.64334
 21
76.409501
 31
0.0
  0
ARC
  5
408
330
1F
100
AcDbEntity
  8
CSLAYER2
  6
Continuous
 62
     3
100
AcDbCircle
 10
281.206164
 20
76.409501
 30
0.0
 40
0.5628245
100
AcDbArc
 50
180.0
 51
270.0
  0
LINE
  5
409
330
1F
100
AcDbEntity
  8
CSLAYER2
  6
Continuous
 62
     3
100
AcDbLine
 10
326.629924
 20
89.467029
 30
0.0
 11
332.87345
 21
89.467029
 31
0.0
  0
LINE
  5
40A
330
1F
100
AcDbEntity
  8
CSLAYER2
  6
Continuous
 62
     3
100
AcDbLine
 10
332.87345
 20
89.467029
 30
0.0
 11
332.87345
 21
83.444807
 31
0.0
  0
LINE
  5
40B
330
1F
100
AcDbEntity
  8
CSLAYER2
  6
Continuous
 62
     3
100
AcDbLine
 10
280.64334
 20
83.444807
 30
0.0
 11
280.64334
 21
90.480113
 31
0.0
  0
ARC
  5
40C
330
1F
100
AcDbEntity
  8
CSLAYER2
  6
Continuous
 62
     3
100
AcDbCircle
 10
281.206164
 20
90.480113
 30
0.0
 40
0.5628245
100
AcDbArc
 50
90.0
 51
180.0
  0
LINE
  5
40D
330
1F
100
AcDbEntity
  8
0
  6
Continuous
 62
     3
100
AcDbLine
 10
265.303076
 20
79.840537
 30
0.0
 11
265.303076
 21
73.825107
 31
0.0
  0
LINE
  5
40E
330
1F
100
AcDbEntity
  8
0
  6
Continuous
 62
     3
100
AcDbLine
 10
265.303076
 20
73.825107
 30
0.0
 11
265.303076
 21
94.825107
 31
0.0
  0
LINE
  5
40F
330
1F
100
AcDbEntity
  8
0
  6
Continuous
 62
     3
100
AcDbLine
 10
278.303076
 20
71.825107
 30
0.0
 11
278.303076
 21
75.846675
 31
0.0
  0
LINE
  5
410
330
1F
100
AcDbEntity
  8
0
  6
Continuous
 62
     3
100
AcDbLine
 10
316.614222
 20
89.412949
 30
0.0
 11
324.88412
 21
89.412949
 31
0.0
  0
LINE
  5
411
330
1F
100
AcDbEntity
  8
0
  6
Continuous
 62
     3
100
AcDbLine
 10
316.614222
 20
90.873153
 30
0.0
 11
324.88412
 21
90.873153
 31
0.0
  0
ARC
  5
412
330
1F
100
AcDbEntity
  8
0
  6
Continuous
 62
     3
100
AcDbCircle
 10
324.88412
 20
90.143051
 30
0.0
 40
0.7301013147692098
100
AcDbArc
 50
270.0000020000004
 51
89.99999799999958
  0
LINE
  5
413
330
1F
100
AcDbEntity
  8
0
  6
Continuous
 62
     3
100
AcDbLine
 10
316.59852
 20
86.814445
 30
0.0
 11
324.868418
 21
86.814445
 31
0.0
  0
LINE
  5
414
330
1F
100
AcDbEntity
  8
0
  6
Continuous
 62
     3
100
AcDbLine
 10
316.59852
 20
88.274649
 30
0.0
 11
324.868418
 21
88.274649
 31
0.0
  0
ARC
  5
415
330
1F
100
AcDbEntity
  8
0
  6
Continuous
 62
     3
100
AcDbCircle
 10
324.868418
 20
87.544547
 30
0.0
 40
0.7301013147692098
100
AcDbArc
 50
270.0000020000004
 51
89.99999799999958
  0
LINE
  5
416
330
1F
100
AcDbEntity
  8
0
  6
Continuous
 62
     3
100
AcDbLine
 10
316.582818
 20
84.215943
 30
0.0
 11
324.852716
 21
84.215943
 31
0.0
  0
LINE
  5
417
330
1F
100
AcDbEntity
  8
0
  6
Continuous
 62
     3
100
AcDbLine
 10
316.582818
 20
85.676147
 30
0.0
 11
324.852716
 21
85.676147
 31
0.0
  0
ARC
  5
418
330
1F
100
AcDbEntity
  8
0
  6
Continuous
 62
     3
100
AcDbCircle
 10
324.852716
 20
84.946045
 30
0.0
 40
0.7301013147692098
100
AcDbArc
 50
270.0000020000004
 51
89.99999799999958
  0
LINE
  5
419
330
1F
100
AcDbEntity
  8
0
  6
Continuous
 62
     3
100
AcDbLine
 10
316.567116
 20
81.617439
 30
0.0
 11
324.837014
 21
81.617439
 31
0.0
  0
LINE
  5
41A
330
1F
100
AcDbEntity
  8
0
  6
Continuous
 62
     3
100
AcDbLine
 10
316.567116
 20
83.077643
 30
0.0
 11
324.837014
 21
83.077643
 31
0.0
  0
ARC
  5
41B
330
1F
100
AcDbEntity
  8
0
  6
Continuous
 62
     3
100
AcDbCircle
 10
324.837014
 20
82.347541
 30
0.0
 40
0.7301013147692098
100
AcDbArc
 50
270.0000020000004
 51
89.99999799999958
  0
LINE
  5
41C
330
1F
100
AcDbEntity
  8
0
  6
Continuous
 62
     3
100
AcDbLine
 10
316.551414
 20
79.018935
 30
0.0
 11
324.821312
 21
79.018935
 31
0.0
  0
LINE
  5
41D
330
1F
100
AcDbEntity
  8
0
  6
Continuous
 62
     3
100
AcDbLine
 10
316.551414
 20
80.479139
 30
0.0
 11
324.821312
 21
80.479139
 31
0.0
  0
ARC
  5
41E
330
1F
100
AcDbEntity
  8
0
  6
Continuous
 62
     3
100
AcDbCircle
 10
324.821312
 20
79.749037
 30
0.0
 40
0.7301013147692098
100
AcDbArc
 50
270.0000020000004
 51
89.99999799999958
  0
LINE
  5
41F
330
1F
100
AcDbEntity
  8
0
  6
Continuous
 62
     3
100
AcDbLine
 10
316.535712
 20
76.420433
 30
0.0
 11
324.80561
 21
76.420433
 31
0.0
  0
LINE
  5
420
330
1F
100
AcDbEntity
  8
0
  6
Continuous
 62
     3
100
AcDbLine
 10
316.535712
 20
77.880637
 30
0.0
 11
324.80561
 21
77.880637
 31
0.0
  0
ARC
  5
421
330
1F
100
AcDbEntity
  8
0
  6
Continuous
 62
     3
100
AcDbCircle
 10
324.80561
 20
77.150535
 30
0.0
 40
0.7301013147692098
100
AcDbArc
 50
270.0000020000004
 51
89.99999799999958
  0
LINE
  5
422
330
1F
100
AcDbEntity
  8
0
  6
Continuous
 62
     3
100
AcDbLine
 10
316.614222
 20
74.073733
 30
0.0
 11
324.88412
 21
74.073733
 31
0.0
  0
LINE
  5
423
330
1F
100
AcDbEntity
  8
0
  6
Continuous
 62
     3
100
AcDbLine
 10
316.614222
 20
75.533937
 30
0.0
 11
324.88412
 21
75.533937
 31
0.0
  0
ARC
  5
424
330
1F
100
AcDbEntity
  8
0
  6
Continuous
 62
     3
100
AcDbCircle
 10
324.88412
 20
74.803835
 30
0.0
 40
0.7301013147692098
100
AcDbArc
 50
270.0000020000004
 51
89.99999799999958
  0
LINE
  5
425
330
1F
100
AcDbEntity
  8
0
  6
Continuous
 62
     3
100
AcDbLine
 10
316.25172
 20
50.673723
 30
0.0
 11
321.689018
 21
50.673723
 31
0.0
  0
LINE
  5
426
330
1F
100
AcDbEntity
  8
0
  6
Continuous
 62
     3
100
AcDbLine
 10
316.25172
 20
67.506621
 30
0.0
 11
324.521618
 21
67.506621
 31
0.0
  0
LINE
  5
427
330
1F
100
AcDbEntity
  8
CSLAYER2
  6
Continuous
 62
     3
100
AcDbLine
 10
280.265136
 20
52.748905
 30
0.0
 11
279.364618
 21
52.748905
 31
0.0
  0
LINE
  5
428
330
1F
100
AcDbEntity
  8
CSLAYER2
  6
Continuous
 62
     3
100
AcDbLine
 10
279.364618
 20
58.939975
 30
0.0
 11
279.364618
 21
51.341843
 31
0.0
  0
LINE
  5
429
330
1F
100
AcDbEntity
  8
CSLAYER2
  6
Continuous
 62
     3
100
AcDbLine
 10
279.364618
 20
51.341843
 30
0.0
 11
277.11332
 21
51.341843
 31
0.0
  0
ARC
  5
42A
330
1F
100
AcDbEntity
  8
CSLAYER2
  6
Continuous
 62
     3
100
AcDbCircle
 10
277.11332
 20
51.904669
 30
0.0
 40
0.5628245
100
AcDbArc
 50
180.0
 51
270.0
  0
LINE
  5
42B
330
1F
100
AcDbEntity
  8
CSLAYER2
  6
Continuous
 62
     3
100
AcDbLine
 10
276.550494
 20
51.904669
 30
0.0
 11
276.550494
 21
58.939975
 31
0.0
  0
LINE
  5
42C
330
1F
100
AcDbEntity
  8
CSLAYER2
  6
Continuous
 62
     3
100
AcDbLine
 10
279.364618
 20
55.459097
 30
0.0
 11
277.11332
 21
55.459097
 31
0.0
  0
INSERT
  5
441
330
1F
100
AcDbEntity
  8
0
  6
Continuous
 62
     7
100
AcDbBlockReference
  2
BLK20
 10
0.0
 20
0.0
 30
0.0
  0
LINE
  5
442
330
1F
100
AcDbEntity
  8
CSLAYER2
  6
Continuous
 62
     3
100
AcDbLine
 10
321.689018
 20
52.298645
 30
0.0
 11
317.974376
 21
52.298645
 31
0.0
  0
LINE
  5
443
330
1F
100
AcDbEntity
  8
CSLAYER2
  6
Continuous
 62
     3
100
AcDbLine
 10
329.1183
 20
52.917753
 30
0.0
 11
332.495246
 21
52.917753
 31
0.0
  0
LINE
  5
444
330
1F
100
AcDbEntity
  8
CSLAYER2
  6
Continuous
 62
     3
100
AcDbLine
 10
332.495246
 20
52.917753
 30
0.0
 11
332.495246
 21
58.939975
 31
0.0
  0
LINE
  5
445
330
1F
100
AcDbEntity
  8
CSLAYER2
  6
Continuous
 62
     3
100
AcDbLine
 10
317.974376
 20
52.298645
 30
0.0
 11
317.974376
 21
58.939975
 31
0.0
  0
INSERT
  5
45B
330
1F
100
AcDbEntity
  8
0
  6
Continuous
 62
     7
100
AcDbBlockReference
  2
BLK21
 10
0.0
 20
0.0
 30
0.0
  0
INSERT
  5
471
330
1F
100
AcDbEntity
  8
0
  6
Continuous
 62
     7
100
AcDbBlockReference
  2
BLK22
 10
0.0
 20
0.0
 30
0.0
  0
LINE
  5
472
330
1F
100
AcDbEntity
  8
CSLAYER2
  6
Continuous
 62
     3
100
AcDbLine
 10
316.67988
 20
55.909071
 30
0.0
 11
312.064718
 21
55.909071
 31
0.0
  0
LINE
  5
473
330
1F
100
AcDbEntity
  8
CSLAYER2
  6
Continuous
 62
     3
100
AcDbLine
 10
316.67988
 20
55.909071
 30
0.0
 11
316.67988
 21
50.497607
 31
0.0
  0
LINE
  5
474
330
1F
100
AcDbEntity
  8
CSLAYER2
  6
Continuous
 62
     3
100
AcDbLine
 10
312.064718
 20
55.909071
 30
0.0
 11
312.064718
 21
50.497607
 31
0.0
  0
LINE
  5
475
330
1F
100
AcDbEntity
  8
CSLAYER2
  6
Continuous
 62
     3
100
AcDbLine
 10
317.63668
 20
58.939975
 30
0.0
 11
317.636682
 21
51.454409
 31
0.0
  0
LINE
  5
476
330
1F
100
AcDbEntity
  8
CSLAYER2
  6
Continuous
 62
     3
100
AcDbLine
 10
317.974376
 20
51.454409
 30
0.0
 11
317.63668
 21
51.454409
 31
0.0
  0
LINE
  5
477
330
1F
100
AcDbEntity
  8
CSLAYER2
  6
Continuous
 62
     3
100
AcDbLine
 10
316.67988
 20
50.497607
 30
0.0
 11
317.636682
 21
51.454409
 31
0.0
  0
LINE
  5
478
330
1F
100
AcDbEntity
  8
CSLAYER2
  6
Continuous
 62
     3
100
AcDbLine
 10
317.974376
 20
51.454409
 30
0.0
 11
317.974376
 21
58.939975
 31
0.0
  0
LINE
  5
479
330
1F
100
AcDbEntity
  8
CSLAYER2
  6
Continuous
 62
     3
100
AcDbLine
 10
312.064718
 20
50.497607
 30
0.0
 11
316.67988
 21
50.497607
 31
0.0
  0
LINE
  5
47A
330
1F
100
AcDbEntity
  8
CSLAYER2
  6
Continuous
 62
     3
100
AcDbLine
 10
311.220482
 20
51.341843
 30
0.0
 11
312.064718
 21
50.497607
 31
0.0
  0
LINE
  5
47B
330
1F
100
AcDbEntity
  8
CSLAYER2
  6
Continuous
 62
     3
100
AcDbLine
 10
311.220482
 20
58.939975
 30
0.0
 11
311.220482
 21
51.341845
 31
0.0
  0
LINE
  5
47C
330
1F
100
AcDbEntity
  8
CSLAYER2
  6
Continuous
 62
     3
100
AcDbLine
 10
280.265136
 20
58.939975
 30
0.0
 11
280.265136
 21
51.904669
 31
0.0
  0
LINE
  5
47D
330
1F
100
AcDbEntity
  8
CSLAYER2
  6
Continuous
 62
     3
100
AcDbLine
 10
280.82796
 20
51.341843
 30
0.0
 11
311.220482
 21
51.341843
 31
0.0
  0
ARC
  5
47E
330
1F
100
AcDbEntity
  8
CSLAYER2
  6
Continuous
 62
     3
100
AcDbCircle
 10
280.82796
 20
51.904669
 30
0.0
 40
0.5628245
100
AcDbArc
 50
180.0
 51
270.0
  0
LINE
  5
47F
330
1F
100
AcDbEntity
  8
CSLAYER2
  6
Continuous
 62
     3
100
AcDbLine
 10
328.66804
 20
50.263985
 30
0.0
 11
322.139276
 21
50.263985
 31
0.0
  0
LINE
  5
480
330
1F
100
AcDbEntity
  8
CSLAYER2
  6
Continuous
 62
     3
100
AcDbLine
 10
328.66804
 20
50.406831
 30
0.0
 11
322.139276
 21
50.406831
 31
0.0
  0
LINE
  5
481
330
1F
100
AcDbEntity
  8
CSLAYER2
  6
Continuous
 62
     3
100
AcDbLine
 10
328.66804
 20
50.643167
 30
0.0
 11
322.139276
 21
50.643167
 31
0.0
  0
LINE
  5
482
330
1F
100
AcDbEntity
  8
CSLAYER2
  6
Continuous
 62
     3
100
AcDbLine
 10
328.66804
 20
50.970405
 30
0.0
 11
322.139276
 21
50.970405
 31
0.0
  0
LINE
  5
483
330
1F
100
AcDbEntity
  8
CSLAYER2
  6
Continuous
 62
     3
100
AcDbLine
 10
328.66804
 20
51.384959
 30
0.0
 11
322.139276
 21
51.384959
 31
0.0
  0
LINE
  5
484
330
1F
100
AcDbEntity
  8
CSLAYER2
  6
Continuous
 62
     3
100
AcDbLine
 10
328.66804
 20
51.882289
 30
0.0
 11
322.139276
 21
51.882289
 31
0.0
  0
LINE
  5
485
330
1F
100
AcDbEntity
  8
CSLAYER2
  6
Continuous
 62
     3
100
AcDbLine
 10
328.66804
 20
52.456943
 30
0.0
 11
322.139276
 21
52.456943
 31
0.0
  0
LINE
  5
486
330
1F
100
AcDbEntity
  8
CSLAYER2
  6
Continuous
 62
     3
100
AcDbLine
 10
328.66804
 20
53.102627
 30
0.0
 11
322.139276
 21
53.102627
 31
0.0
  0
LINE
  5
487
330
1F
100
AcDbEntity
  8
CSLAYER2
  6
Continuous
 62
     3
100
AcDbLine
 10
328.66804
 20
53.812265
 30
0.0
 11
322.139276
 21
53.812265
 31
0.0
  0
LINE
  5
488
330
1F
100
AcDbEntity
  8
CSLAYER2
  6
Continuous
 62
     3
100
AcDbLine
 10
328.66804
 20
54.578085
 30
0.0
 11
322.139276
 21
54.578085
 31
0.0
  0
LINE
  5
489
330
1F
100
AcDbEntity
  8
CSLAYER2
  6
Continuous
 62
     3
100
AcDbLine
 10
328.66804
 20
55.391693
 30
0.0
 11
322.139276
 21
55.391693
 31
0.0
  0
LINE
  5
48A
330
1F
100
AcDbEntity
  8
CSLAYER2
  6
Continuous
 62
     3
100
AcDbLine
 10
328.66804
 20
56.244179
 30
0.0
 11
322.139276
 21
56.244179
 31
0.0
  0
LINE
  5
48B
330
1F
100
AcDbEntity
  8
CSLAYER2
  6
Continuous
 62
     3
100
AcDbLine
 10
328.66804
 20
57.126199
 30
0.0
 11
322.139276
 21
57.126199
 31
0.0
  0
LINE
  5
48C
330
1F
100
AcDbEntity
  8
CSLAYER2
  6
Continuous
 62
     3
100
AcDbLine
 10
328.66804
 20
58.028091
 30
0.0
 11
322.139276
 21
58.028091
 31
0.0
  0
LINE
  5
48D
330
1F
100
AcDbEntity
  8
CSLAYER2
  6
Continuous
 62
     3
100
AcDbLine
 10
322.139276
 20
58.939975
 30
0.0
 11
322.139276
 21
50.216195
 31
0.0
  0
LINE
  5
48E
330
1F
100
AcDbEntity
  8
CSLAYER2
  6
Continuous
 62
     3
100
AcDbLine
 10
328.66804
 20
58.939975
 30
0.0
 11
328.66804
 21
50.216195
 31
0.0
  0
LINE
  5
48F
330
1F
100
AcDbEntity
  8
CSLAYER2
  6
Continuous
 62
     3
100
AcDbLine
 10
322.139276
 20
50.216195
 30
0.0
 11
321.689018
 21
50.666455
 31
0.0
  0
LINE
  5
490
330
1F
100
AcDbEntity
  8
CSLAYER2
  6
Continuous
 62
     3
100
AcDbLine
 10
321.689018
 20
58.939975
 30
0.0
 11
321.689018
 21
50.666455
 31
0.0
  0
LINE
  5
491
330
1F
100
AcDbEntity
  8
CSLAYER2
  6
Continuous
 62
     3
100
AcDbLine
 10
328.66804
 20
50.216195
 30
0.0
 11
322.139276
 21
50.216195
 31
0.0
  0
LINE
  5
492
330
1F
100
AcDbEntity
  8
CSLAYER2
  6
Continuous
 62
     3
100
AcDbLine
 10
329.1183
 20
50.666455
 30
0.0
 11
328.66804
 21
50.216195
 31
0.0
  0
LINE
  5
493
330
1F
100
AcDbEntity
  8
CSLAYER2
  6
Continuous
 62
     3
100
AcDbLine
 10
329.1183
 20
58.939975
 30
0.0
 11
329.1183
 21
50.666455
 31
0.0
  0
LINE
  5
494
330
1F
100
AcDbEntity
  8
CSLAYER2
  6
Continuous
 62
     3
100
AcDbLine
 10
280.265136
 20
65.131043
 30
0.0
 11
279.364618
 21
65.131043
 31
0.0
  0
LINE
  5
495
330
1F
100
AcDbEntity
  8
CSLAYER2
  6
Continuous
 62
     3
100
AcDbLine
 10
279.364618
 20
58.939975
 30
0.0
 11
279.364618
 21
66.538105
 31
0.0
  0
LINE
  5
496
330
1F
100
AcDbEntity
  8
CSLAYER2
  6
Continuous
 62
     3
100
AcDbLine
 10
279.364618
 20
66.538105
 30
0.0
 11
277.11332
 21
66.538105
 31
0.0
  0
ARC
  5
497
330
1F
100
AcDbEntity
  8
CSLAYER2
  6
Continuous
 62
     3
100
AcDbCircle
 10
277.11332
 20
65.975281
 30
0.0
 40
0.5628245
100
AcDbArc
 50
90.0
 51
180.0
  0
LINE
  5
498
330
1F
100
AcDbEntity
  8
CSLAYER2
  6
Continuous
 62
     3
100
AcDbLine
 10
276.550494
 20
65.975281
 30
0.0
 11
276.550494
 21
58.939975
 31
0.0
  0
LINE
  5
499
330
1F
100
AcDbEntity
  8
CSLAYER2
  6
Continuous
 62
     3
100
AcDbLine
 10
279.364618
 20
62.420851
 30
0.0
 11
277.11332
 21
62.420851
 31
0.0
  0
INSERT
  5
4AE
330
1F
100
AcDbEntity
  8
0
  6
Continuous
 62
     7
100
AcDbBlockReference
  2
BLK23
 10
0.0
 20
0.0
 30
0.0
  0
LINE
  5
4AF
330
1F
100
AcDbEntity
  8
CSLAYER2
  6
Continuous
 62
     3
100
AcDbLine
 10
321.689018
 20
65.581303
 30
0.0
 11
317.974376
 21
65.581303
 31
0.0
  0
LINE
  5
4B0
330
1F
100
AcDbEntity
  8
CSLAYER2
  6
Continuous
 62
     3
100
AcDbLine
 10
329.1183
 20
64.962197
 30
0.0
 11
332.495246
 21
64.962197
 31
0.0
  0
LINE
  5
4B1
330
1F
100
AcDbEntity
  8
CSLAYER2
  6
Continuous
 62
     3
100
AcDbLine
 10
332.495246
 20
64.962197
 30
0.0
 11
332.495246
 21
58.939975
 31
0.0
  0
LINE
  5
4B2
330
1F
100
AcDbEntity
  8
CSLAYER2
  6
Continuous
 62
     3
100
AcDbLine
 10
317.974376
 20
65.581303
 30
0.0
 11
317.974376
 21
58.939975
 31
0.0
  0
INSERT
  5
4C8
330
1F
100
AcDbEntity
  8
0
  6
Continuous
 62
     7
100
AcDbBlockReference
  2
BLK24
 10
0.0
 20
0.0
 30
0.0
  0
INSERT
  5
4DE
330
1F
100
AcDbEntity
  8
0
  6
Continuous
 62
     7
100
AcDbBlockReference
  2
BLK25
 10
0.0
 20
0.0
 30
0.0
  0
LINE
  5
4DF
330
1F
100
AcDbEntity
  8
CSLAYER2
  6
Continuous
 62
     3
100
AcDbLine
 10
316.67988
 20
61.970877
 30
0.0
 11
312.064718
 21
61.970877
 31
0.0
  0
LINE
  5
4E0
330
1F
100
AcDbEntity
  8
CSLAYER2
  6
Continuous
 62
     3
100
AcDbLine
 10
316.67988
 20
61.970877
 30
0.0
 11
316.67988
 21
67.382341
 31
0.0
  0
LINE
  5
4E1
330
1F
100
AcDbEntity
  8
CSLAYER2
  6
Continuous
 62
     3
100
AcDbLine
 10
312.064718
 20
61.970877
 30
0.0
 11
312.064718
 21
67.382341
 31
0.0
  0
LINE
  5
4E2
330
1F
100
AcDbEntity
  8
CSLAYER2
  6
Continuous
 62
     3
100
AcDbLine
 10
317.63668
 20
58.939975
 30
0.0
 11
317.636682
 21
66.425539
 31
0.0
  0
LINE
  5
4E3
330
1F
100
AcDbEntity
  8
CSLAYER2
  6
Continuous
 62
     3
100
AcDbLine
 10
317.974376
 20
66.425539
 30
0.0
 11
317.63668
 21
66.425539
 31
0.0
  0
LINE
  5
4E4
330
1F
100
AcDbEntity
  8
CSLAYER2
  6
Continuous
 62
     3
100
AcDbLine
 10
316.67988
 20
67.382341
 30
0.0
 11
317.636682
 21
66.425539
 31
0.0
  0
LINE
  5
4E5
330
1F
100
AcDbEntity
  8
CSLAYER2
  6
Continuous
 62
     3
100
AcDbLine
 10
317.974376
 20
66.425539
 30
0.0
 11
317.974376
 21
58.939975
 31
0.0
  0
LINE
  5
4E6
330
1F
100
AcDbEntity
  8
CSLAYER2
  6
Continuous
 62
     3
100
AcDbLine
 10
312.064718
 20
67.382341
 30
0.0
 11
316.67988
 21
67.382341
 31
0.0
  0
LINE
  5
4E7
330
1F
100
AcDbEntity
  8
CSLAYER2
  6
Continuous
 62
     3
100
AcDbLine
 10
311.220482
 20
66.538105
 30
0.0
 11
312.064718
 21
67.382341
 31
0.0
  0
LINE
  5
4E8
330
1F
100
AcDbEntity
  8
CSLAYER2
  6
Continuous
 62
     3
100
AcDbLine
 10
311.220482
 20
58.939975
 30
0.0
 11
311.220482
 21
66.538105
 31
0.0
  0
LINE
  5
4E9
330
1F
100
AcDbEntity
  8
CSLAYER2
  6
Continuous
 62
     3
100
AcDbLine
 10
280.265136
 20
58.939975
 30
0.0
 11
280.265136
 21
65.975281
 31
0.0
  0
LINE
  5
4EA
330
1F
100
AcDbEntity
  8
CSLAYER2
  6
Continuous
 62
     3
100
AcDbLine
 10
280.82796
 20
66.538105
 30
0.0
 11
311.220482
 21
66.538105
 31
0.0
  0
ARC
  5
4EB
330
1F
100
AcDbEntity
  8
CSLAYER2
  6
Continuous
 62
     3
100
AcDbCircle
 10
280.82796
 20
65.975281
 30
0.0
 40
0.5628245
100
AcDbArc
 50
90.0
 51
180.0
  0
LINE
  5
4EC
330
1F
100
AcDbEntity
  8
CSLAYER2
  6
Continuous
 62
     3
100
AcDbLine
 10
328.66804
 20
67.615963
 30
0.0
 11
322.139276
 21
67.615963
 31
0.0
  0
LINE
  5
4ED
330
1F
100
AcDbEntity
  8
CSLAYER2
  6
Continuous
 62
     3
100
AcDbLine
 10
328.66804
 20
67.473117
 30
0.0
 11
322.139276
 21
67.473117
 31
0.0
  0
LINE
  5
4EE
330
1F
100
AcDbEntity
  8
CSLAYER2
  6
Continuous
 62
     3
100
AcDbLine
 10
328.66804
 20
67.236781
 30
0.0
 11
322.139276
 21
67.236781
 31
0.0
  0
LINE
  5
4EF
330
1F
100
AcDbEntity
  8
CSLAYER2
  6
Continuous
 62
     3
100
AcDbLine
 10
328.66804
 20
66.909543
 30
0.0
 11
322.139276
 21
66.909543
 31
0.0
  0
LINE
  5
4F0
330
1F
100
AcDbEntity
  8
CSLAYER2
  6
Continuous
 62
     3
100
AcDbLine
 10
328.66804
 20
66.494989
 30
0.0
 11
322.139276
 21
66.494989
 31
0.0
  0
LINE
  5
4F1
330
1F
100
AcDbEntity
  8
CSLAYER2
  6
Continuous
 62
     3
100
AcDbLine
 10
328.66804
 20
65.997659
 30
0.0
 11
322.139276
 21
65.997659
 31
0.0
  0
LINE
  5
4F2
330
1F
100
AcDbEntity
  8
CSLAYER2
  6
Continuous
 62
     3
100
AcDbLine
 10
328.66804
 20
65.423005
 30
0.0
 11
322.139276
 21
65.423005
 31
0.0
  0
LINE
  5
4F3
330
1F
100
AcDbEntity
  8
CSLAYER2
  6
Continuous
 62
     3
100
AcDbLine
 10
328.66804
 20
64.777323
 30
0.0
 11
322.139276
 21
64.777323
 31
0.0
  0
LINE
  5
4F4
330
1F
100
AcDbEntity
  8
CSLAYER2
  6
Continuous
 62
     3
100
AcDbLine
 10
328.66804
 20
64.067683
 30
0.0
 11
322.139276
 21
64.067683
 31
0.0
  0
LINE
  5
4F5
330
1F
100
AcDbEntity
  8
CSLAYER2
  6
Continuous
 62
     3
100
AcDbLine
 10
328.66804
 20
63.301863
 30
0.0
 11
322.139276
 21
63.301863
 31
0.0
  0
LINE
  5
4F6
330
1F
100
AcDbEntity
  8
CSLAYER2
  6
Continuous
 62
     3
100
AcDbLine
 10
328.66804
 20
62.488255
 30
0.0
 11
322.139276
 21
62.488255
 31
0.0
  0
LINE
  5
4F7
330
1F
100
AcDbEntity
  8
CSLAYER2
  6
Continuous
 62
     3
100
AcDbLine
 10
328.66804
 20
61.635771
 30
0.0
 11
322.139276
 21
61.635771
 31
0.0
  0
LINE
  5
4F8
330
1F
100
AcDbEntity
  8
CSLAYER2
  6
Continuous
 62
     3
100
AcDbLine
 10
328.66804
 20
60.753749
 30
0.0
 11
322.139276
 21
60.753749
 31
0.0
  0
LINE
  5
4F9
330
1F
100
AcDbEntity
  8
CSLAYER2
  6
Continuous
 62
     3
100
AcDbLine
 10
328.66804
 20
59.851857
 30
0.0
 11
322.139276
 21
59.851857
 31
0.0
  0
LINE
  5
4FA
330
1F
100
AcDbEntity
  8
CSLAYER2
  6
Continuous
 62
     3
100
AcDbLine
 10
322.139276
 20
58.939975
 30
0.0
 11
322.139276
 21
67.663753
 31
0.0
  0
LINE
  5
4FB
330
1F
100
AcDbEntity
  8
CSLAYER2
  6
Continuous
 62
     3
100
AcDbLine
 10
328.66804
 20
58.939975
 30
0.0
 11
328.66804
 21
67.663753
 31
0.0
  0
LINE
  5
4FC
330
1F
100
AcDbEntity
  8
CSLAYER2
  6
Continuous
 62
     3
100
AcDbLine
 10
322.139276
 20
67.663753
 30
0.0
 11
321.689018
 21
67.213493
 31
0.0
  0
LINE
  5
4FD
330
1F
100
AcDbEntity
  8
CSLAYER2
  6
Continuous
 62
     3
100
AcDbLine
 10
321.689018
 20
58.939975
 30
0.0
 11
321.689018
 21
67.213493
 31
0.0
  0
LINE
  5
4FE
330
1F
100
AcDbEntity
  8
CSLAYER2
  6
Continuous
 62
     3
100
AcDbLine
 10
328.66804
 20
67.663753
 30
0.0
 11
322.139276
 21
67.663753
 31
0.0
  0
LINE
  5
4FF
330
1F
100
AcDbEntity
  8
CSLAYER2
  6
Continuous
 62
     3
100
AcDbLine
 10
329.1183
 20
67.213493
 30
0.0
 11
328.66804
 21
67.663753
 31
0.0
  0
LINE
  5
500
330
1F
100
AcDbEntity
  8
CSLAYER2
  6
Continuous
 62
     3
100
AcDbLine
 10
329.1183
 20
58.939975
 30
0.0
 11
329.1183
 21
67.213493
 31
0.0
  0
LINE
  5
501
330
1F
100
AcDbEntity
  8
CSLAYER2
  6
Continuous
 62
     3
100
AcDbLine
 10
328.66804
 20
58.939975
 30
0.0
 11
322.139276
 21
58.939975
 31
0.0
  0
LINE
  5
502
330
1F
100
AcDbEntity
  8
0
  6
Continuous
 62
     3
100
AcDbLine
 10
171.372063
 20
88.898647
 30
0.0
 11
265.303076
 21
88.898647
 31
0.0
  0
LINE
  5
503
330
1F
100
AcDbEntity
  8
0
  6
Continuous
 62
     3
100
AcDbLine
 10
172.260772
 20
77.498647
 30
0.0
 11
265.303076
 21
77.498647
 31
0.0
  0
LINE
  5
504
330
1F
100
AcDbEntity
  8
0
  6
Continuous
 62
     3
100
AcDbLine
 10
276.550494
 20
63.58417
 30
0.0
 11
174.942682
 21
63.58417
 31
0.0
  0
LINE
  5
505
330
1F
100
AcDbEntity
  8
0
  6
Continuous
 62
     3
100
AcDbLine
 10
276.550494
 20
54.269766
 30
0.0
 11
172.222179
 21
54.269766
 31
0.0
  0
DIMENSION
  5
514
330
1F
100
AcDbEntity
  8
0
  6
Continuous
 62
     7
100
AcDbDimension
  2
_D1
 10
-107.313831
 20
95.430963
 30
0.0
 11
-111.873831
 21
75.445963
 31
0.0
 70
   160
  1
φ40{\H1.00x;\A2\S 0^ -0.01;}
 71
     5
 42
-1.0
 52
90.0
  3
DIMSTYEX_1
100
AcDbAlignedDimension
 13
-86.73353
 23
55.460963
 33
0.0
 14
-86.73353
 24
95.430963
 34
0.0
 50
90.0
100
AcDbRotatedDimension
1001
ACAD
1000
DSTYLE
1002
{
1070
   343
1005
86
1070
   344
1005
86
1070
    43
1040
0.0
1070
   173
1070
     1
1070
   272
1070
     2
1070
   340
1005
81
1070
   140
1040
3.584
1002
}
  0
DIMENSION
  5
521
330
1F
100
AcDbEntity
  8
0
  6
Continuous
 62
     7
100
AcDbDimension
  2
_D2
 10
85.866456
 20
122.44328
 30
0.0
 11
-0.5335389999999978
 21
124.44328
 31
0.0
 70
   160
 71
     5
 42
-1.0
 52
90.0
  3
DIMSTYEX_1
100
AcDbAlignedDimension
 13
-86.933534
 23
95.230963
 33
0.0
 14
85.866456
 24
95.195963
 34
0.0
100
AcDbRotatedDimension
1001
ACAD
1000
DSTYLE
1002
{
1070
   343
1005
86
1070
   344
1005
86
1070
    43
1040
0.0
1070
   173
1070
     1
1070
   272
1070
     2
1070
   340
1005
81
1070
   140
1040
3.584
1002
}
  0
DIMENSION
  5
52F
330
1F
100
AcDbEntity
  8
0
  6
Continuous
 62
     7
100
AcDbDimension
  2
_D3
 10
99.766452
 20
109.165299
 30
0.0
 11
110.266449
 21
110.165298
 31
0.0
 70
   160
  1
(<>)
 71
     5
 42
-1.0
 52
90.0
  3
DIMSTYEX_1
100
AcDbAlignedDimension
 13
85.866456
 23
95.195963
 33
0.0
 14
99.766452
 24
91.198647
 34
0.0
100
AcDbRotatedDimension
1001
ACAD
1000
DSTYLE
1002
{
1070
   343
1005
86
1070
   344
1005
86
1070
    43
1040
0.0
1070
   173
1070
     1
1070
   272
1070
     2
1070
   340
1005
81
1070
   140
1040
3.584
1002
}
  0
DIMENSION
  5
53C
330
1F
100
AcDbEntity
  8
0
  6
Continuous
 62
     7
100
AcDbDimension
  2
_D4
 10
332.829924
 20
122.44328
 30
0.0
 11
209.34819
 21
124.44328
 31
0.0
 70
   160
  1
(300)
 71
     5
 42
-1.0
 52
90.0
  3
DIMSTYEX_1
100
AcDbAlignedDimension
 13
85.866456
 23
95.195963
 33
0.0
 14
332.829924
 24
94.575107
 34
0.0
100
AcDbRotatedDimension
1001
ACAD
1000
DSTYLE
1002
{
1070
   343
1005
86
1070
   344
1005
86
1070
    43
1040
0.0
1070
   173
1070
     1
1070
   272
1070
     2
1070
   340
1005
81
1070
   140
1040
3.584
1002
}
  0
ENDSEC
  0
SECTION
  2
OBJECTS
  0
DICTIONARY
  5
C
330
0
100
AcDbDictionary
281
     1
  3
ACAD_GROUP
350
D
  3
ACAD_LAYOUT
350
1A
  3
ACAD_MATERIAL
350
43
  3
ACAD_MLEADERSTYLE
350
6B
  3
ACAD_MLINESTYLE
350
17
  3
ACAD_PLOTSETTINGS
350
19
  3
ACAD_PLOTSTYLENAME
350
E
  3
ACAD_SCALELIST
350
47
  3
ACAD_TABLESTYLE
350
69
  3
ACAD_VISUALSTYLE
350
2A
  3
AcDbVariableDictionary
350
54C
  0
DICTIONARY
  5
553
330
8
100
AcDbDictionary
280
     1
281
     1
  3
ACAD_XREC_ROUNDTRIP
360
554
  0
DICTIONARY
  5
D
102
{ACAD_REACTORS
330
C
102
}
330
C
100
AcDbDictionary
281
     1
  0
DICTIONARY
  5
1A
102
{ACAD_REACTORS
330
C
102
}
330
C
100
AcDbDictionary
281
     1
  3
Layout1
350
1E
  3
Model
350
22
  0
DICTIONARY
  5
43
102
{ACAD_REACTORS
330
C
102
}
330
C
100
AcDbDictionary
281
     1
  3
ByBlock
350
45
  3
ByLayer
350
44
  3
Global
350
46
  0
DICTIONARY
  5
6B
102
{ACAD_REACTORS
330
C
102
}
330
C
100
AcDbDictionary
281
     1
  3
Standard
350
6C
  0
DICTIONARY
  5
17
102
{ACAD_REACTORS
330
C
102
}
330
C
100
AcDbDictionary
281
     1
  3
Standard
350
18
  0
DICTIONARY
  5
19
102
{ACAD_REACTORS
330
C
102
}
330
C
100
AcDbDictionary
281
     1
  0
ACDBDICTIONARYWDFLT
  5
E
102
{ACAD_REACTORS
330
C
102
}
330
C
100
AcDbDictionary
281
     1
  3
Normal
350
F
100
AcDbDictionaryWithDefault
340
F
  0
DICTIONARY
  5
47
102
{ACAD_REACTORS
330
C
102
}
330
C
100
AcDbDictionary
281
     1
  3
A0
350
48
  3
A1
350
49
  3
A2
350
4A
  3
A3
350
4B
  3
A4
350
4C
  3
A5
350
4D
  3
A6
350
4E
  3
A7
350
4F
  3
A8
350
50
  3
A9
350
51
  3
B0
350
52
  3
B1
350
53
  3
B2
350
54
  3
B3
350
55
  3
B4
350
56
  3
B5
350
57
  3
B6
350
58
  3
B7
350
59
  3
B8
350
5A
  3
B9
350
5B
  3
C0
350
5C
  3
C1
350
5D
  3
C2
350
5E
  3
C3
350
5F
  3
C4
350
60
  3
C5
350
61
  3
C6
350
62
  3
C7
350
63
  3
C8
350
64
  3
C9
350
65
  3
D0
350
66
  3
D1
350
67
  3
D2
350
68
  0
DICTIONARY
  5
69
102
{ACAD_REACTORS
330
C
102
}
330
C
100
AcDbDictionary
281
     1
  3
Standard
350
6A
  0
DICTIONARY
  5
2A
102
{ACAD_REACTORS
330
C
102
}
330
C
100
AcDbDictionary
281
     1
  3
2dWireframe
350
2F
  3
Basic
350
32
  3
Brighten
350
36
  3
ColorChange
350
3A
  3
Conceptual
350
34
  3
Dim
350
35
  3
EdgeColorOff
350
3D
  3
Facepattern
350
39
  3
Flat
350
2B
  3
FlatWithEdges
350
2C
  3
Gouraud
350
2D
  3
GouraudWithEdges
350
2E
  3
Hidden
350
31
  3
JitterOff
350
3B
  3
Linepattern
350
38
  3
OverhangOff
350
3C
  3
Realistic
350
33
  3
Shaded
350
42
  3
Shaded with edges
350
41
  3
Shades of Gray
350
3E
  3
Sketchy
350
3F
  3
Thicken
350
37
  3
Wireframe
350
30
  3
X-Ray
350
40
  0
DICTIONARY
  5
54C
102
{ACAD_REACTORS
330
C
102
}
330
C
100
AcDbDictionary
281
     1
  3
CANNOSCALE
350
555
  3
CMLEADERSTYLE
350
54E
  3
CTABLESTYLE
350
54D
  3
DIMASSOC
350
551
  3
HIDETEXT
350
552
  3
MSLTSCALE
350
556
  0
XRECORD
  5
554
102
{ACAD_REACTORS
330
553
102
}
330
553
100
AcDbXrecord
280
     1
102
VTR_0.000_0.000_1.000_1.000_VISUALSTYLE
340
2F
102
VTR_0.000_0.000_1.000_1.000_GRIDDISPLAY
 70
     3
102
VTR_0.000_0.000_1.000_1.000_GRIDMAJOR
 70
     5
102
VTR_0.000_0.000_1.000_1.000_DEFAULTLIGHTING
280
     1
102
VTR_0.000_0.000_1.000_1.000_DEFAULTLIGHTINGTYPE
 70
     1
102
VTR_0.000_0.000_1.000_1.000_BRIGHTNESS
141
0.0
102
VTR_0.000_0.000_1.000_1.000_CONTRAST
142
0.0
  0
LAYOUT
  5
1E
102
{ACAD_REACTORS
330
1A
102
}
330
1A
100
AcDbPlotSettings
  1

  2
none_device
  4

  6

 40
0.0
 41
0.0
 42
0.0
 43
0.0
 44
0.0
 45
0.0
 46
0.0
 47
0.0
 48
0.0
 49
0.0
140
0.0
141
0.0
142
1.0
143
1.0
 70
   688
 72
     0
 73
     0
 74
     5
  7

 75
    16
147
1.0
148
0.0
149
0.0
100
AcDbLayout
  1
Layout1
 70
     1
 71
     1
 10
0.0
 20
0.0
 11
12.0
 21
9.0
 12
0.0
 22
0.0
 32
0.0
 14
1.000000000000000E+20
 24
1.000000000000000E+20
 34
1.000000000000000E+20
 15
-1.000000000000000E+20
 25
-1.000000000000000E+20
 35
-1.000000000000000E+20
146
0.0
 13
0.0
 23
0.0
 33
0.0
 16
1.0
 26
0.0
 36
0.0
 17
0.0
 27
1.0
 37
0.0
 76
     0
330
1B
  0
LAYOUT
  5
22
102
{ACAD_REACTORS
330
1A
102
}
330
1A
100
AcDbPlotSettings
  1

  2
none_device
  4
Letter_(8.50_x_11.00_Inches)
  6

 40
6.35
 41
6.35
 42
6.35000508
 43
6.35000508
 44
215.9
 45
279.4
 46
0.0
 47
0.0
 48
0.0
 49
0.0
140
0.0
141
0.0
142
1.0
143
1.0
 70
  1712
 72
     0
 73
     0
 74
     0
  7

 75
     0
147
1.0
148
0.0
149
0.0
100
AcDbLayout
  1
Model
 70
     1
 71
     0
 10
-116.433831
 20
0.0
 11
332.87345
 21
126.44328
 12
0.0
 22
0.0
 32
0.0
 14
-116.433831
 24
0.0
 34
0.0
 15
332.87345
 25
126.44328
 35
0.0
146
0.0
 13
0.0
 23
0.0
 33
0.0
 16
1.0
 26
0.0
 36
0.0
 17
0.0
 27
1.0
 37
0.0
 76
     0
330
1F
331
29
  0
MATERIAL
  5
45
102
{ACAD_REACTORS
330
43
102
}
102
{ACAD_XDICTIONARY
360
589
102
}
330
43
100
AcDbMaterial
  1
ByBlock
  0
MATERIAL
  5
44
102
{ACAD_REACTORS
330
43
102
}
102
{ACAD_XDICTIONARY
360
587
102
}
330
43
100
AcDbMaterial
  1
ByLayer
  0
MATERIAL
  5
46
102
{ACAD_REACTORS
330
43
102
}
102
{ACAD_XDICTIONARY
360
58B
102
}
330
43
100
AcDbMaterial
  1
Global
  0
MLEADERSTYLE
  5
6C
102
{ACAD_REACTORS
330
6B
102
}
102
{ACAD_XDICTIONARY
360
58E
102
}
330
6B
100
AcDbMLeaderStyle
170
     2
171
     1
172
     0
 90
        2
 40
0.0
 41
0.0
173
     1
 91
-1056964608
340
14
 92
       -2
290
     1
 42
0.09
291
     1
 43
0.36
  3
Standard
341
0
 44
0.18
300

342
11
174
     1
178
     6
175
     1
176
     0
 93
-1056964608
 45
0.18
292
     0
297
     0
 46
0.18
343
0
 94
-1056964608
 47
1.0
 49
1.0
140
1.0
293
     1
141
0.0
294
     1
177
     0
142
1.0
295
     0
296
     0
143
0.125
1001
ACAD_MLEADERVER
1070
     2
  0
MLINESTYLE
  5
18
102
{ACAD_REACTORS
330
17
102
}
330
17
100
AcDbMlineStyle
  2
Standard
 70
     0
  3

 62
   256
 51
90.0
 52
90.0
 71
     2
 49
0.5
 62
   256
  6
BYLAYER
 49
-0.5
 62
   256
  6
BYLAYER
  0
ACDBPLACEHOLDER
  5
F
102
{ACAD_REACTORS
330
E
102
}
330
E
  0
SCALE
  5
48
102
{ACAD_REACTORS
330
47
102
}
330
47
100
AcDbScale
 70
     0
300
1:1
140
1.0
141
1.0
290
     1
  0
SCALE
  5
49
102
{ACAD_REACTORS
330
47
102
}
330
47
100
AcDbScale
 70
     0
300
1:2
140
1.0
141
2.0
290
     0
  0
SCALE
  5
4A
102
{ACAD_REACTORS
330
47
102
}
330
47
100
AcDbScale
 70
     0
300
1:4
140
1.0
141
4.0
290
     0
  0
SCALE
  5
4B
102
{ACAD_REACTORS
330
47
102
}
330
47
100
AcDbScale
 70
     0
300
1:5
140
1.0
141
5.0
290
     0
  0
SCALE
  5
4C
102
{ACAD_REACTORS
330
47
102
}
330
47
100
AcDbScale
 70
     0
300
1:8
140
1.0
141
8.0
290
     0
  0
SCALE
  5
4D
102
{ACAD_REACTORS
330
47
102
}
330
47
100
AcDbScale
 70
     0
300
1:10
140
1.0
141
10.0
290
     0
  0
SCALE
  5
4E
102
{ACAD_REACTORS
330
47
102
}
330
47
100
AcDbScale
 70
     0
300
1:16
140
1.0
141
16.0
290
     0
  0
SCALE
  5
4F
102
{ACAD_REACTORS
330
47
102
}
330
47
100
AcDbScale
 70
     0
300
1:20
140
1.0
141
20.0
290
     0
  0
SCALE
  5
50
102
{ACAD_REACTORS
330
47
102
}
330
47
100
AcDbScale
 70
     0
300
1:30
140
1.0
141
30.0
290
     0
  0
SCALE
  5
51
102
{ACAD_REACTORS
330
47
102
}
330
47
100
AcDbScale
 70
     0
300
1:40
140
1.0
141
40.0
290
     0
  0
SCALE
  5
52
102
{ACAD_REACTORS
330
47
102
}
330
47
100
AcDbScale
 70
     0
300
1:50
140
1.0
141
50.0
290
     0
  0
SCALE
  5
53
102
{ACAD_REACTORS
330
47
102
}
330
47
100
AcDbScale
 70
     0
300
1:100
140
1.0
141
100.0
290
     0
  0
SCALE
  5
54
102
{ACAD_REACTORS
330
47
102
}
330
47
100
AcDbScale
 70
     0
300
2:1
140
2.0
141
1.0
290
     0
  0
SCALE
  5
55
102
{ACAD_REACTORS
330
47
102
}
330
47
100
AcDbScale
 70
     0
300
4:1
140
4.0
141
1.0
290
     0
  0
SCALE
  5
56
102
{ACAD_REACTORS
330
47
102
}
330
47
100
AcDbScale
 70
     0
300
8:1
140
8.0
141
1.0
290
     0
  0
SCALE
  5
57
102
{ACAD_REACTORS
330
47
102
}
330
47
100
AcDbScale
 70
     0
300
10:1
140
10.0
141
1.0
290
     0
  0
SCALE
  5
58
102
{ACAD_REACTORS
330
47
102
}
330
47
100
AcDbScale
 70
     0
300
100:1
140
100.0
141
1.0
290
     0
  0
SCALE
  5
59
102
{ACAD_REACTORS
330
47
102
}
330
47
100
AcDbScale
 70
     0
300
1/128" = 1'-0"
140
0.0078125
141
12.0
290
     0
  0
SCALE
  5
5A
102
{ACAD_REACTORS
330
47
102
}
330
47
100
AcDbScale
 70
     0
300
1/64" = 1'-0"
140
0.015625
141
12.0
290
     0
  0
SCALE
  5
5B
102
{ACAD_REACTORS
330
47
102
}
330
47
100
AcDbScale
 70
     0
300
1/32" = 1'-0"
140
0.03125
141
12.0
290
     0
  0
SCALE
  5
5C
102
{ACAD_REACTORS
330
47
102
}
330
47
100
AcDbScale
 70
     0
300
1/16" = 1'-0"
140
0.0625
141
12.0
290
     0
  0
SCALE
  5
5D
102
{ACAD_REACTORS
330
47
102
}
330
47
100
AcDbScale
 70
     0
300
3/32" = 1'-0"
140
0.09375
141
12.0
290
     0
  0
SCALE
  5
5E
102
{ACAD_REACTORS
330
47
102
}
330
47
100
AcDbScale
 70
     0
300
1/8" = 1'-0"
140
0.125
141
12.0
290
     0
  0
SCALE
  5
5F
102
{ACAD_REACTORS
330
47
102
}
330
47
100
AcDbScale
 70
     0
300
3/16" = 1'-0"
140
0.1875
141
12.0
290
     0
  0
SCALE
  5
60
102
{ACAD_REACTORS
330
47
102
}
330
47
100
AcDbScale
 70
     0
300
1/4" = 1'-0"
140
0.25
141
12.0
290
     0
  0
SCALE
  5
61
102
{ACAD_REACTORS
330
47
102
}
330
47
100
AcDbScale
 70
     0
300
3/8" = 1'-0"
140
0.375
141
12.0
290
     0
  0
SCALE
  5
62
102
{ACAD_REACTORS
330
47
102
}
330
47
100
AcDbScale
 70
     0
300
1/2" = 1'-0"
140
0.5
141
12.0
290
     0
  0
SCALE
  5
63
102
{ACAD_REACTORS
330
47
102
}
330
47
100
AcDbScale
 70
     0
300
3/4" = 1'-0"
140
0.75
141
12.0
290
     0
  0
SCALE
  5
64
102
{ACAD_REACTORS
330
47
102
}
330
47
100
AcDbScale
 70
     0
300
1" = 1'-0"
140
1.0
141
12.0
290
     0
  0
SCALE
  5
65
102
{ACAD_REACTORS
330
47
102
}
330
47
100
AcDbScale
 70
     0
300
1-1/2" = 1'-0"
140
1.5
141
12.0
290
     0
  0
SCALE
  5
66
102
{ACAD_REACTORS
330
47
102
}
330
47
100
AcDbScale
 70
     0
300
3" = 1'-0"
140
3.0
141
12.0
290
     0
  0
SCALE
  5
67
102
{ACAD_REACTORS
330
47
102
}
330
47
100
AcDbScale
 70
     0
300
6" = 1'-0"
140
6.0
141
12.0
290
     0
  0
SCALE
  5
68
102
{ACAD_REACTORS
330
47
102
}
330
47
100
AcDbScale
 70
     0
300
1'-0" = 1'-0"
140
12.0
141
12.0
290
     0
  0
TABLESTYLE
  5
6A
102
{ACAD_REACTORS
330
69
102
}
330
69
100
AcDbTableStyle
  3
Standard
 70
     0
 71
     0
 40
0.06
 41
0.06
280
     0
281
     0
  7
Standard
140
0.18
170
     2
 62
     0
 63
   257
283
     0
274
    -2
284
     1
 64
     0
275
    -2
285
     1
 65
     0
276
    -2
286
     1
 66
     0
277
    -2
287
     1
 67
     0
278
    -2
288
     1
 68
     0
279
    -2
289
     1
 69
     0
  7
Standard
140
0.25
170
     5
 62
     0
 63
   257
283
     0
274
    -2
284
     1
 64
     0
275
    -2
285
     1
 65
     0
276
    -2
286
     1
 66
     0
277
    -2
287
     1
 67
     0
278
    -2
288
     1
 68
     0
279
    -2
289
     1
 69
     0
  7
Standard
140
0.18
170
     5
 62
     0
 63
   257
283
     0
274
    -2
284
     1
 64
     0
275
    -2
285
     1
 65
     0
276
    -2
286
     1
 66
     0
277
    -2
287
     1
 67
     0
278
    -2
288
     1
 68
     0
279
    -2
289
     1
 69
     0
  0
VISUALSTYLE
  5
2F
102
{ACAD_REACTORS
330
2A
102
}
102
{ACAD_XDICTIONARY
360
55F
102
}
330
2A
100
AcDbVisualStyle
  2
2dWireframe
 70
     4
 71
     0
 72
     2
 73
     0
 90
        0
 40
0.6
 41
30.0
 62
     5
 63
     7
 74
     1
 91
        4
 64
     7
 65
   257
 75
     1
175
     1
 42
1.0
 92
        0
 66
   257
 43
1.0
 76
     1
 77
     6
 78
     2
 67
     7
 79
     5
170
     0
171
     0
290
     0
174
     0
 93
        1
 44
0.0
173
     0
291
     0
 45
0.0
1001
ACAD
1000
AcDbSavedByObjectVersion
1070
     0
  0
VISUALSTYLE
  5
32
102
{ACAD_REACTORS
330
2A
102
}
102
{ACAD_XDICTIONARY
360
565
102
}
330
2A
100
AcDbVisualStyle
  2
Basic
 70
     7
 71
     1
 72
     0
 73
     1
 90
        0
 40
0.6
 41
30.0
 62
     5
 63
     7
 74
     0
 91
        4
 64
     7
 65
   257
 75
     1
175
     1
 42
1.0
 92
        8
 66
     7
 43
1.0
 76
     1
 77
     6
 78
     2
 67
     7
 79
     5
170
     0
171
     0
290
     0
174
     0
 93
        1
 44
0.0
173
     0
291
     1
 45
0.0
1001
ACAD
1000
AcDbSavedByObjectVersion
1070
     0
  0
VISUALSTYLE
  5
36
102
{ACAD_REACTORS
330
2A
102
}
102
{ACAD_XDICTIONARY
360
56D
102
}
330
2A
100
AcDbVisualStyle
  2
Brighten
 70
    12
 71
     2
 72
     2
 73
     0
 90
        0
 40
0.6
 41
30.0
 62
     5
 63
     7
 74
     1
 91
        4
 64
     7
 65
   257
 75
     1
175
     1
 42
1.0
 92
        8
 66
     7
 43
1.0
 76
     1
 77
     6
 78
     2
 67
     7
 79
     5
170
     0
171
     0
290
     0
174
     0
 93
        1
 44
50.0
173
     0
291
     1
 45
0.0
1001
ACAD
1000
AcDbSavedByObjectVersion
1070
     0
  0
VISUALSTYLE
  5
3A
102
{ACAD_REACTORS
330
2A
102
}
102
{ACAD_XDICTIONARY
360
575
102
}
330
2A
100
AcDbVisualStyle
  2
ColorChange
 70
    16
 71
     2
 72
     2
 73
     3
 90
        0
 40
0.6
 41
30.0
 62
     5
 63
     8
 74
     1
 91
        4
 64
     7
 65
   257
 75
     1
175
     1
 42
1.0
 92
        8
 66
     8
 43
1.0
 76
     1
 77
     6
 78
     2
 67
     7
 79
     5
170
     0
171
     0
290
     0
174
     0
 93
        1
 44
0.0
173
     0
291
     1
 45
0.0
1001
ACAD
1000
AcDbSavedByObjectVersion
1070
     0
  0
VISUALSTYLE
  5
34
102
{ACAD_REACTORS
330
2A
102
}
102
{ACAD_XDICTIONARY
360
569
102
}
330
2A
100
AcDbVisualStyle
  2
Conceptual
 70
     9
 71
     3
 72
     2
 73
     0
 90
        0
 40
0.6
 41
30.0
 62
     5
 63
     7
 74
     2
 91
        2
 64
     7
 65
   257
 75
     1
175
     1
 42
179.0
 92
        8
 66
     7
 43
1.0
 76
     1
 77
     6
 78
     2
 67
     7
 79
     3
170
     0
171
     0
290
     0
174
     0
 93
        1
 44
0.0
173
     0
291
     0
 45
0.0
1001
ACAD
1000
AcDbSavedByObjectVersion
1070
     0
  0
VISUALSTYLE
  5
35
102
{ACAD_REACTORS
330
2A
102
}
102
{ACAD_XDICTIONARY
360
56B
102
}
330
2A
100
AcDbVisualStyle
  2
Dim
 70
    11
 71
     2
 72
     2
 73
     0
 90
        0
 40
0.6
 41
30.0
 62
     5
 63
     7
 74
     1
 91
        4
 64
     7
 65
   257
 75
     1
175
     1
 42
1.0
 92
        8
 66
     7
 43
1.0
 76
     1
 77
     6
 78
     2
 67
     7
 79
     5
170
     0
171
     0
290
     0
174
     0
 93
        1
 44
-50.0
173
     0
291
     1
 45
0.0
1001
ACAD
1000
AcDbSavedByObjectVersion
1070
     0
  0
VISUALSTYLE
  5
3D
102
{ACAD_REACTORS
330
2A
102
}
102
{ACAD_XDICTIONARY
360
57B
102
}
330
2A
100
AcDbVisualStyle
  2
EdgeColorOff
 70
    22
 71
     2
 72
     2
 73
     0
 90
        0
 40
0.6
 41
30.0
 62
     5
 63
     7
 74
     1
 91
        4
 64
     7
 65
   257
 75
     1
175
     1
 42
1.0
 92
        8
 66
     7
 43
1.0
 76
     1
 77
     6
 78
     2
 67
     7
 79
     5
170
     0
171
     0
290
     0
174
     0
 93
        1
 44
0.0
173
     0
291
     1
 45
0.0
1001
ACAD
1000
AcDbSavedByObjectVersion
1070
     0
  0
VISUALSTYLE
  5
39
102
{ACAD_REACTORS
330
2A
102
}
102
{ACAD_XDICTIONARY
360
573
102
}
330
2A
100
AcDbVisualStyle
  2
Facepattern
 70
    15
 71
     2
 72
     2
 73
     0
 90
        0
 40
0.6
 41
30.0
 62
     5
 63
     7
 74
     1
 91
        4
 64
     7
 65
   257
 75
     1
175
     1
 42
1.0
 92
        8
 66
     7
 43
1.0
 76
     1
 77
     6
 78
     2
 67
     7
 79
     5
170
     0
171
     0
290
     0
174
     0
 93
        1
 44
0.0
173
     0
291
     1
 45
0.0
1001
ACAD
1000
AcDbSavedByObjectVersion
1070
     0
  0
VISUALSTYLE
  5
2B
102
{ACAD_REACTORS
330
2A
102
}
102
{ACAD_XDICTIONARY
360
557
102
}
330
2A
100
AcDbVisualStyle
  2
Flat
 70
     0
 71
     2
 72
     1
 73
     1
 90
        2
 40
0.6
 41
30.0
 62
     5
 63
     7
 74
     0
 91
        0
 64
     7
 65
   257
 75
     1
175
     1
 42
1.0
 92
        8
 66
     7
 43
1.0
 76
     1
 77
     6
 78
     2
 67
     7
 79
     5
170
     0
171
     0
290
     0
174
     0
 93
       13
 44
0.0
173
     0
291
     1
 45
0.0
1001
ACAD
1000
AcDbSavedByObjectVersion
1070
     0
  0
VISUALSTYLE
  5
2C
102
{ACAD_REACTORS
330
2A
102
}
102
{ACAD_XDICTIONARY
360
559
102
}
330
2A
100
AcDbVisualStyle
  2
FlatWithEdges
 70
     1
 71
     2
 72
     1
 73
     1
 90
        2
 40
0.6
 41
30.0
 62
     5
 63
     7
 74
     1
 91
        0
 64
     7
 65
   257
 75
     1
175
     1
 42
1.0
 92
        0
 66
   257
 43
1.0
 76
     1
 77
     6
 78
     2
 67
     7
 79
     5
170
     0
171
     0
290
     0
174
     0
 93
       13
 44
0.0
173
     0
291
     1
 45
0.0
1001
ACAD
1000
AcDbSavedByObjectVersion
1070
     0
  0
VISUALSTYLE
  5
2D
102
{ACAD_REACTORS
330
2A
102
}
102
{ACAD_XDICTIONARY
360
55B
102
}
330
2A
100
AcDbVisualStyle
  2
Gouraud
 70
     2
 71
     2
 72
     2
 73
     1
 90
        2
 40
0.6
 41
30.0
 62
     5
 63
     7
 74
     0
 91
        0
 64
     7
 65
   257
 75
     1
175
     1
 42
1.0
 92
        0
 66
     7
 43
1.0
 76
     1
 77
     6
 78
     2
 67
     7
 79
     5
170
     0
171
     0
290
     0
174
     0
 93
       13
 44
0.0
173
     0
291
     1
 45
0.0
1001
ACAD
1000
AcDbSavedByObjectVersion
1070
     0
  0
VISUALSTYLE
  5
2E
102
{ACAD_REACTORS
330
2A
102
}
102
{ACAD_XDICTIONARY
360
55D
102
}
330
2A
100
AcDbVisualStyle
  2
GouraudWithEdges
 70
     3
 71
     2
 72
     2
 73
     1
 90
        2
 40
0.6
 41
30.0
 62
     5
 63
     7
 74
     1
 91
        0
 64
     7
 65
   257
 75
     1
175
     1
 42
1.0
 92
        0
 66
   257
 43
1.0
 76
     1
 77
     6
 78
     2
 67
     7
 79
     5
170
     0
171
     0
290
     0
174
     0
 93
       13
 44
0.0
173
     0
291
     1
 45
0.0
1001
ACAD
1000
AcDbSavedByObjectVersion
1070
     0
  0
VISUALSTYLE
  5
31
102
{ACAD_REACTORS
330
2A
102
}
102
{ACAD_XDICTIONARY
360
563
102
}
330
2A
100
AcDbVisualStyle
  2
Hidden
 70
     6
 71
     1
 72
     2
 73
     2
 90
        0
 40
0.6
 41
30.0
 62
     5
 63
     7
 74
     2
 91
        2
 64
     7
 65
   257
 75
     2
175
     1
 42
40.0
 92
        0
 66
   257
 43
1.0
 76
     1
 77
     6
 78
     2
 67
     7
 79
     3
170
     0
171
     0
290
     0
174
     0
 93
        1
 44
0.0
173
     0
291
     0
 45
0.0
1001
ACAD
1000
AcDbSavedByObjectVersion
1070
     0
  0
VISUALSTYLE
  5
3B
102
{ACAD_REACTORS
330
2A
102
}
102
{ACAD_XDICTIONARY
360
577
102
}
330
2A
100
AcDbVisualStyle
  2
JitterOff
 70
    20
 71
     2
 72
     2
 73
     0
 90
        0
 40
0.6
 41
30.0
 62
     5
 63
     7
 74
     1
 91
        4
 64
     7
 65
   257
 75
     1
175
     1
 42
1.0
 92
       10
 66
     7
 43
1.0
 76
     1
 77
     6
 78
     2
 67
     7
 79
     5
170
     0
171
     0
290
     0
174
     0
 93
        1
 44
0.0
173
     0
291
     1
 45
0.0
1001
ACAD
1000
AcDbSavedByObjectVersion
1070
     0
  0
VISUALSTYLE
  5
38
102
{ACAD_REACTORS
330
2A
102
}
102
{ACAD_XDICTIONARY
360
571
102
}
330
2A
100
AcDbVisualStyle
  2
Linepattern
 70
    14
 71
     2
 72
     2
 73
     0
 90
        0
 40
0.6
 41
30.0
 62
     5
 63
     7
 74
     1
 91
        4
 64
     7
 65
   257
 75
     7
175
     7
 42
1.0
 92
        8
 66
     7
 43
1.0
 76
     1
 77
     6
 78
     2
 67
     7
 79
     5
170
     0
171
     0
290
     0
174
     0
 93
        1
 44
0.0
173
     0
291
     1
 45
0.0
1001
ACAD
1000
AcDbSavedByObjectVersion
1070
     0
  0
VISUALSTYLE
  5
3C
102
{ACAD_REACTORS
330
2A
102
}
102
{ACAD_XDICTIONARY
360
579
102
}
330
2A
100
AcDbVisualStyle
  2
OverhangOff
 70
    21
 71
     2
 72
     2
 73
     0
 90
        0
 40
0.6
 41
30.0
 62
     5
 63
     7
 74
     1
 91
        4
 64
     7
 65
   257
 75
     1
175
     1
 42
1.0
 92
        9
 66
     7
 43
1.0
 76
     1
 77
     6
 78
     2
 67
     7
 79
     5
170
     0
171
     0
290
     0
174
     0
 93
        1
 44
0.0
173
     0
291
     1
 45
0.0
1001
ACAD
1000
AcDbSavedByObjectVersion
1070
     0
  0
VISUALSTYLE
  5
33
102
{ACAD_REACTORS
330
2A
102
}
102
{ACAD_XDICTIONARY
360
567
102
}
330
2A
100
AcDbVisualStyle
  2
Realistic
 70
     8
 71
     2
 72
     3
 73
     0
 90
        2
 40
0.6
 41
30.0
 62
     5
 63
     7
 74
     0
 91
        0
 64
     7
 65
   257
 75
     1
175
     1
 42
1.0
 92
        8
 66
   257
 43
1.0
 76
     1
 77
     6
 78
     2
 67
     7
 79
     3
170
     0
171
     0
290
     0
174
     0
 93
       13
 44
0.0
173
     0
291
     0
 45
0.0
1001
ACAD
1000
AcDbSavedByObjectVersion
1070
     0
  0
VISUALSTYLE
  5
42
102
{ACAD_REACTORS
330
2A
102
}
102
{ACAD_XDICTIONARY
360
585
102
}
330
2A
100
AcDbVisualStyle
  2
Shaded
 70
    27
 71
     2
 72
     2
 73
     1
 90
        2
 40
0.6
 41
30.0
 62
     5
 63
     7
 74
     0
 91
        4
 64
     7
 65
   257
 75
     1
175
     1
 42
1.0
 92
        8
 66
   257
 43
1.0
 76
     1
 77
     6
 78
     2
 67
     8
 79
     3
170
     0
171
     0
290
     0
174
     0
 93
        5
 44
0.0
173
     0
291
     0
 45
0.0
1001
ACAD
1000
AcDbSavedByObjectVersion
1070
     0
  0
VISUALSTYLE
  5
41
102
{ACAD_REACTORS
330
2A
102
}
102
{ACAD_XDICTIONARY
360
583
102
}
330
2A
100
AcDbVisualStyle
  2
Shaded with edges
 70
    26
 71
     2
 72
     2
 73
     1
 90
        2
 40
0.6
 41
30.0
 62
     5
 63
     7
 74
     1
 91
       10
 64
     7
 65
   257
 75
     2
175
     1
 42
1.0
 92
        8
 66
   257
 43
1.0
 76
     1
 77
     6
 78
     2
 67
     7
 79
     3
170
     0
171
     0
290
     0
174
     0
 93
        5
 44
0.0
173
     0
291
     0
 45
0.0
1001
ACAD
1000
AcDbSavedByObjectVersion
1070
     0
  0
VISUALSTYLE
  5
3E
102
{ACAD_REACTORS
330
2A
102
}
102
{ACAD_XDICTIONARY
360
57D
102
}
330
2A
100
AcDbVisualStyle
  2
Shades of Gray
 70
    23
 71
     2
 72
     2
 73
     3
 90
        0
 40
0.6
 41
30.0
 62
     5
 63
     7
 74
     2
 91
        2
 64
     7
 65
     7
 75
     1
175
     1
 42
40.0
 92
        8
 66
     7
 43
1.0
 76
     1
 77
     6
 78
     2
 67
     7
 79
     3
170
     0
171
     0
290
     0
174
     0
 93
        1
 44
0.0
173
     0
291
     0
 45
0.0
1001
ACAD
1000
AcDbSavedByObjectVersion
1070
     0
  0
VISUALSTYLE
  5
3F
102
{ACAD_REACTORS
330
2A
102
}
102
{ACAD_XDICTIONARY
360
57F
102
}
330
2A
100
AcDbVisualStyle
  2
Sketchy
 70
    24
 71
     1
 72
     2
 73
     2
 90
        0
 40
0.6
 41
30.0
 62
     5
 63
     7
 74
     2
 91
        2
 64
     7
 65
     7
 75
     1
175
     1
 42
40.0
 92
       11
 66
     7
 43
1.0
 76
     1
 77
     6
 78
     2
 67
     7
 79
     6
170
     0
171
     0
290
     0
174
     0
 93
        1
 44
0.0
173
     0
291
     0
 45
0.0
1001
ACAD
1000
AcDbSavedByObjectVersion
1070
     0
  0
VISUALSTYLE
  5
37
102
{ACAD_REACTORS
330
2A
102
}
102
{ACAD_XDICTIONARY
360
56F
102
}
330
2A
100
AcDbVisualStyle
  2
Thicken
 70
    13
 71
     2
 72
     2
 73
     0
 90
        0
 40
0.6
 41
30.0
 62
     5
 63
     7
 74
     1
 91
        4
 64
     7
 65
   257
 75
     1
175
     1
 42
1.0
 92
       12
 66
     7
 43
1.0
 76
     1
 77
     6
 78
     2
 67
     7
 79
     5
170
     0
171
     0
290
     0
174
     0
 93
        1
 44
0.0
173
     0
291
     1
 45
0.0
1001
ACAD
1000
AcDbSavedByObjectVersion
1070
     0
  0
VISUALSTYLE
  5
30
102
{ACAD_REACTORS
330
2A
102
}
102
{ACAD_XDICTIONARY
360
561
102
}
330
2A
100
AcDbVisualStyle
  2
Wireframe
 70
     5
 71
     0
 72
     2
 73
     0
 90
        0
 40
0.6
 41
30.0
 62
     5
 63
     7
 74
     1
 91
        4
 64
     7
 65
   257
 75
     1
175
     1
 42
1.0
 92
        0
 66
   257
 43
1.0
 76
     1
 77
     6
 78
     2
 67
     7
 79
     3
170
     0
171
     0
290
     0
174
     0
 93
        1
 44
0.0
173
     0
291
     0
 45
0.0
1001
ACAD
1000
AcDbSavedByObjectVersion
1070
     0
  0
VISUALSTYLE
  5
40
102
{ACAD_REACTORS
330
2A
102
}
102
{ACAD_XDICTIONARY
360
581
102
}
330
2A
100
AcDbVisualStyle
  2
X-Ray
 70
    25
 71
     2
 72
     2
 73
     1
 90
        1
 40
0.5
 41
30.0
 62
     5
 63
     7
 74
     1
 91
        0
 64
     7
 65
   257
 75
     1
175
     1
 42
1.0
 92
        8
 66
     7
 43
1.0
 76
     1
 77
     6
 78
     2
 67
     7
 79
     3
170
     0
171
     0
290
     0
174
     0
 93
       13
 44
0.0
173
     0
291
     0
 45
0.0
1001
ACAD
1000
AcDbSavedByObjectVersion
1070
     0
  0
DICTIONARYVAR
  5
555
102
{ACAD_REACTORS
330
54C
102
}
330
54C
100
DictionaryVariables
280
     0
  1
1:1
  0
DICTIONARYVAR
  5
54E
102
{ACAD_REACTORS
330
54C
102
}
330
54C
100
DictionaryVariables
280
     0
  1
Standard
  0
DICTIONARYVAR
  5
54D
102
{ACAD_REACTORS
330
54C
102
}
330
54C
100
DictionaryVariables
280
     0
  1
Standard
  0
DICTIONARYVAR
  5
551
102
{ACAD_REACTORS
330
54C
102
}
330
54C
100
DictionaryVariables
280
     0
  1
2
  0
DICTIONARYVAR
  5
552
102
{ACAD_REACTORS
330
54C
102
}
330
54C
100
DictionaryVariables
280
     0
  1
1
  0
DICTIONARYVAR
  5
556
102
{ACAD_REACTORS
330
54C
102
}
330
54C
100
DictionaryVariables
280
     0
  1
1
  0
DICTIONARY
  5
589
330
45
100
AcDbDictionary
280
     1
281
     1
  3
ACAD_XREC_ROUNDTRIP
360
58A
  0
DICTIONARY
  5
587
330
44
100
AcDbDictionary
280
     1
281
     1
  3
ACAD_XREC_ROUNDTRIP
360
588
  0
DICTIONARY
  5
58B
330
46
100
AcDbDictionary
280
     1
281
     1
  3
ACAD_XREC_ROUNDTRIP
360
58C
  0
DICTIONARY
  5
58E
330
6C
100
AcDbDictionary
280
     1
281
     1
  3
ACAD_XREC_ROUNDTRIP
360
58F
  0
DICTIONARY
  5
55F
330
2F
100
AcDbDictionary
280
     1
281
     1
  3
ACAD_XREC_ROUNDTRIP
360
560
  0
DICTIONARY
  5
565
330
32
100
AcDbDictionary
280
     1
281
     1
  3
ACAD_XREC_ROUNDTRIP
360
566
  0
DICTIONARY
  5
56D
330
36
100
AcDbDictionary
280
     1
281
     1
  3
ACAD_XREC_ROUNDTRIP
360
56E
  0
DICTIONARY
  5
575
330
3A
100
AcDbDictionary
280
     1
281
     1
  3
ACAD_XREC_ROUNDTRIP
360
576
  0
DICTIONARY
  5
569
330
34
100
AcDbDictionary
280
     1
281
     1
  3
ACAD_XREC_ROUNDTRIP
360
56A
  0
DICTIONARY
  5
56B
330
35
100
AcDbDictionary
280
     1
281
     1
  3
ACAD_XREC_ROUNDTRIP
360
56C
  0
DICTIONARY
  5
57B
330
3D
100
AcDbDictionary
280
     1
281
     1
  3
ACAD_XREC_ROUNDTRIP
360
57C
  0
DICTIONARY
  5
573
330
39
100
AcDbDictionary
280
     1
281
     1
  3
ACAD_XREC_ROUNDTRIP
360
574
  0
DICTIONARY
  5
557
330
2B
100
AcDbDictionary
280
     1
281
     1
  3
ACAD_XREC_ROUNDTRIP
360
558
  0
DICTIONARY
  5
559
330
2C
100
AcDbDictionary
280
     1
281
     1
  3
ACAD_XREC_ROUNDTRIP
360
55A
  0
DICTIONARY
  5
55B
330
2D
100
AcDbDictionary
280
     1
281
     1
  3
ACAD_XREC_ROUNDTRIP
360
55C
  0
DICTIONARY
  5
55D
330
2E
100
AcDbDictionary
280
     1
281
     1
  3
ACAD_XREC_ROUNDTRIP
360
55E
  0
DICTIONARY
  5
563
330
31
100
AcDbDictionary
280
     1
281
     1
  3
ACAD_XREC_ROUNDTRIP
360
564
  0
DICTIONARY
  5
577
330
3B
100
AcDbDictionary
280
     1
281
     1
  3
ACAD_XREC_ROUNDTRIP
360
578
  0
DICTIONARY
  5
571
330
38
100
AcDbDictionary
280
     1
281
     1
  3
ACAD_XREC_ROUNDTRIP
360
572
  0
DICTIONARY
  5
579
330
3C
100
AcDbDictionary
280
     1
281
     1
  3
ACAD_XREC_ROUNDTRIP
360
57A
  0
DICTIONARY
  5
567
330
33
100
AcDbDictionary
280
     1
281
     1
  3
ACAD_XREC_ROUNDTRIP
360
568
  0
DICTIONARY
  5
585
330
42
100
AcDbDictionary
280
     1
281
     1
  3
ACAD_XREC_ROUNDTRIP
360
586
  0
DICTIONARY
  5
583
330
41
100
AcDbDictionary
280
     1
281
     1
  3
ACAD_XREC_ROUNDTRIP
360
584
  0
DICTIONARY
  5
57D
330
3E
100
AcDbDictionary
280
     1
281
     1
  3
ACAD_XREC_ROUNDTRIP
360
57E
  0
DICTIONARY
  5
57F
330
3F
100
AcDbDictionary
280
     1
281
     1
  3
ACAD_XREC_ROUNDTRIP
360
580
  0
DICTIONARY
  5
56F
330
37
100
AcDbDictionary
280
     1
281
     1
  3
ACAD_XREC_ROUNDTRIP
360
570
  0
DICTIONARY
  5
561
330
30
100
AcDbDictionary
280
     1
281
     1
  3
ACAD_XREC_ROUNDTRIP
360
562
  0
DICTIONARY
  5
581
330
40
100
AcDbDictionary
280
     1
281
     1
  3
ACAD_XREC_ROUNDTRIP
360
582
  0
XRECORD
  5
58A
102
{ACAD_REACTORS
330
589
102
}
330
589
100
AcDbXrecord
280
     1
102
MATERIAL
148
0.0
149
0.0
149
0.0
 93
        0
 94
      127
282
     0
 72
     1
 77
     1
171
     1
175
     1
179
     1
273
     0
  0
XRECORD
  5
588
102
{ACAD_REACTORS
330
587
102
}
330
587
100
AcDbXrecord
280
     1
102
MATERIAL
148
0.0
149
0.0
149
0.0
 93
        0
 94
      127
282
     0
 72
     1
 77
     1
171
     1
175
     1
179
     1
273
     0
  0
XRECORD
  5
58C
102
{ACAD_REACTORS
330
58B
102
}
330
58B
100
AcDbXrecord
280
     1
102
MATERIAL
148
0.0
149
0.0
149
0.0
 93
        0
 94
      127
282
     0
 72
     1
 77
     1
171
     1
175
     1
179
     1
273
     0
  0
XRECORD
  5
58F
102
{ACAD_REACTORS
330
58E
102
}
330
58E
100
AcDbXrecord
280
     1
102
ACAD_ROUNDTRIP_2010_MLEADER_STYLE
  0
XRECORD
  5
560
102
{ACAD_REACTORS
330
55F
102
}
330
55F
100
AcDbXrecord
280
     1
102
RTVSPropertyOp0
 70
     1
102
RTVSPropertyOp1
 70
     1
102
RTVSPropertyOp2
 70
     1
102
RTVSPropertyOp3
 70
     1
102
RTVSPropertyOp4
 70
     1
102
RTVSPropertyOp5
 70
     1
102
RTVSPropertyOp6
 70
     1
102
RTVSPropertyOp7
 70
     1
102
RTVSPropertyOp8
 70
     1
102
RTVSPropertyOp9
 70
     1
102
RTVSPropertyOp10
 70
     1
102
RTVSPropertyOp11
 70
     1
102
RTVSPropertyOp12
 70
     1
102
RTVSPropertyOp13
 70
     1
102
RTVSPropertyOp14
 70
     1
102
RTVSPropertyOp15
 70
     1
102
RTVSPropertyOp16
 70
     1
102
RTVSPropertyOp17
 70
     1
102
RTVSPropertyOp18
 70
     1
102
RTVSPropertyOp19
 70
     1
102
RTVSPropertyOp20
 70
     1
102
RTVSPropertyOp21
 70
     1
102
RTVSPropertyOp22
 70
     1
102
RTVSPropertyOp23
 70
     1
102
RTVSPropertyOp24
 70
     1
102
RTVSPropertyOp25
 70
     1
102
RTVSPropertyOp26
 70
     1
102
RTVSPropertyOp27
 70
     1
102
RTVSPropertyOp28
 70
     1
102
RTVSPropertyOp29
 70
     1
102
RTVSPropertyOp30
 70
     1
102
RTVSPropertyOp31
 70
     1
102
RTVSPropertyOp32
 70
     1
102
RTVSPropertyOp33
 70
     1
102
RTVSPropertyOp34
 70
     1
102
RTVSPropertyOp35
 70
     1
102
RTVSPropertyOp36
 70
     1
102
RTVSPropertyOp37
 70
     1
102
RTVSPropertyOp38
 70
     1
102
RTVSPropertyOp39
 70
     1
102
RTVSPropertyOp40
 70
     1
102
RTVSPropertyOp41
 70
     1
102
RTVSPropertyOp42
 70
     1
102
RTVSPropertyOp43
 70
     1
102
RTVSPropertyOp44
 70
     1
102
RTVSPropertyOp45
 70
     1
102
RTVSPropertyOp46
 70
     1
102
RTVSPropertyOp47
 70
     1
102
RTVSPropertyOp48
 70
     1
102
RTVSPropertyOp49
 70
     1
102
RTVSPropertyOp50
 70
     1
102
RTVSPropertyOp51
 70
     0
102
RTVSPropertyOp52
 70
     0
102
RTVSPropertyOp53
 70
     1
102
RTVSPropertyOp54
 70
     1
102
RTVSPropertyOp55
 70
     1
102
RTVSPropertyOp56
 70
     1
102
RTVSPropertyOp57
 70
     1
102
RTVSPost2010Prop28
280
     1
102
RTVSPost2010PropOp28
 70
     1
102
RTVSPost2010Prop29
280
     1
102
RTVSPost2010PropOp29
 70
     1
102
RTVSPost2010Prop30
280
     0
102
RTVSPost2010PropOp30
 70
     1
102
RTVSPost2010Prop31
280
     0
102
RTVSPost2010PropOp31
 70
     1
102
RTVSPost2010Prop32
280
     0
102
RTVSPost2010PropOp32
 70
     1
102
RTVSPost2010Prop33
280
     0
102
RTVSPost2010PropOp33
 70
     1
102
RTVSPost2010Prop34
280
     0
102
RTVSPost2010PropOp34
 70
     1
102
RTVSPost2010Prop35
280
     0
102
RTVSPost2010PropOp35
 70
     1
102
RTVSPost2010Prop36
280
     0
102
RTVSPost2010PropOp36
 70
     1
102
RTVSPost2010Prop37
 90
       50
102
RTVSPost2010PropOp37
 70
     1
102
RTVSPost2010Prop38
140
0.0
102
RTVSPost2010PropOp38
 70
     1
102
RTVSPost2010Prop39
140
1.0
102
RTVSPost2010PropOp39
 70
     1
102
RTVSPost2010Prop40
 90
        0
102
RTVSPost2010PropOp40
 70
     1
102
RTVSPost2010Prop41ColorIndex
 90
       18
102
RTVSPost2010Prop41ColorRGB
 90
        0
102
RTVSPost2010PropOp41
 70
     1
102
RTVSPost2010Prop42
 90
       50
102
RTVSPost2010PropOp42
 70
     1
102
RTVSPost2010Prop43
 90
        3
102
RTVSPost2010PropOp43
 70
     1
102
RTVSPost2010Prop44ColorIndex
 90
        5
102
RTVSPost2010Prop44ColorRGB
 90
      255
102
RTVSPost2010PropOp44
 70
     1
102
RTVSPost2010Prop45
280
     0
102
RTVSPost2010PropOp45
 70
     1
102
RTVSPost2010Prop46
 90
       50
102
RTVSPost2010PropOp46
 70
     1
102
RTVSPost2010Prop47
 90
       50
102
RTVSPost2010PropOp47
 70
     1
102
RTVSPost2010Prop48
 90
       50
102
RTVSPost2010PropOp48
 70
     1
102
RTVSPost2010Prop49
280
     0
102
RTVSPost2010PropOp49
 70
     1
102
RTVSPost2010Prop50
 90
       50
102
RTVSPost2010PropOp50
 70
     1
102
RTVSPost2010Prop51ColorIndex
 90
      256
102
RTVSPost2010Prop51ColorRGB
 90
-16777216
102
RTVSPost2010PropOp51
 70
     0
102
RTVSPost2010Prop52
140
1.0
102
RTVSPost2010PropOp52
 70
     0
102
RTVSPost2010Prop53
 90
        2
102
RTVSPost2010PropOp53
 70
     1
102
RTVSPost2010Prop54
  1
strokes_ogs.tif
102
RTVSPost2010PropOp54
 70
     1
102
RTVSPost2010Prop55
280
     0
102
RTVSPost2010PropOp55
 70
     1
102
RTVSPost2010Prop56
140
1.0
102
RTVSPost2010PropOp56
 70
     1
102
RTVSPost2010Prop57
140
1.0
102
RTVSPost2010PropOp57
 70
     1
  0
XRECORD
  5
566
102
{ACAD_REACTORS
330
565
102
}
330
565
100
AcDbXrecord
280
     1
102
RTVSPropertyOp0
 70
     1
102
RTVSPropertyOp1
 70
     1
102
RTVSPropertyOp2
 70
     1
102
RTVSPropertyOp3
 70
     1
102
RTVSPropertyOp4
 70
     1
102
RTVSPropertyOp5
 70
     1
102
RTVSPropertyOp6
 70
     1
102
RTVSPropertyOp7
 70
     1
102
RTVSPropertyOp8
 70
     1
102
RTVSPropertyOp9
 70
     1
102
RTVSPropertyOp10
 70
     1
102
RTVSPropertyOp11
 70
     1
102
RTVSPropertyOp12
 70
     1
102
RTVSPropertyOp13
 70
     1
102
RTVSPropertyOp14
 70
     1
102
RTVSPropertyOp15
 70
     1
102
RTVSPropertyOp16
 70
     1
102
RTVSPropertyOp17
 70
     1
102
RTVSPropertyOp18
 70
     1
102
RTVSPropertyOp19
 70
     1
102
RTVSPropertyOp20
 70
     1
102
RTVSPropertyOp21
 70
     1
102
RTVSPropertyOp22
 70
     1
102
RTVSPropertyOp23
 70
     1
102
RTVSPropertyOp24
 70
     1
102
RTVSPropertyOp25
 70
     1
102
RTVSPropertyOp26
 70
     1
102
RTVSPropertyOp27
 70
     1
102
RTVSPropertyOp28
 70
     1
102
RTVSPropertyOp29
 70
     1
102
RTVSPropertyOp30
 70
     1
102
RTVSPropertyOp31
 70
     1
102
RTVSPropertyOp32
 70
     1
102
RTVSPropertyOp33
 70
     1
102
RTVSPropertyOp34
 70
     1
102
RTVSPropertyOp35
 70
     1
102
RTVSPropertyOp36
 70
     1
102
RTVSPropertyOp37
 70
     1
102
RTVSPropertyOp38
 70
     1
102
RTVSPropertyOp39
 70
     1
102
RTVSPropertyOp40
 70
     1
102
RTVSPropertyOp41
 70
     1
102
RTVSPropertyOp42
 70
     1
102
RTVSPropertyOp43
 70
     1
102
RTVSPropertyOp44
 70
     1
102
RTVSPropertyOp45
 70
     1
102
RTVSPropertyOp46
 70
     1
102
RTVSPropertyOp47
 70
     1
102
RTVSPropertyOp48
 70
     1
102
RTVSPropertyOp49
 70
     1
102
RTVSPropertyOp50
 70
     1
102
RTVSPropertyOp51
 70
     0
102
RTVSPropertyOp52
 70
     0
102
RTVSPropertyOp53
 70
     1
102
RTVSPropertyOp54
 70
     1
102
RTVSPropertyOp55
 70
     1
102
RTVSPropertyOp56
 70
     1
102
RTVSPropertyOp57
 70
     1
102
RTVSPost2010Prop28
280
     0
102
RTVSPost2010PropOp28
 70
     1
102
RTVSPost2010Prop29
280
     1
102
RTVSPost2010PropOp29
 70
     1
102
RTVSPost2010Prop30
280
     1
102
RTVSPost2010PropOp30
 70
     1
102
RTVSPost2010Prop31
280
     0
102
RTVSPost2010PropOp31
 70
     1
102
RTVSPost2010Prop32
280
     0
102
RTVSPost2010PropOp32
 70
     1
102
RTVSPost2010Prop33
280
     0
102
RTVSPost2010PropOp33
 70
     1
102
RTVSPost2010Prop34
280
     0
102
RTVSPost2010PropOp34
 70
     1
102
RTVSPost2010Prop35
280
     0
102
RTVSPost2010PropOp35
 70
     1
102
RTVSPost2010Prop36
280
     0
102
RTVSPost2010PropOp36
 70
     1
102
RTVSPost2010Prop37
 90
       50
102
RTVSPost2010PropOp37
 70
     1
102
RTVSPost2010Prop38
140
0.0
102
RTVSPost2010PropOp38
 70
     1
102
RTVSPost2010Prop39
140
1.0
102
RTVSPost2010PropOp39
 70
     1
102
RTVSPost2010Prop40
 90
        0
102
RTVSPost2010PropOp40
 70
     1
102
RTVSPost2010Prop41ColorIndex
 90
       18
102
RTVSPost2010Prop41ColorRGB
 90
        0
102
RTVSPost2010PropOp41
 70
     1
102
RTVSPost2010Prop42
 90
       50
102
RTVSPost2010PropOp42
 70
     1
102
RTVSPost2010Prop43
 90
        3
102
RTVSPost2010PropOp43
 70
     1
102
RTVSPost2010Prop44ColorIndex
 90
        5
102
RTVSPost2010Prop44ColorRGB
 90
      255
102
RTVSPost2010PropOp44
 70
     1
102
RTVSPost2010Prop45
280
     0
102
RTVSPost2010PropOp45
 70
     1
102
RTVSPost2010Prop46
 90
       50
102
RTVSPost2010PropOp46
 70
     1
102
RTVSPost2010Prop47
 90
       50
102
RTVSPost2010PropOp47
 70
     1
102
RTVSPost2010Prop48
 90
       50
102
RTVSPost2010PropOp48
 70
     1
102
RTVSPost2010Prop49
280
     0
102
RTVSPost2010PropOp49
 70
     1
102
RTVSPost2010Prop50
 90
       50
102
RTVSPost2010PropOp50
 70
     1
102
RTVSPost2010Prop51ColorIndex
 90
      256
102
RTVSPost2010Prop51ColorRGB
 90
-16777216
102
RTVSPost2010PropOp51
 70
     0
102
RTVSPost2010Prop52
140
1.0
102
RTVSPost2010PropOp52
 70
     0
102
RTVSPost2010Prop53
 90
        2
102
RTVSPost2010PropOp53
 70
     1
102
RTVSPost2010Prop54
  1
strokes_ogs.tif
102
RTVSPost2010PropOp54
 70
     1
102
RTVSPost2010Prop55
280
     0
102
RTVSPost2010PropOp55
 70
     1
102
RTVSPost2010Prop56
140
1.0
102
RTVSPost2010PropOp56
 70
     1
102
RTVSPost2010Prop57
140
1.0
102
RTVSPost2010PropOp57
 70
     1
  0
XRECORD
  5
56E
102
{ACAD_REACTORS
330
56D
102
}
330
56D
100
AcDbXrecord
280
     1
102
RTVSPropertyOp0
 70
     1
102
RTVSPropertyOp1
 70
     1
102
RTVSPropertyOp2
 70
     1
102
RTVSPropertyOp3
 70
     1
102
RTVSPropertyOp4
 70
     1
102
RTVSPropertyOp5
 70
     1
102
RTVSPropertyOp6
 70
     1
102
RTVSPropertyOp7
 70
     1
102
RTVSPropertyOp8
 70
     1
102
RTVSPropertyOp9
 70
     1
102
RTVSPropertyOp10
 70
     1
102
RTVSPropertyOp11
 70
     1
102
RTVSPropertyOp12
 70
     1
102
RTVSPropertyOp13
 70
     1
102
RTVSPropertyOp14
 70
     1
102
RTVSPropertyOp15
 70
     1
102
RTVSPropertyOp16
 70
     1
102
RTVSPropertyOp17
 70
     1
102
RTVSPropertyOp18
 70
     1
102
RTVSPropertyOp19
 70
     1
102
RTVSPropertyOp20
 70
     1
102
RTVSPropertyOp21
 70
     1
102
RTVSPropertyOp22
 70
     1
102
RTVSPropertyOp23
 70
     1
102
RTVSPropertyOp24
 70
     1
102
RTVSPropertyOp25
 70
     1
102
RTVSPropertyOp26
 70
     1
102
RTVSPropertyOp27
 70
     1
102
RTVSPropertyOp28
 70
     1
102
RTVSPropertyOp29
 70
     1
102
RTVSPropertyOp30
 70
     1
102
RTVSPropertyOp31
 70
     1
102
RTVSPropertyOp32
 70
     1
102
RTVSPropertyOp33
 70
     1
102
RTVSPropertyOp34
 70
     1
102
RTVSPropertyOp35
 70
     1
102
RTVSPropertyOp36
 70
     1
102
RTVSPropertyOp37
 70
     1
102
RTVSPropertyOp38
 70
     1
102
RTVSPropertyOp39
 70
     1
102
RTVSPropertyOp40
 70
     1
102
RTVSPropertyOp41
 70
     1
102
RTVSPropertyOp42
 70
     1
102
RTVSPropertyOp43
 70
     1
102
RTVSPropertyOp44
 70
     1
102
RTVSPropertyOp45
 70
     1
102
RTVSPropertyOp46
 70
     1
102
RTVSPropertyOp47
 70
     1
102
RTVSPropertyOp48
 70
     1
102
RTVSPropertyOp49
 70
     1
102
RTVSPropertyOp50
 70
     1
102
RTVSPropertyOp51
 70
     0
102
RTVSPropertyOp52
 70
     0
102
RTVSPropertyOp53
 70
     1
102
RTVSPropertyOp54
 70
     1
102
RTVSPropertyOp55
 70
     1
102
RTVSPropertyOp56
 70
     1
102
RTVSPropertyOp57
 70
     1
102
RTVSPost2010Prop28
280
     0
102
RTVSPost2010PropOp28
 70
     1
102
RTVSPost2010Prop29
280
     1
102
RTVSPost2010PropOp29
 70
     1
102
RTVSPost2010Prop30
280
     1
102
RTVSPost2010PropOp30
 70
     1
102
RTVSPost2010Prop31
280
     0
102
RTVSPost2010PropOp31
 70
     1
102
RTVSPost2010Prop32
280
     0
102
RTVSPost2010PropOp32
 70
     1
102
RTVSPost2010Prop33
280
     0
102
RTVSPost2010PropOp33
 70
     1
102
RTVSPost2010Prop34
280
     0
102
RTVSPost2010PropOp34
 70
     1
102
RTVSPost2010Prop35
280
     0
102
RTVSPost2010PropOp35
 70
     1
102
RTVSPost2010Prop36
280
     0
102
RTVSPost2010PropOp36
 70
     1
102
RTVSPost2010Prop37
 90
       50
102
RTVSPost2010PropOp37
 70
     1
102
RTVSPost2010Prop38
140
0.0
102
RTVSPost2010PropOp38
 70
     1
102
RTVSPost2010Prop39
140
1.0
102
RTVSPost2010PropOp39
 70
     1
102
RTVSPost2010Prop40
 90
        0
102
RTVSPost2010PropOp40
 70
     1
102
RTVSPost2010Prop41ColorIndex
 90
       18
102
RTVSPost2010Prop41ColorRGB
 90
        0
102
RTVSPost2010PropOp41
 70
     1
102
RTVSPost2010Prop42
 90
       50
102
RTVSPost2010PropOp42
 70
     1
102
RTVSPost2010Prop43
 90
        3
102
RTVSPost2010PropOp43
 70
     1
102
RTVSPost2010Prop44ColorIndex
 90
        5
102
RTVSPost2010Prop44ColorRGB
 90
      255
102
RTVSPost2010PropOp44
 70
     1
102
RTVSPost2010Prop45
280
     0
102
RTVSPost2010PropOp45
 70
     1
102
RTVSPost2010Prop46
 90
       50
102
RTVSPost2010PropOp46
 70
     1
102
RTVSPost2010Prop47
 90
       50
102
RTVSPost2010PropOp47
 70
     1
102
RTVSPost2010Prop48
 90
       50
102
RTVSPost2010PropOp48
 70
     1
102
RTVSPost2010Prop49
280
     0
102
RTVSPost2010PropOp49
 70
     1
102
RTVSPost2010Prop50
 90
       50
102
RTVSPost2010PropOp50
 70
     1
102
RTVSPost2010Prop51ColorIndex
 90
      256
102
RTVSPost2010Prop51ColorRGB
 90
-16777216
102
RTVSPost2010PropOp51
 70
     0
102
RTVSPost2010Prop52
140
1.0
102
RTVSPost2010PropOp52
 70
     0
102
RTVSPost2010Prop53
 90
        2
102
RTVSPost2010PropOp53
 70
     1
102
RTVSPost2010Prop54
  1
strokes_ogs.tif
102
RTVSPost2010PropOp54
 70
     1
102
RTVSPost2010Prop55
280
     0
102
RTVSPost2010PropOp55
 70
     1
102
RTVSPost2010Prop56
140
1.0
102
RTVSPost2010PropOp56
 70
     1
102
RTVSPost2010Prop57
140
1.0
102
RTVSPost2010PropOp57
 70
     1
  0
XRECORD
  5
576
102
{ACAD_REACTORS
330
575
102
}
330
575
100
AcDbXrecord
280
     1
102
RTVSPropertyOp0
 70
     1
102
RTVSPropertyOp1
 70
     1
102
RTVSPropertyOp2
 70
     1
102
RTVSPropertyOp3
 70
     1
102
RTVSPropertyOp4
 70
     1
102
RTVSPropertyOp5
 70
     1
102
RTVSPropertyOp6
 70
     1
102
RTVSPropertyOp7
 70
     1
102
RTVSPropertyOp8
 70
     1
102
RTVSPropertyOp9
 70
     1
102
RTVSPropertyOp10
 70
     1
102
RTVSPropertyOp11
 70
     1
102
RTVSPropertyOp12
 70
     1
102
RTVSPropertyOp13
 70
     1
102
RTVSPropertyOp14
 70
     1
102
RTVSPropertyOp15
 70
     1
102
RTVSPropertyOp16
 70
     1
102
RTVSPropertyOp17
 70
     1
102
RTVSPropertyOp18
 70
     1
102
RTVSPropertyOp19
 70
     1
102
RTVSPropertyOp20
 70
     1
102
RTVSPropertyOp21
 70
     1
102
RTVSPropertyOp22
 70
     1
102
RTVSPropertyOp23
 70
     1
102
RTVSPropertyOp24
 70
     1
102
RTVSPropertyOp25
 70
     1
102
RTVSPropertyOp26
 70
     1
102
RTVSPropertyOp27
 70
     1
102
RTVSPropertyOp28
 70
     1
102
RTVSPropertyOp29
 70
     1
102
RTVSPropertyOp30
 70
     1
102
RTVSPropertyOp31
 70
     1
102
RTVSPropertyOp32
 70
     1
102
RTVSPropertyOp33
 70
     1
102
RTVSPropertyOp34
 70
     1
102
RTVSPropertyOp35
 70
     1
102
RTVSPropertyOp36
 70
     1
102
RTVSPropertyOp37
 70
     1
102
RTVSPropertyOp38
 70
     1
102
RTVSPropertyOp39
 70
     1
102
RTVSPropertyOp40
 70
     1
102
RTVSPropertyOp41
 70
     1
102
RTVSPropertyOp42
 70
     1
102
RTVSPropertyOp43
 70
     1
102
RTVSPropertyOp44
 70
     1
102
RTVSPropertyOp45
 70
     1
102
RTVSPropertyOp46
 70
     1
102
RTVSPropertyOp47
 70
     1
102
RTVSPropertyOp48
 70
     1
102
RTVSPropertyOp49
 70
     1
102
RTVSPropertyOp50
 70
     1
102
RTVSPropertyOp51
 70
     0
102
RTVSPropertyOp52
 70
     0
102
RTVSPropertyOp53
 70
     1
102
RTVSPropertyOp54
 70
     1
102
RTVSPropertyOp55
 70
     1
102
RTVSPropertyOp56
 70
     1
102
RTVSPropertyOp57
 70
     1
102
RTVSPost2010Prop28
280
     0
102
RTVSPost2010PropOp28
 70
     1
102
RTVSPost2010Prop29
280
     1
102
RTVSPost2010PropOp29
 70
     1
102
RTVSPost2010Prop30
280
     1
102
RTVSPost2010PropOp30
 70
     1
102
RTVSPost2010Prop31
280
     0
102
RTVSPost2010PropOp31
 70
     1
102
RTVSPost2010Prop32
280
     0
102
RTVSPost2010PropOp32
 70
     1
102
RTVSPost2010Prop33
280
     0
102
RTVSPost2010PropOp33
 70
     1
102
RTVSPost2010Prop34
280
     0
102
RTVSPost2010PropOp34
 70
     1
102
RTVSPost2010Prop35
280
     0
102
RTVSPost2010PropOp35
 70
     1
102
RTVSPost2010Prop36
280
     0
102
RTVSPost2010PropOp36
 70
     1
102
RTVSPost2010Prop37
 90
       50
102
RTVSPost2010PropOp37
 70
     1
102
RTVSPost2010Prop38
140
0.0
102
RTVSPost2010PropOp38
 70
     1
102
RTVSPost2010Prop39
140
1.0
102
RTVSPost2010PropOp39
 70
     1
102
RTVSPost2010Prop40
 90
        0
102
RTVSPost2010PropOp40
 70
     1
102
RTVSPost2010Prop41ColorIndex
 90
       18
102
RTVSPost2010Prop41ColorRGB
 90
        0
102
RTVSPost2010PropOp41
 70
     1
102
RTVSPost2010Prop42
 90
       50
102
RTVSPost2010PropOp42
 70
     1
102
RTVSPost2010Prop43
 90
        3
102
RTVSPost2010PropOp43
 70
     1
102
RTVSPost2010Prop44ColorIndex
 90
        5
102
RTVSPost2010Prop44ColorRGB
 90
      255
102
RTVSPost2010PropOp44
 70
     1
102
RTVSPost2010Prop45
280
     0
102
RTVSPost2010PropOp45
 70
     1
102
RTVSPost2010Prop46
 90
       50
102
RTVSPost2010PropOp46
 70
     1
102
RTVSPost2010Prop47
 90
       50
102
RTVSPost2010PropOp47
 70
     1
102
RTVSPost2010Prop48
 90
       50
102
RTVSPost2010PropOp48
 70
     1
102
RTVSPost2010Prop49
280
     0
102
RTVSPost2010PropOp49
 70
     1
102
RTVSPost2010Prop50
 90
       50
102
RTVSPost2010PropOp50
 70
     1
102
RTVSPost2010Prop51ColorIndex
 90
      256
102
RTVSPost2010Prop51ColorRGB
 90
-16777216
102
RTVSPost2010PropOp51
 70
     0
102
RTVSPost2010Prop52
140
1.0
102
RTVSPost2010PropOp52
 70
     0
102
RTVSPost2010Prop53
 90
        2
102
RTVSPost2010PropOp53
 70
     1
102
RTVSPost2010Prop54
  1
strokes_ogs.tif
102
RTVSPost2010PropOp54
 70
     1
102
RTVSPost2010Prop55
280
     0
102
RTVSPost2010PropOp55
 70
     1
102
RTVSPost2010Prop56
140
1.0
102
RTVSPost2010PropOp56
 70
     1
102
RTVSPost2010Prop57
140
1.0
102
RTVSPost2010PropOp57
 70
     1
  0
XRECORD
  5
56A
102
{ACAD_REACTORS
330
569
102
}
330
569
100
AcDbXrecord
280
     1
102
RTVSPropertyOp0
 70
     1
102
RTVSPropertyOp1
 70
     1
102
RTVSPropertyOp2
 70
     1
102
RTVSPropertyOp3
 70
     1
102
RTVSPropertyOp4
 70
     1
102
RTVSPropertyOp5
 70
     1
102
RTVSPropertyOp6
 70
     1
102
RTVSPropertyOp7
 70
     1
102
RTVSPropertyOp8
 70
     1
102
RTVSPropertyOp9
 70
     1
102
RTVSPropertyOp10
 70
     1
102
RTVSPropertyOp11
 70
     1
102
RTVSPropertyOp12
 70
     1
102
RTVSPropertyOp13
 70
     1
102
RTVSPropertyOp14
 70
     1
102
RTVSPropertyOp15
 70
     1
102
RTVSPropertyOp16
 70
     1
102
RTVSPropertyOp17
 70
     1
102
RTVSPropertyOp18
 70
     1
102
RTVSPropertyOp19
 70
     1
102
RTVSPropertyOp20
 70
     1
102
RTVSPropertyOp21
 70
     1
102
RTVSPropertyOp22
 70
     1
102
RTVSPropertyOp23
 70
     1
102
RTVSPropertyOp24
 70
     1
102
RTVSPropertyOp25
 70
     1
102
RTVSPropertyOp26
 70
     1
102
RTVSPropertyOp27
 70
     1
102
RTVSPropertyOp28
 70
     1
102
RTVSPropertyOp29
 70
     1
102
RTVSPropertyOp30
 70
     1
102
RTVSPropertyOp31
 70
     1
102
RTVSPropertyOp32
 70
     1
102
RTVSPropertyOp33
 70
     1
102
RTVSPropertyOp34
 70
     1
102
RTVSPropertyOp35
 70
     1
102
RTVSPropertyOp36
 70
     1
102
RTVSPropertyOp37
 70
     1
102
RTVSPropertyOp38
 70
     1
102
RTVSPropertyOp39
 70
     1
102
RTVSPropertyOp40
 70
     1
102
RTVSPropertyOp41
 70
     1
102
RTVSPropertyOp42
 70
     1
102
RTVSPropertyOp43
 70
     1
102
RTVSPropertyOp44
 70
     1
102
RTVSPropertyOp45
 70
     1
102
RTVSPropertyOp46
 70
     1
102
RTVSPropertyOp47
 70
     1
102
RTVSPropertyOp48
 70
     1
102
RTVSPropertyOp49
 70
     1
102
RTVSPropertyOp50
 70
     1
102
RTVSPropertyOp51
 70
     0
102
RTVSPropertyOp52
 70
     0
102
RTVSPropertyOp53
 70
     1
102
RTVSPropertyOp54
 70
     1
102
RTVSPropertyOp55
 70
     1
102
RTVSPropertyOp56
 70
     1
102
RTVSPropertyOp57
 70
     1
102
RTVSPost2010Prop28
280
     0
102
RTVSPost2010PropOp28
 70
     1
102
RTVSPost2010Prop29
280
     1
102
RTVSPost2010PropOp29
 70
     1
102
RTVSPost2010Prop30
280
     1
102
RTVSPost2010PropOp30
 70
     1
102
RTVSPost2010Prop31
280
     0
102
RTVSPost2010PropOp31
 70
     1
102
RTVSPost2010Prop32
280
     0
102
RTVSPost2010PropOp32
 70
     1
102
RTVSPost2010Prop33
280
     0
102
RTVSPost2010PropOp33
 70
     1
102
RTVSPost2010Prop34
280
     0
102
RTVSPost2010PropOp34
 70
     1
102
RTVSPost2010Prop35
280
     0
102
RTVSPost2010PropOp35
 70
     1
102
RTVSPost2010Prop36
280
     0
102
RTVSPost2010PropOp36
 70
     1
102
RTVSPost2010Prop37
 90
       50
102
RTVSPost2010PropOp37
 70
     1
102
RTVSPost2010Prop38
140
0.0
102
RTVSPost2010PropOp38
 70
     1
102
RTVSPost2010Prop39
140
1.0
102
RTVSPost2010PropOp39
 70
     1
102
RTVSPost2010Prop40
 90
        0
102
RTVSPost2010PropOp40
 70
     1
102
RTVSPost2010Prop41ColorIndex
 90
       18
102
RTVSPost2010Prop41ColorRGB
 90
        0
102
RTVSPost2010PropOp41
 70
     1
102
RTVSPost2010Prop42
 90
       50
102
RTVSPost2010PropOp42
 70
     1
102
RTVSPost2010Prop43
 90
        3
102
RTVSPost2010PropOp43
 70
     1
102
RTVSPost2010Prop44ColorIndex
 90
        5
102
RTVSPost2010Prop44ColorRGB
 90
      255
102
RTVSPost2010PropOp44
 70
     1
102
RTVSPost2010Prop45
280
     0
102
RTVSPost2010PropOp45
 70
     1
102
RTVSPost2010Prop46
 90
       50
102
RTVSPost2010PropOp46
 70
     1
102
RTVSPost2010Prop47
 90
       50
102
RTVSPost2010PropOp47
 70
     1
102
RTVSPost2010Prop48
 90
       50
102
RTVSPost2010PropOp48
 70
     1
102
RTVSPost2010Prop49
280
     0
102
RTVSPost2010PropOp49
 70
     1
102
RTVSPost2010Prop50
 90
       50
102
RTVSPost2010PropOp50
 70
     1
102
RTVSPost2010Prop51ColorIndex
 90
      256
102
RTVSPost2010Prop51ColorRGB
 90
-16777216
102
RTVSPost2010PropOp51
 70
     0
102
RTVSPost2010Prop52
140
1.0
102
RTVSPost2010PropOp52
 70
     0
102
RTVSPost2010Prop53
 90
        2
102
RTVSPost2010PropOp53
 70
     1
102
RTVSPost2010Prop54
  1
strokes_ogs.tif
102
RTVSPost2010PropOp54
 70
     1
102
RTVSPost2010Prop55
280
     0
102
RTVSPost2010PropOp55
 70
     1
102
RTVSPost2010Prop56
140
1.0
102
RTVSPost2010PropOp56
 70
     1
102
RTVSPost2010Prop57
140
1.0
102
RTVSPost2010PropOp57
 70
     1
  0
XRECORD
  5
56C
102
{ACAD_REACTORS
330
56B
102
}
330
56B
100
AcDbXrecord
280
     1
102
RTVSPropertyOp0
 70
     1
102
RTVSPropertyOp1
 70
     1
102
RTVSPropertyOp2
 70
     1
102
RTVSPropertyOp3
 70
     1
102
RTVSPropertyOp4
 70
     1
102
RTVSPropertyOp5
 70
     1
102
RTVSPropertyOp6
 70
     1
102
RTVSPropertyOp7
 70
     1
102
RTVSPropertyOp8
 70
     1
102
RTVSPropertyOp9
 70
     1
102
RTVSPropertyOp10
 70
     1
102
RTVSPropertyOp11
 70
     1
102
RTVSPropertyOp12
 70
     1
102
RTVSPropertyOp13
 70
     1
102
RTVSPropertyOp14
 70
     1
102
RTVSPropertyOp15
 70
     1
102
RTVSPropertyOp16
 70
     1
102
RTVSPropertyOp17
 70
     1
102
RTVSPropertyOp18
 70
     1
102
RTVSPropertyOp19
 70
     1
102
RTVSPropertyOp20
 70
     1
102
RTVSPropertyOp21
 70
     1
102
RTVSPropertyOp22
 70
     1
102
RTVSPropertyOp23
 70
     1
102
RTVSPropertyOp24
 70
     1
102
RTVSPropertyOp25
 70
     1
102
RTVSPropertyOp26
 70
     1
102
RTVSPropertyOp27
 70
     1
102
RTVSPropertyOp28
 70
     1
102
RTVSPropertyOp29
 70
     1
102
RTVSPropertyOp30
 70
     1
102
RTVSPropertyOp31
 70
     1
102
RTVSPropertyOp32
 70
     1
102
RTVSPropertyOp33
 70
     1
102
RTVSPropertyOp34
 70
     1
102
RTVSPropertyOp35
 70
     1
102
RTVSPropertyOp36
 70
     1
102
RTVSPropertyOp37
 70
     1
102
RTVSPropertyOp38
 70
     1
102
RTVSPropertyOp39
 70
     1
102
RTVSPropertyOp40
 70
     1
102
RTVSPropertyOp41
 70
     1
102
RTVSPropertyOp42
 70
     1
102
RTVSPropertyOp43
 70
     1
102
RTVSPropertyOp44
 70
     1
102
RTVSPropertyOp45
 70
     1
102
RTVSPropertyOp46
 70
     1
102
RTVSPropertyOp47
 70
     1
102
RTVSPropertyOp48
 70
     1
102
RTVSPropertyOp49
 70
     1
102
RTVSPropertyOp50
 70
     1
102
RTVSPropertyOp51
 70
     0
102
RTVSPropertyOp52
 70
     0
102
RTVSPropertyOp53
 70
     1
102
RTVSPropertyOp54
 70
     1
102
RTVSPropertyOp55
 70
     1
102
RTVSPropertyOp56
 70
     1
102
RTVSPropertyOp57
 70
     1
102
RTVSPost2010Prop28
280
     0
102
RTVSPost2010PropOp28
 70
     1
102
RTVSPost2010Prop29
280
     1
102
RTVSPost2010PropOp29
 70
     1
102
RTVSPost2010Prop30
280
     1
102
RTVSPost2010PropOp30
 70
     1
102
RTVSPost2010Prop31
280
     0
102
RTVSPost2010PropOp31
 70
     1
102
RTVSPost2010Prop32
280
     0
102
RTVSPost2010PropOp32
 70
     1
102
RTVSPost2010Prop33
280
     0
102
RTVSPost2010PropOp33
 70
     1
102
RTVSPost2010Prop34
280
     0
102
RTVSPost2010PropOp34
 70
     1
102
RTVSPost2010Prop35
280
     0
102
RTVSPost2010PropOp35
 70
     1
102
RTVSPost2010Prop36
280
     0
102
RTVSPost2010PropOp36
 70
     1
102
RTVSPost2010Prop37
 90
       50
102
RTVSPost2010PropOp37
 70
     1
102
RTVSPost2010Prop38
140
0.0
102
RTVSPost2010PropOp38
 70
     1
102
RTVSPost2010Prop39
140
1.0
102
RTVSPost2010PropOp39
 70
     1
102
RTVSPost2010Prop40
 90
        0
102
RTVSPost2010PropOp40
 70
     1
102
RTVSPost2010Prop41ColorIndex
 90
       18
102
RTVSPost2010Prop41ColorRGB
 90
        0
102
RTVSPost2010PropOp41
 70
     1
102
RTVSPost2010Prop42
 90
       50
102
RTVSPost2010PropOp42
 70
     1
102
RTVSPost2010Prop43
 90
        3
102
RTVSPost2010PropOp43
 70
     1
102
RTVSPost2010Prop44ColorIndex
 90
        5
102
RTVSPost2010Prop44ColorRGB
 90
      255
102
RTVSPost2010PropOp44
 70
     1
102
RTVSPost2010Prop45
280
     0
102
RTVSPost2010PropOp45
 70
     1
102
RTVSPost2010Prop46
 90
       50
102
RTVSPost2010PropOp46
 70
     1
102
RTVSPost2010Prop47
 90
       50
102
RTVSPost2010PropOp47
 70
     1
102
RTVSPost2010Prop48
 90
       50
102
RTVSPost2010PropOp48
 70
     1
102
RTVSPost2010Prop49
280
     0
102
RTVSPost2010PropOp49
 70
     1
102
RTVSPost2010Prop50
 90
       50
102
RTVSPost2010PropOp50
 70
     1
102
RTVSPost2010Prop51ColorIndex
 90
      256
102
RTVSPost2010Prop51ColorRGB
 90
-16777216
102
RTVSPost2010PropOp51
 70
     0
102
RTVSPost2010Prop52
140
1.0
102
RTVSPost2010PropOp52
 70
     0
102
RTVSPost2010Prop53
 90
        2
102
RTVSPost2010PropOp53
 70
     1
102
RTVSPost2010Prop54
  1
strokes_ogs.tif
102
RTVSPost2010PropOp54
 70
     1
102
RTVSPost2010Prop55
280
     0
102
RTVSPost2010PropOp55
 70
     1
102
RTVSPost2010Prop56
140
1.0
102
RTVSPost2010PropOp56
 70
     1
102
RTVSPost2010Prop57
140
1.0
102
RTVSPost2010PropOp57
 70
     1
  0
XRECORD
  5
57C
102
{ACAD_REACTORS
330
57B
102
}
330
57B
100
AcDbXrecord
280
     1
102
RTVSPropertyOp0
 70
     0
102
RTVSPropertyOp1
 70
     0
102
RTVSPropertyOp2
 70
     0
102
RTVSPropertyOp3
 70
     0
102
RTVSPropertyOp4
 70
     0
102
RTVSPropertyOp5
 70
     0
102
RTVSPropertyOp6
 70
     0
102
RTVSPropertyOp7
 70
     0
102
RTVSPropertyOp8
 70
     0
102
RTVSPropertyOp9
 70
     0
102
RTVSPropertyOp10
 70
     0
102
RTVSPropertyOp11
 70
     0
102
RTVSPropertyOp12
 70
     0
102
RTVSPropertyOp13
 70
     0
102
RTVSPropertyOp14
 70
     2
102
RTVSPropertyOp15
 70
     0
102
RTVSPropertyOp16
 70
     0
102
RTVSPropertyOp17
 70
     0
102
RTVSPropertyOp18
 70
     0
102
RTVSPropertyOp19
 70
     0
102
RTVSPropertyOp20
 70
     0
102
RTVSPropertyOp21
 70
     0
102
RTVSPropertyOp22
 70
     0
102
RTVSPropertyOp23
 70
     0
102
RTVSPropertyOp24
 70
     0
102
RTVSPropertyOp25
 70
     0
102
RTVSPropertyOp26
 70
     0
102
RTVSPropertyOp27
 70
     0
102
RTVSPropertyOp28
 70
     0
102
RTVSPropertyOp29
 70
     0
102
RTVSPropertyOp30
 70
     0
102
RTVSPropertyOp31
 70
     0
102
RTVSPropertyOp32
 70
     0
102
RTVSPropertyOp33
 70
     0
102
RTVSPropertyOp34
 70
     0
102
RTVSPropertyOp35
 70
     0
102
RTVSPropertyOp36
 70
     0
102
RTVSPropertyOp37
 70
     0
102
RTVSPropertyOp38
 70
     0
102
RTVSPropertyOp39
 70
     0
102
RTVSPropertyOp40
 70
     0
102
RTVSPropertyOp41
 70
     0
102
RTVSPropertyOp42
 70
     0
102
RTVSPropertyOp43
 70
     0
102
RTVSPropertyOp44
 70
     0
102
RTVSPropertyOp45
 70
     0
102
RTVSPropertyOp46
 70
     0
102
RTVSPropertyOp47
 70
     0
102
RTVSPropertyOp48
 70
     0
102
RTVSPropertyOp49
 70
     0
102
RTVSPropertyOp50
 70
     0
102
RTVSPropertyOp51
 70
     0
102
RTVSPropertyOp52
 70
     0
102
RTVSPropertyOp53
 70
     0
102
RTVSPropertyOp54
 70
     0
102
RTVSPropertyOp55
 70
     0
102
RTVSPropertyOp56
 70
     0
102
RTVSPropertyOp57
 70
     0
102
RTVSPost2010Prop28
280
     0
102
RTVSPost2010PropOp28
 70
     0
102
RTVSPost2010Prop29
280
     1
102
RTVSPost2010PropOp29
 70
     0
102
RTVSPost2010Prop30
280
     1
102
RTVSPost2010PropOp30
 70
     0
102
RTVSPost2010Prop31
280
     0
102
RTVSPost2010PropOp31
 70
     0
102
RTVSPost2010Prop32
280
     0
102
RTVSPost2010PropOp32
 70
     0
102
RTVSPost2010Prop33
280
     0
102
RTVSPost2010PropOp33
 70
     0
102
RTVSPost2010Prop34
280
     0
102
RTVSPost2010PropOp34
 70
     0
102
RTVSPost2010Prop35
280
     0
102
RTVSPost2010PropOp35
 70
     0
102
RTVSPost2010Prop36
280
     0
102
RTVSPost2010PropOp36
 70
     0
102
RTVSPost2010Prop37
 90
       50
102
RTVSPost2010PropOp37
 70
     0
102
RTVSPost2010Prop38
140
0.0
102
RTVSPost2010PropOp38
 70
     0
102
RTVSPost2010Prop39
140
1.0
102
RTVSPost2010PropOp39
 70
     0
102
RTVSPost2010Prop40
 90
        0
102
RTVSPost2010PropOp40
 70
     0
102
RTVSPost2010Prop41ColorIndex
 90
       18
102
RTVSPost2010Prop41ColorRGB
 90
        0
102
RTVSPost2010PropOp41
 70
     0
102
RTVSPost2010Prop42
 90
       50
102
RTVSPost2010PropOp42
 70
     0
102
RTVSPost2010Prop43
 90
        3
102
RTVSPost2010PropOp43
 70
     0
102
RTVSPost2010Prop44ColorIndex
 90
        5
102
RTVSPost2010Prop44ColorRGB
 90
      255
102
RTVSPost2010PropOp44
 70
     0
102
RTVSPost2010Prop45
280
     0
102
RTVSPost2010PropOp45
 70
     0
102
RTVSPost2010Prop46
 90
       50
102
RTVSPost2010PropOp46
 70
     0
102
RTVSPost2010Prop47
 90
       50
102
RTVSPost2010PropOp47
 70
     0
102
RTVSPost2010Prop48
 90
       50
102
RTVSPost2010PropOp48
 70
     0
102
RTVSPost2010Prop49
280
     0
102
RTVSPost2010PropOp49
 70
     0
102
RTVSPost2010Prop50
 90
       50
102
RTVSPost2010PropOp50
 70
     0
102
RTVSPost2010Prop51ColorIndex
 90
      256
102
RTVSPost2010Prop51ColorRGB
 90
-16777216
102
RTVSPost2010PropOp51
 70
     0
102
RTVSPost2010Prop52
140
1.0
102
RTVSPost2010PropOp52
 70
     0
102
RTVSPost2010Prop53
 90
        2
102
RTVSPost2010PropOp53
 70
     0
102
RTVSPost2010Prop54
  1
strokes_ogs.tif
102
RTVSPost2010PropOp54
 70
     0
102
RTVSPost2010Prop55
280
     0
102
RTVSPost2010PropOp55
 70
     0
102
RTVSPost2010Prop56
140
1.0
102
RTVSPost2010PropOp56
 70
     0
102
RTVSPost2010Prop57
140
1.0
102
RTVSPost2010PropOp57
 70
     0
  0
XRECORD
  5
574
102
{ACAD_REACTORS
330
573
102
}
330
573
100
AcDbXrecord
280
     1
102
RTVSPropertyOp0
 70
     1
102
RTVSPropertyOp1
 70
     1
102
RTVSPropertyOp2
 70
     1
102
RTVSPropertyOp3
 70
     1
102
RTVSPropertyOp4
 70
     1
102
RTVSPropertyOp5
 70
     1
102
RTVSPropertyOp6
 70
     1
102
RTVSPropertyOp7
 70
     1
102
RTVSPropertyOp8
 70
     1
102
RTVSPropertyOp9
 70
     1
102
RTVSPropertyOp10
 70
     1
102
RTVSPropertyOp11
 70
     1
102
RTVSPropertyOp12
 70
     1
102
RTVSPropertyOp13
 70
     1
102
RTVSPropertyOp14
 70
     1
102
RTVSPropertyOp15
 70
     1
102
RTVSPropertyOp16
 70
     1
102
RTVSPropertyOp17
 70
     1
102
RTVSPropertyOp18
 70
     1
102
RTVSPropertyOp19
 70
     1
102
RTVSPropertyOp20
 70
     1
102
RTVSPropertyOp21
 70
     1
102
RTVSPropertyOp22
 70
     1
102
RTVSPropertyOp23
 70
     1
102
RTVSPropertyOp24
 70
     1
102
RTVSPropertyOp25
 70
     1
102
RTVSPropertyOp26
 70
     1
102
RTVSPropertyOp27
 70
     1
102
RTVSPropertyOp28
 70
     1
102
RTVSPropertyOp29
 70
     1
102
RTVSPropertyOp30
 70
     1
102
RTVSPropertyOp31
 70
     1
102
RTVSPropertyOp32
 70
     1
102
RTVSPropertyOp33
 70
     1
102
RTVSPropertyOp34
 70
     1
102
RTVSPropertyOp35
 70
     1
102
RTVSPropertyOp36
 70
     1
102
RTVSPropertyOp37
 70
     1
102
RTVSPropertyOp38
 70
     1
102
RTVSPropertyOp39
 70
     1
102
RTVSPropertyOp40
 70
     1
102
RTVSPropertyOp41
 70
     1
102
RTVSPropertyOp42
 70
     1
102
RTVSPropertyOp43
 70
     1
102
RTVSPropertyOp44
 70
     1
102
RTVSPropertyOp45
 70
     1
102
RTVSPropertyOp46
 70
     1
102
RTVSPropertyOp47
 70
     1
102
RTVSPropertyOp48
 70
     1
102
RTVSPropertyOp49
 70
     1
102
RTVSPropertyOp50
 70
     1
102
RTVSPropertyOp51
 70
     0
102
RTVSPropertyOp52
 70
     0
102
RTVSPropertyOp53
 70
     1
102
RTVSPropertyOp54
 70
     1
102
RTVSPropertyOp55
 70
     1
102
RTVSPropertyOp56
 70
     1
102
RTVSPropertyOp57
 70
     1
102
RTVSPost2010Prop28
280
     0
102
RTVSPost2010PropOp28
 70
     1
102
RTVSPost2010Prop29
280
     1
102
RTVSPost2010PropOp29
 70
     1
102
RTVSPost2010Prop30
280
     1
102
RTVSPost2010PropOp30
 70
     1
102
RTVSPost2010Prop31
280
     0
102
RTVSPost2010PropOp31
 70
     1
102
RTVSPost2010Prop32
280
     0
102
RTVSPost2010PropOp32
 70
     1
102
RTVSPost2010Prop33
280
     0
102
RTVSPost2010PropOp33
 70
     1
102
RTVSPost2010Prop34
280
     0
102
RTVSPost2010PropOp34
 70
     1
102
RTVSPost2010Prop35
280
     0
102
RTVSPost2010PropOp35
 70
     1
102
RTVSPost2010Prop36
280
     0
102
RTVSPost2010PropOp36
 70
     1
102
RTVSPost2010Prop37
 90
       50
102
RTVSPost2010PropOp37
 70
     1
102
RTVSPost2010Prop38
140
0.0
102
RTVSPost2010PropOp38
 70
     1
102
RTVSPost2010Prop39
140
1.0
102
RTVSPost2010PropOp39
 70
     1
102
RTVSPost2010Prop40
 90
        0
102
RTVSPost2010PropOp40
 70
     1
102
RTVSPost2010Prop41ColorIndex
 90
       18
102
RTVSPost2010Prop41ColorRGB
 90
        0
102
RTVSPost2010PropOp41
 70
     1
102
RTVSPost2010Prop42
 90
       50
102
RTVSPost2010PropOp42
 70
     1
102
RTVSPost2010Prop43
 90
        3
102
RTVSPost2010PropOp43
 70
     1
102
RTVSPost2010Prop44ColorIndex
 90
        5
102
RTVSPost2010Prop44ColorRGB
 90
      255
102
RTVSPost2010PropOp44
 70
     1
102
RTVSPost2010Prop45
280
     0
102
RTVSPost2010PropOp45
 70
     1
102
RTVSPost2010Prop46
 90
       50
102
RTVSPost2010PropOp46
 70
     1
102
RTVSPost2010Prop47
 90
       50
102
RTVSPost2010PropOp47
 70
     1
102
RTVSPost2010Prop48
 90
       50
102
RTVSPost2010PropOp48
 70
     1
102
RTVSPost2010Prop49
280
     0
102
RTVSPost2010PropOp49
 70
     1
102
RTVSPost2010Prop50
 90
       50
102
RTVSPost2010PropOp50
 70
     1
102
RTVSPost2010Prop51ColorIndex
 90
      256
102
RTVSPost2010Prop51ColorRGB
 90
-16777216
102
RTVSPost2010PropOp51
 70
     0
102
RTVSPost2010Prop52
140
1.0
102
RTVSPost2010PropOp52
 70
     0
102
RTVSPost2010Prop53
 90
        2
102
RTVSPost2010PropOp53
 70
     1
102
RTVSPost2010Prop54
  1
strokes_ogs.tif
102
RTVSPost2010PropOp54
 70
     1
102
RTVSPost2010Prop55
280
     0
102
RTVSPost2010PropOp55
 70
     1
102
RTVSPost2010Prop56
140
1.0
102
RTVSPost2010PropOp56
 70
     1
102
RTVSPost2010Prop57
140
1.0
102
RTVSPost2010PropOp57
 70
     1
  0
XRECORD
  5
558
102
{ACAD_REACTORS
330
557
102
}
330
557
100
AcDbXrecord
280
     1
102
RTVSPropertyOp0
 70
     1
102
RTVSPropertyOp1
 70
     1
102
RTVSPropertyOp2
 70
     1
102
RTVSPropertyOp3
 70
     1
102
RTVSPropertyOp4
 70
     1
102
RTVSPropertyOp5
 70
     1
102
RTVSPropertyOp6
 70
     1
102
RTVSPropertyOp7
 70
     1
102
RTVSPropertyOp8
 70
     1
102
RTVSPropertyOp9
 70
     1
102
RTVSPropertyOp10
 70
     1
102
RTVSPropertyOp11
 70
     1
102
RTVSPropertyOp12
 70
     1
102
RTVSPropertyOp13
 70
     1
102
RTVSPropertyOp14
 70
     1
102
RTVSPropertyOp15
 70
     1
102
RTVSPropertyOp16
 70
     1
102
RTVSPropertyOp17
 70
     1
102
RTVSPropertyOp18
 70
     1
102
RTVSPropertyOp19
 70
     1
102
RTVSPropertyOp20
 70
     1
102
RTVSPropertyOp21
 70
     1
102
RTVSPropertyOp22
 70
     1
102
RTVSPropertyOp23
 70
     1
102
RTVSPropertyOp24
 70
     1
102
RTVSPropertyOp25
 70
     1
102
RTVSPropertyOp26
 70
     1
102
RTVSPropertyOp27
 70
     1
102
RTVSPropertyOp28
 70
     1
102
RTVSPropertyOp29
 70
     1
102
RTVSPropertyOp30
 70
     1
102
RTVSPropertyOp31
 70
     1
102
RTVSPropertyOp32
 70
     1
102
RTVSPropertyOp33
 70
     1
102
RTVSPropertyOp34
 70
     1
102
RTVSPropertyOp35
 70
     1
102
RTVSPropertyOp36
 70
     1
102
RTVSPropertyOp37
 70
     1
102
RTVSPropertyOp38
 70
     1
102
RTVSPropertyOp39
 70
     1
102
RTVSPropertyOp40
 70
     1
102
RTVSPropertyOp41
 70
     1
102
RTVSPropertyOp42
 70
     1
102
RTVSPropertyOp43
 70
     1
102
RTVSPropertyOp44
 70
     1
102
RTVSPropertyOp45
 70
     1
102
RTVSPropertyOp46
 70
     1
102
RTVSPropertyOp47
 70
     1
102
RTVSPropertyOp48
 70
     1
102
RTVSPropertyOp49
 70
     1
102
RTVSPropertyOp50
 70
     1
102
RTVSPropertyOp51
 70
     0
102
RTVSPropertyOp52
 70
     0
102
RTVSPropertyOp53
 70
     1
102
RTVSPropertyOp54
 70
     1
102
RTVSPropertyOp55
 70
     1
102
RTVSPropertyOp56
 70
     1
102
RTVSPropertyOp57
 70
     1
102
RTVSPost2010Prop28
280
     0
102
RTVSPost2010PropOp28
 70
     1
102
RTVSPost2010Prop29
280
     1
102
RTVSPost2010PropOp29
 70
     1
102
RTVSPost2010Prop30
280
     1
102
RTVSPost2010PropOp30
 70
     1
102
RTVSPost2010Prop31
280
     0
102
RTVSPost2010PropOp31
 70
     1
102
RTVSPost2010Prop32
280
     0
102
RTVSPost2010PropOp32
 70
     1
102
RTVSPost2010Prop33
280
     0
102
RTVSPost2010PropOp33
 70
     1
102
RTVSPost2010Prop34
280
     0
102
RTVSPost2010PropOp34
 70
     1
102
RTVSPost2010Prop35
280
     0
102
RTVSPost2010PropOp35
 70
     1
102
RTVSPost2010Prop36
280
     0
102
RTVSPost2010PropOp36
 70
     1
102
RTVSPost2010Prop37
 90
       50
102
RTVSPost2010PropOp37
 70
     1
102
RTVSPost2010Prop38
140
0.0
102
RTVSPost2010PropOp38
 70
     1
102
RTVSPost2010Prop39
140
1.0
102
RTVSPost2010PropOp39
 70
     1
102
RTVSPost2010Prop40
 90
        0
102
RTVSPost2010PropOp40
 70
     1
102
RTVSPost2010Prop41ColorIndex
 90
       18
102
RTVSPost2010Prop41ColorRGB
 90
        0
102
RTVSPost2010PropOp41
 70
     1
102
RTVSPost2010Prop42
 90
       50
102
RTVSPost2010PropOp42
 70
     1
102
RTVSPost2010Prop43
 90
        3
102
RTVSPost2010PropOp43
 70
     1
102
RTVSPost2010Prop44ColorIndex
 90
        5
102
RTVSPost2010Prop44ColorRGB
 90
      255
102
RTVSPost2010PropOp44
 70
     1
102
RTVSPost2010Prop45
280
     0
102
RTVSPost2010PropOp45
 70
     1
102
RTVSPost2010Prop46
 90
       50
102
RTVSPost2010PropOp46
 70
     1
102
RTVSPost2010Prop47
 90
       50
102
RTVSPost2010PropOp47
 70
     1
102
RTVSPost2010Prop48
 90
       50
102
RTVSPost2010PropOp48
 70
     1
102
RTVSPost2010Prop49
280
     0
102
RTVSPost2010PropOp49
 70
     1
102
RTVSPost2010Prop50
 90
       50
102
RTVSPost2010PropOp50
 70
     1
102
RTVSPost2010Prop51ColorIndex
 90
      256
102
RTVSPost2010Prop51ColorRGB
 90
-16777216
102
RTVSPost2010PropOp51
 70
     0
102
RTVSPost2010Prop52
140
1.0
102
RTVSPost2010PropOp52
 70
     0
102
RTVSPost2010Prop53
 90
        2
102
RTVSPost2010PropOp53
 70
     1
102
RTVSPost2010Prop54
  1
strokes_ogs.tif
102
RTVSPost2010PropOp54
 70
     1
102
RTVSPost2010Prop55
280
     0
102
RTVSPost2010PropOp55
 70
     1
102
RTVSPost2010Prop56
140
1.0
102
RTVSPost2010PropOp56
 70
     1
102
RTVSPost2010Prop57
140
1.0
102
RTVSPost2010PropOp57
 70
     1
  0
XRECORD
  5
55A
102
{ACAD_REACTORS
330
559
102
}
330
559
100
AcDbXrecord
280
     1
102
RTVSPropertyOp0
 70
     1
102
RTVSPropertyOp1
 70
     1
102
RTVSPropertyOp2
 70
     1
102
RTVSPropertyOp3
 70
     1
102
RTVSPropertyOp4
 70
     1
102
RTVSPropertyOp5
 70
     1
102
RTVSPropertyOp6
 70
     1
102
RTVSPropertyOp7
 70
     1
102
RTVSPropertyOp8
 70
     1
102
RTVSPropertyOp9
 70
     1
102
RTVSPropertyOp10
 70
     1
102
RTVSPropertyOp11
 70
     1
102
RTVSPropertyOp12
 70
     1
102
RTVSPropertyOp13
 70
     1
102
RTVSPropertyOp14
 70
     1
102
RTVSPropertyOp15
 70
     1
102
RTVSPropertyOp16
 70
     1
102
RTVSPropertyOp17
 70
     1
102
RTVSPropertyOp18
 70
     1
102
RTVSPropertyOp19
 70
     1
102
RTVSPropertyOp20
 70
     1
102
RTVSPropertyOp21
 70
     1
102
RTVSPropertyOp22
 70
     1
102
RTVSPropertyOp23
 70
     1
102
RTVSPropertyOp24
 70
     1
102
RTVSPropertyOp25
 70
     1
102
RTVSPropertyOp26
 70
     1
102
RTVSPropertyOp27
 70
     1
102
RTVSPropertyOp28
 70
     1
102
RTVSPropertyOp29
 70
     1
102
RTVSPropertyOp30
 70
     1
102
RTVSPropertyOp31
 70
     1
102
RTVSPropertyOp32
 70
     1
102
RTVSPropertyOp33
 70
     1
102
RTVSPropertyOp34
 70
     1
102
RTVSPropertyOp35
 70
     1
102
RTVSPropertyOp36
 70
     1
102
RTVSPropertyOp37
 70
     1
102
RTVSPropertyOp38
 70
     1
102
RTVSPropertyOp39
 70
     1
102
RTVSPropertyOp40
 70
     1
102
RTVSPropertyOp41
 70
     1
102
RTVSPropertyOp42
 70
     1
102
RTVSPropertyOp43
 70
     1
102
RTVSPropertyOp44
 70
     1
102
RTVSPropertyOp45
 70
     1
102
RTVSPropertyOp46
 70
     1
102
RTVSPropertyOp47
 70
     1
102
RTVSPropertyOp48
 70
     1
102
RTVSPropertyOp49
 70
     1
102
RTVSPropertyOp50
 70
     1
102
RTVSPropertyOp51
 70
     0
102
RTVSPropertyOp52
 70
     0
102
RTVSPropertyOp53
 70
     1
102
RTVSPropertyOp54
 70
     1
102
RTVSPropertyOp55
 70
     1
102
RTVSPropertyOp56
 70
     1
102
RTVSPropertyOp57
 70
     1
102
RTVSPost2010Prop28
280
     0
102
RTVSPost2010PropOp28
 70
     1
102
RTVSPost2010Prop29
280
     1
102
RTVSPost2010PropOp29
 70
     1
102
RTVSPost2010Prop30
280
     1
102
RTVSPost2010PropOp30
 70
     1
102
RTVSPost2010Prop31
280
     0
102
RTVSPost2010PropOp31
 70
     1
102
RTVSPost2010Prop32
280
     0
102
RTVSPost2010PropOp32
 70
     1
102
RTVSPost2010Prop33
280
     0
102
RTVSPost2010PropOp33
 70
     1
102
RTVSPost2010Prop34
280
     0
102
RTVSPost2010PropOp34
 70
     1
102
RTVSPost2010Prop35
280
     0
102
RTVSPost2010PropOp35
 70
     1
102
RTVSPost2010Prop36
280
     0
102
RTVSPost2010PropOp36
 70
     1
102
RTVSPost2010Prop37
 90
       50
102
RTVSPost2010PropOp37
 70
     1
102
RTVSPost2010Prop38
140
0.0
102
RTVSPost2010PropOp38
 70
     1
102
RTVSPost2010Prop39
140
1.0
102
RTVSPost2010PropOp39
 70
     1
102
RTVSPost2010Prop40
 90
        0
102
RTVSPost2010PropOp40
 70
     1
102
RTVSPost2010Prop41ColorIndex
 90
       18
102
RTVSPost2010Prop41ColorRGB
 90
        0
102
RTVSPost2010PropOp41
 70
     1
102
RTVSPost2010Prop42
 90
       50
102
RTVSPost2010PropOp42
 70
     1
102
RTVSPost2010Prop43
 90
        3
102
RTVSPost2010PropOp43
 70
     1
102
RTVSPost2010Prop44ColorIndex
 90
        5
102
RTVSPost2010Prop44ColorRGB
 90
      255
102
RTVSPost2010PropOp44
 70
     1
102
RTVSPost2010Prop45
280
     0
102
RTVSPost2010PropOp45
 70
     1
102
RTVSPost2010Prop46
 90
       50
102
RTVSPost2010PropOp46
 70
     1
102
RTVSPost2010Prop47
 90
       50
102
RTVSPost2010PropOp47
 70
     1
102
RTVSPost2010Prop48
 90
       50
102
RTVSPost2010PropOp48
 70
     1
102
RTVSPost2010Prop49
280
     0
102
RTVSPost2010PropOp49
 70
     1
102
RTVSPost2010Prop50
 90
       50
102
RTVSPost2010PropOp50
 70
     1
102
RTVSPost2010Prop51ColorIndex
 90
      256
102
RTVSPost2010Prop51ColorRGB
 90
-16777216
102
RTVSPost2010PropOp51
 70
     0
102
RTVSPost2010Prop52
140
1.0
102
RTVSPost2010PropOp52
 70
     0
102
RTVSPost2010Prop53
 90
        2
102
RTVSPost2010PropOp53
 70
     1
102
RTVSPost2010Prop54
  1
strokes_ogs.tif
102
RTVSPost2010PropOp54
 70
     1
102
RTVSPost2010Prop55
280
     0
102
RTVSPost2010PropOp55
 70
     1
102
RTVSPost2010Prop56
140
1.0
102
RTVSPost2010PropOp56
 70
     1
102
RTVSPost2010Prop57
140
1.0
102
RTVSPost2010PropOp57
 70
     1
  0
XRECORD
  5
55C
102
{ACAD_REACTORS
330
55B
102
}
330
55B
100
AcDbXrecord
280
     1
102
RTVSPropertyOp0
 70
     1
102
RTVSPropertyOp1
 70
     1
102
RTVSPropertyOp2
 70
     1
102
RTVSPropertyOp3
 70
     1
102
RTVSPropertyOp4
 70
     1
102
RTVSPropertyOp5
 70
     1
102
RTVSPropertyOp6
 70
     1
102
RTVSPropertyOp7
 70
     1
102
RTVSPropertyOp8
 70
     1
102
RTVSPropertyOp9
 70
     1
102
RTVSPropertyOp10
 70
     1
102
RTVSPropertyOp11
 70
     1
102
RTVSPropertyOp12
 70
     1
102
RTVSPropertyOp13
 70
     1
102
RTVSPropertyOp14
 70
     1
102
RTVSPropertyOp15
 70
     1
102
RTVSPropertyOp16
 70
     1
102
RTVSPropertyOp17
 70
     1
102
RTVSPropertyOp18
 70
     1
102
RTVSPropertyOp19
 70
     1
102
RTVSPropertyOp20
 70
     1
102
RTVSPropertyOp21
 70
     1
102
RTVSPropertyOp22
 70
     1
102
RTVSPropertyOp23
 70
     1
102
RTVSPropertyOp24
 70
     1
102
RTVSPropertyOp25
 70
     1
102
RTVSPropertyOp26
 70
     1
102
RTVSPropertyOp27
 70
     1
102
RTVSPropertyOp28
 70
     1
102
RTVSPropertyOp29
 70
     1
102
RTVSPropertyOp30
 70
     1
102
RTVSPropertyOp31
 70
     1
102
RTVSPropertyOp32
 70
     1
102
RTVSPropertyOp33
 70
     1
102
RTVSPropertyOp34
 70
     1
102
RTVSPropertyOp35
 70
     1
102
RTVSPropertyOp36
 70
     1
102
RTVSPropertyOp37
 70
     1
102
RTVSPropertyOp38
 70
     1
102
RTVSPropertyOp39
 70
     1
102
RTVSPropertyOp40
 70
     1
102
RTVSPropertyOp41
 70
     1
102
RTVSPropertyOp42
 70
     1
102
RTVSPropertyOp43
 70
     1
102
RTVSPropertyOp44
 70
     1
102
RTVSPropertyOp45
 70
     1
102
RTVSPropertyOp46
 70
     1
102
RTVSPropertyOp47
 70
     1
102
RTVSPropertyOp48
 70
     1
102
RTVSPropertyOp49
 70
     1
102
RTVSPropertyOp50
 70
     1
102
RTVSPropertyOp51
 70
     0
102
RTVSPropertyOp52
 70
     0
102
RTVSPropertyOp53
 70
     1
102
RTVSPropertyOp54
 70
     1
102
RTVSPropertyOp55
 70
     1
102
RTVSPropertyOp56
 70
     1
102
RTVSPropertyOp57
 70
     1
102
RTVSPost2010Prop28
280
     0
102
RTVSPost2010PropOp28
 70
     1
102
RTVSPost2010Prop29
280
     1
102
RTVSPost2010PropOp29
 70
     1
102
RTVSPost2010Prop30
280
     1
102
RTVSPost2010PropOp30
 70
     1
102
RTVSPost2010Prop31
280
     0
102
RTVSPost2010PropOp31
 70
     1
102
RTVSPost2010Prop32
280
     0
102
RTVSPost2010PropOp32
 70
     1
102
RTVSPost2010Prop33
280
     0
102
RTVSPost2010PropOp33
 70
     1
102
RTVSPost2010Prop34
280
     0
102
RTVSPost2010PropOp34
 70
     1
102
RTVSPost2010Prop35
280
     0
102
RTVSPost2010PropOp35
 70
     1
102
RTVSPost2010Prop36
280
     0
102
RTVSPost2010PropOp36
 70
     1
102
RTVSPost2010Prop37
 90
       50
102
RTVSPost2010PropOp37
 70
     1
102
RTVSPost2010Prop38
140
0.0
102
RTVSPost2010PropOp38
 70
     1
102
RTVSPost2010Prop39
140
1.0
102
RTVSPost2010PropOp39
 70
     1
102
RTVSPost2010Prop40
 90
        0
102
RTVSPost2010PropOp40
 70
     1
102
RTVSPost2010Prop41ColorIndex
 90
       18
102
RTVSPost2010Prop41ColorRGB
 90
        0
102
RTVSPost2010PropOp41
 70
     1
102
RTVSPost2010Prop42
 90
       50
102
RTVSPost2010PropOp42
 70
     1
102
RTVSPost2010Prop43
 90
        3
102
RTVSPost2010PropOp43
 70
     1
102
RTVSPost2010Prop44ColorIndex
 90
        5
102
RTVSPost2010Prop44ColorRGB
 90
      255
102
RTVSPost2010PropOp44
 70
     1
102
RTVSPost2010Prop45
280
     0
102
RTVSPost2010PropOp45
 70
     1
102
RTVSPost2010Prop46
 90
       50
102
RTVSPost2010PropOp46
 70
     1
102
RTVSPost2010Prop47
 90
       50
102
RTVSPost2010PropOp47
 70
     1
102
RTVSPost2010Prop48
 90
       50
102
RTVSPost2010PropOp48
 70
     1
102
RTVSPost2010Prop49
280
     0
102
RTVSPost2010PropOp49
 70
     1
102
RTVSPost2010Prop50
 90
       50
102
RTVSPost2010PropOp50
 70
     1
102
RTVSPost2010Prop51ColorIndex
 90
      256
102
RTVSPost2010Prop51ColorRGB
 90
-16777216
102
RTVSPost2010PropOp51
 70
     0
102
RTVSPost2010Prop52
140
1.0
102
RTVSPost2010PropOp52
 70
     0
102
RTVSPost2010Prop53
 90
        2
102
RTVSPost2010PropOp53
 70
     1
102
RTVSPost2010Prop54
  1
strokes_ogs.tif
102
RTVSPost2010PropOp54
 70
     1
102
RTVSPost2010Prop55
280
     0
102
RTVSPost2010PropOp55
 70
     1
102
RTVSPost2010Prop56
140
1.0
102
RTVSPost2010PropOp56
 70
     1
102
RTVSPost2010Prop57
140
1.0
102
RTVSPost2010PropOp57
 70
     1
  0
XRECORD
  5
55E
102
{ACAD_REACTORS
330
55D
102
}
330
55D
100
AcDbXrecord
280
     1
102
RTVSPropertyOp0
 70
     1
102
RTVSPropertyOp1
 70
     1
102
RTVSPropertyOp2
 70
     1
102
RTVSPropertyOp3
 70
     1
102
RTVSPropertyOp4
 70
     1
102
RTVSPropertyOp5
 70
     1
102
RTVSPropertyOp6
 70
     1
102
RTVSPropertyOp7
 70
     1
102
RTVSPropertyOp8
 70
     1
102
RTVSPropertyOp9
 70
     1
102
RTVSPropertyOp10
 70
     1
102
RTVSPropertyOp11
 70
     1
102
RTVSPropertyOp12
 70
     1
102
RTVSPropertyOp13
 70
     1
102
RTVSPropertyOp14
 70
     1
102
RTVSPropertyOp15
 70
     1
102
RTVSPropertyOp16
 70
     1
102
RTVSPropertyOp17
 70
     1
102
RTVSPropertyOp18
 70
     1
102
RTVSPropertyOp19
 70
     1
102
RTVSPropertyOp20
 70
     1
102
RTVSPropertyOp21
 70
     1
102
RTVSPropertyOp22
 70
     1
102
RTVSPropertyOp23
 70
     1
102
RTVSPropertyOp24
 70
     1
102
RTVSPropertyOp25
 70
     1
102
RTVSPropertyOp26
 70
     1
102
RTVSPropertyOp27
 70
     1
102
RTVSPropertyOp28
 70
     1
102
RTVSPropertyOp29
 70
     1
102
RTVSPropertyOp30
 70
     1
102
RTVSPropertyOp31
 70
     1
102
RTVSPropertyOp32
 70
     1
102
RTVSPropertyOp33
 70
     1
102
RTVSPropertyOp34
 70
     1
102
RTVSPropertyOp35
 70
     1
102
RTVSPropertyOp36
 70
     1
102
RTVSPropertyOp37
 70
     1
102
RTVSPropertyOp38
 70
     1
102
RTVSPropertyOp39
 70
     1
102
RTVSPropertyOp40
 70
     1
102
RTVSPropertyOp41
 70
     1
102
RTVSPropertyOp42
 70
     1
102
RTVSPropertyOp43
 70
     1
102
RTVSPropertyOp44
 70
     1
102
RTVSPropertyOp45
 70
     1
102
RTVSPropertyOp46
 70
     1
102
RTVSPropertyOp47
 70
     1
102
RTVSPropertyOp48
 70
     1
102
RTVSPropertyOp49
 70
     1
102
RTVSPropertyOp50
 70
     1
102
RTVSPropertyOp51
 70
     0
102
RTVSPropertyOp52
 70
     0
102
RTVSPropertyOp53
 70
     1
102
RTVSPropertyOp54
 70
     1
102
RTVSPropertyOp55
 70
     1
102
RTVSPropertyOp56
 70
     1
102
RTVSPropertyOp57
 70
     1
102
RTVSPost2010Prop28
280
     0
102
RTVSPost2010PropOp28
 70
     1
102
RTVSPost2010Prop29
280
     1
102
RTVSPost2010PropOp29
 70
     1
102
RTVSPost2010Prop30
280
     1
102
RTVSPost2010PropOp30
 70
     1
102
RTVSPost2010Prop31
280
     0
102
RTVSPost2010PropOp31
 70
     1
102
RTVSPost2010Prop32
280
     0
102
RTVSPost2010PropOp32
 70
     1
102
RTVSPost2010Prop33
280
     0
102
RTVSPost2010PropOp33
 70
     1
102
RTVSPost2010Prop34
280
     0
102
RTVSPost2010PropOp34
 70
     1
102
RTVSPost2010Prop35
280
     0
102
RTVSPost2010PropOp35
 70
     1
102
RTVSPost2010Prop36
280
     0
102
RTVSPost2010PropOp36
 70
     1
102
RTVSPost2010Prop37
 90
       50
102
RTVSPost2010PropOp37
 70
     1
102
RTVSPost2010Prop38
140
0.0
102
RTVSPost2010PropOp38
 70
     1
102
RTVSPost2010Prop39
140
1.0
102
RTVSPost2010PropOp39
 70
     1
102
RTVSPost2010Prop40
 90
        0
102
RTVSPost2010PropOp40
 70
     1
102
RTVSPost2010Prop41ColorIndex
 90
       18
102
RTVSPost2010Prop41ColorRGB
 90
        0
102
RTVSPost2010PropOp41
 70
     1
102
RTVSPost2010Prop42
 90
       50
102
RTVSPost2010PropOp42
 70
     1
102
RTVSPost2010Prop43
 90
        3
102
RTVSPost2010PropOp43
 70
     1
102
RTVSPost2010Prop44ColorIndex
 90
        5
102
RTVSPost2010Prop44ColorRGB
 90
      255
102
RTVSPost2010PropOp44
 70
     1
102
RTVSPost2010Prop45
280
     0
102
RTVSPost2010PropOp45
 70
     1
102
RTVSPost2010Prop46
 90
       50
102
RTVSPost2010PropOp46
 70
     1
102
RTVSPost2010Prop47
 90
       50
102
RTVSPost2010PropOp47
 70
     1
102
RTVSPost2010Prop48
 90
       50
102
RTVSPost2010PropOp48
 70
     1
102
RTVSPost2010Prop49
280
     0
102
RTVSPost2010PropOp49
 70
     1
102
RTVSPost2010Prop50
 90
       50
102
RTVSPost2010PropOp50
 70
     1
102
RTVSPost2010Prop51ColorIndex
 90
      256
102
RTVSPost2010Prop51ColorRGB
 90
-16777216
102
RTVSPost2010PropOp51
 70
     0
102
RTVSPost2010Prop52
140
1.0
102
RTVSPost2010PropOp52
 70
     0
102
RTVSPost2010Prop53
 90
        2
102
RTVSPost2010PropOp53
 70
     1
102
RTVSPost2010Prop54
  1
strokes_ogs.tif
102
RTVSPost2010PropOp54
 70
     1
102
RTVSPost2010Prop55
280
     0
102
RTVSPost2010PropOp55
 70
     1
102
RTVSPost2010Prop56
140
1.0
102
RTVSPost2010PropOp56
 70
     1
102
RTVSPost2010Prop57
140
1.0
102
RTVSPost2010PropOp57
 70
     1
  0
XRECORD
  5
564
102
{ACAD_REACTORS
330
563
102
}
330
563
100
AcDbXrecord
280
     1
102
RTVSPropertyOp0
 70
     1
102
RTVSPropertyOp1
 70
     1
102
RTVSPropertyOp2
 70
     1
102
RTVSPropertyOp3
 70
     1
102
RTVSPropertyOp4
 70
     1
102
RTVSPropertyOp5
 70
     1
102
RTVSPropertyOp6
 70
     1
102
RTVSPropertyOp7
 70
     1
102
RTVSPropertyOp8
 70
     1
102
RTVSPropertyOp9
 70
     1
102
RTVSPropertyOp10
 70
     1
102
RTVSPropertyOp11
 70
     1
102
RTVSPropertyOp12
 70
     1
102
RTVSPropertyOp13
 70
     1
102
RTVSPropertyOp14
 70
     1
102
RTVSPropertyOp15
 70
     1
102
RTVSPropertyOp16
 70
     1
102
RTVSPropertyOp17
 70
     1
102
RTVSPropertyOp18
 70
     1
102
RTVSPropertyOp19
 70
     1
102
RTVSPropertyOp20
 70
     1
102
RTVSPropertyOp21
 70
     1
102
RTVSPropertyOp22
 70
     1
102
RTVSPropertyOp23
 70
     1
102
RTVSPropertyOp24
 70
     1
102
RTVSPropertyOp25
 70
     1
102
RTVSPropertyOp26
 70
     1
102
RTVSPropertyOp27
 70
     1
102
RTVSPropertyOp28
 70
     1
102
RTVSPropertyOp29
 70
     1
102
RTVSPropertyOp30
 70
     1
102
RTVSPropertyOp31
 70
     1
102
RTVSPropertyOp32
 70
     1
102
RTVSPropertyOp33
 70
     1
102
RTVSPropertyOp34
 70
     1
102
RTVSPropertyOp35
 70
     1
102
RTVSPropertyOp36
 70
     1
102
RTVSPropertyOp37
 70
     1
102
RTVSPropertyOp38
 70
     1
102
RTVSPropertyOp39
 70
     1
102
RTVSPropertyOp40
 70
     1
102
RTVSPropertyOp41
 70
     1
102
RTVSPropertyOp42
 70
     1
102
RTVSPropertyOp43
 70
     1
102
RTVSPropertyOp44
 70
     1
102
RTVSPropertyOp45
 70
     1
102
RTVSPropertyOp46
 70
     1
102
RTVSPropertyOp47
 70
     1
102
RTVSPropertyOp48
 70
     1
102
RTVSPropertyOp49
 70
     1
102
RTVSPropertyOp50
 70
     1
102
RTVSPropertyOp51
 70
     0
102
RTVSPropertyOp52
 70
     0
102
RTVSPropertyOp53
 70
     1
102
RTVSPropertyOp54
 70
     1
102
RTVSPropertyOp55
 70
     1
102
RTVSPropertyOp56
 70
     1
102
RTVSPropertyOp57
 70
     1
102
RTVSPost2010Prop28
280
     0
102
RTVSPost2010PropOp28
 70
     1
102
RTVSPost2010Prop29
280
     1
102
RTVSPost2010PropOp29
 70
     1
102
RTVSPost2010Prop30
280
     1
102
RTVSPost2010PropOp30
 70
     1
102
RTVSPost2010Prop31
280
     0
102
RTVSPost2010PropOp31
 70
     1
102
RTVSPost2010Prop32
280
     0
102
RTVSPost2010PropOp32
 70
     1
102
RTVSPost2010Prop33
280
     0
102
RTVSPost2010PropOp33
 70
     1
102
RTVSPost2010Prop34
280
     0
102
RTVSPost2010PropOp34
 70
     1
102
RTVSPost2010Prop35
280
     0
102
RTVSPost2010PropOp35
 70
     1
102
RTVSPost2010Prop36
280
     0
102
RTVSPost2010PropOp36
 70
     1
102
RTVSPost2010Prop37
 90
       50
102
RTVSPost2010PropOp37
 70
     1
102
RTVSPost2010Prop38
140
0.0
102
RTVSPost2010PropOp38
 70
     1
102
RTVSPost2010Prop39
140
1.0
102
RTVSPost2010PropOp39
 70
     1
102
RTVSPost2010Prop40
 90
        0
102
RTVSPost2010PropOp40
 70
     1
102
RTVSPost2010Prop41ColorIndex
 90
       18
102
RTVSPost2010Prop41ColorRGB
 90
        0
102
RTVSPost2010PropOp41
 70
     1
102
RTVSPost2010Prop42
 90
       50
102
RTVSPost2010PropOp42
 70
     1
102
RTVSPost2010Prop43
 90
        3
102
RTVSPost2010PropOp43
 70
     1
102
RTVSPost2010Prop44ColorIndex
 90
        5
102
RTVSPost2010Prop44ColorRGB
 90
      255
102
RTVSPost2010PropOp44
 70
     1
102
RTVSPost2010Prop45
280
     0
102
RTVSPost2010PropOp45
 70
     1
102
RTVSPost2010Prop46
 90
       50
102
RTVSPost2010PropOp46
 70
     1
102
RTVSPost2010Prop47
 90
       50
102
RTVSPost2010PropOp47
 70
     1
102
RTVSPost2010Prop48
 90
       50
102
RTVSPost2010PropOp48
 70
     1
102
RTVSPost2010Prop49
280
     0
102
RTVSPost2010PropOp49
 70
     1
102
RTVSPost2010Prop50
 90
       50
102
RTVSPost2010PropOp50
 70
     1
102
RTVSPost2010Prop51ColorIndex
 90
      256
102
RTVSPost2010Prop51ColorRGB
 90
-16777216
102
RTVSPost2010PropOp51
 70
     0
102
RTVSPost2010Prop52
140
1.0
102
RTVSPost2010PropOp52
 70
     0
102
RTVSPost2010Prop53
 90
        2
102
RTVSPost2010PropOp53
 70
     1
102
RTVSPost2010Prop54
  1
strokes_ogs.tif
102
RTVSPost2010PropOp54
 70
     1
102
RTVSPost2010Prop55
280
     0
102
RTVSPost2010PropOp55
 70
     1
102
RTVSPost2010Prop56
140
1.0
102
RTVSPost2010PropOp56
 70
     1
102
RTVSPost2010Prop57
140
1.0
102
RTVSPost2010PropOp57
 70
     1
  0
XRECORD
  5
578
102
{ACAD_REACTORS
330
577
102
}
330
577
100
AcDbXrecord
280
     1
102
RTVSPropertyOp0
 70
     0
102
RTVSPropertyOp1
 70
     0
102
RTVSPropertyOp2
 70
     0
102
RTVSPropertyOp3
 70
     0
102
RTVSPropertyOp4
 70
     0
102
RTVSPropertyOp5
 70
     0
102
RTVSPropertyOp6
 70
     0
102
RTVSPropertyOp7
 70
     0
102
RTVSPropertyOp8
 70
     0
102
RTVSPropertyOp9
 70
     0
102
RTVSPropertyOp10
 70
     0
102
RTVSPropertyOp11
 70
     0
102
RTVSPropertyOp12
 70
     0
102
RTVSPropertyOp13
 70
     0
102
RTVSPropertyOp14
 70
     2
102
RTVSPropertyOp15
 70
     0
102
RTVSPropertyOp16
 70
     0
102
RTVSPropertyOp17
 70
     0
102
RTVSPropertyOp18
 70
     0
102
RTVSPropertyOp19
 70
     0
102
RTVSPropertyOp20
 70
     0
102
RTVSPropertyOp21
 70
     0
102
RTVSPropertyOp22
 70
     0
102
RTVSPropertyOp23
 70
     0
102
RTVSPropertyOp24
 70
     0
102
RTVSPropertyOp25
 70
     0
102
RTVSPropertyOp26
 70
     0
102
RTVSPropertyOp27
 70
     0
102
RTVSPropertyOp28
 70
     0
102
RTVSPropertyOp29
 70
     0
102
RTVSPropertyOp30
 70
     0
102
RTVSPropertyOp31
 70
     0
102
RTVSPropertyOp32
 70
     0
102
RTVSPropertyOp33
 70
     0
102
RTVSPropertyOp34
 70
     0
102
RTVSPropertyOp35
 70
     0
102
RTVSPropertyOp36
 70
     0
102
RTVSPropertyOp37
 70
     0
102
RTVSPropertyOp38
 70
     0
102
RTVSPropertyOp39
 70
     0
102
RTVSPropertyOp40
 70
     0
102
RTVSPropertyOp41
 70
     0
102
RTVSPropertyOp42
 70
     0
102
RTVSPropertyOp43
 70
     0
102
RTVSPropertyOp44
 70
     0
102
RTVSPropertyOp45
 70
     0
102
RTVSPropertyOp46
 70
     0
102
RTVSPropertyOp47
 70
     0
102
RTVSPropertyOp48
 70
     0
102
RTVSPropertyOp49
 70
     0
102
RTVSPropertyOp50
 70
     0
102
RTVSPropertyOp51
 70
     0
102
RTVSPropertyOp52
 70
     0
102
RTVSPropertyOp53
 70
     0
102
RTVSPropertyOp54
 70
     0
102
RTVSPropertyOp55
 70
     0
102
RTVSPropertyOp56
 70
     0
102
RTVSPropertyOp57
 70
     0
102
RTVSPost2010Prop28
280
     0
102
RTVSPost2010PropOp28
 70
     0
102
RTVSPost2010Prop29
280
     1
102
RTVSPost2010PropOp29
 70
     0
102
RTVSPost2010Prop30
280
     1
102
RTVSPost2010PropOp30
 70
     0
102
RTVSPost2010Prop31
280
     0
102
RTVSPost2010PropOp31
 70
     0
102
RTVSPost2010Prop32
280
     0
102
RTVSPost2010PropOp32
 70
     0
102
RTVSPost2010Prop33
280
     0
102
RTVSPost2010PropOp33
 70
     0
102
RTVSPost2010Prop34
280
     0
102
RTVSPost2010PropOp34
 70
     0
102
RTVSPost2010Prop35
280
     0
102
RTVSPost2010PropOp35
 70
     0
102
RTVSPost2010Prop36
280
     0
102
RTVSPost2010PropOp36
 70
     0
102
RTVSPost2010Prop37
 90
       50
102
RTVSPost2010PropOp37
 70
     0
102
RTVSPost2010Prop38
140
0.0
102
RTVSPost2010PropOp38
 70
     0
102
RTVSPost2010Prop39
140
1.0
102
RTVSPost2010PropOp39
 70
     0
102
RTVSPost2010Prop40
 90
        0
102
RTVSPost2010PropOp40
 70
     0
102
RTVSPost2010Prop41ColorIndex
 90
       18
102
RTVSPost2010Prop41ColorRGB
 90
        0
102
RTVSPost2010PropOp41
 70
     0
102
RTVSPost2010Prop42
 90
       50
102
RTVSPost2010PropOp42
 70
     0
102
RTVSPost2010Prop43
 90
        3
102
RTVSPost2010PropOp43
 70
     0
102
RTVSPost2010Prop44ColorIndex
 90
        5
102
RTVSPost2010Prop44ColorRGB
 90
      255
102
RTVSPost2010PropOp44
 70
     0
102
RTVSPost2010Prop45
280
     0
102
RTVSPost2010PropOp45
 70
     0
102
RTVSPost2010Prop46
 90
       50
102
RTVSPost2010PropOp46
 70
     0
102
RTVSPost2010Prop47
 90
       50
102
RTVSPost2010PropOp47
 70
     0
102
RTVSPost2010Prop48
 90
       50
102
RTVSPost2010PropOp48
 70
     0
102
RTVSPost2010Prop49
280
     0
102
RTVSPost2010PropOp49
 70
     0
102
RTVSPost2010Prop50
 90
       50
102
RTVSPost2010PropOp50
 70
     0
102
RTVSPost2010Prop51ColorIndex
 90
      256
102
RTVSPost2010Prop51ColorRGB
 90
-16777216
102
RTVSPost2010PropOp51
 70
     0
102
RTVSPost2010Prop52
140
1.0
102
RTVSPost2010PropOp52
 70
     0
102
RTVSPost2010Prop53
 90
        2
102
RTVSPost2010PropOp53
 70
     0
102
RTVSPost2010Prop54
  1
strokes_ogs.tif
102
RTVSPost2010PropOp54
 70
     0
102
RTVSPost2010Prop55
280
     0
102
RTVSPost2010PropOp55
 70
     0
102
RTVSPost2010Prop56
140
1.0
102
RTVSPost2010PropOp56
 70
     0
102
RTVSPost2010Prop57
140
1.0
102
RTVSPost2010PropOp57
 70
     0
  0
XRECORD
  5
572
102
{ACAD_REACTORS
330
571
102
}
330
571
100
AcDbXrecord
280
     1
102
RTVSPropertyOp0
 70
     1
102
RTVSPropertyOp1
 70
     1
102
RTVSPropertyOp2
 70
     1
102
RTVSPropertyOp3
 70
     1
102
RTVSPropertyOp4
 70
     1
102
RTVSPropertyOp5
 70
     1
102
RTVSPropertyOp6
 70
     1
102
RTVSPropertyOp7
 70
     1
102
RTVSPropertyOp8
 70
     1
102
RTVSPropertyOp9
 70
     1
102
RTVSPropertyOp10
 70
     1
102
RTVSPropertyOp11
 70
     1
102
RTVSPropertyOp12
 70
     1
102
RTVSPropertyOp13
 70
     1
102
RTVSPropertyOp14
 70
     1
102
RTVSPropertyOp15
 70
     1
102
RTVSPropertyOp16
 70
     1
102
RTVSPropertyOp17
 70
     1
102
RTVSPropertyOp18
 70
     1
102
RTVSPropertyOp19
 70
     1
102
RTVSPropertyOp20
 70
     1
102
RTVSPropertyOp21
 70
     1
102
RTVSPropertyOp22
 70
     1
102
RTVSPropertyOp23
 70
     1
102
RTVSPropertyOp24
 70
     1
102
RTVSPropertyOp25
 70
     1
102
RTVSPropertyOp26
 70
     1
102
RTVSPropertyOp27
 70
     1
102
RTVSPropertyOp28
 70
     1
102
RTVSPropertyOp29
 70
     1
102
RTVSPropertyOp30
 70
     1
102
RTVSPropertyOp31
 70
     1
102
RTVSPropertyOp32
 70
     1
102
RTVSPropertyOp33
 70
     1
102
RTVSPropertyOp34
 70
     1
102
RTVSPropertyOp35
 70
     1
102
RTVSPropertyOp36
 70
     1
102
RTVSPropertyOp37
 70
     1
102
RTVSPropertyOp38
 70
     1
102
RTVSPropertyOp39
 70
     1
102
RTVSPropertyOp40
 70
     1
102
RTVSPropertyOp41
 70
     1
102
RTVSPropertyOp42
 70
     1
102
RTVSPropertyOp43
 70
     1
102
RTVSPropertyOp44
 70
     1
102
RTVSPropertyOp45
 70
     1
102
RTVSPropertyOp46
 70
     1
102
RTVSPropertyOp47
 70
     1
102
RTVSPropertyOp48
 70
     1
102
RTVSPropertyOp49
 70
     1
102
RTVSPropertyOp50
 70
     1
102
RTVSPropertyOp51
 70
     0
102
RTVSPropertyOp52
 70
     0
102
RTVSPropertyOp53
 70
     1
102
RTVSPropertyOp54
 70
     1
102
RTVSPropertyOp55
 70
     1
102
RTVSPropertyOp56
 70
     1
102
RTVSPropertyOp57
 70
     1
102
RTVSPost2010Prop28
280
     0
102
RTVSPost2010PropOp28
 70
     1
102
RTVSPost2010Prop29
280
     1
102
RTVSPost2010PropOp29
 70
     1
102
RTVSPost2010Prop30
280
     1
102
RTVSPost2010PropOp30
 70
     1
102
RTVSPost2010Prop31
280
     0
102
RTVSPost2010PropOp31
 70
     1
102
RTVSPost2010Prop32
280
     0
102
RTVSPost2010PropOp32
 70
     1
102
RTVSPost2010Prop33
280
     0
102
RTVSPost2010PropOp33
 70
     1
102
RTVSPost2010Prop34
280
     0
102
RTVSPost2010PropOp34
 70
     1
102
RTVSPost2010Prop35
280
     0
102
RTVSPost2010PropOp35
 70
     1
102
RTVSPost2010Prop36
280
     0
102
RTVSPost2010PropOp36
 70
     1
102
RTVSPost2010Prop37
 90
       50
102
RTVSPost2010PropOp37
 70
     1
102
RTVSPost2010Prop38
140
0.0
102
RTVSPost2010PropOp38
 70
     1
102
RTVSPost2010Prop39
140
1.0
102
RTVSPost2010PropOp39
 70
     1
102
RTVSPost2010Prop40
 90
        0
102
RTVSPost2010PropOp40
 70
     1
102
RTVSPost2010Prop41ColorIndex
 90
       18
102
RTVSPost2010Prop41ColorRGB
 90
        0
102
RTVSPost2010PropOp41
 70
     1
102
RTVSPost2010Prop42
 90
       50
102
RTVSPost2010PropOp42
 70
     1
102
RTVSPost2010Prop43
 90
        3
102
RTVSPost2010PropOp43
 70
     1
102
RTVSPost2010Prop44ColorIndex
 90
        5
102
RTVSPost2010Prop44ColorRGB
 90
      255
102
RTVSPost2010PropOp44
 70
     1
102
RTVSPost2010Prop45
280
     0
102
RTVSPost2010PropOp45
 70
     1
102
RTVSPost2010Prop46
 90
       50
102
RTVSPost2010PropOp46
 70
     1
102
RTVSPost2010Prop47
 90
       50
102
RTVSPost2010PropOp47
 70
     1
102
RTVSPost2010Prop48
 90
       50
102
RTVSPost2010PropOp48
 70
     1
102
RTVSPost2010Prop49
280
     0
102
RTVSPost2010PropOp49
 70
     1
102
RTVSPost2010Prop50
 90
       50
102
RTVSPost2010PropOp50
 70
     1
102
RTVSPost2010Prop51ColorIndex
 90
      256
102
RTVSPost2010Prop51ColorRGB
 90
-16777216
102
RTVSPost2010PropOp51
 70
     0
102
RTVSPost2010Prop52
140
1.0
102
RTVSPost2010PropOp52
 70
     0
102
RTVSPost2010Prop53
 90
        2
102
RTVSPost2010PropOp53
 70
     1
102
RTVSPost2010Prop54
  1
strokes_ogs.tif
102
RTVSPost2010PropOp54
 70
     1
102
RTVSPost2010Prop55
280
     0
102
RTVSPost2010PropOp55
 70
     1
102
RTVSPost2010Prop56
140
1.0
102
RTVSPost2010PropOp56
 70
     1
102
RTVSPost2010Prop57
140
1.0
102
RTVSPost2010PropOp57
 70
     1
  0
XRECORD
  5
57A
102
{ACAD_REACTORS
330
579
102
}
330
579
100
AcDbXrecord
280
     1
102
RTVSPropertyOp0
 70
     0
102
RTVSPropertyOp1
 70
     0
102
RTVSPropertyOp2
 70
     0
102
RTVSPropertyOp3
 70
     0
102
RTVSPropertyOp4
 70
     0
102
RTVSPropertyOp5
 70
     0
102
RTVSPropertyOp6
 70
     0
102
RTVSPropertyOp7
 70
     0
102
RTVSPropertyOp8
 70
     0
102
RTVSPropertyOp9
 70
     0
102
RTVSPropertyOp10
 70
     0
102
RTVSPropertyOp11
 70
     0
102
RTVSPropertyOp12
 70
     0
102
RTVSPropertyOp13
 70
     0
102
RTVSPropertyOp14
 70
     2
102
RTVSPropertyOp15
 70
     0
102
RTVSPropertyOp16
 70
     0
102
RTVSPropertyOp17
 70
     0
102
RTVSPropertyOp18
 70
     0
102
RTVSPropertyOp19
 70
     0
102
RTVSPropertyOp20
 70
     0
102
RTVSPropertyOp21
 70
     0
102
RTVSPropertyOp22
 70
     0
102
RTVSPropertyOp23
 70
     0
102
RTVSPropertyOp24
 70
     0
102
RTVSPropertyOp25
 70
     0
102
RTVSPropertyOp26
 70
     0
102
RTVSPropertyOp27
 70
     0
102
RTVSPropertyOp28
 70
     0
102
RTVSPropertyOp29
 70
     0
102
RTVSPropertyOp30
 70
     0
102
RTVSPropertyOp31
 70
     0
102
RTVSPropertyOp32
 70
     0
102
RTVSPropertyOp33
 70
     0
102
RTVSPropertyOp34
 70
     0
102
RTVSPropertyOp35
 70
     0
102
RTVSPropertyOp36
 70
     0
102
RTVSPropertyOp37
 70
     0
102
RTVSPropertyOp38
 70
     0
102
RTVSPropertyOp39
 70
     0
102
RTVSPropertyOp40
 70
     0
102
RTVSPropertyOp41
 70
     0
102
RTVSPropertyOp42
 70
     0
102
RTVSPropertyOp43
 70
     0
102
RTVSPropertyOp44
 70
     0
102
RTVSPropertyOp45
 70
     0
102
RTVSPropertyOp46
 70
     0
102
RTVSPropertyOp47
 70
     0
102
RTVSPropertyOp48
 70
     0
102
RTVSPropertyOp49
 70
     0
102
RTVSPropertyOp50
 70
     0
102
RTVSPropertyOp51
 70
     0
102
RTVSPropertyOp52
 70
     0
102
RTVSPropertyOp53
 70
     0
102
RTVSPropertyOp54
 70
     0
102
RTVSPropertyOp55
 70
     0
102
RTVSPropertyOp56
 70
     0
102
RTVSPropertyOp57
 70
     0
102
RTVSPost2010Prop28
280
     0
102
RTVSPost2010PropOp28
 70
     0
102
RTVSPost2010Prop29
280
     1
102
RTVSPost2010PropOp29
 70
     0
102
RTVSPost2010Prop30
280
     1
102
RTVSPost2010PropOp30
 70
     0
102
RTVSPost2010Prop31
280
     0
102
RTVSPost2010PropOp31
 70
     0
102
RTVSPost2010Prop32
280
     0
102
RTVSPost2010PropOp32
 70
     0
102
RTVSPost2010Prop33
280
     0
102
RTVSPost2010PropOp33
 70
     0
102
RTVSPost2010Prop34
280
     0
102
RTVSPost2010PropOp34
 70
     0
102
RTVSPost2010Prop35
280
     0
102
RTVSPost2010PropOp35
 70
     0
102
RTVSPost2010Prop36
280
     0
102
RTVSPost2010PropOp36
 70
     0
102
RTVSPost2010Prop37
 90
       50
102
RTVSPost2010PropOp37
 70
     0
102
RTVSPost2010Prop38
140
0.0
102
RTVSPost2010PropOp38
 70
     0
102
RTVSPost2010Prop39
140
1.0
102
RTVSPost2010PropOp39
 70
     0
102
RTVSPost2010Prop40
 90
        0
102
RTVSPost2010PropOp40
 70
     0
102
RTVSPost2010Prop41ColorIndex
 90
       18
102
RTVSPost2010Prop41ColorRGB
 90
        0
102
RTVSPost2010PropOp41
 70
     0
102
RTVSPost2010Prop42
 90
       50
102
RTVSPost2010PropOp42
 70
     0
102
RTVSPost2010Prop43
 90
        3
102
RTVSPost2010PropOp43
 70
     0
102
RTVSPost2010Prop44ColorIndex
 90
        5
102
RTVSPost2010Prop44ColorRGB
 90
      255
102
RTVSPost2010PropOp44
 70
     0
102
RTVSPost2010Prop45
280
     0
102
RTVSPost2010PropOp45
 70
     0
102
RTVSPost2010Prop46
 90
       50
102
RTVSPost2010PropOp46
 70
     0
102
RTVSPost2010Prop47
 90
       50
102
RTVSPost2010PropOp47
 70
     0
102
RTVSPost2010Prop48
 90
       50
102
RTVSPost2010PropOp48
 70
     0
102
RTVSPost2010Prop49
280
     0
102
RTVSPost2010PropOp49
 70
     0
102
RTVSPost2010Prop50
 90
       50
102
RTVSPost2010PropOp50
 70
     0
102
RTVSPost2010Prop51ColorIndex
 90
      256
102
RTVSPost2010Prop51ColorRGB
 90
-16777216
102
RTVSPost2010PropOp51
 70
     0
102
RTVSPost2010Prop52
140
1.0
102
RTVSPost2010PropOp52
 70
     0
102
RTVSPost2010Prop53
 90
        2
102
RTVSPost2010PropOp53
 70
     0
102
RTVSPost2010Prop54
  1
strokes_ogs.tif
102
RTVSPost2010PropOp54
 70
     0
102
RTVSPost2010Prop55
280
     0
102
RTVSPost2010PropOp55
 70
     0
102
RTVSPost2010Prop56
140
1.0
102
RTVSPost2010PropOp56
 70
     0
102
RTVSPost2010Prop57
140
1.0
102
RTVSPost2010PropOp57
 70
     0
  0
XRECORD
  5
568
102
{ACAD_REACTORS
330
567
102
}
330
567
100
AcDbXrecord
280
     1
102
RTVSPropertyOp0
 70
     1
102
RTVSPropertyOp1
 70
     1
102
RTVSPropertyOp2
 70
     1
102
RTVSPropertyOp3
 70
     1
102
RTVSPropertyOp4
 70
     1
102
RTVSPropertyOp5
 70
     1
102
RTVSPropertyOp6
 70
     1
102
RTVSPropertyOp7
 70
     1
102
RTVSPropertyOp8
 70
     1
102
RTVSPropertyOp9
 70
     1
102
RTVSPropertyOp10
 70
     1
102
RTVSPropertyOp11
 70
     1
102
RTVSPropertyOp12
 70
     1
102
RTVSPropertyOp13
 70
     1
102
RTVSPropertyOp14
 70
     1
102
RTVSPropertyOp15
 70
     1
102
RTVSPropertyOp16
 70
     1
102
RTVSPropertyOp17
 70
     1
102
RTVSPropertyOp18
 70
     1
102
RTVSPropertyOp19
 70
     1
102
RTVSPropertyOp20
 70
     1
102
RTVSPropertyOp21
 70
     1
102
RTVSPropertyOp22
 70
     1
102
RTVSPropertyOp23
 70
     1
102
RTVSPropertyOp24
 70
     1
102
RTVSPropertyOp25
 70
     1
102
RTVSPropertyOp26
 70
     1
102
RTVSPropertyOp27
 70
     1
102
RTVSPropertyOp28
 70
     1
102
RTVSPropertyOp29
 70
     1
102
RTVSPropertyOp30
 70
     1
102
RTVSPropertyOp31
 70
     1
102
RTVSPropertyOp32
 70
     1
102
RTVSPropertyOp33
 70
     1
102
RTVSPropertyOp34
 70
     1
102
RTVSPropertyOp35
 70
     1
102
RTVSPropertyOp36
 70
     1
102
RTVSPropertyOp37
 70
     1
102
RTVSPropertyOp38
 70
     1
102
RTVSPropertyOp39
 70
     1
102
RTVSPropertyOp40
 70
     1
102
RTVSPropertyOp41
 70
     1
102
RTVSPropertyOp42
 70
     1
102
RTVSPropertyOp43
 70
     1
102
RTVSPropertyOp44
 70
     1
102
RTVSPropertyOp45
 70
     1
102
RTVSPropertyOp46
 70
     1
102
RTVSPropertyOp47
 70
     1
102
RTVSPropertyOp48
 70
     1
102
RTVSPropertyOp49
 70
     1
102
RTVSPropertyOp50
 70
     1
102
RTVSPropertyOp51
 70
     0
102
RTVSPropertyOp52
 70
     0
102
RTVSPropertyOp53
 70
     1
102
RTVSPropertyOp54
 70
     1
102
RTVSPropertyOp55
 70
     1
102
RTVSPropertyOp56
 70
     1
102
RTVSPropertyOp57
 70
     1
102
RTVSPost2010Prop28
280
     0
102
RTVSPost2010PropOp28
 70
     1
102
RTVSPost2010Prop29
280
     1
102
RTVSPost2010PropOp29
 70
     1
102
RTVSPost2010Prop30
280
     1
102
RTVSPost2010PropOp30
 70
     1
102
RTVSPost2010Prop31
280
     0
102
RTVSPost2010PropOp31
 70
     1
102
RTVSPost2010Prop32
280
     0
102
RTVSPost2010PropOp32
 70
     1
102
RTVSPost2010Prop33
280
     0
102
RTVSPost2010PropOp33
 70
     1
102
RTVSPost2010Prop34
280
     0
102
RTVSPost2010PropOp34
 70
     1
102
RTVSPost2010Prop35
280
     0
102
RTVSPost2010PropOp35
 70
     1
102
RTVSPost2010Prop36
280
     0
102
RTVSPost2010PropOp36
 70
     1
102
RTVSPost2010Prop37
 90
       50
102
RTVSPost2010PropOp37
 70
     1
102
RTVSPost2010Prop38
140
0.0
102
RTVSPost2010PropOp38
 70
     1
102
RTVSPost2010Prop39
140
1.0
102
RTVSPost2010PropOp39
 70
     1
102
RTVSPost2010Prop40
 90
        0
102
RTVSPost2010PropOp40
 70
     1
102
RTVSPost2010Prop41ColorIndex
 90
       18
102
RTVSPost2010Prop41ColorRGB
 90
        0
102
RTVSPost2010PropOp41
 70
     1
102
RTVSPost2010Prop42
 90
       50
102
RTVSPost2010PropOp42
 70
     1
102
RTVSPost2010Prop43
 90
        3
102
RTVSPost2010PropOp43
 70
     1
102
RTVSPost2010Prop44ColorIndex
 90
        5
102
RTVSPost2010Prop44ColorRGB
 90
      255
102
RTVSPost2010PropOp44
 70
     1
102
RTVSPost2010Prop45
280
     0
102
RTVSPost2010PropOp45
 70
     1
102
RTVSPost2010Prop46
 90
       50
102
RTVSPost2010PropOp46
 70
     1
102
RTVSPost2010Prop47
 90
       50
102
RTVSPost2010PropOp47
 70
     1
102
RTVSPost2010Prop48
 90
       50
102
RTVSPost2010PropOp48
 70
     1
102
RTVSPost2010Prop49
280
     0
102
RTVSPost2010PropOp49
 70
     1
102
RTVSPost2010Prop50
 90
       50
102
RTVSPost2010PropOp50
 70
     1
102
RTVSPost2010Prop51ColorIndex
 90
      256
102
RTVSPost2010Prop51ColorRGB
 90
-16777216
102
RTVSPost2010PropOp51
 70
     0
102
RTVSPost2010Prop52
140
1.0
102
RTVSPost2010PropOp52
 70
     0
102
RTVSPost2010Prop53
 90
        2
102
RTVSPost2010PropOp53
 70
     1
102
RTVSPost2010Prop54
  1
strokes_ogs.tif
102
RTVSPost2010PropOp54
 70
     1
102
RTVSPost2010Prop55
280
     0
102
RTVSPost2010PropOp55
 70
     1
102
RTVSPost2010Prop56
140
1.0
102
RTVSPost2010PropOp56
 70
     1
102
RTVSPost2010Prop57
140
1.0
102
RTVSPost2010PropOp57
 70
     1
  0
XRECORD
  5
586
102
{ACAD_REACTORS
330
585
102
}
330
585
100
AcDbXrecord
280
     1
102
RTVSPropertyOp0
 70
     1
102
RTVSPropertyOp1
 70
     1
102
RTVSPropertyOp2
 70
     1
102
RTVSPropertyOp3
 70
     1
102
RTVSPropertyOp4
 70
     1
102
RTVSPropertyOp5
 70
     1
102
RTVSPropertyOp6
 70
     1
102
RTVSPropertyOp7
 70
     1
102
RTVSPropertyOp8
 70
     1
102
RTVSPropertyOp9
 70
     1
102
RTVSPropertyOp10
 70
     1
102
RTVSPropertyOp11
 70
     1
102
RTVSPropertyOp12
 70
     1
102
RTVSPropertyOp13
 70
     1
102
RTVSPropertyOp14
 70
     1
102
RTVSPropertyOp15
 70
     1
102
RTVSPropertyOp16
 70
     1
102
RTVSPropertyOp17
 70
     1
102
RTVSPropertyOp18
 70
     1
102
RTVSPropertyOp19
 70
     1
102
RTVSPropertyOp20
 70
     1
102
RTVSPropertyOp21
 70
     1
102
RTVSPropertyOp22
 70
     1
102
RTVSPropertyOp23
 70
     1
102
RTVSPropertyOp24
 70
     1
102
RTVSPropertyOp25
 70
     1
102
RTVSPropertyOp26
 70
     1
102
RTVSPropertyOp27
 70
     1
102
RTVSPropertyOp28
 70
     1
102
RTVSPropertyOp29
 70
     1
102
RTVSPropertyOp30
 70
     1
102
RTVSPropertyOp31
 70
     1
102
RTVSPropertyOp32
 70
     1
102
RTVSPropertyOp33
 70
     1
102
RTVSPropertyOp34
 70
     1
102
RTVSPropertyOp35
 70
     1
102
RTVSPropertyOp36
 70
     1
102
RTVSPropertyOp37
 70
     1
102
RTVSPropertyOp38
 70
     1
102
RTVSPropertyOp39
 70
     1
102
RTVSPropertyOp40
 70
     1
102
RTVSPropertyOp41
 70
     1
102
RTVSPropertyOp42
 70
     1
102
RTVSPropertyOp43
 70
     1
102
RTVSPropertyOp44
 70
     1
102
RTVSPropertyOp45
 70
     1
102
RTVSPropertyOp46
 70
     1
102
RTVSPropertyOp47
 70
     1
102
RTVSPropertyOp48
 70
     1
102
RTVSPropertyOp49
 70
     1
102
RTVSPropertyOp50
 70
     1
102
RTVSPropertyOp51
 70
     0
102
RTVSPropertyOp52
 70
     0
102
RTVSPropertyOp53
 70
     1
102
RTVSPropertyOp54
 70
     1
102
RTVSPropertyOp55
 70
     1
102
RTVSPropertyOp56
 70
     1
102
RTVSPropertyOp57
 70
     1
102
RTVSPost2010Prop28
280
     0
102
RTVSPost2010PropOp28
 70
     1
102
RTVSPost2010Prop29
280
     1
102
RTVSPost2010PropOp29
 70
     1
102
RTVSPost2010Prop30
280
     1
102
RTVSPost2010PropOp30
 70
     1
102
RTVSPost2010Prop31
280
     0
102
RTVSPost2010PropOp31
 70
     1
102
RTVSPost2010Prop32
280
     0
102
RTVSPost2010PropOp32
 70
     1
102
RTVSPost2010Prop33
280
     0
102
RTVSPost2010PropOp33
 70
     1
102
RTVSPost2010Prop34
280
     0
102
RTVSPost2010PropOp34
 70
     1
102
RTVSPost2010Prop35
280
     0
102
RTVSPost2010PropOp35
 70
     1
102
RTVSPost2010Prop36
280
     0
102
RTVSPost2010PropOp36
 70
     1
102
RTVSPost2010Prop37
 90
       50
102
RTVSPost2010PropOp37
 70
     1
102
RTVSPost2010Prop38
140
0.0
102
RTVSPost2010PropOp38
 70
     1
102
RTVSPost2010Prop39
140
1.0
102
RTVSPost2010PropOp39
 70
     1
102
RTVSPost2010Prop40
 90
        0
102
RTVSPost2010PropOp40
 70
     1
102
RTVSPost2010Prop41ColorIndex
 90
       18
102
RTVSPost2010Prop41ColorRGB
 90
        0
102
RTVSPost2010PropOp41
 70
     1
102
RTVSPost2010Prop42
 90
       50
102
RTVSPost2010PropOp42
 70
     1
102
RTVSPost2010Prop43
 90
        3
102
RTVSPost2010PropOp43
 70
     1
102
RTVSPost2010Prop44ColorIndex
 90
        5
102
RTVSPost2010Prop44ColorRGB
 90
      255
102
RTVSPost2010PropOp44
 70
     1
102
RTVSPost2010Prop45
280
     0
102
RTVSPost2010PropOp45
 70
     1
102
RTVSPost2010Prop46
 90
       50
102
RTVSPost2010PropOp46
 70
     1
102
RTVSPost2010Prop47
 90
       50
102
RTVSPost2010PropOp47
 70
     1
102
RTVSPost2010Prop48
 90
       50
102
RTVSPost2010PropOp48
 70
     1
102
RTVSPost2010Prop49
280
     0
102
RTVSPost2010PropOp49
 70
     1
102
RTVSPost2010Prop50
 90
       50
102
RTVSPost2010PropOp50
 70
     1
102
RTVSPost2010Prop51ColorIndex
 90
      256
102
RTVSPost2010Prop51ColorRGB
 90
-16777216
102
RTVSPost2010PropOp51
 70
     0
102
RTVSPost2010Prop52
140
1.0
102
RTVSPost2010PropOp52
 70
     0
102
RTVSPost2010Prop53
 90
        2
102
RTVSPost2010PropOp53
 70
     1
102
RTVSPost2010Prop54
  1
strokes_ogs.tif
102
RTVSPost2010PropOp54
 70
     1
102
RTVSPost2010Prop55
280
     0
102
RTVSPost2010PropOp55
 70
     1
102
RTVSPost2010Prop56
140
1.0
102
RTVSPost2010PropOp56
 70
     1
102
RTVSPost2010Prop57
140
1.0
102
RTVSPost2010PropOp57
 70
     1
  0
XRECORD
  5
584
102
{ACAD_REACTORS
330
583
102
}
330
583
100
AcDbXrecord
280
     1
102
RTVSPropertyOp0
 70
     1
102
RTVSPropertyOp1
 70
     1
102
RTVSPropertyOp2
 70
     1
102
RTVSPropertyOp3
 70
     1
102
RTVSPropertyOp4
 70
     1
102
RTVSPropertyOp5
 70
     1
102
RTVSPropertyOp6
 70
     1
102
RTVSPropertyOp7
 70
     1
102
RTVSPropertyOp8
 70
     1
102
RTVSPropertyOp9
 70
     1
102
RTVSPropertyOp10
 70
     1
102
RTVSPropertyOp11
 70
     1
102
RTVSPropertyOp12
 70
     1
102
RTVSPropertyOp13
 70
     1
102
RTVSPropertyOp14
 70
     1
102
RTVSPropertyOp15
 70
     1
102
RTVSPropertyOp16
 70
     1
102
RTVSPropertyOp17
 70
     1
102
RTVSPropertyOp18
 70
     1
102
RTVSPropertyOp19
 70
     1
102
RTVSPropertyOp20
 70
     1
102
RTVSPropertyOp21
 70
     1
102
RTVSPropertyOp22
 70
     1
102
RTVSPropertyOp23
 70
     1
102
RTVSPropertyOp24
 70
     1
102
RTVSPropertyOp25
 70
     1
102
RTVSPropertyOp26
 70
     1
102
RTVSPropertyOp27
 70
     1
102
RTVSPropertyOp28
 70
     1
102
RTVSPropertyOp29
 70
     1
102
RTVSPropertyOp30
 70
     1
102
RTVSPropertyOp31
 70
     1
102
RTVSPropertyOp32
 70
     1
102
RTVSPropertyOp33
 70
     1
102
RTVSPropertyOp34
 70
     1
102
RTVSPropertyOp35
 70
     1
102
RTVSPropertyOp36
 70
     1
102
RTVSPropertyOp37
 70
     1
102
RTVSPropertyOp38
 70
     1
102
RTVSPropertyOp39
 70
     1
102
RTVSPropertyOp40
 70
     1
102
RTVSPropertyOp41
 70
     1
102
RTVSPropertyOp42
 70
     1
102
RTVSPropertyOp43
 70
     1
102
RTVSPropertyOp44
 70
     1
102
RTVSPropertyOp45
 70
     1
102
RTVSPropertyOp46
 70
     1
102
RTVSPropertyOp47
 70
     1
102
RTVSPropertyOp48
 70
     1
102
RTVSPropertyOp49
 70
     1
102
RTVSPropertyOp50
 70
     1
102
RTVSPropertyOp51
 70
     0
102
RTVSPropertyOp52
 70
     0
102
RTVSPropertyOp53
 70
     1
102
RTVSPropertyOp54
 70
     1
102
RTVSPropertyOp55
 70
     1
102
RTVSPropertyOp56
 70
     1
102
RTVSPropertyOp57
 70
     1
102
RTVSPost2010Prop28
280
     0
102
RTVSPost2010PropOp28
 70
     1
102
RTVSPost2010Prop29
280
     1
102
RTVSPost2010PropOp29
 70
     1
102
RTVSPost2010Prop30
280
     1
102
RTVSPost2010PropOp30
 70
     1
102
RTVSPost2010Prop31
280
     0
102
RTVSPost2010PropOp31
 70
     1
102
RTVSPost2010Prop32
280
     0
102
RTVSPost2010PropOp32
 70
     1
102
RTVSPost2010Prop33
280
     0
102
RTVSPost2010PropOp33
 70
     1
102
RTVSPost2010Prop34
280
     0
102
RTVSPost2010PropOp34
 70
     1
102
RTVSPost2010Prop35
280
     0
102
RTVSPost2010PropOp35
 70
     1
102
RTVSPost2010Prop36
280
     0
102
RTVSPost2010PropOp36
 70
     1
102
RTVSPost2010Prop37
 90
       50
102
RTVSPost2010PropOp37
 70
     1
102
RTVSPost2010Prop38
140
0.0
102
RTVSPost2010PropOp38
 70
     1
102
RTVSPost2010Prop39
140
1.0
102
RTVSPost2010PropOp39
 70
     1
102
RTVSPost2010Prop40
 90
        0
102
RTVSPost2010PropOp40
 70
     1
102
RTVSPost2010Prop41ColorIndex
 90
       18
102
RTVSPost2010Prop41ColorRGB
 90
        0
102
RTVSPost2010PropOp41
 70
     1
102
RTVSPost2010Prop42
 90
       50
102
RTVSPost2010PropOp42
 70
     1
102
RTVSPost2010Prop43
 90
        3
102
RTVSPost2010PropOp43
 70
     1
102
RTVSPost2010Prop44ColorIndex
 90
        5
102
RTVSPost2010Prop44ColorRGB
 90
      255
102
RTVSPost2010PropOp44
 70
     1
102
RTVSPost2010Prop45
280
     0
102
RTVSPost2010PropOp45
 70
     1
102
RTVSPost2010Prop46
 90
       50
102
RTVSPost2010PropOp46
 70
     1
102
RTVSPost2010Prop47
 90
       50
102
RTVSPost2010PropOp47
 70
     1
102
RTVSPost2010Prop48
 90
       50
102
RTVSPost2010PropOp48
 70
     1
102
RTVSPost2010Prop49
280
     0
102
RTVSPost2010PropOp49
 70
     1
102
RTVSPost2010Prop50
 90
       50
102
RTVSPost2010PropOp50
 70
     1
102
RTVSPost2010Prop51ColorIndex
 90
      256
102
RTVSPost2010Prop51ColorRGB
 90
-16777216
102
RTVSPost2010PropOp51
 70
     0
102
RTVSPost2010Prop52
140
1.0
102
RTVSPost2010PropOp52
 70
     0
102
RTVSPost2010Prop53
 90
        2
102
RTVSPost2010PropOp53
 70
     1
102
RTVSPost2010Prop54
  1
strokes_ogs.tif
102
RTVSPost2010PropOp54
 70
     1
102
RTVSPost2010Prop55
280
     0
102
RTVSPost2010PropOp55
 70
     1
102
RTVSPost2010Prop56
140
1.0
102
RTVSPost2010PropOp56
 70
     1
102
RTVSPost2010Prop57
140
1.0
102
RTVSPost2010PropOp57
 70
     1
  0
XRECORD
  5
57E
102
{ACAD_REACTORS
330
57D
102
}
330
57D
100
AcDbXrecord
280
     1
102
RTVSPropertyOp0
 70
     1
102
RTVSPropertyOp1
 70
     1
102
RTVSPropertyOp2
 70
     1
102
RTVSPropertyOp3
 70
     1
102
RTVSPropertyOp4
 70
     1
102
RTVSPropertyOp5
 70
     1
102
RTVSPropertyOp6
 70
     1
102
RTVSPropertyOp7
 70
     1
102
RTVSPropertyOp8
 70
     1
102
RTVSPropertyOp9
 70
     1
102
RTVSPropertyOp10
 70
     1
102
RTVSPropertyOp11
 70
     1
102
RTVSPropertyOp12
 70
     1
102
RTVSPropertyOp13
 70
     1
102
RTVSPropertyOp14
 70
     1
102
RTVSPropertyOp15
 70
     1
102
RTVSPropertyOp16
 70
     1
102
RTVSPropertyOp17
 70
     1
102
RTVSPropertyOp18
 70
     1
102
RTVSPropertyOp19
 70
     1
102
RTVSPropertyOp20
 70
     1
102
RTVSPropertyOp21
 70
     1
102
RTVSPropertyOp22
 70
     1
102
RTVSPropertyOp23
 70
     1
102
RTVSPropertyOp24
 70
     1
102
RTVSPropertyOp25
 70
     1
102
RTVSPropertyOp26
 70
     1
102
RTVSPropertyOp27
 70
     1
102
RTVSPropertyOp28
 70
     1
102
RTVSPropertyOp29
 70
     1
102
RTVSPropertyOp30
 70
     1
102
RTVSPropertyOp31
 70
     1
102
RTVSPropertyOp32
 70
     1
102
RTVSPropertyOp33
 70
     1
102
RTVSPropertyOp34
 70
     1
102
RTVSPropertyOp35
 70
     1
102
RTVSPropertyOp36
 70
     1
102
RTVSPropertyOp37
 70
     1
102
RTVSPropertyOp38
 70
     1
102
RTVSPropertyOp39
 70
     1
102
RTVSPropertyOp40
 70
     1
102
RTVSPropertyOp41
 70
     1
102
RTVSPropertyOp42
 70
     1
102
RTVSPropertyOp43
 70
     1
102
RTVSPropertyOp44
 70
     1
102
RTVSPropertyOp45
 70
     1
102
RTVSPropertyOp46
 70
     1
102
RTVSPropertyOp47
 70
     1
102
RTVSPropertyOp48
 70
     1
102
RTVSPropertyOp49
 70
     1
102
RTVSPropertyOp50
 70
     1
102
RTVSPropertyOp51
 70
     0
102
RTVSPropertyOp52
 70
     0
102
RTVSPropertyOp53
 70
     1
102
RTVSPropertyOp54
 70
     1
102
RTVSPropertyOp55
 70
     1
102
RTVSPropertyOp56
 70
     1
102
RTVSPropertyOp57
 70
     1
102
RTVSPost2010Prop28
280
     0
102
RTVSPost2010PropOp28
 70
     1
102
RTVSPost2010Prop29
280
     1
102
RTVSPost2010PropOp29
 70
     1
102
RTVSPost2010Prop30
280
     1
102
RTVSPost2010PropOp30
 70
     1
102
RTVSPost2010Prop31
280
     0
102
RTVSPost2010PropOp31
 70
     1
102
RTVSPost2010Prop32
280
     0
102
RTVSPost2010PropOp32
 70
     1
102
RTVSPost2010Prop33
280
     0
102
RTVSPost2010PropOp33
 70
     1
102
RTVSPost2010Prop34
280
     0
102
RTVSPost2010PropOp34
 70
     1
102
RTVSPost2010Prop35
280
     0
102
RTVSPost2010PropOp35
 70
     1
102
RTVSPost2010Prop36
280
     0
102
RTVSPost2010PropOp36
 70
     1
102
RTVSPost2010Prop37
 90
       50
102
RTVSPost2010PropOp37
 70
     1
102
RTVSPost2010Prop38
140
0.0
102
RTVSPost2010PropOp38
 70
     1
102
RTVSPost2010Prop39
140
1.0
102
RTVSPost2010PropOp39
 70
     1
102
RTVSPost2010Prop40
 90
        0
102
RTVSPost2010PropOp40
 70
     1
102
RTVSPost2010Prop41ColorIndex
 90
       18
102
RTVSPost2010Prop41ColorRGB
 90
        0
102
RTVSPost2010PropOp41
 70
     1
102
RTVSPost2010Prop42
 90
       50
102
RTVSPost2010PropOp42
 70
     1
102
RTVSPost2010Prop43
 90
        3
102
RTVSPost2010PropOp43
 70
     1
102
RTVSPost2010Prop44ColorIndex
 90
        5
102
RTVSPost2010Prop44ColorRGB
 90
      255
102
RTVSPost2010PropOp44
 70
     1
102
RTVSPost2010Prop45
280
     0
102
RTVSPost2010PropOp45
 70
     1
102
RTVSPost2010Prop46
 90
       50
102
RTVSPost2010PropOp46
 70
     1
102
RTVSPost2010Prop47
 90
       50
102
RTVSPost2010PropOp47
 70
     1
102
RTVSPost2010Prop48
 90
       50
102
RTVSPost2010PropOp48
 70
     1
102
RTVSPost2010Prop49
280
     0
102
RTVSPost2010PropOp49
 70
     1
102
RTVSPost2010Prop50
 90
       50
102
RTVSPost2010PropOp50
 70
     1
102
RTVSPost2010Prop51ColorIndex
 90
      256
102
RTVSPost2010Prop51ColorRGB
 90
-16777216
102
RTVSPost2010PropOp51
 70
     0
102
RTVSPost2010Prop52
140
1.0
102
RTVSPost2010PropOp52
 70
     0
102
RTVSPost2010Prop53
 90
        2
102
RTVSPost2010PropOp53
 70
     1
102
RTVSPost2010Prop54
  1
strokes_ogs.tif
102
RTVSPost2010PropOp54
 70
     1
102
RTVSPost2010Prop55
280
     0
102
RTVSPost2010PropOp55
 70
     1
102
RTVSPost2010Prop56
140
1.0
102
RTVSPost2010PropOp56
 70
     1
102
RTVSPost2010Prop57
140
1.0
102
RTVSPost2010PropOp57
 70
     1
  0
XRECORD
  5
580
102
{ACAD_REACTORS
330
57F
102
}
330
57F
100
AcDbXrecord
280
     1
102
RTVSPropertyOp0
 70
     1
102
RTVSPropertyOp1
 70
     1
102
RTVSPropertyOp2
 70
     1
102
RTVSPropertyOp3
 70
     1
102
RTVSPropertyOp4
 70
     1
102
RTVSPropertyOp5
 70
     1
102
RTVSPropertyOp6
 70
     1
102
RTVSPropertyOp7
 70
     1
102
RTVSPropertyOp8
 70
     1
102
RTVSPropertyOp9
 70
     1
102
RTVSPropertyOp10
 70
     1
102
RTVSPropertyOp11
 70
     1
102
RTVSPropertyOp12
 70
     1
102
RTVSPropertyOp13
 70
     1
102
RTVSPropertyOp14
 70
     1
102
RTVSPropertyOp15
 70
     1
102
RTVSPropertyOp16
 70
     1
102
RTVSPropertyOp17
 70
     1
102
RTVSPropertyOp18
 70
     1
102
RTVSPropertyOp19
 70
     1
102
RTVSPropertyOp20
 70
     1
102
RTVSPropertyOp21
 70
     1
102
RTVSPropertyOp22
 70
     1
102
RTVSPropertyOp23
 70
     1
102
RTVSPropertyOp24
 70
     1
102
RTVSPropertyOp25
 70
     1
102
RTVSPropertyOp26
 70
     1
102
RTVSPropertyOp27
 70
     1
102
RTVSPropertyOp28
 70
     1
102
RTVSPropertyOp29
 70
     1
102
RTVSPropertyOp30
 70
     1
102
RTVSPropertyOp31
 70
     1
102
RTVSPropertyOp32
 70
     1
102
RTVSPropertyOp33
 70
     1
102
RTVSPropertyOp34
 70
     1
102
RTVSPropertyOp35
 70
     1
102
RTVSPropertyOp36
 70
     1
102
RTVSPropertyOp37
 70
     1
102
RTVSPropertyOp38
 70
     1
102
RTVSPropertyOp39
 70
     1
102
RTVSPropertyOp40
 70
     1
102
RTVSPropertyOp41
 70
     1
102
RTVSPropertyOp42
 70
     1
102
RTVSPropertyOp43
 70
     1
102
RTVSPropertyOp44
 70
     1
102
RTVSPropertyOp45
 70
     1
102
RTVSPropertyOp46
 70
     1
102
RTVSPropertyOp47
 70
     1
102
RTVSPropertyOp48
 70
     1
102
RTVSPropertyOp49
 70
     1
102
RTVSPropertyOp50
 70
     1
102
RTVSPropertyOp51
 70
     0
102
RTVSPropertyOp52
 70
     0
102
RTVSPropertyOp53
 70
     1
102
RTVSPropertyOp54
 70
     1
102
RTVSPropertyOp55
 70
     1
102
RTVSPropertyOp56
 70
     1
102
RTVSPropertyOp57
 70
     1
102
RTVSPost2010Prop28
280
     0
102
RTVSPost2010PropOp28
 70
     1
102
RTVSPost2010Prop29
280
     1
102
RTVSPost2010PropOp29
 70
     1
102
RTVSPost2010Prop30
280
     1
102
RTVSPost2010PropOp30
 70
     1
102
RTVSPost2010Prop31
280
     0
102
RTVSPost2010PropOp31
 70
     1
102
RTVSPost2010Prop32
280
     0
102
RTVSPost2010PropOp32
 70
     1
102
RTVSPost2010Prop33
280
     0
102
RTVSPost2010PropOp33
 70
     1
102
RTVSPost2010Prop34
280
     0
102
RTVSPost2010PropOp34
 70
     1
102
RTVSPost2010Prop35
280
     0
102
RTVSPost2010PropOp35
 70
     1
102
RTVSPost2010Prop36
280
     0
102
RTVSPost2010PropOp36
 70
     1
102
RTVSPost2010Prop37
 90
       50
102
RTVSPost2010PropOp37
 70
     1
102
RTVSPost2010Prop38
140
0.0
102
RTVSPost2010PropOp38
 70
     1
102
RTVSPost2010Prop39
140
1.0
102
RTVSPost2010PropOp39
 70
     1
102
RTVSPost2010Prop40
 90
        0
102
RTVSPost2010PropOp40
 70
     1
102
RTVSPost2010Prop41ColorIndex
 90
       18
102
RTVSPost2010Prop41ColorRGB
 90
        0
102
RTVSPost2010PropOp41
 70
     1
102
RTVSPost2010Prop42
 90
       50
102
RTVSPost2010PropOp42
 70
     1
102
RTVSPost2010Prop43
 90
        3
102
RTVSPost2010PropOp43
 70
     1
102
RTVSPost2010Prop44ColorIndex
 90
        5
102
RTVSPost2010Prop44ColorRGB
 90
      255
102
RTVSPost2010PropOp44
 70
     1
102
RTVSPost2010Prop45
280
     0
102
RTVSPost2010PropOp45
 70
     1
102
RTVSPost2010Prop46
 90
       50
102
RTVSPost2010PropOp46
 70
     1
102
RTVSPost2010Prop47
 90
       50
102
RTVSPost2010PropOp47
 70
     1
102
RTVSPost2010Prop48
 90
       50
102
RTVSPost2010PropOp48
 70
     1
102
RTVSPost2010Prop49
280
     0
102
RTVSPost2010PropOp49
 70
     1
102
RTVSPost2010Prop50
 90
       50
102
RTVSPost2010PropOp50
 70
     1
102
RTVSPost2010Prop51ColorIndex
 90
      256
102
RTVSPost2010Prop51ColorRGB
 90
-16777216
102
RTVSPost2010PropOp51
 70
     0
102
RTVSPost2010Prop52
140
1.0
102
RTVSPost2010PropOp52
 70
     0
102
RTVSPost2010Prop53
 90
        2
102
RTVSPost2010PropOp53
 70
     1
102
RTVSPost2010Prop54
  1
strokes_ogs.tif
102
RTVSPost2010PropOp54
 70
     1
102
RTVSPost2010Prop55
280
     0
102
RTVSPost2010PropOp55
 70
     1
102
RTVSPost2010Prop56
140
1.0
102
RTVSPost2010PropOp56
 70
     1
102
RTVSPost2010Prop57
140
1.0
102
RTVSPost2010PropOp57
 70
     1
  0
XRECORD
  5
570
102
{ACAD_REACTORS
330
56F
102
}
330
56F
100
AcDbXrecord
280
     1
102
RTVSPropertyOp0
 70
     1
102
RTVSPropertyOp1
 70
     1
102
RTVSPropertyOp2
 70
     1
102
RTVSPropertyOp3
 70
     1
102
RTVSPropertyOp4
 70
     1
102
RTVSPropertyOp5
 70
     1
102
RTVSPropertyOp6
 70
     1
102
RTVSPropertyOp7
 70
     1
102
RTVSPropertyOp8
 70
     1
102
RTVSPropertyOp9
 70
     1
102
RTVSPropertyOp10
 70
     1
102
RTVSPropertyOp11
 70
     1
102
RTVSPropertyOp12
 70
     1
102
RTVSPropertyOp13
 70
     1
102
RTVSPropertyOp14
 70
     1
102
RTVSPropertyOp15
 70
     1
102
RTVSPropertyOp16
 70
     1
102
RTVSPropertyOp17
 70
     1
102
RTVSPropertyOp18
 70
     1
102
RTVSPropertyOp19
 70
     1
102
RTVSPropertyOp20
 70
     1
102
RTVSPropertyOp21
 70
     1
102
RTVSPropertyOp22
 70
     1
102
RTVSPropertyOp23
 70
     1
102
RTVSPropertyOp24
 70
     1
102
RTVSPropertyOp25
 70
     1
102
RTVSPropertyOp26
 70
     1
102
RTVSPropertyOp27
 70
     1
102
RTVSPropertyOp28
 70
     1
102
RTVSPropertyOp29
 70
     1
102
RTVSPropertyOp30
 70
     1
102
RTVSPropertyOp31
 70
     1
102
RTVSPropertyOp32
 70
     1
102
RTVSPropertyOp33
 70
     1
102
RTVSPropertyOp34
 70
     1
102
RTVSPropertyOp35
 70
     1
102
RTVSPropertyOp36
 70
     1
102
RTVSPropertyOp37
 70
     1
102
RTVSPropertyOp38
 70
     1
102
RTVSPropertyOp39
 70
     1
102
RTVSPropertyOp40
 70
     1
102
RTVSPropertyOp41
 70
     1
102
RTVSPropertyOp42
 70
     1
102
RTVSPropertyOp43
 70
     1
102
RTVSPropertyOp44
 70
     1
102
RTVSPropertyOp45
 70
     1
102
RTVSPropertyOp46
 70
     1
102
RTVSPropertyOp47
 70
     1
102
RTVSPropertyOp48
 70
     1
102
RTVSPropertyOp49
 70
     1
102
RTVSPropertyOp50
 70
     1
102
RTVSPropertyOp51
 70
     0
102
RTVSPropertyOp52
 70
     0
102
RTVSPropertyOp53
 70
     1
102
RTVSPropertyOp54
 70
     1
102
RTVSPropertyOp55
 70
     1
102
RTVSPropertyOp56
 70
     1
102
RTVSPropertyOp57
 70
     1
102
RTVSPost2010Prop28
280
     0
102
RTVSPost2010PropOp28
 70
     1
102
RTVSPost2010Prop29
280
     1
102
RTVSPost2010PropOp29
 70
     1
102
RTVSPost2010Prop30
280
     1
102
RTVSPost2010PropOp30
 70
     1
102
RTVSPost2010Prop31
280
     0
102
RTVSPost2010PropOp31
 70
     1
102
RTVSPost2010Prop32
280
     0
102
RTVSPost2010PropOp32
 70
     1
102
RTVSPost2010Prop33
280
     0
102
RTVSPost2010PropOp33
 70
     1
102
RTVSPost2010Prop34
280
     0
102
RTVSPost2010PropOp34
 70
     1
102
RTVSPost2010Prop35
280
     0
102
RTVSPost2010PropOp35
 70
     1
102
RTVSPost2010Prop36
280
     0
102
RTVSPost2010PropOp36
 70
     1
102
RTVSPost2010Prop37
 90
       50
102
RTVSPost2010PropOp37
 70
     1
102
RTVSPost2010Prop38
140
0.0
102
RTVSPost2010PropOp38
 70
     1
102
RTVSPost2010Prop39
140
1.0
102
RTVSPost2010PropOp39
 70
     1
102
RTVSPost2010Prop40
 90
        0
102
RTVSPost2010PropOp40
 70
     1
102
RTVSPost2010Prop41ColorIndex
 90
       18
102
RTVSPost2010Prop41ColorRGB
 90
        0
102
RTVSPost2010PropOp41
 70
     1
102
RTVSPost2010Prop42
 90
       50
102
RTVSPost2010PropOp42
 70
     1
102
RTVSPost2010Prop43
 90
        3
102
RTVSPost2010PropOp43
 70
     1
102
RTVSPost2010Prop44ColorIndex
 90
        5
102
RTVSPost2010Prop44ColorRGB
 90
      255
102
RTVSPost2010PropOp44
 70
     1
102
RTVSPost2010Prop45
280
     0
102
RTVSPost2010PropOp45
 70
     1
102
RTVSPost2010Prop46
 90
       50
102
RTVSPost2010PropOp46
 70
     1
102
RTVSPost2010Prop47
 90
       50
102
RTVSPost2010PropOp47
 70
     1
102
RTVSPost2010Prop48
 90
       50
102
RTVSPost2010PropOp48
 70
     1
102
RTVSPost2010Prop49
280
     0
102
RTVSPost2010PropOp49
 70
     1
102
RTVSPost2010Prop50
 90
       50
102
RTVSPost2010PropOp50
 70
     1
102
RTVSPost2010Prop51ColorIndex
 90
      256
102
RTVSPost2010Prop51ColorRGB
 90
-16777216
102
RTVSPost2010PropOp51
 70
     0
102
RTVSPost2010Prop52
140
1.0
102
RTVSPost2010PropOp52
 70
     0
102
RTVSPost2010Prop53
 90
        2
102
RTVSPost2010PropOp53
 70
     1
102
RTVSPost2010Prop54
  1
strokes_ogs.tif
102
RTVSPost2010PropOp54
 70
     1
102
RTVSPost2010Prop55
280
     0
102
RTVSPost2010PropOp55
 70
     1
102
RTVSPost2010Prop56
140
1.0
102
RTVSPost2010PropOp56
 70
     1
102
RTVSPost2010Prop57
140
1.0
102
RTVSPost2010PropOp57
 70
     1
  0
XRECORD
  5
562
102
{ACAD_REACTORS
330
561
102
}
330
561
100
AcDbXrecord
280
     1
102
RTVSPropertyOp0
 70
     1
102
RTVSPropertyOp1
 70
     1
102
RTVSPropertyOp2
 70
     1
102
RTVSPropertyOp3
 70
     1
102
RTVSPropertyOp4
 70
     1
102
RTVSPropertyOp5
 70
     1
102
RTVSPropertyOp6
 70
     1
102
RTVSPropertyOp7
 70
     1
102
RTVSPropertyOp8
 70
     1
102
RTVSPropertyOp9
 70
     1
102
RTVSPropertyOp10
 70
     1
102
RTVSPropertyOp11
 70
     1
102
RTVSPropertyOp12
 70
     1
102
RTVSPropertyOp13
 70
     1
102
RTVSPropertyOp14
 70
     1
102
RTVSPropertyOp15
 70
     1
102
RTVSPropertyOp16
 70
     1
102
RTVSPropertyOp17
 70
     1
102
RTVSPropertyOp18
 70
     1
102
RTVSPropertyOp19
 70
     1
102
RTVSPropertyOp20
 70
     1
102
RTVSPropertyOp21
 70
     1
102
RTVSPropertyOp22
 70
     1
102
RTVSPropertyOp23
 70
     1
102
RTVSPropertyOp24
 70
     1
102
RTVSPropertyOp25
 70
     1
102
RTVSPropertyOp26
 70
     1
102
RTVSPropertyOp27
 70
     1
102
RTVSPropertyOp28
 70
     1
102
RTVSPropertyOp29
 70
     1
102
RTVSPropertyOp30
 70
     1
102
RTVSPropertyOp31
 70
     1
102
RTVSPropertyOp32
 70
     1
102
RTVSPropertyOp33
 70
     1
102
RTVSPropertyOp34
 70
     1
102
RTVSPropertyOp35
 70
     1
102
RTVSPropertyOp36
 70
     1
102
RTVSPropertyOp37
 70
     1
102
RTVSPropertyOp38
 70
     1
102
RTVSPropertyOp39
 70
     1
102
RTVSPropertyOp40
 70
     1
102
RTVSPropertyOp41
 70
     1
102
RTVSPropertyOp42
 70
     1
102
RTVSPropertyOp43
 70
     1
102
RTVSPropertyOp44
 70
     1
102
RTVSPropertyOp45
 70
     1
102
RTVSPropertyOp46
 70
     1
102
RTVSPropertyOp47
 70
     1
102
RTVSPropertyOp48
 70
     1
102
RTVSPropertyOp49
 70
     1
102
RTVSPropertyOp50
 70
     1
102
RTVSPropertyOp51
 70
     0
102
RTVSPropertyOp52
 70
     0
102
RTVSPropertyOp53
 70
     1
102
RTVSPropertyOp54
 70
     1
102
RTVSPropertyOp55
 70
     1
102
RTVSPropertyOp56
 70
     1
102
RTVSPropertyOp57
 70
     1
102
RTVSPost2010Prop28
280
     0
102
RTVSPost2010PropOp28
 70
     1
102
RTVSPost2010Prop29
280
     1
102
RTVSPost2010PropOp29
 70
     1
102
RTVSPost2010Prop30
280
     1
102
RTVSPost2010PropOp30
 70
     1
102
RTVSPost2010Prop31
280
     0
102
RTVSPost2010PropOp31
 70
     1
102
RTVSPost2010Prop32
280
     0
102
RTVSPost2010PropOp32
 70
     1
102
RTVSPost2010Prop33
280
     0
102
RTVSPost2010PropOp33
 70
     1
102
RTVSPost2010Prop34
280
     0
102
RTVSPost2010PropOp34
 70
     1
102
RTVSPost2010Prop35
280
     0
102
RTVSPost2010PropOp35
 70
     1
102
RTVSPost2010Prop36
280
     0
102
RTVSPost2010PropOp36
 70
     1
102
RTVSPost2010Prop37
 90
       50
102
RTVSPost2010PropOp37
 70
     1
102
RTVSPost2010Prop38
140
0.0
102
RTVSPost2010PropOp38
 70
     1
102
RTVSPost2010Prop39
140
1.0
102
RTVSPost2010PropOp39
 70
     1
102
RTVSPost2010Prop40
 90
        0
102
RTVSPost2010PropOp40
 70
     1
102
RTVSPost2010Prop41ColorIndex
 90
       18
102
RTVSPost2010Prop41ColorRGB
 90
        0
102
RTVSPost2010PropOp41
 70
     1
102
RTVSPost2010Prop42
 90
       50
102
RTVSPost2010PropOp42
 70
     1
102
RTVSPost2010Prop43
 90
        3
102
RTVSPost2010PropOp43
 70
     1
102
RTVSPost2010Prop44ColorIndex
 90
        5
102
RTVSPost2010Prop44ColorRGB
 90
      255
102
RTVSPost2010PropOp44
 70
     1
102
RTVSPost2010Prop45
280
     0
102
RTVSPost2010PropOp45
 70
     1
102
RTVSPost2010Prop46
 90
       50
102
RTVSPost2010PropOp46
 70
     1
102
RTVSPost2010Prop47
 90
       50
102
RTVSPost2010PropOp47
 70
     1
102
RTVSPost2010Prop48
 90
       50
102
RTVSPost2010PropOp48
 70
     1
102
RTVSPost2010Prop49
280
     0
102
RTVSPost2010PropOp49
 70
     1
102
RTVSPost2010Prop50
 90
       50
102
RTVSPost2010PropOp50
 70
     1
102
RTVSPost2010Prop51ColorIndex
 90
      256
102
RTVSPost2010Prop51ColorRGB
 90
-16777216
102
RTVSPost2010PropOp51
 70
     0
102
RTVSPost2010Prop52
140
1.0
102
RTVSPost2010PropOp52
 70
     0
102
RTVSPost2010Prop53
 90
        2
102
RTVSPost2010PropOp53
 70
     1
102
RTVSPost2010Prop54
  1
strokes_ogs.tif
102
RTVSPost2010PropOp54
 70
     1
102
RTVSPost2010Prop55
280
     0
102
RTVSPost2010PropOp55
 70
     1
102
RTVSPost2010Prop56
140
1.0
102
RTVSPost2010PropOp56
 70
     1
102
RTVSPost2010Prop57
140
1.0
102
RTVSPost2010PropOp57
 70
     1
  0
XRECORD
  5
582
102
{ACAD_REACTORS
330
581
102
}
330
581
100
AcDbXrecord
280
     1
102
RTVSPropertyOp0
 70
     1
102
RTVSPropertyOp1
 70
     1
102
RTVSPropertyOp2
 70
     1
102
RTVSPropertyOp3
 70
     1
102
RTVSPropertyOp4
 70
     1
102
RTVSPropertyOp5
 70
     1
102
RTVSPropertyOp6
 70
     1
102
RTVSPropertyOp7
 70
     1
102
RTVSPropertyOp8
 70
     1
102
RTVSPropertyOp9
 70
     1
102
RTVSPropertyOp10
 70
     1
102
RTVSPropertyOp11
 70
     1
102
RTVSPropertyOp12
 70
     1
102
RTVSPropertyOp13
 70
     1
102
RTVSPropertyOp14
 70
     1
102
RTVSPropertyOp15
 70
     1
102
RTVSPropertyOp16
 70
     1
102
RTVSPropertyOp17
 70
     1
102
RTVSPropertyOp18
 70
     1
102
RTVSPropertyOp19
 70
     1
102
RTVSPropertyOp20
 70
     1
102
RTVSPropertyOp21
 70
     1
102
RTVSPropertyOp22
 70
     1
102
RTVSPropertyOp23
 70
     1
102
RTVSPropertyOp24
 70
     1
102
RTVSPropertyOp25
 70
     1
102
RTVSPropertyOp26
 70
     1
102
RTVSPropertyOp27
 70
     1
102
RTVSPropertyOp28
 70
     1
102
RTVSPropertyOp29
 70
     1
102
RTVSPropertyOp30
 70
     1
102
RTVSPropertyOp31
 70
     1
102
RTVSPropertyOp32
 70
     1
102
RTVSPropertyOp33
 70
     1
102
RTVSPropertyOp34
 70
     1
102
RTVSPropertyOp35
 70
     1
102
RTVSPropertyOp36
 70
     1
102
RTVSPropertyOp37
 70
     1
102
RTVSPropertyOp38
 70
     1
102
RTVSPropertyOp39
 70
     1
102
RTVSPropertyOp40
 70
     1
102
RTVSPropertyOp41
 70
     1
102
RTVSPropertyOp42
 70
     1
102
RTVSPropertyOp43
 70
     1
102
RTVSPropertyOp44
 70
     1
102
RTVSPropertyOp45
 70
     1
102
RTVSPropertyOp46
 70
     1
102
RTVSPropertyOp47
 70
     1
102
RTVSPropertyOp48
 70
     1
102
RTVSPropertyOp49
 70
     1
102
RTVSPropertyOp50
 70
     1
102
RTVSPropertyOp51
 70
     0
102
RTVSPropertyOp52
 70
     0
102
RTVSPropertyOp53
 70
     1
102
RTVSPropertyOp54
 70
     1
102
RTVSPropertyOp55
 70
     1
102
RTVSPropertyOp56
 70
     1
102
RTVSPropertyOp57
 70
     1
102
RTVSPost2010Prop28
280
     0
102
RTVSPost2010PropOp28
 70
     1
102
RTVSPost2010Prop29
280
     1
102
RTVSPost2010PropOp29
 70
     1
102
RTVSPost2010Prop30
280
     1
102
RTVSPost2010PropOp30
 70
     1
102
RTVSPost2010Prop31
280
     0
102
RTVSPost2010PropOp31
 70
     1
102
RTVSPost2010Prop32
280
     0
102
RTVSPost2010PropOp32
 70
     1
102
RTVSPost2010Prop33
280
     0
102
RTVSPost2010PropOp33
 70
     1
102
RTVSPost2010Prop34
280
     0
102
RTVSPost2010PropOp34
 70
     1
102
RTVSPost2010Prop35
280
     0
102
RTVSPost2010PropOp35
 70
     1
102
RTVSPost2010Prop36
280
     0
102
RTVSPost2010PropOp36
 70
     1
102
RTVSPost2010Prop37
 90
       50
102
RTVSPost2010PropOp37
 70
     1
102
RTVSPost2010Prop38
140
0.0
102
RTVSPost2010PropOp38
 70
     1
102
RTVSPost2010Prop39
140
1.0
102
RTVSPost2010PropOp39
 70
     1
102
RTVSPost2010Prop40
 90
        0
102
RTVSPost2010PropOp40
 70
     1
102
RTVSPost2010Prop41ColorIndex
 90
       18
102
RTVSPost2010Prop41ColorRGB
 90
        0
102
RTVSPost2010PropOp41
 70
     1
102
RTVSPost2010Prop42
 90
       50
102
RTVSPost2010PropOp42
 70
     1
102
RTVSPost2010Prop43
 90
        3
102
RTVSPost2010PropOp43
 70
     1
102
RTVSPost2010Prop44ColorIndex
 90
        5
102
RTVSPost2010Prop44ColorRGB
 90
      255
102
RTVSPost2010PropOp44
 70
     1
102
RTVSPost2010Prop45
280
     0
102
RTVSPost2010PropOp45
 70
     1
102
RTVSPost2010Prop46
 90
       50
102
RTVSPost2010PropOp46
 70
     1
102
RTVSPost2010Prop47
 90
       50
102
RTVSPost2010PropOp47
 70
     1
102
RTVSPost2010Prop48
 90
       50
102
RTVSPost2010PropOp48
 70
     1
102
RTVSPost2010Prop49
280
     0
102
RTVSPost2010PropOp49
 70
     1
102
RTVSPost2010Prop50
 90
       50
102
RTVSPost2010PropOp50
 70
     1
102
RTVSPost2010Prop51ColorIndex
 90
      256
102
RTVSPost2010Prop51ColorRGB
 90
-16777216
102
RTVSPost2010PropOp51
 70
     0
102
RTVSPost2010Prop52
140
1.0
102
RTVSPost2010PropOp52
 70
     0
102
RTVSPost2010Prop53
 90
        2
102
RTVSPost2010PropOp53
 70
     1
102
RTVSPost2010Prop54
  1
strokes_ogs.tif
102
RTVSPost2010PropOp54
 70
     1
102
RTVSPost2010Prop55
280
     0
102
RTVSPost2010PropOp55
 70
     1
102
RTVSPost2010Prop56
140
1.0
102
RTVSPost2010PropOp56
 70
     1
102
RTVSPost2010Prop57
140
1.0
102
RTVSPost2010PropOp57
 70
     1
  0
ENDSEC
  0
EOF
