  0
SECTION
  2
HEADER
  9
$ACADVER
  1
AC1012
  9
$DWGCODEPAGE
  3
ansi_932
  9
$INSBASE
 10
0.0
 20
0.0
 30
0.0
  9
$EXTMIN
 10
0.0
 20
0.0
 30
0.0
  9
$EXTMAX
 10
137.599998
 20
184.133941
 30
0.0
  9
$LIMMIN
 10
0.0
 20
0.0
  9
$LIMMAX
 10
137.599998
 20
184.133941
  9
$ORTHOMODE
 70
     0
  9
$REGENMODE
 70
     1
  9
$FILLMODE
 70
     1
  9
$QTEXTMODE
 70
     0
  9
$MIRRTEXT
 70
     1
  9
$DRAGMODE
 70
     2
  9
$LTSCALE
 40
1.0
  9
$OSMODE
 70
    37
  9
$ATTMODE
 70
     1
  9
$TEXTSIZE
 40
0.2
  9
$TRACEWID
 40
0.05
  9
$TEXTSTYLE
  7
ED_VECTOR
  9
$CLAYER
  8
0
  9
$CELTYPE
  6
BYLAYER
  9
$CECOLOR
 62
   256
  9
$CELTSCALE
 40
1.0
  9
$DELOBJ
 70
     1
  9
$DISPSILH
 70
     0
  9
$DIMSCALE
 40
1.0
  9
$DIMASZ
 40
3.0
  9
$DIMEXO
 40
1.0
  9
$DIMDLI
 40
10.0
  9
$DIMRND
 40
0.0
  9
$DIMDLE
 40
5.0
  9
$DIMEXE
 40
1.0
  9
$DIMTP
 40
0.0
  9
$DIMTM
 40
0.0
  9
$DIMTXT
 40
4.0
  9
$DIMCEN
 40
2.5
  9
$DIMTSZ
 40
0.0
  9
$DIMTOL
 70
     0
  9
$DIMLIM
 70
     0
  9
$DIMTIH
 70
     0
  9
$DIMTOH
 70
     0
  9
$DIMSE1
 70
     0
  9
$DIMSE2
 70
     0
  9
$DIMTAD
 70
     1
  9
$DIMZIN
 70
     8
  9
$DIMBLK
  1

  9
$DIMASO
 70
     1
  9
$DIMSHO
 70
     1
  9
$DIMPOST
  1

  9
$DIMAPOST
  1

  9
$DIMALT
 70
     0
  9
$DIMALTD
 70
     3
  9
$DIMALTF
 40
0.03937
  9
$DIMLFAC
 40
1.0
  9
$DIMTOFL
 70
     1
  9
$DIMTVP
 40
0.0
  9
$DIMTIX
 70
     0
  9
$DIMSOXD
 70
     0
  9
$DIMSAH
 70
     1
  9
$DIMBLK1
  1
EDTIP_ARROW_S
  9
$DIMBLK2
  1
EDTIP_ARROW_E
  9
$DIMSTYLE
  2
EDDIMINFO
  9
$DIMCLRD
 70
     7
  9
$DIMCLRE
 70
     7
  9
$DIMCLRT
 70
     7
  9
$DIMTFAC
 40
1.0
  9
$DIMGAP
 40
1.0
  9
$DIMJUST
 70
     0
  9
$DIMSD1
 70
     0
  9
$DIMSD2
 70
     0
  9
$DIMTOLJ
 70
     0
  9
$DIMTZIN
 70
     8
  9
$DIMALTZ
 70
     0
  9
$DIMALTTZ
 70
     0
  9
$DIMFIT
 70
     3
  9
$DIMUPT
 70
     0
  9
$DIMUNIT
 70
     2
  9
$DIMDEC
 70
     2
  9
$DIMTDEC
 70
     2
  9
$DIMALTU
 70
     2
  9
$DIMALTTD
 70
     3
  9
$DIMTXSTY
  7
ED_VECTOR
  9
$DIMAUNIT
 70
     0
  9
$LUNITS
 70
     2
  9
$LUPREC
 70
     4
  9
$SKETCHINC
 40
0.1
  9
$FILLETRAD
 40
0.5
  9
$AUNITS
 70
     0
  9
$AUPREC
 70
     0
  9
$MENU
  1
.
  9
$ELEVATION
 40
0.0
  9
$PELEVATION
 40
0.0
  9
$THICKNESS
 40
0.0
  9
$LIMCHECK
 70
     0
  9
$CHAMFERA
 40
0.5
  9
$CHAMFERB
 40
0.5
  9
$CHAMFERC
 40
1.0
  9
$CHAMFERD
 40
0.0
  9
$SKPOLY
 70
     0
  9
$TDCREATE
 40
2456163.369839549
  9
$TDUPDATE
 40
2456163.36983956
  9
$TDINDWG
 40
0.0000000116
  9
$TDUSRTIMER
 40
0.0000000116
  9
$USRTIMER
 70
     1
  9
$ANGBASE
 50
0.0
  9
$ANGDIR
 70
     0
  9
$PDMODE
 70
     0
  9
$PDSIZE
 40
0.0
  9
$PLINEWID
 40
0.0
  9
$COORDS
 70
     1
  9
$SPLFRAME
 70
     0
  9
$SPLINETYPE
 70
     6
  9
$SPLINESEGS
 70
     8
  9
$ATTDIA
 70
     0
  9
$ATTREQ
 70
     1
  9
$HANDLING
 70
     1
  9
$HANDSEED
  5
849
  9
$SURFTAB1
 70
     6
  9
$SURFTAB2
 70
     6
  9
$SURFTYPE
 70
     6
  9
$SURFU
 70
     6
  9
$SURFV
 70
     6
  9
$UCSNAME
  2

  9
$UCSORG
 10
0.0
 20
0.0
 30
0.0
  9
$UCSXDIR
 10
1.0
 20
0.0
 30
0.0
  9
$UCSYDIR
 10
0.0
 20
1.0
 30
0.0
  9
$PUCSNAME
  2

  9
$PUCSORG
 10
0.0
 20
0.0
 30
0.0
  9
$PUCSXDIR
 10
1.0
 20
0.0
 30
0.0
  9
$PUCSYDIR
 10
0.0
 20
1.0
 30
0.0
  9
$USERI1
 70
     0
  9
$USERI2
 70
     0
  9
$USERI3
 70
     0
  9
$USERI4
 70
     0
  9
$USERI5
 70
     0
  9
$USERR1
 40
0.0
  9
$USERR2
 40
0.0
  9
$USERR3
 40
0.0
  9
$USERR4
 40
0.0
  9
$USERR5
 40
0.0
  9
$WORLDVIEW
 70
     1
  9
$SHADEDGE
 70
     3
  9
$SHADEDIF
 70
    70
  9
$TILEMODE
 70
     1
  9
$MAXACTVP
 70
    64
  9
$PINSBASE
 10
0.0
 20
0.0
 30
0.0
  9
$PLIMCHECK
 70
     0
  9
$PEXTMIN
 10
1.000000E+20
 20
1.000000E+20
 30
1.000000E+20
  9
$PEXTMAX
 10
-1.000000E+20
 20
-1.000000E+20
 30
-1.000000E+20
  9
$PLIMMIN
 10
0.0
 20
0.0
  9
$PLIMMAX
 10
12.0
 20
9.0
  9
$UNITMODE
 70
     0
  9
$VISRETAIN
 70
     1
  9
$PLINEGEN
 70
     0
  9
$PSLTSCALE
 70
     1
  9
$TREEDEPTH
 70
  3020
  9
$PICKSTYLE
 70
     1
  9
$CMLSTYLE
  2
STANDARD
  9
$CMLJUST
 70
     0
  9
$CMLSCALE
 40
1.0
  9
$SAVEIMAGES
 70
     1
  0
ENDSEC
  0
SECTION
  2
CLASSES
  0
CLASS
  1
ACDBDICTIONARYWDFLT
  2
AcDbDictionaryWithDefault
  3
ObjectDBX Classes
 90
    32768
280
     0
281
     0
  0
CLASS
  1
XRECORD
  2
AcDbXrecord
  3
AutoCAD 2000
 90
    32768
280
     0
281
     0
  0
CLASS
  1
LWPOLYLINE
  2
AcDbPolyline
  3
AutoCAD 2000
 90
    32768
280
     0
281
     1
  0
CLASS
  1
HATCH
  2
AcDbHatch
  3
AutoCAD 2000
 90
    32768
280
     0
281
     1
  0
CLASS
  1
ACDBPLACEHOLDER
  2
AcDbPlaceHolder
  3
ObjectDBX Classes
 90
        0
280
     0
281
     0
  0
CLASS
  1
LAYOUT
  2
AcDbLayout
  3
ObjectDBX Classes
 90
        0
280
     0
281
     0
  0
ENDSEC
  0
SECTION
  2
TABLES
  0
TABLE
  2
VPORT
  5
8
330
0
100
AcDbSymbolTable
 70
     1
  0
VPORT
  5
29
330
8
100
AcDbSymbolTableRecord
100
AcDbViewportTableRecord
  2
*ACTIVE
 70
     0
 10
0.0
 20
0.0
 11
1.0
 21
1.0
 12
68.799999
 22
92.06697
 13
0.0
 23
0.0
 14
0.5
 24
0.5
 15
0.5
 25
0.5
 16
0.0
 26
0.0
 36
1.0
 17
0.0
 27
0.0
 37
0.0
 40
184.133941
 41
0.747282
 42
50.0
 43
0.0
 44
0.0
 50
0.0
 51
0.0
 71
     0
 72
   100
 73
     1
 74
     3
 75
     0
 76
     0
 77
     0
 78
     0
  0
ENDTAB
  0
TABLE
  2
LTYPE
  5
5
330
0
100
AcDbSymbolTable
 70
     5
  0
LTYPE
  5
14
330
5
100
AcDbSymbolTableRecord
100
AcDbLinetypeTableRecord
  2
BYBLOCK
 70
     0
  3

 72
    65
 73
     0
 40
0.0
  0
LTYPE
  5
15
330
5
100
AcDbSymbolTableRecord
100
AcDbLinetypeTableRecord
  2
BYLAYER
 70
     0
  3

 72
    65
 73
     0
 40
0.0
  0
LTYPE
  5
16
330
5
100
AcDbSymbolTableRecord
100
AcDbLinetypeTableRecord
  2
CONTINUOUS
 70
     0
  3
--------------------
 72
    65
 73
     0
 40
0.0
  0
LTYPE
  5
2A
330
5
100
AcDbSymbolTableRecord
100
AcDbLinetypeTableRecord
  2
DASHED
 70
     0
  3
- - - - - - - - - - -
 72
    65
 73
     2
 40
19.1
 49
12.7
 74
     0
 49
-6.4
 74
     0
  0
LTYPE
  5
2B
330
5
100
AcDbSymbolTableRecord
100
AcDbLinetypeTableRecord
  2
CENTER
 70
     0
  3
- ･ - ･ - ･ - ･ - ･ - ･ - ･ - ･ - ･ - ･ -
 72
    65
 73
     4
 40
51.0
 49
31.8
 74
     0
 49
-6.4
 74
     0
 49
6.4
 74
     0
 49
-6.4
 74
     0
  0
LTYPE
  5
2C
330
5
100
AcDbSymbolTableRecord
100
AcDbLinetypeTableRecord
  2
PHANTOM
 70
     0
  3
- ･ ･ - ･ ･ - ･ ･ - ･ ･ - ･ ･ - ･ ･ - ･ ･ - 
 72
    65
 73
     6
 40
63.8
 49
31.8
 74
     0
 49
-6.4
 74
     0
 49
6.4
 74
     0
 49
-6.4
 74
     0
 49
6.4
 74
     0
 49
-6.4
 74
     0
  0
LTYPE
  5
2D
330
5
100
AcDbSymbolTableRecord
100
AcDbLinetypeTableRecord
  2
DOT
 70
     0
  3
・・・・・・・・・・・・・・・
 72
    65
 73
     2
 40
6.5
 49
0.1
 74
     0
 49
-6.4
 74
     0
  0
ENDTAB
  0
TABLE
  2
LAYER
  5
2
330
0
100
AcDbSymbolTable
 70
    16
  0
LAYER
  5
10
330
2
100
AcDbSymbolTableRecord
100
AcDbLayerTableRecord
  2
0
 70
     0
 62
     7
  6
CONTINUOUS
  0
LAYER
  5
2E
330
2
100
AcDbSymbolTableRecord
100
AcDbLayerTableRecord
  2
CSLAYER2
 70
     0
 62
     7
  6
CONTINUOUS
  0
LAYER
  5
2F
330
2
100
AcDbSymbolTableRecord
100
AcDbLayerTableRecord
  2
CSLAYER3
 70
     0
 62
     7
  6
CONTINUOUS
  0
ENDTAB
  0
TABLE
  2
STYLE
  5
3
330
0
100
AcDbSymbolTable
 70
     2
  0
STYLE
  5
11
330
3
100
AcDbSymbolTableRecord
100
AcDbTextStyleTableRecord
  2
STANDARD
 70
     0
 40
0.0
 41
1.0
 50
0.0
 71
     0
 42
0.2
  3
txt
  4

  0
STYLE
  5
3D
330
3
100
AcDbSymbolTableRecord
100
AcDbTextStyleTableRecord
  2
ED_VECTOR
 70
     0
 40
0.0
 41
1.0
 50
0.0
 71
     0
 42
0.2
  3
MONOTXT.SHX
  4
BIGFONT.SHX
  0
ENDTAB
  0
TABLE
  2
VIEW
  5
6
330
0
100
AcDbSymbolTable
 70
     0
  0
ENDTAB
  0
TABLE
  2
UCS
  5
7
330
0
100
AcDbSymbolTable
 70
     0
  0
ENDTAB
  0
TABLE
  2
APPID
  5
9
330
0
100
AcDbSymbolTable
 70
     1
  0
APPID
  5
12
330
9
100
AcDbSymbolTableRecord
100
AcDbRegAppTableRecord
  2
ACAD
 70
     0
  0
ENDTAB
  0
TABLE
  2
DIMSTYLE
  5
A
330
0
100
AcDbSymbolTable
 70
     2
  0
DIMSTYLE
105
27
330
A
100
AcDbSymbolTableRecord
100
AcDbDimStyleTableRecord
  2
STANDARD
 70
     0
  3

  4

  5

  6

  7

 40
1.0
 41
0.18
 42
0.0625
 43
0.38
 44
0.18
 45
0.0
 46
0.0
 47
0.0
 48
0.0
140
0.18
141
0.09
142
0.0
143
25.4
144
1.0
145
0.0
146
1.0
147
0.09
 71
     0
 72
     0
 73
     1
 74
     1
 75
     0
 76
     0
 77
     0
 78
     0
170
     0
171
     2
172
     0
173
     0
174
     0
175
     0
176
     0
177
     0
178
     0
270
     2
271
     4
272
     4
273
     2
274
     2
340
11
275
     0
280
     0
281
     0
282
     0
283
     1
284
     0
285
     0
286
     0
287
     3
288
     0
  0
DIMSTYLE
105
6E
102
{ACAD_REACTORS
330
81D
330
827
330
833
330
83D
102
}
330
A
100
AcDbSymbolTableRecord
100
AcDbDimStyleTableRecord
  2
EDDIMINFO
 70
     0
  3

  4

  5

  6
EDTIP_ARROW_S
  7
EDTIP_ARROW_E
 40
1.0
 41
3.0
 42
1.0
 43
10.0
 44
1.0
 45
0.0
 46
5.0
 47
0.0
 48
0.0
140
4.0
141
2.5
142
0.0
143
0.03937
144
1.0
145
0.0
146
1.0
147
1.0
 71
     0
 72
     0
 73
     0
 74
     0
 75
     0
 76
     0
 77
     1
 78
     8
170
     0
171
     3
172
     1
173
     1
174
     0
175
     0
176
     7
177
     7
178
     7
179
     2
270
     2
271
     2
272
     2
273
     2
274
     3
340
3D
275
     0
280
     0
281
     0
282
     0
283
     0
284
     8
285
     0
286
     0
287
     3
288
     0
  0
ENDTAB
  0
TABLE
  2
BLOCK_RECORD
  5
1
330
0
100
AcDbSymbolTable
 70
    56
  0
BLOCK_RECORD
  5
1F
330
1
100
AcDbSymbolTableRecord
100
AcDbBlockTableRecord
  2
*MODEL_SPACE
  0
BLOCK_RECORD
  5
1B
330
1
100
AcDbSymbolTableRecord
100
AcDbBlockTableRecord
  2
*PAPER_SPACE
  0
BLOCK_RECORD
  5
3E
330
1
100
AcDbSymbolTableRecord
100
AcDbBlockTableRecord
  2
EDTIP_ARROW_S
  0
BLOCK_RECORD
  5
44
330
1
100
AcDbSymbolTableRecord
100
AcDbBlockTableRecord
  2
EDTIP_ARROW_E
  0
BLOCK_RECORD
  5
4A
330
1
100
AcDbSymbolTableRecord
100
AcDbBlockTableRecord
  2
EDTIP_BLACKDOT_S
  0
BLOCK_RECORD
  5
50
330
1
100
AcDbSymbolTableRecord
100
AcDbBlockTableRecord
  2
EDTIP_BLACKDOT_E
  0
BLOCK_RECORD
  5
56
330
1
100
AcDbSymbolTableRecord
100
AcDbBlockTableRecord
  2
EDTIP_ARCHITECT_S
  0
BLOCK_RECORD
  5
5C
330
1
100
AcDbSymbolTableRecord
100
AcDbBlockTableRecord
  2
EDTIP_ARCHITECT_E
  0
BLOCK_RECORD
  5
62
330
1
100
AcDbSymbolTableRecord
100
AcDbBlockTableRecord
  2
EDTIP_CIVIL_S
  0
BLOCK_RECORD
  5
68
330
1
100
AcDbSymbolTableRecord
100
AcDbBlockTableRecord
  2
EDTIP_CIVIL_E
  0
BLOCK_RECORD
  5
95
330
1
100
AcDbSymbolTableRecord
100
AcDbBlockTableRecord
  2
BLKF011
  0
BLOCK_RECORD
  5
B9
330
1
100
AcDbSymbolTableRecord
100
AcDbBlockTableRecord
  2
BLKF012
  0
BLOCK_RECORD
  5
1B7
330
1
100
AcDbSymbolTableRecord
100
AcDbBlockTableRecord
  2
BLKF013
  0
BLOCK_RECORD
  5
2B3
330
1
100
AcDbSymbolTableRecord
100
AcDbBlockTableRecord
  2
BLKF014
  0
BLOCK_RECORD
  5
2CD
330
1
100
AcDbSymbolTableRecord
100
AcDbBlockTableRecord
  2
BLKF015
  0
BLOCK_RECORD
  5
2FF
330
1
100
AcDbSymbolTableRecord
100
AcDbBlockTableRecord
  2
BLKF016
  0
BLOCK_RECORD
  5
306
330
1
100
AcDbSymbolTableRecord
100
AcDbBlockTableRecord
  2
BLKF017
  0
BLOCK_RECORD
  5
30D
330
1
100
AcDbSymbolTableRecord
100
AcDbBlockTableRecord
  2
BLKF018
  0
BLOCK_RECORD
  5
317
330
1
100
AcDbSymbolTableRecord
100
AcDbBlockTableRecord
  2
BLKF019
  0
BLOCK_RECORD
  5
335
330
1
100
AcDbSymbolTableRecord
100
AcDbBlockTableRecord
  2
BLKF020
  0
BLOCK_RECORD
  5
35B
330
1
100
AcDbSymbolTableRecord
100
AcDbBlockTableRecord
  2
BLKF021
  0
BLOCK_RECORD
  5
39A
330
1
100
AcDbSymbolTableRecord
100
AcDbBlockTableRecord
  2
BLKF022
  0
BLOCK_RECORD
  5
3C0
330
1
100
AcDbSymbolTableRecord
100
AcDbBlockTableRecord
  2
BLKF023
  0
BLOCK_RECORD
  5
3D3
330
1
100
AcDbSymbolTableRecord
100
AcDbBlockTableRecord
  2
BLKF024
  0
BLOCK_RECORD
  5
3E8
330
1
100
AcDbSymbolTableRecord
100
AcDbBlockTableRecord
  2
BLKF025
  0
BLOCK_RECORD
  5
3FC
330
1
100
AcDbSymbolTableRecord
100
AcDbBlockTableRecord
  2
BLKF026
  0
BLOCK_RECORD
  5
422
330
1
100
AcDbSymbolTableRecord
100
AcDbBlockTableRecord
  2
BLKF027
  0
BLOCK_RECORD
  5
436
330
1
100
AcDbSymbolTableRecord
100
AcDbBlockTableRecord
  2
BLKF028
  0
BLOCK_RECORD
  5
451
330
1
100
AcDbSymbolTableRecord
100
AcDbBlockTableRecord
  2
BLKF029
  0
BLOCK_RECORD
  5
496
330
1
100
AcDbSymbolTableRecord
100
AcDbBlockTableRecord
  2
BLKF030
  0
BLOCK_RECORD
  5
4A5
330
1
100
AcDbSymbolTableRecord
100
AcDbBlockTableRecord
  2
BLKF031
  0
BLOCK_RECORD
  5
4B5
330
1
100
AcDbSymbolTableRecord
100
AcDbBlockTableRecord
  2
BLKF032
  0
BLOCK_RECORD
  5
4F9
330
1
100
AcDbSymbolTableRecord
100
AcDbBlockTableRecord
  2
BLKF033
  0
BLOCK_RECORD
  5
508
330
1
100
AcDbSymbolTableRecord
100
AcDbBlockTableRecord
  2
BLKF034
  0
BLOCK_RECORD
  5
52E
330
1
100
AcDbSymbolTableRecord
100
AcDbBlockTableRecord
  2
BLKF035
  0
BLOCK_RECORD
  5
553
330
1
100
AcDbSymbolTableRecord
100
AcDbBlockTableRecord
  2
BLKF036
  0
BLOCK_RECORD
  5
592
330
1
100
AcDbSymbolTableRecord
100
AcDbBlockTableRecord
  2
BLKF037
  0
BLOCK_RECORD
  5
5A5
330
1
100
AcDbSymbolTableRecord
100
AcDbBlockTableRecord
  2
BLKF038
  0
BLOCK_RECORD
  5
5B9
330
1
100
AcDbSymbolTableRecord
100
AcDbBlockTableRecord
  2
BLKF039
  0
BLOCK_RECORD
  5
5CD
330
1
100
AcDbSymbolTableRecord
100
AcDbBlockTableRecord
  2
BLKF040
  0
BLOCK_RECORD
  5
5F2
330
1
100
AcDbSymbolTableRecord
100
AcDbBlockTableRecord
  2
BLKF041
  0
BLOCK_RECORD
  5
605
330
1
100
AcDbSymbolTableRecord
100
AcDbBlockTableRecord
  2
BLKF042
  0
BLOCK_RECORD
  5
61C
330
1
100
AcDbSymbolTableRecord
100
AcDbBlockTableRecord
  2
BLKF043
  0
BLOCK_RECORD
  5
680
330
1
100
AcDbSymbolTableRecord
100
AcDbBlockTableRecord
  2
BLKF044
  0
BLOCK_RECORD
  5
68E
330
1
100
AcDbSymbolTableRecord
100
AcDbBlockTableRecord
  2
BLKF045
  0
BLOCK_RECORD
  5
69A
330
1
100
AcDbSymbolTableRecord
100
AcDbBlockTableRecord
  2
BLKF046
  0
BLOCK_RECORD
  5
6AF
330
1
100
AcDbSymbolTableRecord
100
AcDbBlockTableRecord
  2
BLKF047
  0
BLOCK_RECORD
  5
744
330
1
100
AcDbSymbolTableRecord
100
AcDbBlockTableRecord
  2
BLKF048
  0
BLOCK_RECORD
  5
75D
330
1
100
AcDbSymbolTableRecord
100
AcDbBlockTableRecord
  2
BLKF049
  0
BLOCK_RECORD
  5
773
330
1
100
AcDbSymbolTableRecord
100
AcDbBlockTableRecord
  2
BLKF050
  0
BLOCK_RECORD
  5
7B1
330
1
100
AcDbSymbolTableRecord
100
AcDbBlockTableRecord
  2
BLKF051
  0
BLOCK_RECORD
  5
7CA
330
1
100
AcDbSymbolTableRecord
100
AcDbBlockTableRecord
  2
BLKF052
  0
BLOCK_RECORD
  5
7E0
330
1
100
AcDbSymbolTableRecord
100
AcDbBlockTableRecord
  2
BLKF053
  0
BLOCK_RECORD
  5
81E
330
1
100
AcDbSymbolTableRecord
100
AcDbBlockTableRecord
  2
*D52
  0
BLOCK_RECORD
  5
828
330
1
100
AcDbSymbolTableRecord
100
AcDbBlockTableRecord
  2
*D53
  0
BLOCK_RECORD
  5
834
330
1
100
AcDbSymbolTableRecord
100
AcDbBlockTableRecord
  2
*D54
  0
BLOCK_RECORD
  5
83E
330
1
100
AcDbSymbolTableRecord
100
AcDbBlockTableRecord
  2
*D55
  0
ENDTAB
  0
ENDSEC
  0
SECTION
  2
BLOCKS
  0
BLOCK
  5
20
330
1F
100
AcDbEntity
  8
0
100
AcDbBlockBegin
  2
*MODEL_SPACE
 70
     0
 71
     0
 10
0.0
 20
0.0
 30
0.0
  3
*MODEL_SPACE
  1

  0
ENDBLK
  5
21
330
1F
100
AcDbEntity
  8
0
100
AcDbBlockEnd
  0
BLOCK
  5
1C
330
1B
100
AcDbEntity
 67
     1
  8
0
100
AcDbBlockBegin
  2
*PAPER_SPACE
 70
     0
 71
     0
 10
0.0
 20
0.0
 30
0.0
  3
*PAPER_SPACE
  1

  0
ENDBLK
  5
1D
330
1B
100
AcDbEntity
 67
     1
  8
0
100
AcDbBlockEnd
  0
BLOCK
  5
3F
330
3E
100
AcDbEntity
  8
0
100
AcDbBlockBegin
  2
EDTIP_ARROW_S
 70
     0
 71
     0
 10
0.0
 20
0.0
 30
0.0
  3
EDTIP_ARROW_S
  1

  0
LINE
  5
41
330
3E
100
AcDbEntity
  8
0
  6
CONTINUOUS
 62
     0
100
AcDbLine
 10
0.0
 20
0.0
 30
0.0
 11
-1.0
 21
0.0
 31
0.0
  0
LINE
  5
42
330
3E
100
AcDbEntity
  8
0
  6
CONTINUOUS
 62
     0
100
AcDbLine
 10
0.0
 20
0.0
 30
0.0
 11
-0.965926
 21
0.258819
 31
0.0
  0
LINE
  5
43
330
3E
100
AcDbEntity
  8
0
  6
CONTINUOUS
 62
     0
100
AcDbLine
 10
0.0
 20
0.0
 30
0.0
 11
-0.965926
 21
-0.258819
 31
0.0
  0
ENDBLK
  5
40
330
3E
100
AcDbEntity
  8
0
100
AcDbBlockEnd
  0
BLOCK
  5
45
330
44
100
AcDbEntity
  8
0
100
AcDbBlockBegin
  2
EDTIP_ARROW_E
 70
     0
 71
     0
 10
0.0
 20
0.0
 30
0.0
  3
EDTIP_ARROW_E
  1

  0
LINE
  5
47
330
44
100
AcDbEntity
  8
0
  6
CONTINUOUS
 62
     0
100
AcDbLine
 10
0.0
 20
0.0
 30
0.0
 11
-1.0
 21
0.0
 31
0.0
  0
LINE
  5
48
330
44
100
AcDbEntity
  8
0
  6
CONTINUOUS
 62
     0
100
AcDbLine
 10
0.0
 20
0.0
 30
0.0
 11
-0.965926
 21
-0.258819
 31
0.0
  0
LINE
  5
49
330
44
100
AcDbEntity
  8
0
  6
CONTINUOUS
 62
     0
100
AcDbLine
 10
0.0
 20
0.0
 30
0.0
 11
-0.965926
 21
0.258819
 31
0.0
  0
ENDBLK
  5
46
330
44
100
AcDbEntity
  8
0
100
AcDbBlockEnd
  0
BLOCK
  5
4B
330
4A
100
AcDbEntity
  8
0
100
AcDbBlockBegin
  2
EDTIP_BLACKDOT_S
 70
     0
 71
     0
 10
0.0
 20
0.0
 30
0.0
  3
EDTIP_BLACKDOT_S
  1

  0
LINE
  5
4D
330
4A
100
AcDbEntity
  8
0
  6
CONTINUOUS
 62
     0
100
AcDbLine
 10
0.0
 20
0.0
 30
0.0
 11
-1.0
 21
0.0
 31
0.0
  0
CIRCLE
  5
4E
330
4A
100
AcDbEntity
  8
0
  6
CONTINUOUS
 62
     0
100
AcDbCircle
 10
0.0
 20
0.0
 30
0.0
 40
0.5
  0
CIRCLE
  5
4F
330
4A
100
AcDbEntity
  8
0
  6
CONTINUOUS
 62
     0
100
AcDbCircle
 10
0.0
 20
0.0
 30
0.0
 40
0.25
  0
ENDBLK
  5
4C
330
4A
100
AcDbEntity
  8
0
100
AcDbBlockEnd
  0
BLOCK
  5
51
330
50
100
AcDbEntity
  8
0
100
AcDbBlockBegin
  2
EDTIP_BLACKDOT_E
 70
     0
 71
     0
 10
0.0
 20
0.0
 30
0.0
  3
EDTIP_BLACKDOT_E
  1

  0
LINE
  5
53
330
50
100
AcDbEntity
  8
0
  6
CONTINUOUS
 62
     0
100
AcDbLine
 10
0.0
 20
0.0
 30
0.0
 11
-1.0
 21
0.0
 31
0.0
  0
CIRCLE
  5
54
330
50
100
AcDbEntity
  8
0
  6
CONTINUOUS
 62
     0
100
AcDbCircle
 10
0.0
 20
0.0
 30
0.0
 40
0.5
  0
CIRCLE
  5
55
330
50
100
AcDbEntity
  8
0
  6
CONTINUOUS
 62
     0
100
AcDbCircle
 10
0.0
 20
0.0
 30
0.0
 40
0.25
  0
ENDBLK
  5
52
330
50
100
AcDbEntity
  8
0
100
AcDbBlockEnd
  0
BLOCK
  5
57
330
56
100
AcDbEntity
  8
0
100
AcDbBlockBegin
  2
EDTIP_ARCHITECT_S
 70
     0
 71
     0
 10
0.0
 20
0.0
 30
0.0
  3
EDTIP_ARCHITECT_S
  1

  0
LINE
  5
59
330
56
100
AcDbEntity
  8
0
  6
CONTINUOUS
 62
     0
100
AcDbLine
 10
0.0
 20
0.0
 30
0.0
 11
-1.0
 21
0.0
 31
0.0
  0
LINE
  5
5A
330
56
100
AcDbEntity
  8
0
  6
CONTINUOUS
 62
     0
100
AcDbLine
 10
0.0
 20
0.0
 30
0.0
 11
-0.707107
 21
-0.707107
 31
0.0
  0
LINE
  5
5B
330
56
100
AcDbEntity
  8
0
  6
CONTINUOUS
 62
     0
100
AcDbLine
 10
0.0
 20
0.0
 30
0.0
 11
0.707107
 21
0.707107
 31
0.0
  0
ENDBLK
  5
58
330
56
100
AcDbEntity
  8
0
100
AcDbBlockEnd
  0
BLOCK
  5
5D
330
5C
100
AcDbEntity
  8
0
100
AcDbBlockBegin
  2
EDTIP_ARCHITECT_E
 70
     0
 71
     0
 10
0.0
 20
0.0
 30
0.0
  3
EDTIP_ARCHITECT_E
  1

  0
LINE
  5
5F
330
5C
100
AcDbEntity
  8
0
  6
CONTINUOUS
 62
     0
100
AcDbLine
 10
0.0
 20
0.0
 30
0.0
 11
-1.0
 21
0.0
 31
0.0
  0
LINE
  5
60
330
5C
100
AcDbEntity
  8
0
  6
CONTINUOUS
 62
     0
100
AcDbLine
 10
0.0
 20
0.0
 30
0.0
 11
-0.707107
 21
-0.707107
 31
0.0
  0
LINE
  5
61
330
5C
100
AcDbEntity
  8
0
  6
CONTINUOUS
 62
     0
100
AcDbLine
 10
0.0
 20
0.0
 30
0.0
 11
0.707107
 21
0.707107
 31
0.0
  0
ENDBLK
  5
5E
330
5C
100
AcDbEntity
  8
0
100
AcDbBlockEnd
  0
BLOCK
  5
63
330
62
100
AcDbEntity
  8
0
100
AcDbBlockBegin
  2
EDTIP_CIVIL_S
 70
     0
 71
     0
 10
0.0
 20
0.0
 30
0.0
  3
EDTIP_CIVIL_S
  1

  0
LINE
  5
65
330
62
100
AcDbEntity
  8
0
  6
CONTINUOUS
 62
     0
100
AcDbLine
 10
0.0
 20
0.0
 30
0.0
 11
-1.0
 21
0.0
 31
0.0
  0
LINE
  5
66
330
62
100
AcDbEntity
  8
0
  6
CONTINUOUS
 62
     0
100
AcDbLine
 10
0.0
 20
-0.083333
 30
0.0
 11
-1.0
 21
-0.083333
 31
0.0
  0
LINE
  5
67
330
62
100
AcDbEntity
  8
0
  6
CONTINUOUS
 62
     0
100
AcDbLine
 10
0.0
 20
-0.166667
 30
0.0
 11
-1.0
 21
-0.166667
 31
0.0
  0
ENDBLK
  5
64
330
62
100
AcDbEntity
  8
0
100
AcDbBlockEnd
  0
BLOCK
  5
69
330
68
100
AcDbEntity
  8
0
100
AcDbBlockBegin
  2
EDTIP_CIVIL_E
 70
     0
 71
     0
 10
0.0
 20
0.0
 30
0.0
  3
EDTIP_CIVIL_E
  1

  0
LINE
  5
6B
330
68
100
AcDbEntity
  8
0
  6
CONTINUOUS
 62
     0
100
AcDbLine
 10
0.0
 20
0.0
 30
0.0
 11
-1.0
 21
0.0
 31
0.0
  0
LINE
  5
6C
330
68
100
AcDbEntity
  8
0
  6
CONTINUOUS
 62
     0
100
AcDbLine
 10
0.0
 20
0.083333
 30
0.0
 11
-1.0
 21
0.083333
 31
0.0
  0
LINE
  5
6D
330
68
100
AcDbEntity
  8
0
  6
CONTINUOUS
 62
     0
100
AcDbLine
 10
0.0
 20
0.166667
 30
0.0
 11
-1.0
 21
0.166667
 31
0.0
  0
ENDBLK
  5
6A
330
68
100
AcDbEntity
  8
0
100
AcDbBlockEnd
  0
BLOCK
  5
96
330
95
100
AcDbEntity
  8
0
100
AcDbBlockBegin
  2
BLKF011
 70
     0
 71
     0
 10
0.0
 20
0.0
 30
0.0
  3
BLKF011
  1

  0
LINE
  5
99
330
95
100
AcDbEntity
  8
0
  6
CONTINUOUS
 62
     3
100
AcDbLine
 10
122.52659
 20
214.712717
 30
0.0
 11
122.528116
 21
214.712733
 31
0.0
  0
LINE
  5
9A
330
95
100
AcDbEntity
  8
0
  6
CONTINUOUS
 62
     3
100
AcDbLine
 10
122.528116
 20
214.712733
 30
0.0
 11
122.523788
 21
214.712671
 31
0.0
  0
LINE
  5
9B
330
95
100
AcDbEntity
  8
0
  6
CONTINUOUS
 62
     3
100
AcDbLine
 10
122.523788
 20
214.712671
 30
0.0
 11
122.504542
 21
214.712449
 31
0.0
  0
LINE
  5
9C
330
95
100
AcDbEntity
  8
0
  6
CONTINUOUS
 62
     3
100
AcDbLine
 10
122.504542
 20
214.712449
 30
0.0
 11
122.48728
 21
214.712259
 31
0.0
  0
LINE
  5
9D
330
95
100
AcDbEntity
  8
0
  6
CONTINUOUS
 62
     3
100
AcDbLine
 10
122.48728
 20
214.712259
 30
0.0
 11
122.474772
 21
214.712129
 31
0.0
  0
LINE
  5
9E
330
95
100
AcDbEntity
  8
0
  6
CONTINUOUS
 62
     3
100
AcDbLine
 10
122.474772
 20
214.712129
 30
0.0
 11
122.464922
 21
214.712037
 31
0.0
  0
LINE
  5
9F
330
95
100
AcDbEntity
  8
0
  6
CONTINUOUS
 62
     3
100
AcDbLine
 10
122.464922
 20
214.712037
 30
0.0
 11
122.455634
 21
214.711957
 31
0.0
  0
LINE
  5
A0
330
95
100
AcDbEntity
  8
0
  6
CONTINUOUS
 62
     3
100
AcDbLine
 10
122.455634
 20
214.711957
 30
0.0
 11
122.440634
 21
214.711837
 31
0.0
  0
LINE
  5
A1
330
95
100
AcDbEntity
  8
0
  6
CONTINUOUS
 62
     3
100
AcDbLine
 10
122.440634
 20
214.711837
 30
0.0
 11
122.423546
 21
214.711709
 31
0.0
  0
LINE
  5
A2
330
95
100
AcDbEntity
  8
0
  6
CONTINUOUS
 62
     3
100
AcDbLine
 10
122.423546
 20
214.711709
 30
0.0
 11
122.405318
 21
214.711581
 31
0.0
  0
LINE
  5
A3
330
95
100
AcDbEntity
  8
0
  6
CONTINUOUS
 62
     3
100
AcDbLine
 10
122.405318
 20
214.711581
 30
0.0
 11
122.386894
 21
214.711467
 31
0.0
  0
LINE
  5
A4
330
95
100
AcDbEntity
  8
0
  6
CONTINUOUS
 62
     3
100
AcDbLine
 10
122.386894
 20
214.711467
 30
0.0
 11
122.376316
 21
214.711409
 31
0.0
  0
LINE
  5
A5
330
95
100
AcDbEntity
  8
0
  6
CONTINUOUS
 62
     3
100
AcDbLine
 10
122.376316
 20
214.711409
 30
0.0
 11
122.365956
 21
214.711359
 31
0.0
  0
LINE
  5
A6
330
95
100
AcDbEntity
  8
0
  6
CONTINUOUS
 62
     3
100
AcDbLine
 10
122.365956
 20
214.711359
 30
0.0
 11
122.345726
 21
214.711283
 31
0.0
  0
LINE
  5
A7
330
95
100
AcDbEntity
  8
0
  6
CONTINUOUS
 62
     3
100
AcDbLine
 10
122.345726
 20
214.711283
 30
0.0
 11
122.325876
 21
214.711229
 31
0.0
  0
LINE
  5
A8
330
95
100
AcDbEntity
  8
0
  6
CONTINUOUS
 62
     3
100
AcDbLine
 10
122.325876
 20
214.711229
 30
0.0
 11
122.306082
 21
214.711197
 31
0.0
  0
LINE
  5
A9
330
95
100
AcDbEntity
  8
0
  6
CONTINUOUS
 62
     3
100
AcDbLine
 10
122.306082
 20
214.711197
 30
0.0
 11
122.285346
 21
214.711183
 31
0.0
  0
LINE
  5
AA
330
95
100
AcDbEntity
  8
0
  6
CONTINUOUS
 62
     3
100
AcDbLine
 10
122.285346
 20
214.711183
 30
0.0
 11
122.264408
 21
214.711187
 31
0.0
  0
LINE
  5
AB
330
95
100
AcDbEntity
  8
0
  6
CONTINUOUS
 62
     3
100
AcDbLine
 10
122.264408
 20
214.711187
 30
0.0
 11
122.243366
 21
214.711211
 31
0.0
  0
LINE
  5
AC
330
95
100
AcDbEntity
  8
0
  6
CONTINUOUS
 62
     3
100
AcDbLine
 10
122.243366
 20
214.711211
 30
0.0
 11
122.222312
 21
214.711257
 31
0.0
  0
LINE
  5
AD
330
95
100
AcDbEntity
  8
0
  6
CONTINUOUS
 62
     3
100
AcDbLine
 10
122.222312
 20
214.711257
 30
0.0
 11
122.202942
 21
214.711321
 31
0.0
  0
LINE
  5
AE
330
95
100
AcDbEntity
  8
0
  6
CONTINUOUS
 62
     3
100
AcDbLine
 10
122.202942
 20
214.711321
 30
0.0
 11
122.18362
 21
214.711403
 31
0.0
  0
LINE
  5
AF
330
95
100
AcDbEntity
  8
0
  6
CONTINUOUS
 62
     3
100
AcDbLine
 10
122.18362
 20
214.711403
 30
0.0
 11
122.164322
 21
214.711507
 31
0.0
  0
LINE
  5
B0
330
95
100
AcDbEntity
  8
0
  6
CONTINUOUS
 62
     3
100
AcDbLine
 10
122.164322
 20
214.711507
 30
0.0
 11
122.145026
 21
214.711629
 31
0.0
  0
LINE
  5
B1
330
95
100
AcDbEntity
  8
0
  6
CONTINUOUS
 62
     3
100
AcDbLine
 10
122.145026
 20
214.711629
 30
0.0
 11
122.12951
 21
214.711743
 31
0.0
  0
LINE
  5
B2
330
95
100
AcDbEntity
  8
0
  6
CONTINUOUS
 62
     3
100
AcDbLine
 10
122.12951
 20
214.711743
 30
0.0
 11
122.113984
 21
214.711869
 31
0.0
  0
LINE
  5
B3
330
95
100
AcDbEntity
  8
0
  6
CONTINUOUS
 62
     3
100
AcDbLine
 10
122.113984
 20
214.711869
 30
0.0
 11
122.098456
 21
214.712005
 31
0.0
  0
LINE
  5
B4
330
95
100
AcDbEntity
  8
0
  6
CONTINUOUS
 62
     3
100
AcDbLine
 10
122.098456
 20
214.712005
 30
0.0
 11
122.082926
 21
214.712151
 31
0.0
  0
LINE
  5
B5
330
95
100
AcDbEntity
  8
0
  6
CONTINUOUS
 62
     3
100
AcDbLine
 10
122.082926
 20
214.712151
 30
0.0
 11
122.062972
 21
214.712355
 31
0.0
  0
LINE
  5
B6
330
95
100
AcDbEntity
  8
0
  6
CONTINUOUS
 62
     3
100
AcDbLine
 10
122.062972
 20
214.712355
 30
0.0
 11
122.052996
 21
214.712465
 31
0.0
  0
LINE
  5
B7
330
95
100
AcDbEntity
  8
0
  6
CONTINUOUS
 62
     3
100
AcDbLine
 10
122.052996
 20
214.712465
 30
0.0
 11
122.04302
 21
214.712583
 31
0.0
  0
LINE
  5
B8
330
95
100
AcDbEntity
  8
0
  6
CONTINUOUS
 62
     3
100
AcDbLine
 10
122.04302
 20
214.712583
 30
0.0
 11
122.030236
 21
214.712747
 31
0.0
  0
ENDBLK
  5
97
330
95
100
AcDbEntity
  8
0
100
AcDbBlockEnd
  0
BLOCK
  5
BA
330
B9
100
AcDbEntity
  8
0
100
AcDbBlockBegin
  2
BLKF012
 70
     0
 71
     0
 10
0.0
 20
0.0
 30
0.0
  3
BLKF012
  1

  0
LINE
  5
BD
330
B9
100
AcDbEntity
  8
0
  6
CONTINUOUS
 62
     3
100
AcDbLine
 10
126.280192
 20
205.830373
 30
0.0
 11
126.217994
 21
205.844509
 31
0.0
  0
LINE
  5
BE
330
B9
100
AcDbEntity
  8
0
  6
CONTINUOUS
 62
     3
100
AcDbLine
 10
126.217994
 20
205.844509
 30
0.0
 11
126.155764
 21
205.858259
 31
0.0
  0
LINE
  5
BF
330
B9
100
AcDbEntity
  8
0
  6
CONTINUOUS
 62
     3
100
AcDbLine
 10
126.155764
 20
205.858259
 30
0.0
 11
126.093466
 21
205.871231
 31
0.0
  0
LINE
  5
C0
330
B9
100
AcDbEntity
  8
0
  6
CONTINUOUS
 62
     3
100
AcDbLine
 10
126.093466
 20
205.871231
 30
0.0
 11
126.031068
 21
205.883045
 31
0.0
  0
LINE
  5
C1
330
B9
100
AcDbEntity
  8
0
  6
CONTINUOUS
 62
     3
100
AcDbLine
 10
126.031068
 20
205.883045
 30
0.0
 11
125.968534
 21
205.893307
 31
0.0
  0
LINE
  5
C2
330
B9
100
AcDbEntity
  8
0
  6
CONTINUOUS
 62
     3
100
AcDbLine
 10
125.968534
 20
205.893307
 30
0.0
 11
125.905834
 21
205.901633
 31
0.0
  0
LINE
  5
C3
330
B9
100
AcDbEntity
  8
0
  6
CONTINUOUS
 62
     3
100
AcDbLine
 10
125.905834
 20
205.901633
 30
0.0
 11
125.87441
 21
205.904951
 31
0.0
  0
LINE
  5
C4
330
B9
100
AcDbEntity
  8
0
  6
CONTINUOUS
 62
     3
100
AcDbLine
 10
125.87441
 20
205.904951
 30
0.0
 11
125.842932
 21
205.907637
 31
0.0
  0
LINE
  5
C5
330
B9
100
AcDbEntity
  8
0
  6
CONTINUOUS
 62
     3
100
AcDbLine
 10
125.842932
 20
205.907637
 30
0.0
 11
125.811396
 21
205.909647
 31
0.0
  0
LINE
  5
C6
330
B9
100
AcDbEntity
  8
0
  6
CONTINUOUS
 62
     3
100
AcDbLine
 10
125.811396
 20
205.909647
 30
0.0
 11
125.779796
 21
205.910929
 31
0.0
  0
LINE
  5
C7
330
B9
100
AcDbEntity
  8
0
  6
CONTINUOUS
 62
     3
100
AcDbLine
 10
125.779796
 20
205.910929
 30
0.0
 11
125.74812
 21
205.911447
 31
0.0
  0
LINE
  5
C8
330
B9
100
AcDbEntity
  8
0
  6
CONTINUOUS
 62
     3
100
AcDbLine
 10
125.74812
 20
205.911447
 30
0.0
 11
125.716398
 21
205.911195
 31
0.0
  0
LINE
  5
C9
330
B9
100
AcDbEntity
  8
0
  6
CONTINUOUS
 62
     3
100
AcDbLine
 10
125.716398
 20
205.911195
 30
0.0
 11
125.684652
 21
205.910181
 31
0.0
  0
LINE
  5
CA
330
B9
100
AcDbEntity
  8
0
  6
CONTINUOUS
 62
     3
100
AcDbLine
 10
125.684652
 20
205.910181
 30
0.0
 11
125.652902
 21
205.908407
 31
0.0
  0
LINE
  5
CB
330
B9
100
AcDbEntity
  8
0
  6
CONTINUOUS
 62
     3
100
AcDbLine
 10
125.652902
 20
205.908407
 30
0.0
 11
125.621168
 21
205.905879
 31
0.0
  0
LINE
  5
CC
330
B9
100
AcDbEntity
  8
0
  6
CONTINUOUS
 62
     3
100
AcDbLine
 10
125.621168
 20
205.905879
 30
0.0
 11
125.589472
 21
205.902607
 31
0.0
  0
LINE
  5
CD
330
B9
100
AcDbEntity
  8
0
  6
CONTINUOUS
 62
     3
100
AcDbLine
 10
125.589472
 20
205.902607
 30
0.0
 11
125.557836
 21
205.898591
 31
0.0
  0
LINE
  5
CE
330
B9
100
AcDbEntity
  8
0
  6
CONTINUOUS
 62
     3
100
AcDbLine
 10
125.557836
 20
205.898591
 30
0.0
 11
125.52628
 21
205.893841
 31
0.0
  0
LINE
  5
CF
330
B9
100
AcDbEntity
  8
0
  6
CONTINUOUS
 62
     3
100
AcDbLine
 10
125.52628
 20
205.893841
 30
0.0
 11
125.494826
 21
205.888361
 31
0.0
  0
LINE
  5
D0
330
B9
100
AcDbEntity
  8
0
  6
CONTINUOUS
 62
     3
100
AcDbLine
 10
125.494826
 20
205.888361
 30
0.0
 11
125.463494
 21
205.882157
 31
0.0
  0
LINE
  5
D1
330
B9
100
AcDbEntity
  8
0
  6
CONTINUOUS
 62
     3
100
AcDbLine
 10
125.463494
 20
205.882157
 30
0.0
 11
125.432306
 21
205.875233
 31
0.0
  0
LINE
  5
D2
330
B9
100
AcDbEntity
  8
0
  6
CONTINUOUS
 62
     3
100
AcDbLine
 10
125.432306
 20
205.875233
 30
0.0
 11
125.401282
 21
205.867597
 31
0.0
  0
LINE
  5
D3
330
B9
100
AcDbEntity
  8
0
  6
CONTINUOUS
 62
     3
100
AcDbLine
 10
125.401282
 20
205.867597
 30
0.0
 11
125.370442
 21
205.859253
 31
0.0
  0
LINE
  5
D4
330
B9
100
AcDbEntity
  8
0
  6
CONTINUOUS
 62
     3
100
AcDbLine
 10
125.370442
 20
205.859253
 30
0.0
 11
125.33981
 21
205.850207
 31
0.0
  0
LINE
  5
D5
330
B9
100
AcDbEntity
  8
0
  6
CONTINUOUS
 62
     3
100
AcDbLine
 10
125.33981
 20
205.850207
 30
0.0
 11
125.309406
 21
205.840463
 31
0.0
  0
LINE
  5
D6
330
B9
100
AcDbEntity
  8
0
  6
CONTINUOUS
 62
     3
100
AcDbLine
 10
125.309406
 20
205.840463
 30
0.0
 11
125.27925
 21
205.830031
 31
0.0
  0
LINE
  5
D7
330
B9
100
AcDbEntity
  8
0
  6
CONTINUOUS
 62
     3
100
AcDbLine
 10
125.27925
 20
205.830031
 30
0.0
 11
125.250526
 21
205.819361
 31
0.0
  0
LINE
  5
D8
330
B9
100
AcDbEntity
  8
0
  6
CONTINUOUS
 62
     3
100
AcDbLine
 10
125.250526
 20
205.819361
 30
0.0
 11
125.222064
 21
205.808063
 31
0.0
  0
LINE
  5
D9
330
B9
100
AcDbEntity
  8
0
  6
CONTINUOUS
 62
     3
100
AcDbLine
 10
125.222064
 20
205.808063
 30
0.0
 11
125.193872
 21
205.796141
 31
0.0
  0
LINE
  5
DA
330
B9
100
AcDbEntity
  8
0
  6
CONTINUOUS
 62
     3
100
AcDbLine
 10
125.193872
 20
205.796141
 30
0.0
 11
125.165964
 21
205.783599
 31
0.0
  0
LINE
  5
DB
330
B9
100
AcDbEntity
  8
0
  6
CONTINUOUS
 62
     3
100
AcDbLine
 10
125.165964
 20
205.783599
 30
0.0
 11
125.13835
 21
205.770443
 31
0.0
  0
LINE
  5
DC
330
B9
100
AcDbEntity
  8
0
  6
CONTINUOUS
 62
     3
100
AcDbLine
 10
125.13835
 20
205.770443
 30
0.0
 11
125.111042
 21
205.756677
 31
0.0
  0
LINE
  5
DD
330
B9
100
AcDbEntity
  8
0
  6
CONTINUOUS
 62
     3
100
AcDbLine
 10
125.111042
 20
205.756677
 30
0.0
 11
125.084052
 21
205.742305
 31
0.0
  0
LINE
  5
DE
330
B9
100
AcDbEntity
  8
0
  6
CONTINUOUS
 62
     3
100
AcDbLine
 10
125.084052
 20
205.742305
 30
0.0
 11
125.05739
 21
205.727333
 31
0.0
  0
LINE
  5
DF
330
B9
100
AcDbEntity
  8
0
  6
CONTINUOUS
 62
     3
100
AcDbLine
 10
125.05739
 20
205.727333
 30
0.0
 11
125.03107
 21
205.711763
 31
0.0
  0
LINE
  5
E0
330
B9
100
AcDbEntity
  8
0
  6
CONTINUOUS
 62
     3
100
AcDbLine
 10
125.03107
 20
205.711763
 30
0.0
 11
125.0051
 21
205.695599
 31
0.0
  0
LINE
  5
E1
330
B9
100
AcDbEntity
  8
0
  6
CONTINUOUS
 62
     3
100
AcDbLine
 10
125.0051
 20
205.695599
 30
0.0
 11
124.979494
 21
205.678849
 31
0.0
  0
LINE
  5
E2
330
B9
100
AcDbEntity
  8
0
  6
CONTINUOUS
 62
     3
100
AcDbLine
 10
124.979494
 20
205.678849
 30
0.0
 11
124.954262
 21
205.661513
 31
0.0
  0
LINE
  5
E3
330
B9
100
AcDbEntity
  8
0
  6
CONTINUOUS
 62
     3
100
AcDbLine
 10
124.954262
 20
205.661513
 30
0.0
 11
124.929414
 21
205.643599
 31
0.0
  0
LINE
  5
E4
330
B9
100
AcDbEntity
  8
0
  6
CONTINUOUS
 62
     3
100
AcDbLine
 10
124.929414
 20
205.643599
 30
0.0
 11
124.904964
 21
205.625111
 31
0.0
  0
LINE
  5
E5
330
B9
100
AcDbEntity
  8
0
  6
CONTINUOUS
 62
     3
100
AcDbLine
 10
124.904964
 20
205.625111
 30
0.0
 11
124.880924
 21
205.606053
 31
0.0
  0
LINE
  5
E6
330
B9
100
AcDbEntity
  8
0
  6
CONTINUOUS
 62
     3
100
AcDbLine
 10
124.880924
 20
205.606053
 30
0.0
 11
124.857302
 21
205.586427
 31
0.0
  0
LINE
  5
E7
330
B9
100
AcDbEntity
  8
0
  6
CONTINUOUS
 62
     3
100
AcDbLine
 10
124.857302
 20
205.586427
 30
0.0
 11
124.813772
 21
205.547719
 31
0.0
  0
LINE
  5
E8
330
B9
100
AcDbEntity
  8
0
  6
CONTINUOUS
 62
     3
100
AcDbLine
 10
124.813772
 20
205.547719
 30
0.0
 11
124.792656
 21
205.527625
 31
0.0
  0
LINE
  5
E9
330
B9
100
AcDbEntity
  8
0
  6
CONTINUOUS
 62
     3
100
AcDbLine
 10
124.792656
 20
205.527625
 30
0.0
 11
124.772008
 21
205.507047
 31
0.0
  0
LINE
  5
EA
330
B9
100
AcDbEntity
  8
0
  6
CONTINUOUS
 62
     3
100
AcDbLine
 10
124.772008
 20
205.507047
 30
0.0
 11
124.751858
 21
205.485989
 31
0.0
  0
LINE
  5
EB
330
B9
100
AcDbEntity
  8
0
  6
CONTINUOUS
 62
     3
100
AcDbLine
 10
124.751858
 20
205.485989
 30
0.0
 11
124.732234
 21
205.464459
 31
0.0
  0
LINE
  5
EC
330
B9
100
AcDbEntity
  8
0
  6
CONTINUOUS
 62
     3
100
AcDbLine
 10
124.732234
 20
205.464459
 30
0.0
 11
124.713162
 21
205.442465
 31
0.0
  0
LINE
  5
ED
330
B9
100
AcDbEntity
  8
0
  6
CONTINUOUS
 62
     3
100
AcDbLine
 10
124.713162
 20
205.442465
 30
0.0
 11
124.694668
 21
205.420009
 31
0.0
  0
LINE
  5
EE
330
B9
100
AcDbEntity
  8
0
  6
CONTINUOUS
 62
     3
100
AcDbLine
 10
124.694668
 20
205.420009
 30
0.0
 11
124.676782
 21
205.397101
 31
0.0
  0
LINE
  5
EF
330
B9
100
AcDbEntity
  8
0
  6
CONTINUOUS
 62
     3
100
AcDbLine
 10
124.676782
 20
205.397101
 30
0.0
 11
124.659532
 21
205.373747
 31
0.0
  0
LINE
  5
F0
330
B9
100
AcDbEntity
  8
0
  6
CONTINUOUS
 62
     3
100
AcDbLine
 10
124.659532
 20
205.373747
 30
0.0
 11
124.642944
 21
205.349951
 31
0.0
  0
LINE
  5
F1
330
B9
100
AcDbEntity
  8
0
  6
CONTINUOUS
 62
     3
100
AcDbLine
 10
124.642944
 20
205.349951
 30
0.0
 11
124.627046
 21
205.325721
 31
0.0
  0
LINE
  5
F2
330
B9
100
AcDbEntity
  8
0
  6
CONTINUOUS
 62
     3
100
AcDbLine
 10
124.627046
 20
205.325721
 30
0.0
 11
124.611866
 21
205.301063
 31
0.0
  0
LINE
  5
F3
330
B9
100
AcDbEntity
  8
0
  6
CONTINUOUS
 62
     3
100
AcDbLine
 10
124.611866
 20
205.301063
 30
0.0
 11
124.59743
 21
205.275983
 31
0.0
  0
LINE
  5
F4
330
B9
100
AcDbEntity
  8
0
  6
CONTINUOUS
 62
     3
100
AcDbLine
 10
124.59743
 20
205.275983
 30
0.0
 11
124.583768
 21
205.250487
 31
0.0
  0
LINE
  5
F5
330
B9
100
AcDbEntity
  8
0
  6
CONTINUOUS
 62
     3
100
AcDbLine
 10
124.583768
 20
205.250487
 30
0.0
 11
124.570906
 21
205.224583
 31
0.0
  0
LINE
  5
F6
330
B9
100
AcDbEntity
  8
0
  6
CONTINUOUS
 62
     3
100
AcDbLine
 10
124.570906
 20
205.224583
 30
0.0
 11
124.559242
 21
205.199133
 31
0.0
  0
LINE
  5
F7
330
B9
100
AcDbEntity
  8
0
  6
CONTINUOUS
 62
     3
100
AcDbLine
 10
124.559242
 20
205.199133
 30
0.0
 11
124.54835
 21
205.173331
 31
0.0
  0
LINE
  5
F8
330
B9
100
AcDbEntity
  8
0
  6
CONTINUOUS
 62
     3
100
AcDbLine
 10
124.54835
 20
205.173331
 30
0.0
 11
124.538228
 21
205.147199
 31
0.0
  0
LINE
  5
F9
330
B9
100
AcDbEntity
  8
0
  6
CONTINUOUS
 62
     3
100
AcDbLine
 10
124.538228
 20
205.147199
 30
0.0
 11
124.528874
 21
205.120761
 31
0.0
  0
LINE
  5
FA
330
B9
100
AcDbEntity
  8
0
  6
CONTINUOUS
 62
     3
100
AcDbLine
 10
124.528874
 20
205.120761
 30
0.0
 11
124.520282
 21
205.094041
 31
0.0
  0
LINE
  5
FB
330
B9
100
AcDbEntity
  8
0
  6
CONTINUOUS
 62
     3
100
AcDbLine
 10
124.520282
 20
205.094041
 30
0.0
 11
124.51245
 21
205.067065
 31
0.0
  0
LINE
  5
FC
330
B9
100
AcDbEntity
  8
0
  6
CONTINUOUS
 62
     3
100
AcDbLine
 10
124.51245
 20
205.067065
 30
0.0
 11
124.505378
 21
205.039853
 31
0.0
  0
LINE
  5
FD
330
B9
100
AcDbEntity
  8
0
  6
CONTINUOUS
 62
     3
100
AcDbLine
 10
124.505378
 20
205.039853
 30
0.0
 11
124.49906
 21
205.012431
 31
0.0
  0
LINE
  5
FE
330
B9
100
AcDbEntity
  8
0
  6
CONTINUOUS
 62
     3
100
AcDbLine
 10
124.49906
 20
205.012431
 30
0.0
 11
124.493494
 21
204.984823
 31
0.0
  0
LINE
  5
FF
330
B9
100
AcDbEntity
  8
0
  6
CONTINUOUS
 62
     3
100
AcDbLine
 10
124.493494
 20
204.984823
 30
0.0
 11
124.488676
 21
204.957051
 31
0.0
  0
LINE
  5
100
330
B9
100
AcDbEntity
  8
0
  6
CONTINUOUS
 62
     3
100
AcDbLine
 10
124.488676
 20
204.957051
 30
0.0
 11
124.484606
 21
204.929143
 31
0.0
  0
LINE
  5
101
330
B9
100
AcDbEntity
  8
0
  6
CONTINUOUS
 62
     3
100
AcDbLine
 10
124.484606
 20
204.929143
 30
0.0
 11
124.481278
 21
204.901119
 31
0.0
  0
LINE
  5
102
330
B9
100
AcDbEntity
  8
0
  6
CONTINUOUS
 62
     3
100
AcDbLine
 10
124.481278
 20
204.901119
 30
0.0
 11
124.47869
 21
204.873003
 31
0.0
  0
LINE
  5
103
330
B9
100
AcDbEntity
  8
0
  6
CONTINUOUS
 62
     3
100
AcDbLine
 10
124.47869
 20
204.873003
 30
0.0
 11
124.47684
 21
204.844821
 31
0.0
  0
LINE
  5
104
330
B9
100
AcDbEntity
  8
0
  6
CONTINUOUS
 62
     3
100
AcDbLine
 10
124.47684
 20
204.844821
 30
0.0
 11
124.475724
 21
204.816595
 31
0.0
  0
LINE
  5
105
330
B9
100
AcDbEntity
  8
0
  6
CONTINUOUS
 62
     3
100
AcDbLine
 10
124.475724
 20
204.816595
 30
0.0
 11
124.47534
 21
204.788351
 31
0.0
  0
LINE
  5
106
330
B9
100
AcDbEntity
  8
0
  6
CONTINUOUS
 62
     3
100
AcDbLine
 10
124.47534
 20
204.788351
 30
0.0
 11
124.475696
 21
204.759699
 31
0.0
  0
LINE
  5
107
330
B9
100
AcDbEntity
  8
0
  6
CONTINUOUS
 62
     3
100
AcDbLine
 10
124.475696
 20
204.759699
 30
0.0
 11
124.476802
 21
204.731073
 31
0.0
  0
LINE
  5
108
330
B9
100
AcDbEntity
  8
0
  6
CONTINUOUS
 62
     3
100
AcDbLine
 10
124.476802
 20
204.731073
 30
0.0
 11
124.478656
 21
204.702497
 31
0.0
  0
LINE
  5
109
330
B9
100
AcDbEntity
  8
0
  6
CONTINUOUS
 62
     3
100
AcDbLine
 10
124.478656
 20
204.702497
 30
0.0
 11
124.481258
 21
204.673991
 31
0.0
  0
LINE
  5
10A
330
B9
100
AcDbEntity
  8
0
  6
CONTINUOUS
 62
     3
100
AcDbLine
 10
124.481258
 20
204.673991
 30
0.0
 11
124.484608
 21
204.645577
 31
0.0
  0
LINE
  5
10B
330
B9
100
AcDbEntity
  8
0
  6
CONTINUOUS
 62
     3
100
AcDbLine
 10
124.484608
 20
204.645577
 30
0.0
 11
124.488706
 21
204.617277
 31
0.0
  0
LINE
  5
10C
330
B9
100
AcDbEntity
  8
0
  6
CONTINUOUS
 62
     3
100
AcDbLine
 10
124.488706
 20
204.617277
 30
0.0
 11
124.49355
 21
204.589115
 31
0.0
  0
LINE
  5
10D
330
B9
100
AcDbEntity
  8
0
  6
CONTINUOUS
 62
     3
100
AcDbLine
 10
124.49355
 20
204.589115
 30
0.0
 11
124.499142
 21
204.561109
 31
0.0
  0
LINE
  5
10E
330
B9
100
AcDbEntity
  8
0
  6
CONTINUOUS
 62
     3
100
AcDbLine
 10
124.499142
 20
204.561109
 30
0.0
 11
124.505478
 21
204.533285
 31
0.0
  0
LINE
  5
10F
330
B9
100
AcDbEntity
  8
0
  6
CONTINUOUS
 62
     3
100
AcDbLine
 10
124.505478
 20
204.533285
 30
0.0
 11
124.51256
 21
204.505665
 31
0.0
  0
LINE
  5
110
330
B9
100
AcDbEntity
  8
0
  6
CONTINUOUS
 62
     3
100
AcDbLine
 10
124.51256
 20
204.505665
 30
0.0
 11
124.520386
 21
204.478267
 31
0.0
  0
LINE
  5
111
330
B9
100
AcDbEntity
  8
0
  6
CONTINUOUS
 62
     3
100
AcDbLine
 10
124.520386
 20
204.478267
 30
0.0
 11
124.528958
 21
204.451115
 31
0.0
  0
LINE
  5
112
330
B9
100
AcDbEntity
  8
0
  6
CONTINUOUS
 62
     3
100
AcDbLine
 10
124.528958
 20
204.451115
 30
0.0
 11
124.538272
 21
204.424233
 31
0.0
  0
LINE
  5
113
330
B9
100
AcDbEntity
  8
0
  6
CONTINUOUS
 62
     3
100
AcDbLine
 10
124.538272
 20
204.424233
 30
0.0
 11
124.548328
 21
204.397641
 31
0.0
  0
LINE
  5
114
330
B9
100
AcDbEntity
  8
0
  6
CONTINUOUS
 62
     3
100
AcDbLine
 10
124.548328
 20
204.397641
 30
0.0
 11
124.559128
 21
204.371359
 31
0.0
  0
LINE
  5
115
330
B9
100
AcDbEntity
  8
0
  6
CONTINUOUS
 62
     3
100
AcDbLine
 10
124.559128
 20
204.371359
 30
0.0
 11
124.57067
 21
204.345413
 31
0.0
  0
LINE
  5
116
330
B9
100
AcDbEntity
  8
0
  6
CONTINUOUS
 62
     3
100
AcDbLine
 10
124.57067
 20
204.345413
 30
0.0
 11
124.58354
 21
204.318639
 31
0.0
  0
LINE
  5
117
330
B9
100
AcDbEntity
  8
0
  6
CONTINUOUS
 62
     3
100
AcDbLine
 10
124.58354
 20
204.318639
 30
0.0
 11
124.597196
 21
204.292261
 31
0.0
  0
LINE
  5
118
330
B9
100
AcDbEntity
  8
0
  6
CONTINUOUS
 62
     3
100
AcDbLine
 10
124.597196
 20
204.292261
 30
0.0
 11
124.611614
 21
204.266281
 31
0.0
  0
LINE
  5
119
330
B9
100
AcDbEntity
  8
0
  6
CONTINUOUS
 62
     3
100
AcDbLine
 10
124.611614
 20
204.266281
 30
0.0
 11
124.626768
 21
204.240709
 31
0.0
  0
LINE
  5
11A
330
B9
100
AcDbEntity
  8
0
  6
CONTINUOUS
 62
     3
100
AcDbLine
 10
124.626768
 20
204.240709
 30
0.0
 11
124.642634
 21
204.215549
 31
0.0
  0
LINE
  5
11B
330
B9
100
AcDbEntity
  8
0
  6
CONTINUOUS
 62
     3
100
AcDbLine
 10
124.642634
 20
204.215549
 30
0.0
 11
124.659188
 21
204.190805
 31
0.0
  0
LINE
  5
11C
330
B9
100
AcDbEntity
  8
0
  6
CONTINUOUS
 62
     3
100
AcDbLine
 10
124.659188
 20
204.190805
 30
0.0
 11
124.676402
 21
204.166483
 31
0.0
  0
LINE
  5
11D
330
B9
100
AcDbEntity
  8
0
  6
CONTINUOUS
 62
     3
100
AcDbLine
 10
124.676402
 20
204.166483
 30
0.0
 11
124.694254
 21
204.142587
 31
0.0
  0
LINE
  5
11E
330
B9
100
AcDbEntity
  8
0
  6
CONTINUOUS
 62
     3
100
AcDbLine
 10
124.694254
 20
204.142587
 30
0.0
 11
124.712716
 21
204.119127
 31
0.0
  0
LINE
  5
11F
330
B9
100
AcDbEntity
  8
0
  6
CONTINUOUS
 62
     3
100
AcDbLine
 10
124.712716
 20
204.119127
 30
0.0
 11
124.731766
 21
204.096103
 31
0.0
  0
LINE
  5
120
330
B9
100
AcDbEntity
  8
0
  6
CONTINUOUS
 62
     3
100
AcDbLine
 10
124.731766
 20
204.096103
 30
0.0
 11
124.751378
 21
204.073523
 31
0.0
  0
LINE
  5
121
330
B9
100
AcDbEntity
  8
0
  6
CONTINUOUS
 62
     3
100
AcDbLine
 10
124.751378
 20
204.073523
 30
0.0
 11
124.771524
 21
204.051391
 31
0.0
  0
LINE
  5
122
330
B9
100
AcDbEntity
  8
0
  6
CONTINUOUS
 62
     3
100
AcDbLine
 10
124.771524
 20
204.051391
 30
0.0
 11
124.792184
 21
204.029713
 31
0.0
  0
LINE
  5
123
330
B9
100
AcDbEntity
  8
0
  6
CONTINUOUS
 62
     3
100
AcDbLine
 10
124.792184
 20
204.029713
 30
0.0
 11
124.81333
 21
204.008497
 31
0.0
  0
LINE
  5
124
330
B9
100
AcDbEntity
  8
0
  6
CONTINUOUS
 62
     3
100
AcDbLine
 10
124.81333
 20
204.008497
 30
0.0
 11
124.856978
 21
203.967461
 31
0.0
  0
LINE
  5
125
330
B9
100
AcDbEntity
  8
0
  6
CONTINUOUS
 62
     3
100
AcDbLine
 10
124.856978
 20
203.967461
 30
0.0
 11
124.88044
 21
203.946787
 31
0.0
  0
LINE
  5
126
330
B9
100
AcDbEntity
  8
0
  6
CONTINUOUS
 62
     3
100
AcDbLine
 10
124.88044
 20
203.946787
 30
0.0
 11
124.904338
 21
203.926647
 31
0.0
  0
LINE
  5
127
330
B9
100
AcDbEntity
  8
0
  6
CONTINUOUS
 62
     3
100
AcDbLine
 10
124.904338
 20
203.926647
 30
0.0
 11
124.928662
 21
203.907051
 31
0.0
  0
LINE
  5
128
330
B9
100
AcDbEntity
  8
0
  6
CONTINUOUS
 62
     3
100
AcDbLine
 10
124.928662
 20
203.907051
 30
0.0
 11
124.953402
 21
203.888013
 31
0.0
  0
LINE
  5
129
330
B9
100
AcDbEntity
  8
0
  6
CONTINUOUS
 62
     3
100
AcDbLine
 10
124.953402
 20
203.888013
 30
0.0
 11
124.978546
 21
203.869545
 31
0.0
  0
LINE
  5
12A
330
B9
100
AcDbEntity
  8
0
  6
CONTINUOUS
 62
     3
100
AcDbLine
 10
124.978546
 20
203.869545
 30
0.0
 11
125.004084
 21
203.851663
 31
0.0
  0
LINE
  5
12B
330
B9
100
AcDbEntity
  8
0
  6
CONTINUOUS
 62
     3
100
AcDbLine
 10
125.004084
 20
203.851663
 30
0.0
 11
125.030004
 21
203.834379
 31
0.0
  0
LINE
  5
12C
330
B9
100
AcDbEntity
  8
0
  6
CONTINUOUS
 62
     3
100
AcDbLine
 10
125.030004
 20
203.834379
 30
0.0
 11
125.056294
 21
203.817705
 31
0.0
  0
LINE
  5
12D
330
B9
100
AcDbEntity
  8
0
  6
CONTINUOUS
 62
     3
100
AcDbLine
 10
125.056294
 20
203.817705
 30
0.0
 11
125.082946
 21
203.801655
 31
0.0
  0
LINE
  5
12E
330
B9
100
AcDbEntity
  8
0
  6
CONTINUOUS
 62
     3
100
AcDbLine
 10
125.082946
 20
203.801655
 30
0.0
 11
125.109946
 21
203.786241
 31
0.0
  0
LINE
  5
12F
330
B9
100
AcDbEntity
  8
0
  6
CONTINUOUS
 62
     3
100
AcDbLine
 10
125.109946
 20
203.786241
 30
0.0
 11
125.137284
 21
203.771479
 31
0.0
  0
LINE
  5
130
330
B9
100
AcDbEntity
  8
0
  6
CONTINUOUS
 62
     3
100
AcDbLine
 10
125.137284
 20
203.771479
 30
0.0
 11
125.164948
 21
203.757381
 31
0.0
  0
LINE
  5
131
330
B9
100
AcDbEntity
  8
0
  6
CONTINUOUS
 62
     3
100
AcDbLine
 10
125.164948
 20
203.757381
 30
0.0
 11
125.19293
 21
203.743957
 31
0.0
  0
LINE
  5
132
330
B9
100
AcDbEntity
  8
0
  6
CONTINUOUS
 62
     3
100
AcDbLine
 10
125.19293
 20
203.743957
 30
0.0
 11
125.221216
 21
203.731225
 31
0.0
  0
LINE
  5
133
330
B9
100
AcDbEntity
  8
0
  6
CONTINUOUS
 62
     3
100
AcDbLine
 10
125.221216
 20
203.731225
 30
0.0
 11
125.249796
 21
203.719195
 31
0.0
  0
LINE
  5
134
330
B9
100
AcDbEntity
  8
0
  6
CONTINUOUS
 62
     3
100
AcDbLine
 10
125.249796
 20
203.719195
 30
0.0
 11
125.278658
 21
203.707883
 31
0.0
  0
LINE
  5
135
330
B9
100
AcDbEntity
  8
0
  6
CONTINUOUS
 62
     3
100
AcDbLine
 10
125.278658
 20
203.707883
 30
0.0
 11
125.30859
 21
203.697017
 31
0.0
  0
LINE
  5
136
330
B9
100
AcDbEntity
  8
0
  6
CONTINUOUS
 62
     3
100
AcDbLine
 10
125.30859
 20
203.697017
 30
0.0
 11
125.338792
 21
203.686911
 31
0.0
  0
LINE
  5
137
330
B9
100
AcDbEntity
  8
0
  6
CONTINUOUS
 62
     3
100
AcDbLine
 10
125.338792
 20
203.686911
 30
0.0
 11
125.369244
 21
203.677559
 31
0.0
  0
LINE
  5
138
330
B9
100
AcDbEntity
  8
0
  6
CONTINUOUS
 62
     3
100
AcDbLine
 10
125.369244
 20
203.677559
 30
0.0
 11
125.39993
 21
203.668951
 31
0.0
  0
LINE
  5
139
330
B9
100
AcDbEntity
  8
0
  6
CONTINUOUS
 62
     3
100
AcDbLine
 10
125.39993
 20
203.668951
 30
0.0
 11
125.43083
 21
203.661081
 31
0.0
  0
LINE
  5
13A
330
B9
100
AcDbEntity
  8
0
  6
CONTINUOUS
 62
     3
100
AcDbLine
 10
125.43083
 20
203.661081
 30
0.0
 11
125.461928
 21
203.653937
 31
0.0
  0
LINE
  5
13B
330
B9
100
AcDbEntity
  8
0
  6
CONTINUOUS
 62
     3
100
AcDbLine
 10
125.461928
 20
203.653937
 30
0.0
 11
125.493204
 21
203.647513
 31
0.0
  0
LINE
  5
13C
330
B9
100
AcDbEntity
  8
0
  6
CONTINUOUS
 62
     3
100
AcDbLine
 10
125.493204
 20
203.647513
 30
0.0
 11
125.524642
 21
203.641801
 31
0.0
  0
LINE
  5
13D
330
B9
100
AcDbEntity
  8
0
  6
CONTINUOUS
 62
     3
100
AcDbLine
 10
125.524642
 20
203.641801
 30
0.0
 11
125.556224
 21
203.636791
 31
0.0
  0
LINE
  5
13E
330
B9
100
AcDbEntity
  8
0
  6
CONTINUOUS
 62
     3
100
AcDbLine
 10
125.556224
 20
203.636791
 30
0.0
 11
125.587932
 21
203.632475
 31
0.0
  0
LINE
  5
13F
330
B9
100
AcDbEntity
  8
0
  6
CONTINUOUS
 62
     3
100
AcDbLine
 10
125.587932
 20
203.632475
 30
0.0
 11
125.619748
 21
203.628845
 31
0.0
  0
LINE
  5
140
330
B9
100
AcDbEntity
  8
0
  6
CONTINUOUS
 62
     3
100
AcDbLine
 10
125.619748
 20
203.628845
 30
0.0
 11
125.651652
 21
203.625893
 31
0.0
  0
LINE
  5
141
330
B9
100
AcDbEntity
  8
0
  6
CONTINUOUS
 62
     3
100
AcDbLine
 10
125.651652
 20
203.625893
 30
0.0
 11
125.683628
 21
203.623611
 31
0.0
  0
LINE
  5
142
330
B9
100
AcDbEntity
  8
0
  6
CONTINUOUS
 62
     3
100
AcDbLine
 10
125.683628
 20
203.623611
 30
0.0
 11
125.71566
 21
203.621989
 31
0.0
  0
LINE
  5
143
330
B9
100
AcDbEntity
  8
0
  6
CONTINUOUS
 62
     3
100
AcDbLine
 10
125.71566
 20
203.621989
 30
0.0
 11
125.747726
 21
203.621021
 31
0.0
  0
LINE
  5
144
330
B9
100
AcDbEntity
  8
0
  6
CONTINUOUS
 62
     3
100
AcDbLine
 10
125.747726
 20
203.621021
 30
0.0
 11
125.77981
 21
203.620695
 31
0.0
  0
LINE
  5
145
330
B9
100
AcDbEntity
  8
0
  6
CONTINUOUS
 62
     3
100
AcDbLine
 10
125.77981
 20
203.620695
 30
0.0
 11
125.81185
 21
203.621009
 31
0.0
  0
LINE
  5
146
330
B9
100
AcDbEntity
  8
0
  6
CONTINUOUS
 62
     3
100
AcDbLine
 10
125.81185
 20
203.621009
 30
0.0
 11
125.843874
 21
203.621965
 31
0.0
  0
LINE
  5
147
330
B9
100
AcDbEntity
  8
0
  6
CONTINUOUS
 62
     3
100
AcDbLine
 10
125.843874
 20
203.621965
 30
0.0
 11
125.87586
 21
203.623571
 31
0.0
  0
LINE
  5
148
330
B9
100
AcDbEntity
  8
0
  6
CONTINUOUS
 62
     3
100
AcDbLine
 10
125.87586
 20
203.623571
 30
0.0
 11
125.907794
 21
203.625837
 31
0.0
  0
LINE
  5
149
330
B9
100
AcDbEntity
  8
0
  6
CONTINUOUS
 62
     3
100
AcDbLine
 10
125.907794
 20
203.625837
 30
0.0
 11
125.939656
 21
203.628773
 31
0.0
  0
LINE
  5
14A
330
B9
100
AcDbEntity
  8
0
  6
CONTINUOUS
 62
     3
100
AcDbLine
 10
125.939656
 20
203.628773
 30
0.0
 11
125.971428
 21
203.632383
 31
0.0
  0
LINE
  5
14B
330
B9
100
AcDbEntity
  8
0
  6
CONTINUOUS
 62
     3
100
AcDbLine
 10
125.971428
 20
203.632383
 30
0.0
 11
126.003094
 21
203.636677
 31
0.0
  0
LINE
  5
14C
330
B9
100
AcDbEntity
  8
0
  6
CONTINUOUS
 62
     3
100
AcDbLine
 10
126.003094
 20
203.636677
 30
0.0
 11
126.034634
 21
203.641667
 31
0.0
  0
LINE
  5
14D
330
B9
100
AcDbEntity
  8
0
  6
CONTINUOUS
 62
     3
100
AcDbLine
 10
126.034634
 20
203.641667
 30
0.0
 11
126.06603
 21
203.647357
 31
0.0
  0
LINE
  5
14E
330
B9
100
AcDbEntity
  8
0
  6
CONTINUOUS
 62
     3
100
AcDbLine
 10
126.06603
 20
203.647357
 30
0.0
 11
126.097268
 21
203.653757
 31
0.0
  0
LINE
  5
14F
330
B9
100
AcDbEntity
  8
0
  6
CONTINUOUS
 62
     3
100
AcDbLine
 10
126.097268
 20
203.653757
 30
0.0
 11
126.128324
 21
203.660875
 31
0.0
  0
LINE
  5
150
330
B9
100
AcDbEntity
  8
0
  6
CONTINUOUS
 62
     3
100
AcDbLine
 10
126.128324
 20
203.660875
 30
0.0
 11
126.159186
 21
203.668721
 31
0.0
  0
LINE
  5
151
330
B9
100
AcDbEntity
  8
0
  6
CONTINUOUS
 62
     3
100
AcDbLine
 10
126.159186
 20
203.668721
 30
0.0
 11
126.189832
 21
203.677301
 31
0.0
  0
LINE
  5
152
330
B9
100
AcDbEntity
  8
0
  6
CONTINUOUS
 62
     3
100
AcDbLine
 10
126.189832
 20
203.677301
 30
0.0
 11
126.220248
 21
203.686625
 31
0.0
  0
LINE
  5
153
330
B9
100
AcDbEntity
  8
0
  6
CONTINUOUS
 62
     3
100
AcDbLine
 10
126.220248
 20
203.686625
 30
0.0
 11
126.250412
 21
203.696703
 31
0.0
  0
LINE
  5
154
330
B9
100
AcDbEntity
  8
0
  6
CONTINUOUS
 62
     3
100
AcDbLine
 10
126.250412
 20
203.696703
 30
0.0
 11
126.280308
 21
203.707539
 31
0.0
  0
LINE
  5
155
330
B9
100
AcDbEntity
  8
0
  6
CONTINUOUS
 62
     3
100
AcDbLine
 10
126.280308
 20
203.707539
 30
0.0
 11
126.30922
 21
203.718859
 31
0.0
  0
LINE
  5
156
330
B9
100
AcDbEntity
  8
0
  6
CONTINUOUS
 62
     3
100
AcDbLine
 10
126.30922
 20
203.718859
 30
0.0
 11
126.337848
 21
203.730897
 31
0.0
  0
LINE
  5
157
330
B9
100
AcDbEntity
  8
0
  6
CONTINUOUS
 62
     3
100
AcDbLine
 10
126.337848
 20
203.730897
 30
0.0
 11
126.366182
 21
203.743643
 31
0.0
  0
LINE
  5
158
330
B9
100
AcDbEntity
  8
0
  6
CONTINUOUS
 62
     3
100
AcDbLine
 10
126.366182
 20
203.743643
 30
0.0
 11
126.394212
 21
203.757079
 31
0.0
  0
LINE
  5
159
330
B9
100
AcDbEntity
  8
0
  6
CONTINUOUS
 62
     3
100
AcDbLine
 10
126.394212
 20
203.757079
 30
0.0
 11
126.421922
 21
203.771197
 31
0.0
  0
LINE
  5
15A
330
B9
100
AcDbEntity
  8
0
  6
CONTINUOUS
 62
     3
100
AcDbLine
 10
126.421922
 20
203.771197
 30
0.0
 11
126.449306
 21
203.785979
 31
0.0
  0
LINE
  5
15B
330
B9
100
AcDbEntity
  8
0
  6
CONTINUOUS
 62
     3
100
AcDbLine
 10
126.449306
 20
203.785979
 30
0.0
 11
126.47635
 21
203.801415
 31
0.0
  0
LINE
  5
15C
330
B9
100
AcDbEntity
  8
0
  6
CONTINUOUS
 62
     3
100
AcDbLine
 10
126.47635
 20
203.801415
 30
0.0
 11
126.503044
 21
203.817491
 31
0.0
  0
LINE
  5
15D
330
B9
100
AcDbEntity
  8
0
  6
CONTINUOUS
 62
     3
100
AcDbLine
 10
126.503044
 20
203.817491
 30
0.0
 11
126.529376
 21
203.834191
 31
0.0
  0
LINE
  5
15E
330
B9
100
AcDbEntity
  8
0
  6
CONTINUOUS
 62
     3
100
AcDbLine
 10
126.529376
 20
203.834191
 30
0.0
 11
126.555336
 21
203.851503
 31
0.0
  0
LINE
  5
15F
330
B9
100
AcDbEntity
  8
0
  6
CONTINUOUS
 62
     3
100
AcDbLine
 10
126.555336
 20
203.851503
 30
0.0
 11
126.580914
 21
203.869415
 31
0.0
  0
LINE
  5
160
330
B9
100
AcDbEntity
  8
0
  6
CONTINUOUS
 62
     3
100
AcDbLine
 10
126.580914
 20
203.869415
 30
0.0
 11
126.606096
 21
203.887913
 31
0.0
  0
LINE
  5
161
330
B9
100
AcDbEntity
  8
0
  6
CONTINUOUS
 62
     3
100
AcDbLine
 10
126.606096
 20
203.887913
 30
0.0
 11
126.630872
 21
203.906983
 31
0.0
  0
LINE
  5
162
330
B9
100
AcDbEntity
  8
0
  6
CONTINUOUS
 62
     3
100
AcDbLine
 10
126.630872
 20
203.906983
 30
0.0
 11
126.655232
 21
203.926611
 31
0.0
  0
LINE
  5
163
330
B9
100
AcDbEntity
  8
0
  6
CONTINUOUS
 62
     3
100
AcDbLine
 10
126.655232
 20
203.926611
 30
0.0
 11
126.679164
 21
203.946785
 31
0.0
  0
LINE
  5
164
330
B9
100
AcDbEntity
  8
0
  6
CONTINUOUS
 62
     3
100
AcDbLine
 10
126.679164
 20
203.946785
 30
0.0
 11
126.702658
 21
203.967491
 31
0.0
  0
LINE
  5
165
330
B9
100
AcDbEntity
  8
0
  6
CONTINUOUS
 62
     3
100
AcDbLine
 10
126.702658
 20
203.967491
 30
0.0
 11
126.746256
 21
204.008481
 31
0.0
  0
LINE
  5
166
330
B9
100
AcDbEntity
  8
0
  6
CONTINUOUS
 62
     3
100
AcDbLine
 10
126.746256
 20
204.008481
 30
0.0
 11
126.767376
 21
204.029673
 31
0.0
  0
LINE
  5
167
330
B9
100
AcDbEntity
  8
0
  6
CONTINUOUS
 62
     3
100
AcDbLine
 10
126.767376
 20
204.029673
 30
0.0
 11
126.788012
 21
204.051325
 31
0.0
  0
LINE
  5
168
330
B9
100
AcDbEntity
  8
0
  6
CONTINUOUS
 62
     3
100
AcDbLine
 10
126.788012
 20
204.051325
 30
0.0
 11
126.808136
 21
204.073427
 31
0.0
  0
LINE
  5
169
330
B9
100
AcDbEntity
  8
0
  6
CONTINUOUS
 62
     3
100
AcDbLine
 10
126.808136
 20
204.073427
 30
0.0
 11
126.827728
 21
204.095979
 31
0.0
  0
LINE
  5
16A
330
B9
100
AcDbEntity
  8
0
  6
CONTINUOUS
 62
     3
100
AcDbLine
 10
126.827728
 20
204.095979
 30
0.0
 11
126.846758
 21
204.118973
 31
0.0
  0
LINE
  5
16B
330
B9
100
AcDbEntity
  8
0
  6
CONTINUOUS
 62
     3
100
AcDbLine
 10
126.846758
 20
204.118973
 30
0.0
 11
126.865204
 21
204.142405
 31
0.0
  0
LINE
  5
16C
330
B9
100
AcDbEntity
  8
0
  6
CONTINUOUS
 62
     3
100
AcDbLine
 10
126.865204
 20
204.142405
 30
0.0
 11
126.88304
 21
204.166271
 31
0.0
  0
LINE
  5
16D
330
B9
100
AcDbEntity
  8
0
  6
CONTINUOUS
 62
     3
100
AcDbLine
 10
126.88304
 20
204.166271
 30
0.0
 11
126.900242
 21
204.190563
 31
0.0
  0
LINE
  5
16E
330
B9
100
AcDbEntity
  8
0
  6
CONTINUOUS
 62
     3
100
AcDbLine
 10
126.900242
 20
204.190563
 30
0.0
 11
126.916784
 21
204.215279
 31
0.0
  0
LINE
  5
16F
330
B9
100
AcDbEntity
  8
0
  6
CONTINUOUS
 62
     3
100
AcDbLine
 10
126.916784
 20
204.215279
 30
0.0
 11
126.932642
 21
204.240413
 31
0.0
  0
LINE
  5
170
330
B9
100
AcDbEntity
  8
0
  6
CONTINUOUS
 62
     3
100
AcDbLine
 10
126.932642
 20
204.240413
 30
0.0
 11
126.94779
 21
204.265959
 31
0.0
  0
LINE
  5
171
330
B9
100
AcDbEntity
  8
0
  6
CONTINUOUS
 62
     3
100
AcDbLine
 10
126.94779
 20
204.265959
 30
0.0
 11
126.962204
 21
204.291913
 31
0.0
  0
LINE
  5
172
330
B9
100
AcDbEntity
  8
0
  6
CONTINUOUS
 62
     3
100
AcDbLine
 10
126.962204
 20
204.291913
 30
0.0
 11
126.97586
 21
204.318271
 31
0.0
  0
LINE
  5
173
330
B9
100
AcDbEntity
  8
0
  6
CONTINUOUS
 62
     3
100
AcDbLine
 10
126.97586
 20
204.318271
 30
0.0
 11
126.98873
 21
204.345027
 31
0.0
  0
LINE
  5
174
330
B9
100
AcDbEntity
  8
0
  6
CONTINUOUS
 62
     3
100
AcDbLine
 10
126.98873
 20
204.345027
 30
0.0
 11
127.0003
 21
204.371007
 31
0.0
  0
LINE
  5
175
330
B9
100
AcDbEntity
  8
0
  6
CONTINUOUS
 62
     3
100
AcDbLine
 10
127.0003
 20
204.371007
 30
0.0
 11
127.011126
 21
204.397325
 31
0.0
  0
LINE
  5
176
330
B9
100
AcDbEntity
  8
0
  6
CONTINUOUS
 62
     3
100
AcDbLine
 10
127.011126
 20
204.397325
 30
0.0
 11
127.02121
 21
204.423959
 31
0.0
  0
LINE
  5
177
330
B9
100
AcDbEntity
  8
0
  6
CONTINUOUS
 62
     3
100
AcDbLine
 10
127.02121
 20
204.423959
 30
0.0
 11
127.03055
 21
204.450883
 31
0.0
  0
LINE
  5
178
330
B9
100
AcDbEntity
  8
0
  6
CONTINUOUS
 62
     3
100
AcDbLine
 10
127.03055
 20
204.450883
 30
0.0
 11
127.039144
 21
204.478075
 31
0.0
  0
LINE
  5
179
330
B9
100
AcDbEntity
  8
0
  6
CONTINUOUS
 62
     3
100
AcDbLine
 10
127.039144
 20
204.478075
 30
0.0
 11
127.046992
 21
204.505513
 31
0.0
  0
LINE
  5
17A
330
B9
100
AcDbEntity
  8
0
  6
CONTINUOUS
 62
     3
100
AcDbLine
 10
127.046992
 20
204.505513
 30
0.0
 11
127.054094
 21
204.533175
 31
0.0
  0
LINE
  5
17B
330
B9
100
AcDbEntity
  8
0
  6
CONTINUOUS
 62
     3
100
AcDbLine
 10
127.054094
 20
204.533175
 30
0.0
 11
127.060448
 21
204.561035
 31
0.0
  0
LINE
  5
17C
330
B9
100
AcDbEntity
  8
0
  6
CONTINUOUS
 62
     3
100
AcDbLine
 10
127.060448
 20
204.561035
 30
0.0
 11
127.066054
 21
204.589073
 31
0.0
  0
LINE
  5
17D
330
B9
100
AcDbEntity
  8
0
  6
CONTINUOUS
 62
     3
100
AcDbLine
 10
127.066054
 20
204.589073
 30
0.0
 11
127.07091
 21
204.617265
 31
0.0
  0
LINE
  5
17E
330
B9
100
AcDbEntity
  8
0
  6
CONTINUOUS
 62
     3
100
AcDbLine
 10
127.07091
 20
204.617265
 30
0.0
 11
127.075014
 21
204.645587
 31
0.0
  0
LINE
  5
17F
330
B9
100
AcDbEntity
  8
0
  6
CONTINUOUS
 62
     3
100
AcDbLine
 10
127.075014
 20
204.645587
 30
0.0
 11
127.078368
 21
204.674017
 31
0.0
  0
LINE
  5
180
330
B9
100
AcDbEntity
  8
0
  6
CONTINUOUS
 62
     3
100
AcDbLine
 10
127.078368
 20
204.674017
 30
0.0
 11
127.08097
 21
204.702533
 31
0.0
  0
LINE
  5
181
330
B9
100
AcDbEntity
  8
0
  6
CONTINUOUS
 62
     3
100
AcDbLine
 10
127.08097
 20
204.702533
 30
0.0
 11
127.08282
 21
204.731113
 31
0.0
  0
LINE
  5
182
330
B9
100
AcDbEntity
  8
0
  6
CONTINUOUS
 62
     3
100
AcDbLine
 10
127.08282
 20
204.731113
 30
0.0
 11
127.083914
 21
204.759731
 31
0.0
  0
LINE
  5
183
330
B9
100
AcDbEntity
  8
0
  6
CONTINUOUS
 62
     3
100
AcDbLine
 10
127.083914
 20
204.759731
 30
0.0
 11
127.084254
 21
204.788365
 31
0.0
  0
LINE
  5
184
330
B9
100
AcDbEntity
  8
0
  6
CONTINUOUS
 62
     3
100
AcDbLine
 10
127.084254
 20
204.788365
 30
0.0
 11
127.083852
 21
204.816531
 31
0.0
  0
LINE
  5
185
330
B9
100
AcDbEntity
  8
0
  6
CONTINUOUS
 62
     3
100
AcDbLine
 10
127.083852
 20
204.816531
 30
0.0
 11
127.082716
 21
204.844669
 31
0.0
  0
LINE
  5
186
330
B9
100
AcDbEntity
  8
0
  6
CONTINUOUS
 62
     3
100
AcDbLine
 10
127.082716
 20
204.844669
 30
0.0
 11
127.080844
 21
204.872759
 31
0.0
  0
LINE
  5
187
330
B9
100
AcDbEntity
  8
0
  6
CONTINUOUS
 62
     3
100
AcDbLine
 10
127.080844
 20
204.872759
 30
0.0
 11
127.078236
 21
204.900781
 31
0.0
  0
LINE
  5
188
330
B9
100
AcDbEntity
  8
0
  6
CONTINUOUS
 62
     3
100
AcDbLine
 10
127.078236
 20
204.900781
 30
0.0
 11
127.07489
 21
204.928715
 31
0.0
  0
LINE
  5
189
330
B9
100
AcDbEntity
  8
0
  6
CONTINUOUS
 62
     3
100
AcDbLine
 10
127.07489
 20
204.928715
 30
0.0
 11
127.070804
 21
204.956539
 31
0.0
  0
LINE
  5
18A
330
B9
100
AcDbEntity
  8
0
  6
CONTINUOUS
 62
     3
100
AcDbLine
 10
127.070804
 20
204.956539
 30
0.0
 11
127.065978
 21
204.984233
 31
0.0
  0
LINE
  5
18B
330
B9
100
AcDbEntity
  8
0
  6
CONTINUOUS
 62
     3
100
AcDbLine
 10
127.065978
 20
204.984233
 30
0.0
 11
127.060406
 21
205.011775
 31
0.0
  0
LINE
  5
18C
330
B9
100
AcDbEntity
  8
0
  6
CONTINUOUS
 62
     3
100
AcDbLine
 10
127.060406
 20
205.011775
 30
0.0
 11
127.05409
 21
205.039147
 31
0.0
  0
LINE
  5
18D
330
B9
100
AcDbEntity
  8
0
  6
CONTINUOUS
 62
     3
100
AcDbLine
 10
127.05409
 20
205.039147
 30
0.0
 11
127.047028
 21
205.066327
 31
0.0
  0
LINE
  5
18E
330
B9
100
AcDbEntity
  8
0
  6
CONTINUOUS
 62
     3
100
AcDbLine
 10
127.047028
 20
205.066327
 30
0.0
 11
127.039216
 21
205.093293
 31
0.0
  0
LINE
  5
18F
330
B9
100
AcDbEntity
  8
0
  6
CONTINUOUS
 62
     3
100
AcDbLine
 10
127.039216
 20
205.093293
 30
0.0
 11
127.030654
 21
205.120027
 31
0.0
  0
LINE
  5
190
330
B9
100
AcDbEntity
  8
0
  6
CONTINUOUS
 62
     3
100
AcDbLine
 10
127.030654
 20
205.120027
 30
0.0
 11
127.02134
 21
205.146505
 31
0.0
  0
LINE
  5
191
330
B9
100
AcDbEntity
  8
0
  6
CONTINUOUS
 62
     3
100
AcDbLine
 10
127.02134
 20
205.146505
 30
0.0
 11
127.011274
 21
205.172709
 31
0.0
  0
LINE
  5
192
330
B9
100
AcDbEntity
  8
0
  6
CONTINUOUS
 62
     3
100
AcDbLine
 10
127.011274
 20
205.172709
 30
0.0
 11
127.000452
 21
205.198617
 31
0.0
  0
LINE
  5
193
330
B9
100
AcDbEntity
  8
0
  6
CONTINUOUS
 62
     3
100
AcDbLine
 10
127.000452
 20
205.198617
 30
0.0
 11
126.988872
 21
205.224209
 31
0.0
  0
LINE
  5
194
330
B9
100
AcDbEntity
  8
0
  6
CONTINUOUS
 62
     3
100
AcDbLine
 10
126.988872
 20
205.224209
 30
0.0
 11
126.976088
 21
205.250351
 31
0.0
  0
LINE
  5
195
330
B9
100
AcDbEntity
  8
0
  6
CONTINUOUS
 62
     3
100
AcDbLine
 10
126.976088
 20
205.250351
 30
0.0
 11
126.962514
 21
205.276115
 31
0.0
  0
LINE
  5
196
330
B9
100
AcDbEntity
  8
0
  6
CONTINUOUS
 62
     3
100
AcDbLine
 10
126.962514
 20
205.276115
 30
0.0
 11
126.948172
 21
205.301477
 31
0.0
  0
LINE
  5
197
330
B9
100
AcDbEntity
  8
0
  6
CONTINUOUS
 62
     3
100
AcDbLine
 10
126.948172
 20
205.301477
 30
0.0
 11
126.933084
 21
205.326425
 31
0.0
  0
LINE
  5
198
330
B9
100
AcDbEntity
  8
0
  6
CONTINUOUS
 62
     3
100
AcDbLine
 10
126.933084
 20
205.326425
 30
0.0
 11
126.917276
 21
205.350935
 31
0.0
  0
LINE
  5
199
330
B9
100
AcDbEntity
  8
0
  6
CONTINUOUS
 62
     3
100
AcDbLine
 10
126.917276
 20
205.350935
 30
0.0
 11
126.900768
 21
205.374991
 31
0.0
  0
LINE
  5
19A
330
B9
100
AcDbEntity
  8
0
  6
CONTINUOUS
 62
     3
100
AcDbLine
 10
126.900768
 20
205.374991
 30
0.0
 11
126.883584
 21
205.398575
 31
0.0
  0
LINE
  5
19B
330
B9
100
AcDbEntity
  8
0
  6
CONTINUOUS
 62
     3
100
AcDbLine
 10
126.883584
 20
205.398575
 30
0.0
 11
126.865746
 21
205.421667
 31
0.0
  0
LINE
  5
19C
330
B9
100
AcDbEntity
  8
0
  6
CONTINUOUS
 62
     3
100
AcDbLine
 10
126.865746
 20
205.421667
 30
0.0
 11
126.847276
 21
205.444249
 31
0.0
  0
LINE
  5
19D
330
B9
100
AcDbEntity
  8
0
  6
CONTINUOUS
 62
     3
100
AcDbLine
 10
126.847276
 20
205.444249
 30
0.0
 11
126.8282
 21
205.466301
 31
0.0
  0
LINE
  5
19E
330
B9
100
AcDbEntity
  8
0
  6
CONTINUOUS
 62
     3
100
AcDbLine
 10
126.8282
 20
205.466301
 30
0.0
 11
126.808538
 21
205.487805
 31
0.0
  0
LINE
  5
19F
330
B9
100
AcDbEntity
  8
0
  6
CONTINUOUS
 62
     3
100
AcDbLine
 10
126.808538
 20
205.487805
 30
0.0
 11
126.788312
 21
205.508743
 31
0.0
  0
LINE
  5
1A0
330
B9
100
AcDbEntity
  8
0
  6
CONTINUOUS
 62
     3
100
AcDbLine
 10
126.788312
 20
205.508743
 30
0.0
 11
126.767548
 21
205.529095
 31
0.0
  0
LINE
  5
1A1
330
B9
100
AcDbEntity
  8
0
  6
CONTINUOUS
 62
     3
100
AcDbLine
 10
126.767548
 20
205.529095
 30
0.0
 11
126.746268
 21
205.548845
 31
0.0
  0
LINE
  5
1A2
330
B9
100
AcDbEntity
  8
0
  6
CONTINUOUS
 62
     3
100
AcDbLine
 10
126.746268
 20
205.548845
 30
0.0
 11
126.724494
 21
205.567971
 31
0.0
  0
LINE
  5
1A3
330
B9
100
AcDbEntity
  8
0
  6
CONTINUOUS
 62
     3
100
AcDbLine
 10
126.724494
 20
205.567971
 30
0.0
 11
126.702248
 21
205.586457
 31
0.0
  0
LINE
  5
1A4
330
B9
100
AcDbEntity
  8
0
  6
CONTINUOUS
 62
     3
100
AcDbLine
 10
126.702248
 20
205.586457
 30
0.0
 11
126.678288
 21
205.605261
 31
0.0
  0
LINE
  5
1A5
330
B9
100
AcDbEntity
  8
0
  6
CONTINUOUS
 62
     3
100
AcDbLine
 10
126.678288
 20
205.605261
 30
0.0
 11
126.65386
 21
205.623375
 31
0.0
  0
LINE
  5
1A6
330
B9
100
AcDbEntity
  8
0
  6
CONTINUOUS
 62
     3
100
AcDbLine
 10
126.65386
 20
205.623375
 30
0.0
 11
126.628994
 21
205.640847
 31
0.0
  0
LINE
  5
1A7
330
B9
100
AcDbEntity
  8
0
  6
CONTINUOUS
 62
     3
100
AcDbLine
 10
126.628994
 20
205.640847
 30
0.0
 11
126.603722
 21
205.657721
 31
0.0
  0
LINE
  5
1A8
330
B9
100
AcDbEntity
  8
0
  6
CONTINUOUS
 62
     3
100
AcDbLine
 10
126.603722
 20
205.657721
 30
0.0
 11
126.55209
 21
205.689865
 31
0.0
  0
LINE
  5
1A9
330
B9
100
AcDbEntity
  8
0
  6
CONTINUOUS
 62
     3
100
AcDbLine
 10
126.55209
 20
205.689865
 30
0.0
 11
126.499208
 21
205.720171
 31
0.0
  0
LINE
  5
1AA
330
B9
100
AcDbEntity
  8
0
  6
CONTINUOUS
 62
     3
100
AcDbLine
 10
126.499208
 20
205.720171
 30
0.0
 11
126.445326
 21
205.749007
 31
0.0
  0
LINE
  5
1AB
330
B9
100
AcDbEntity
  8
0
  6
CONTINUOUS
 62
     3
100
AcDbLine
 10
126.445326
 20
205.749007
 30
0.0
 11
126.390698
 21
205.776741
 31
0.0
  0
LINE
  5
1AC
330
B9
100
AcDbEntity
  8
0
  6
CONTINUOUS
 62
     3
100
AcDbLine
 10
126.390698
 20
205.776741
 30
0.0
 11
126.33557
 21
205.803741
 31
0.0
  0
LINE
  5
1AD
330
B9
100
AcDbEntity
  8
0
  6
CONTINUOUS
 62
     3
100
AcDbLine
 10
126.33557
 20
205.803741
 30
0.0
 11
126.280192
 21
205.830373
 31
0.0
  0
ENDBLK
  5
BB
330
B9
100
AcDbEntity
  8
0
100
AcDbBlockEnd
  0
BLOCK
  5
1B8
330
1B7
100
AcDbEntity
  8
0
100
AcDbBlockBegin
  2
BLKF013
 70
     0
 71
     0
 10
0.0
 20
0.0
 30
0.0
  3
BLKF013
  1

  0
LINE
  5
1BB
330
1B7
100
AcDbEntity
  8
0
  6
CONTINUOUS
 62
     3
100
AcDbLine
 10
125.434446
 20
205.470213
 30
0.0
 11
125.477444
 21
205.478915
 31
0.0
  0
LINE
  5
1BC
330
1B7
100
AcDbEntity
  8
0
  6
CONTINUOUS
 62
     3
100
AcDbLine
 10
125.477444
 20
205.478915
 30
0.0
 11
125.520458
 21
205.487375
 31
0.0
  0
LINE
  5
1BD
330
1B7
100
AcDbEntity
  8
0
  6
CONTINUOUS
 62
     3
100
AcDbLine
 10
125.520458
 20
205.487375
 30
0.0
 11
125.563504
 21
205.495349
 31
0.0
  0
LINE
  5
1BE
330
1B7
100
AcDbEntity
  8
0
  6
CONTINUOUS
 62
     3
100
AcDbLine
 10
125.563504
 20
205.495349
 30
0.0
 11
125.606598
 21
205.502593
 31
0.0
  0
LINE
  5
1BF
330
1B7
100
AcDbEntity
  8
0
  6
CONTINUOUS
 62
     3
100
AcDbLine
 10
125.606598
 20
205.502593
 30
0.0
 11
125.64976
 21
205.508863
 31
0.0
  0
LINE
  5
1C0
330
1B7
100
AcDbEntity
  8
0
  6
CONTINUOUS
 62
     3
100
AcDbLine
 10
125.64976
 20
205.508863
 30
0.0
 11
125.693002
 21
205.513917
 31
0.0
  0
LINE
  5
1C1
330
1B7
100
AcDbEntity
  8
0
  6
CONTINUOUS
 62
     3
100
AcDbLine
 10
125.693002
 20
205.513917
 30
0.0
 11
125.714658
 21
205.515911
 31
0.0
  0
LINE
  5
1C2
330
1B7
100
AcDbEntity
  8
0
  6
CONTINUOUS
 62
     3
100
AcDbLine
 10
125.714658
 20
205.515911
 30
0.0
 11
125.736342
 21
205.517511
 31
0.0
  0
LINE
  5
1C3
330
1B7
100
AcDbEntity
  8
0
  6
CONTINUOUS
 62
     3
100
AcDbLine
 10
125.736342
 20
205.517511
 30
0.0
 11
125.758054
 21
205.518685
 31
0.0
  0
LINE
  5
1C4
330
1B7
100
AcDbEntity
  8
0
  6
CONTINUOUS
 62
     3
100
AcDbLine
 10
125.758054
 20
205.518685
 30
0.0
 11
125.779796
 21
205.519401
 31
0.0
  0
LINE
  5
1C5
330
1B7
100
AcDbEntity
  8
0
  6
CONTINUOUS
 62
     3
100
AcDbLine
 10
125.779796
 20
205.519401
 30
0.0
 11
125.801568
 21
205.519639
 31
0.0
  0
LINE
  5
1C6
330
1B7
100
AcDbEntity
  8
0
  6
CONTINUOUS
 62
     3
100
AcDbLine
 10
125.801568
 20
205.519639
 30
0.0
 11
125.823364
 21
205.519397
 31
0.0
  0
LINE
  5
1C7
330
1B7
100
AcDbEntity
  8
0
  6
CONTINUOUS
 62
     3
100
AcDbLine
 10
125.823364
 20
205.519397
 30
0.0
 11
125.84517
 21
205.518685
 31
0.0
  0
LINE
  5
1C8
330
1B7
100
AcDbEntity
  8
0
  6
CONTINUOUS
 62
     3
100
AcDbLine
 10
125.84517
 20
205.518685
 30
0.0
 11
125.86698
 21
205.517511
 31
0.0
  0
LINE
  5
1C9
330
1B7
100
AcDbEntity
  8
0
  6
CONTINUOUS
 62
     3
100
AcDbLine
 10
125.86698
 20
205.517511
 30
0.0
 11
125.88878
 21
205.515883
 31
0.0
  0
LINE
  5
1CA
330
1B7
100
AcDbEntity
  8
0
  6
CONTINUOUS
 62
     3
100
AcDbLine
 10
125.88878
 20
205.515883
 30
0.0
 11
125.910564
 21
205.513805
 31
0.0
  0
LINE
  5
1CB
330
1B7
100
AcDbEntity
  8
0
  6
CONTINUOUS
 62
     3
100
AcDbLine
 10
125.910564
 20
205.513805
 30
0.0
 11
125.932318
 21
205.511291
 31
0.0
  0
LINE
  5
1CC
330
1B7
100
AcDbEntity
  8
0
  6
CONTINUOUS
 62
     3
100
AcDbLine
 10
125.932318
 20
205.511291
 30
0.0
 11
125.954034
 21
205.508345
 31
0.0
  0
LINE
  5
1CD
330
1B7
100
AcDbEntity
  8
0
  6
CONTINUOUS
 62
     3
100
AcDbLine
 10
125.954034
 20
205.508345
 30
0.0
 11
125.9757
 21
205.504975
 31
0.0
  0
LINE
  5
1CE
330
1B7
100
AcDbEntity
  8
0
  6
CONTINUOUS
 62
     3
100
AcDbLine
 10
125.9757
 20
205.504975
 30
0.0
 11
125.997306
 21
205.501191
 31
0.0
  0
LINE
  5
1CF
330
1B7
100
AcDbEntity
  8
0
  6
CONTINUOUS
 62
     3
100
AcDbLine
 10
125.997306
 20
205.501191
 30
0.0
 11
126.018844
 21
205.496999
 31
0.0
  0
LINE
  5
1D0
330
1B7
100
AcDbEntity
  8
0
  6
CONTINUOUS
 62
     3
100
AcDbLine
 10
126.018844
 20
205.496999
 30
0.0
 11
126.040304
 21
205.492409
 31
0.0
  0
LINE
  5
1D1
330
1B7
100
AcDbEntity
  8
0
  6
CONTINUOUS
 62
     3
100
AcDbLine
 10
126.040304
 20
205.492409
 30
0.0
 11
126.061672
 21
205.487427
 31
0.0
  0
LINE
  5
1D2
330
1B7
100
AcDbEntity
  8
0
  6
CONTINUOUS
 62
     3
100
AcDbLine
 10
126.061672
 20
205.487427
 30
0.0
 11
126.08294
 21
205.482061
 31
0.0
  0
LINE
  5
1D3
330
1B7
100
AcDbEntity
  8
0
  6
CONTINUOUS
 62
     3
100
AcDbLine
 10
126.08294
 20
205.482061
 30
0.0
 11
126.1041
 21
205.476321
 31
0.0
  0
LINE
  5
1D4
330
1B7
100
AcDbEntity
  8
0
  6
CONTINUOUS
 62
     3
100
AcDbLine
 10
126.1041
 20
205.476321
 30
0.0
 11
126.125138
 21
205.470213
 31
0.0
  0
LINE
  5
1D5
330
1B7
100
AcDbEntity
  8
0
  6
CONTINUOUS
 62
     3
100
AcDbLine
 10
126.125138
 20
205.470213
 30
0.0
 11
126.149952
 21
205.462489
 31
0.0
  0
LINE
  5
1D6
330
1B7
100
AcDbEntity
  8
0
  6
CONTINUOUS
 62
     3
100
AcDbLine
 10
126.149952
 20
205.462489
 30
0.0
 11
126.174572
 21
205.454249
 31
0.0
  0
LINE
  5
1D7
330
1B7
100
AcDbEntity
  8
0
  6
CONTINUOUS
 62
     3
100
AcDbLine
 10
126.174572
 20
205.454249
 30
0.0
 11
126.198984
 21
205.445487
 31
0.0
  0
LINE
  5
1D8
330
1B7
100
AcDbEntity
  8
0
  6
CONTINUOUS
 62
     3
100
AcDbLine
 10
126.198984
 20
205.445487
 30
0.0
 11
126.223178
 21
205.436191
 31
0.0
  0
LINE
  5
1D9
330
1B7
100
AcDbEntity
  8
0
  6
CONTINUOUS
 62
     3
100
AcDbLine
 10
126.223178
 20
205.436191
 30
0.0
 11
126.247142
 21
205.426355
 31
0.0
  0
LINE
  5
1DA
330
1B7
100
AcDbEntity
  8
0
  6
CONTINUOUS
 62
     3
100
AcDbLine
 10
126.247142
 20
205.426355
 30
0.0
 11
126.270864
 21
205.415969
 31
0.0
  0
LINE
  5
1DB
330
1B7
100
AcDbEntity
  8
0
  6
CONTINUOUS
 62
     3
100
AcDbLine
 10
126.270864
 20
205.415969
 30
0.0
 11
126.294336
 21
205.405025
 31
0.0
  0
LINE
  5
1DC
330
1B7
100
AcDbEntity
  8
0
  6
CONTINUOUS
 62
     3
100
AcDbLine
 10
126.294336
 20
205.405025
 30
0.0
 11
126.317542
 21
205.393517
 31
0.0
  0
LINE
  5
1DD
330
1B7
100
AcDbEntity
  8
0
  6
CONTINUOUS
 62
     3
100
AcDbLine
 10
126.317542
 20
205.393517
 30
0.0
 11
126.342334
 21
205.380421
 31
0.0
  0
LINE
  5
1DE
330
1B7
100
AcDbEntity
  8
0
  6
CONTINUOUS
 62
     3
100
AcDbLine
 10
126.342334
 20
205.380421
 30
0.0
 11
126.366778
 21
205.366657
 31
0.0
  0
LINE
  5
1DF
330
1B7
100
AcDbEntity
  8
0
  6
CONTINUOUS
 62
     3
100
AcDbLine
 10
126.366778
 20
205.366657
 30
0.0
 11
126.390846
 21
205.352225
 31
0.0
  0
LINE
  5
1E0
330
1B7
100
AcDbEntity
  8
0
  6
CONTINUOUS
 62
     3
100
AcDbLine
 10
126.390846
 20
205.352225
 30
0.0
 11
126.414512
 21
205.337131
 31
0.0
  0
LINE
  5
1E1
330
1B7
100
AcDbEntity
  8
0
  6
CONTINUOUS
 62
     3
100
AcDbLine
 10
126.414512
 20
205.337131
 30
0.0
 11
126.43775
 21
205.321379
 31
0.0
  0
LINE
  5
1E2
330
1B7
100
AcDbEntity
  8
0
  6
CONTINUOUS
 62
     3
100
AcDbLine
 10
126.43775
 20
205.321379
 30
0.0
 11
126.460534
 21
205.304969
 31
0.0
  0
LINE
  5
1E3
330
1B7
100
AcDbEntity
  8
0
  6
CONTINUOUS
 62
     3
100
AcDbLine
 10
126.460534
 20
205.304969
 30
0.0
 11
126.482836
 21
205.287907
 31
0.0
  0
LINE
  5
1E4
330
1B7
100
AcDbEntity
  8
0
  6
CONTINUOUS
 62
     3
100
AcDbLine
 10
126.482836
 20
205.287907
 30
0.0
 11
126.50463
 21
205.270195
 31
0.0
  0
LINE
  5
1E5
330
1B7
100
AcDbEntity
  8
0
  6
CONTINUOUS
 62
     3
100
AcDbLine
 10
126.50463
 20
205.270195
 30
0.0
 11
126.525084
 21
205.252551
 31
0.0
  0
LINE
  5
1E6
330
1B7
100
AcDbEntity
  8
0
  6
CONTINUOUS
 62
     3
100
AcDbLine
 10
126.525084
 20
205.252551
 30
0.0
 11
126.54502
 21
205.234321
 31
0.0
  0
LINE
  5
1E7
330
1B7
100
AcDbEntity
  8
0
  6
CONTINUOUS
 62
     3
100
AcDbLine
 10
126.54502
 20
205.234321
 30
0.0
 11
126.56441
 21
205.215513
 31
0.0
  0
LINE
  5
1E8
330
1B7
100
AcDbEntity
  8
0
  6
CONTINUOUS
 62
     3
100
AcDbLine
 10
126.56441
 20
205.215513
 30
0.0
 11
126.583226
 21
205.196139
 31
0.0
  0
LINE
  5
1E9
330
1B7
100
AcDbEntity
  8
0
  6
CONTINUOUS
 62
     3
100
AcDbLine
 10
126.583226
 20
205.196139
 30
0.0
 11
126.601446
 21
205.176209
 31
0.0
  0
LINE
  5
1EA
330
1B7
100
AcDbEntity
  8
0
  6
CONTINUOUS
 62
     3
100
AcDbLine
 10
126.601446
 20
205.176209
 30
0.0
 11
126.61904
 21
205.155735
 31
0.0
  0
LINE
  5
1EB
330
1B7
100
AcDbEntity
  8
0
  6
CONTINUOUS
 62
     3
100
AcDbLine
 10
126.61904
 20
205.155735
 30
0.0
 11
126.635986
 21
205.134727
 31
0.0
  0
LINE
  5
1EC
330
1B7
100
AcDbEntity
  8
0
  6
CONTINUOUS
 62
     3
100
AcDbLine
 10
126.635986
 20
205.134727
 30
0.0
 11
126.652254
 21
205.113197
 31
0.0
  0
LINE
  5
1ED
330
1B7
100
AcDbEntity
  8
0
  6
CONTINUOUS
 62
     3
100
AcDbLine
 10
126.652254
 20
205.113197
 30
0.0
 11
126.665834
 21
205.094057
 31
0.0
  0
LINE
  5
1EE
330
1B7
100
AcDbEntity
  8
0
  6
CONTINUOUS
 62
     3
100
AcDbLine
 10
126.665834
 20
205.094057
 30
0.0
 11
126.678866
 21
205.074541
 31
0.0
  0
LINE
  5
1EF
330
1B7
100
AcDbEntity
  8
0
  6
CONTINUOUS
 62
     3
100
AcDbLine
 10
126.678866
 20
205.074541
 30
0.0
 11
126.691336
 21
205.054659
 31
0.0
  0
LINE
  5
1F0
330
1B7
100
AcDbEntity
  8
0
  6
CONTINUOUS
 62
     3
100
AcDbLine
 10
126.691336
 20
205.054659
 30
0.0
 11
126.703226
 21
205.034425
 31
0.0
  0
LINE
  5
1F1
330
1B7
100
AcDbEntity
  8
0
  6
CONTINUOUS
 62
     3
100
AcDbLine
 10
126.703226
 20
205.034425
 30
0.0
 11
126.714522
 21
205.013849
 31
0.0
  0
LINE
  5
1F2
330
1B7
100
AcDbEntity
  8
0
  6
CONTINUOUS
 62
     3
100
AcDbLine
 10
126.714522
 20
205.013849
 30
0.0
 11
126.72521
 21
204.992941
 31
0.0
  0
LINE
  5
1F3
330
1B7
100
AcDbEntity
  8
0
  6
CONTINUOUS
 62
     3
100
AcDbLine
 10
126.72521
 20
204.992941
 30
0.0
 11
126.73527
 21
204.971713
 31
0.0
  0
LINE
  5
1F4
330
1B7
100
AcDbEntity
  8
0
  6
CONTINUOUS
 62
     3
100
AcDbLine
 10
126.73527
 20
204.971713
 30
0.0
 11
126.744686
 21
204.950177
 31
0.0
  0
LINE
  5
1F5
330
1B7
100
AcDbEntity
  8
0
  6
CONTINUOUS
 62
     3
100
AcDbLine
 10
126.744686
 20
204.950177
 30
0.0
 11
126.751806
 21
204.932587
 31
0.0
  0
LINE
  5
1F6
330
1B7
100
AcDbEntity
  8
0
  6
CONTINUOUS
 62
     3
100
AcDbLine
 10
126.751806
 20
204.932587
 30
0.0
 11
126.758494
 21
204.914817
 31
0.0
  0
LINE
  5
1F7
330
1B7
100
AcDbEntity
  8
0
  6
CONTINUOUS
 62
     3
100
AcDbLine
 10
126.758494
 20
204.914817
 30
0.0
 11
126.764746
 21
204.896877
 31
0.0
  0
LINE
  5
1F8
330
1B7
100
AcDbEntity
  8
0
  6
CONTINUOUS
 62
     3
100
AcDbLine
 10
126.764746
 20
204.896877
 30
0.0
 11
126.770558
 21
204.878781
 31
0.0
  0
LINE
  5
1F9
330
1B7
100
AcDbEntity
  8
0
  6
CONTINUOUS
 62
     3
100
AcDbLine
 10
126.770558
 20
204.878781
 30
0.0
 11
126.77593
 21
204.860541
 31
0.0
  0
LINE
  5
1FA
330
1B7
100
AcDbEntity
  8
0
  6
CONTINUOUS
 62
     3
100
AcDbLine
 10
126.77593
 20
204.860541
 30
0.0
 11
126.780854
 21
204.842167
 31
0.0
  0
LINE
  5
1FB
330
1B7
100
AcDbEntity
  8
0
  6
CONTINUOUS
 62
     3
100
AcDbLine
 10
126.780854
 20
204.842167
 30
0.0
 11
126.78533
 21
204.823675
 31
0.0
  0
LINE
  5
1FC
330
1B7
100
AcDbEntity
  8
0
  6
CONTINUOUS
 62
     3
100
AcDbLine
 10
126.78533
 20
204.823675
 30
0.0
 11
126.789352
 21
204.805073
 31
0.0
  0
LINE
  5
1FD
330
1B7
100
AcDbEntity
  8
0
  6
CONTINUOUS
 62
     3
100
AcDbLine
 10
126.789352
 20
204.805073
 30
0.0
 11
126.792916
 21
204.786377
 31
0.0
  0
LINE
  5
1FE
330
1B7
100
AcDbEntity
  8
0
  6
CONTINUOUS
 62
     3
100
AcDbLine
 10
126.792916
 20
204.786377
 30
0.0
 11
126.796022
 21
204.767597
 31
0.0
  0
LINE
  5
1FF
330
1B7
100
AcDbEntity
  8
0
  6
CONTINUOUS
 62
     3
100
AcDbLine
 10
126.796022
 20
204.767597
 30
0.0
 11
126.798664
 21
204.748747
 31
0.0
  0
LINE
  5
200
330
1B7
100
AcDbEntity
  8
0
  6
CONTINUOUS
 62
     3
100
AcDbLine
 10
126.798664
 20
204.748747
 30
0.0
 11
126.80084
 21
204.729837
 31
0.0
  0
LINE
  5
201
330
1B7
100
AcDbEntity
  8
0
  6
CONTINUOUS
 62
     3
100
AcDbLine
 10
126.80084
 20
204.729837
 30
0.0
 11
126.802544
 21
204.710881
 31
0.0
  0
LINE
  5
202
330
1B7
100
AcDbEntity
  8
0
  6
CONTINUOUS
 62
     3
100
AcDbLine
 10
126.802544
 20
204.710881
 30
0.0
 11
126.803774
 21
204.691889
 31
0.0
  0
LINE
  5
203
330
1B7
100
AcDbEntity
  8
0
  6
CONTINUOUS
 62
     3
100
AcDbLine
 10
126.803774
 20
204.691889
 30
0.0
 11
126.804526
 21
204.672877
 31
0.0
  0
LINE
  5
204
330
1B7
100
AcDbEntity
  8
0
  6
CONTINUOUS
 62
     3
100
AcDbLine
 10
126.804526
 20
204.672877
 30
0.0
 11
126.804798
 21
204.653853
 31
0.0
  0
LINE
  5
205
330
1B7
100
AcDbEntity
  8
0
  6
CONTINUOUS
 62
     3
100
AcDbLine
 10
126.804798
 20
204.653853
 30
0.0
 11
126.804578
 21
204.634491
 31
0.0
  0
LINE
  5
206
330
1B7
100
AcDbEntity
  8
0
  6
CONTINUOUS
 62
     3
100
AcDbLine
 10
126.804578
 20
204.634491
 30
0.0
 11
126.803862
 21
204.615145
 31
0.0
  0
LINE
  5
207
330
1B7
100
AcDbEntity
  8
0
  6
CONTINUOUS
 62
     3
100
AcDbLine
 10
126.803862
 20
204.615145
 30
0.0
 11
126.802656
 21
204.595821
 31
0.0
  0
LINE
  5
208
330
1B7
100
AcDbEntity
  8
0
  6
CONTINUOUS
 62
     3
100
AcDbLine
 10
126.802656
 20
204.595821
 30
0.0
 11
126.800964
 21
204.576533
 31
0.0
  0
LINE
  5
209
330
1B7
100
AcDbEntity
  8
0
  6
CONTINUOUS
 62
     3
100
AcDbLine
 10
126.800964
 20
204.576533
 30
0.0
 11
126.798796
 21
204.557293
 31
0.0
  0
LINE
  5
20A
330
1B7
100
AcDbEntity
  8
0
  6
CONTINUOUS
 62
     3
100
AcDbLine
 10
126.798796
 20
204.557293
 30
0.0
 11
126.796152
 21
204.538111
 31
0.0
  0
LINE
  5
20B
330
1B7
100
AcDbEntity
  8
0
  6
CONTINUOUS
 62
     3
100
AcDbLine
 10
126.796152
 20
204.538111
 30
0.0
 11
126.793044
 21
204.518999
 31
0.0
  0
LINE
  5
20C
330
1B7
100
AcDbEntity
  8
0
  6
CONTINUOUS
 62
     3
100
AcDbLine
 10
126.793044
 20
204.518999
 30
0.0
 11
126.789472
 21
204.499967
 31
0.0
  0
LINE
  5
20D
330
1B7
100
AcDbEntity
  8
0
  6
CONTINUOUS
 62
     3
100
AcDbLine
 10
126.789472
 20
204.499967
 30
0.0
 11
126.785446
 21
204.481027
 31
0.0
  0
LINE
  5
20E
330
1B7
100
AcDbEntity
  8
0
  6
CONTINUOUS
 62
     3
100
AcDbLine
 10
126.785446
 20
204.481027
 30
0.0
 11
126.780972
 21
204.462189
 31
0.0
  0
LINE
  5
20F
330
1B7
100
AcDbEntity
  8
0
  6
CONTINUOUS
 62
     3
100
AcDbLine
 10
126.780972
 20
204.462189
 30
0.0
 11
126.776054
 21
204.443467
 31
0.0
  0
LINE
  5
210
330
1B7
100
AcDbEntity
  8
0
  6
CONTINUOUS
 62
     3
100
AcDbLine
 10
126.776054
 20
204.443467
 30
0.0
 11
126.770698
 21
204.424869
 31
0.0
  0
LINE
  5
211
330
1B7
100
AcDbEntity
  8
0
  6
CONTINUOUS
 62
     3
100
AcDbLine
 10
126.770698
 20
204.424869
 30
0.0
 11
126.76491
 21
204.406407
 31
0.0
  0
LINE
  5
212
330
1B7
100
AcDbEntity
  8
0
  6
CONTINUOUS
 62
     3
100
AcDbLine
 10
126.76491
 20
204.406407
 30
0.0
 11
126.758696
 21
204.388095
 31
0.0
  0
LINE
  5
213
330
1B7
100
AcDbEntity
  8
0
  6
CONTINUOUS
 62
     3
100
AcDbLine
 10
126.758696
 20
204.388095
 30
0.0
 11
126.752062
 21
204.369939
 31
0.0
  0
LINE
  5
214
330
1B7
100
AcDbEntity
  8
0
  6
CONTINUOUS
 62
     3
100
AcDbLine
 10
126.752062
 20
204.369939
 30
0.0
 11
126.745014
 21
204.351955
 31
0.0
  0
LINE
  5
215
330
1B7
100
AcDbEntity
  8
0
  6
CONTINUOUS
 62
     3
100
AcDbLine
 10
126.745014
 20
204.351955
 30
0.0
 11
126.735576
 21
204.329601
 31
0.0
  0
LINE
  5
216
330
1B7
100
AcDbEntity
  8
0
  6
CONTINUOUS
 62
     3
100
AcDbLine
 10
126.735576
 20
204.329601
 30
0.0
 11
126.725506
 21
204.307541
 31
0.0
  0
LINE
  5
217
330
1B7
100
AcDbEntity
  8
0
  6
CONTINUOUS
 62
     3
100
AcDbLine
 10
126.725506
 20
204.307541
 30
0.0
 11
126.71482
 21
204.285789
 31
0.0
  0
LINE
  5
218
330
1B7
100
AcDbEntity
  8
0
  6
CONTINUOUS
 62
     3
100
AcDbLine
 10
126.71482
 20
204.285789
 30
0.0
 11
126.703532
 21
204.264351
 31
0.0
  0
LINE
  5
219
330
1B7
100
AcDbEntity
  8
0
  6
CONTINUOUS
 62
     3
100
AcDbLine
 10
126.703532
 20
204.264351
 30
0.0
 11
126.69166
 21
204.243239
 31
0.0
  0
LINE
  5
21A
330
1B7
100
AcDbEntity
  8
0
  6
CONTINUOUS
 62
     3
100
AcDbLine
 10
126.69166
 20
204.243239
 30
0.0
 11
126.679214
 21
204.222461
 31
0.0
  0
LINE
  5
21B
330
1B7
100
AcDbEntity
  8
0
  6
CONTINUOUS
 62
     3
100
AcDbLine
 10
126.679214
 20
204.222461
 30
0.0
 11
126.66621
 21
204.202027
 31
0.0
  0
LINE
  5
21C
330
1B7
100
AcDbEntity
  8
0
  6
CONTINUOUS
 62
     3
100
AcDbLine
 10
126.66621
 20
204.202027
 30
0.0
 11
126.652664
 21
204.181947
 31
0.0
  0
LINE
  5
21D
330
1B7
100
AcDbEntity
  8
0
  6
CONTINUOUS
 62
     3
100
AcDbLine
 10
126.652664
 20
204.181947
 30
0.0
 11
126.636416
 21
204.159279
 31
0.0
  0
LINE
  5
21E
330
1B7
100
AcDbEntity
  8
0
  6
CONTINUOUS
 62
     3
100
AcDbLine
 10
126.636416
 20
204.159279
 30
0.0
 11
126.619488
 21
204.137105
 31
0.0
  0
LINE
  5
21F
330
1B7
100
AcDbEntity
  8
0
  6
CONTINUOUS
 62
     3
100
AcDbLine
 10
126.619488
 20
204.137105
 30
0.0
 11
126.601906
 21
204.115439
 31
0.0
  0
LINE
  5
220
330
1B7
100
AcDbEntity
  8
0
  6
CONTINUOUS
 62
     3
100
AcDbLine
 10
126.601906
 20
204.115439
 30
0.0
 11
126.583692
 21
204.094295
 31
0.0
  0
LINE
  5
221
330
1B7
100
AcDbEntity
  8
0
  6
CONTINUOUS
 62
     3
100
AcDbLine
 10
126.583692
 20
204.094295
 30
0.0
 11
126.564866
 21
204.073685
 31
0.0
  0
LINE
  5
222
330
1B7
100
AcDbEntity
  8
0
  6
CONTINUOUS
 62
     3
100
AcDbLine
 10
126.564866
 20
204.073685
 30
0.0
 11
126.545452
 21
204.053625
 31
0.0
  0
LINE
  5
223
330
1B7
100
AcDbEntity
  8
0
  6
CONTINUOUS
 62
     3
100
AcDbLine
 10
126.545452
 20
204.053625
 30
0.0
 11
126.525472
 21
204.034127
 31
0.0
  0
LINE
  5
224
330
1B7
100
AcDbEntity
  8
0
  6
CONTINUOUS
 62
     3
100
AcDbLine
 10
126.525472
 20
204.034127
 30
0.0
 11
126.50495
 21
204.015203
 31
0.0
  0
LINE
  5
225
330
1B7
100
AcDbEntity
  8
0
  6
CONTINUOUS
 62
     3
100
AcDbLine
 10
126.50495
 20
204.015203
 30
0.0
 11
126.483242
 21
203.996307
 31
0.0
  0
LINE
  5
226
330
1B7
100
AcDbEntity
  8
0
  6
CONTINUOUS
 62
     3
100
AcDbLine
 10
126.483242
 20
203.996307
 30
0.0
 11
126.461004
 21
203.978045
 31
0.0
  0
LINE
  5
227
330
1B7
100
AcDbEntity
  8
0
  6
CONTINUOUS
 62
     3
100
AcDbLine
 10
126.461004
 20
203.978045
 30
0.0
 11
126.438258
 21
203.960423
 31
0.0
  0
LINE
  5
228
330
1B7
100
AcDbEntity
  8
0
  6
CONTINUOUS
 62
     3
100
AcDbLine
 10
126.438258
 20
203.960423
 30
0.0
 11
126.415024
 21
203.943449
 31
0.0
  0
LINE
  5
229
330
1B7
100
AcDbEntity
  8
0
  6
CONTINUOUS
 62
     3
100
AcDbLine
 10
126.415024
 20
203.943449
 30
0.0
 11
126.39133
 21
203.927133
 31
0.0
  0
LINE
  5
22A
330
1B7
100
AcDbEntity
  8
0
  6
CONTINUOUS
 62
     3
100
AcDbLine
 10
126.39133
 20
203.927133
 30
0.0
 11
126.367192
 21
203.911479
 31
0.0
  0
LINE
  5
22B
330
1B7
100
AcDbEntity
  8
0
  6
CONTINUOUS
 62
     3
100
AcDbLine
 10
126.367192
 20
203.911479
 30
0.0
 11
126.34264
 21
203.896499
 31
0.0
  0
LINE
  5
22C
330
1B7
100
AcDbEntity
  8
0
  6
CONTINUOUS
 62
     3
100
AcDbLine
 10
126.34264
 20
203.896499
 30
0.0
 11
126.31769
 21
203.882197
 31
0.0
  0
LINE
  5
22D
330
1B7
100
AcDbEntity
  8
0
  6
CONTINUOUS
 62
     3
100
AcDbLine
 10
126.31769
 20
203.882197
 30
0.0
 11
126.294566
 21
203.869727
 31
0.0
  0
LINE
  5
22E
330
1B7
100
AcDbEntity
  8
0
  6
CONTINUOUS
 62
     3
100
AcDbLine
 10
126.294566
 20
203.869727
 30
0.0
 11
126.271144
 21
203.857833
 31
0.0
  0
LINE
  5
22F
330
1B7
100
AcDbEntity
  8
0
  6
CONTINUOUS
 62
     3
100
AcDbLine
 10
126.271144
 20
203.857833
 30
0.0
 11
126.247438
 21
203.846517
 31
0.0
  0
LINE
  5
230
330
1B7
100
AcDbEntity
  8
0
  6
CONTINUOUS
 62
     3
100
AcDbLine
 10
126.247438
 20
203.846517
 30
0.0
 11
126.223464
 21
203.835779
 31
0.0
  0
LINE
  5
231
330
1B7
100
AcDbEntity
  8
0
  6
CONTINUOUS
 62
     3
100
AcDbLine
 10
126.223464
 20
203.835779
 30
0.0
 11
126.199234
 21
203.825623
 31
0.0
  0
LINE
  5
232
330
1B7
100
AcDbEntity
  8
0
  6
CONTINUOUS
 62
     3
100
AcDbLine
 10
126.199234
 20
203.825623
 30
0.0
 11
126.17476
 21
203.816051
 31
0.0
  0
LINE
  5
233
330
1B7
100
AcDbEntity
  8
0
  6
CONTINUOUS
 62
     3
100
AcDbLine
 10
126.17476
 20
203.816051
 30
0.0
 11
126.150058
 21
203.807061
 31
0.0
  0
LINE
  5
234
330
1B7
100
AcDbEntity
  8
0
  6
CONTINUOUS
 62
     3
100
AcDbLine
 10
126.150058
 20
203.807061
 30
0.0
 11
126.125142
 21
203.798661
 31
0.0
  0
LINE
  5
235
330
1B7
100
AcDbEntity
  8
0
  6
CONTINUOUS
 62
     3
100
AcDbLine
 10
126.125142
 20
203.798661
 30
0.0
 11
126.104234
 21
203.792111
 31
0.0
  0
LINE
  5
236
330
1B7
100
AcDbEntity
  8
0
  6
CONTINUOUS
 62
     3
100
AcDbLine
 10
126.104234
 20
203.792111
 30
0.0
 11
126.083196
 21
203.785973
 31
0.0
  0
LINE
  5
237
330
1B7
100
AcDbEntity
  8
0
  6
CONTINUOUS
 62
     3
100
AcDbLine
 10
126.083196
 20
203.785973
 30
0.0
 11
126.062036
 21
203.780247
 31
0.0
  0
LINE
  5
238
330
1B7
100
AcDbEntity
  8
0
  6
CONTINUOUS
 62
     3
100
AcDbLine
 10
126.062036
 20
203.780247
 30
0.0
 11
126.040762
 21
203.774933
 31
0.0
  0
LINE
  5
239
330
1B7
100
AcDbEntity
  8
0
  6
CONTINUOUS
 62
     3
100
AcDbLine
 10
126.040762
 20
203.774933
 30
0.0
 11
126.019384
 21
203.770035
 31
0.0
  0
LINE
  5
23A
330
1B7
100
AcDbEntity
  8
0
  6
CONTINUOUS
 62
     3
100
AcDbLine
 10
126.019384
 20
203.770035
 30
0.0
 11
125.99791
 21
203.765555
 31
0.0
  0
LINE
  5
23B
330
1B7
100
AcDbEntity
  8
0
  6
CONTINUOUS
 62
     3
100
AcDbLine
 10
125.99791
 20
203.765555
 30
0.0
 11
125.976348
 21
203.761493
 31
0.0
  0
LINE
  5
23C
330
1B7
100
AcDbEntity
  8
0
  6
CONTINUOUS
 62
     3
100
AcDbLine
 10
125.976348
 20
203.761493
 30
0.0
 11
125.954708
 21
203.757849
 31
0.0
  0
LINE
  5
23D
330
1B7
100
AcDbEntity
  8
0
  6
CONTINUOUS
 62
     3
100
AcDbLine
 10
125.954708
 20
203.757849
 30
0.0
 11
125.932998
 21
203.754629
 31
0.0
  0
LINE
  5
23E
330
1B7
100
AcDbEntity
  8
0
  6
CONTINUOUS
 62
     3
100
AcDbLine
 10
125.932998
 20
203.754629
 30
0.0
 11
125.911228
 21
203.751833
 31
0.0
  0
LINE
  5
23F
330
1B7
100
AcDbEntity
  8
0
  6
CONTINUOUS
 62
     3
100
AcDbLine
 10
125.911228
 20
203.751833
 30
0.0
 11
125.889404
 21
203.749461
 31
0.0
  0
LINE
  5
240
330
1B7
100
AcDbEntity
  8
0
  6
CONTINUOUS
 62
     3
100
AcDbLine
 10
125.889404
 20
203.749461
 30
0.0
 11
125.867538
 21
203.747517
 31
0.0
  0
LINE
  5
241
330
1B7
100
AcDbEntity
  8
0
  6
CONTINUOUS
 62
     3
100
AcDbLine
 10
125.867538
 20
203.747517
 30
0.0
 11
125.845636
 21
203.746003
 31
0.0
  0
LINE
  5
242
330
1B7
100
AcDbEntity
  8
0
  6
CONTINUOUS
 62
     3
100
AcDbLine
 10
125.845636
 20
203.746003
 30
0.0
 11
125.823706
 21
203.744919
 31
0.0
  0
LINE
  5
243
330
1B7
100
AcDbEntity
  8
0
  6
CONTINUOUS
 62
     3
100
AcDbLine
 10
125.823706
 20
203.744919
 30
0.0
 11
125.801762
 21
203.744265
 31
0.0
  0
LINE
  5
244
330
1B7
100
AcDbEntity
  8
0
  6
CONTINUOUS
 62
     3
100
AcDbLine
 10
125.801762
 20
203.744265
 30
0.0
 11
125.779806
 21
203.744047
 31
0.0
  0
LINE
  5
245
330
1B7
100
AcDbEntity
  8
0
  6
CONTINUOUS
 62
     3
100
AcDbLine
 10
125.779806
 20
203.744047
 30
0.0
 11
125.75787
 21
203.744265
 31
0.0
  0
LINE
  5
246
330
1B7
100
AcDbEntity
  8
0
  6
CONTINUOUS
 62
     3
100
AcDbLine
 10
125.75787
 20
203.744265
 30
0.0
 11
125.735944
 21
203.744913
 31
0.0
  0
LINE
  5
247
330
1B7
100
AcDbEntity
  8
0
  6
CONTINUOUS
 62
     3
100
AcDbLine
 10
125.735944
 20
203.744913
 30
0.0
 11
125.714034
 21
203.745995
 31
0.0
  0
LINE
  5
248
330
1B7
100
AcDbEntity
  8
0
  6
CONTINUOUS
 62
     3
100
AcDbLine
 10
125.714034
 20
203.745995
 30
0.0
 11
125.69215
 21
203.747507
 31
0.0
  0
LINE
  5
249
330
1B7
100
AcDbEntity
  8
0
  6
CONTINUOUS
 62
     3
100
AcDbLine
 10
125.69215
 20
203.747507
 30
0.0
 11
125.6703
 21
203.749447
 31
0.0
  0
LINE
  5
24A
330
1B7
100
AcDbEntity
  8
0
  6
CONTINUOUS
 62
     3
100
AcDbLine
 10
125.6703
 20
203.749447
 30
0.0
 11
125.648496
 21
203.751813
 31
0.0
  0
LINE
  5
24B
330
1B7
100
AcDbEntity
  8
0
  6
CONTINUOUS
 62
     3
100
AcDbLine
 10
125.648496
 20
203.751813
 30
0.0
 11
125.626742
 21
203.754603
 31
0.0
  0
LINE
  5
24C
330
1B7
100
AcDbEntity
  8
0
  6
CONTINUOUS
 62
     3
100
AcDbLine
 10
125.626742
 20
203.754603
 30
0.0
 11
125.60505
 21
203.757817
 31
0.0
  0
LINE
  5
24D
330
1B7
100
AcDbEntity
  8
0
  6
CONTINUOUS
 62
     3
100
AcDbLine
 10
125.60505
 20
203.757817
 30
0.0
 11
125.583428
 21
203.761453
 31
0.0
  0
LINE
  5
24E
330
1B7
100
AcDbEntity
  8
0
  6
CONTINUOUS
 62
     3
100
AcDbLine
 10
125.583428
 20
203.761453
 30
0.0
 11
125.561884
 21
203.765507
 31
0.0
  0
LINE
  5
24F
330
1B7
100
AcDbEntity
  8
0
  6
CONTINUOUS
 62
     3
100
AcDbLine
 10
125.561884
 20
203.765507
 30
0.0
 11
125.540426
 21
203.769981
 31
0.0
  0
LINE
  5
250
330
1B7
100
AcDbEntity
  8
0
  6
CONTINUOUS
 62
     3
100
AcDbLine
 10
125.540426
 20
203.769981
 30
0.0
 11
125.519064
 21
203.774869
 31
0.0
  0
LINE
  5
251
330
1B7
100
AcDbEntity
  8
0
  6
CONTINUOUS
 62
     3
100
AcDbLine
 10
125.519064
 20
203.774869
 30
0.0
 11
125.497808
 21
203.780173
 31
0.0
  0
LINE
  5
252
330
1B7
100
AcDbEntity
  8
0
  6
CONTINUOUS
 62
     3
100
AcDbLine
 10
125.497808
 20
203.780173
 30
0.0
 11
125.476664
 21
203.785891
 31
0.0
  0
LINE
  5
253
330
1B7
100
AcDbEntity
  8
0
  6
CONTINUOUS
 62
     3
100
AcDbLine
 10
125.476664
 20
203.785891
 30
0.0
 11
125.455642
 21
203.792019
 31
0.0
  0
LINE
  5
254
330
1B7
100
AcDbEntity
  8
0
  6
CONTINUOUS
 62
     3
100
AcDbLine
 10
125.455642
 20
203.792019
 30
0.0
 11
125.434752
 21
203.798555
 31
0.0
  0
LINE
  5
255
330
1B7
100
AcDbEntity
  8
0
  6
CONTINUOUS
 62
     3
100
AcDbLine
 10
125.434752
 20
203.798555
 30
0.0
 11
125.409824
 21
203.806955
 31
0.0
  0
LINE
  5
256
330
1B7
100
AcDbEntity
  8
0
  6
CONTINUOUS
 62
     3
100
AcDbLine
 10
125.409824
 20
203.806955
 30
0.0
 11
125.385112
 21
203.815939
 31
0.0
  0
LINE
  5
257
330
1B7
100
AcDbEntity
  8
0
  6
CONTINUOUS
 62
     3
100
AcDbLine
 10
125.385112
 20
203.815939
 30
0.0
 11
125.36063
 21
203.825511
 31
0.0
  0
LINE
  5
258
330
1B7
100
AcDbEntity
  8
0
  6
CONTINUOUS
 62
     3
100
AcDbLine
 10
125.36063
 20
203.825511
 30
0.0
 11
125.336388
 21
203.835665
 31
0.0
  0
LINE
  5
259
330
1B7
100
AcDbEntity
  8
0
  6
CONTINUOUS
 62
     3
100
AcDbLine
 10
125.336388
 20
203.835665
 30
0.0
 11
125.312404
 21
203.846401
 31
0.0
  0
LINE
  5
25A
330
1B7
100
AcDbEntity
  8
0
  6
CONTINUOUS
 62
     3
100
AcDbLine
 10
125.312404
 20
203.846401
 30
0.0
 11
125.288688
 21
203.857715
 31
0.0
  0
LINE
  5
25B
330
1B7
100
AcDbEntity
  8
0
  6
CONTINUOUS
 62
     3
100
AcDbLine
 10
125.288688
 20
203.857715
 30
0.0
 11
125.265256
 21
203.869609
 31
0.0
  0
LINE
  5
25C
330
1B7
100
AcDbEntity
  8
0
  6
CONTINUOUS
 62
     3
100
AcDbLine
 10
125.265256
 20
203.869609
 30
0.0
 11
125.24212
 21
203.882077
 31
0.0
  0
LINE
  5
25D
330
1B7
100
AcDbEntity
  8
0
  6
CONTINUOUS
 62
     3
100
AcDbLine
 10
125.24212
 20
203.882077
 30
0.0
 11
125.217146
 21
203.896387
 31
0.0
  0
LINE
  5
25E
330
1B7
100
AcDbEntity
  8
0
  6
CONTINUOUS
 62
     3
100
AcDbLine
 10
125.217146
 20
203.896387
 30
0.0
 11
125.192566
 21
203.911377
 31
0.0
  0
LINE
  5
25F
330
1B7
100
AcDbEntity
  8
0
  6
CONTINUOUS
 62
     3
100
AcDbLine
 10
125.192566
 20
203.911377
 30
0.0
 11
125.168406
 21
203.927039
 31
0.0
  0
LINE
  5
260
330
1B7
100
AcDbEntity
  8
0
  6
CONTINUOUS
 62
     3
100
AcDbLine
 10
125.168406
 20
203.927039
 30
0.0
 11
125.144686
 21
203.943365
 31
0.0
  0
LINE
  5
261
330
1B7
100
AcDbEntity
  8
0
  6
CONTINUOUS
 62
     3
100
AcDbLine
 10
125.144686
 20
203.943365
 30
0.0
 11
125.121428
 21
203.960351
 31
0.0
  0
LINE
  5
262
330
1B7
100
AcDbEntity
  8
0
  6
CONTINUOUS
 62
     3
100
AcDbLine
 10
125.121428
 20
203.960351
 30
0.0
 11
125.09866
 21
203.977985
 31
0.0
  0
LINE
  5
263
330
1B7
100
AcDbEntity
  8
0
  6
CONTINUOUS
 62
     3
100
AcDbLine
 10
125.09866
 20
203.977985
 30
0.0
 11
125.0764
 21
203.996263
 31
0.0
  0
LINE
  5
264
330
1B7
100
AcDbEntity
  8
0
  6
CONTINUOUS
 62
     3
100
AcDbLine
 10
125.0764
 20
203.996263
 30
0.0
 11
125.054672
 21
204.015175
 31
0.0
  0
LINE
  5
265
330
1B7
100
AcDbEntity
  8
0
  6
CONTINUOUS
 62
     3
100
AcDbLine
 10
125.054672
 20
204.015175
 30
0.0
 11
125.034166
 21
204.034079
 31
0.0
  0
LINE
  5
266
330
1B7
100
AcDbEntity
  8
0
  6
CONTINUOUS
 62
     3
100
AcDbLine
 10
125.034166
 20
204.034079
 30
0.0
 11
125.014202
 21
204.053559
 31
0.0
  0
LINE
  5
267
330
1B7
100
AcDbEntity
  8
0
  6
CONTINUOUS
 62
     3
100
AcDbLine
 10
125.014202
 20
204.053559
 30
0.0
 11
124.994804
 21
204.073601
 31
0.0
  0
LINE
  5
268
330
1B7
100
AcDbEntity
  8
0
  6
CONTINUOUS
 62
     3
100
AcDbLine
 10
124.994804
 20
204.073601
 30
0.0
 11
124.975994
 21
204.094189
 31
0.0
  0
LINE
  5
269
330
1B7
100
AcDbEntity
  8
0
  6
CONTINUOUS
 62
     3
100
AcDbLine
 10
124.975994
 20
204.094189
 30
0.0
 11
124.957792
 21
204.115313
 31
0.0
  0
LINE
  5
26A
330
1B7
100
AcDbEntity
  8
0
  6
CONTINUOUS
 62
     3
100
AcDbLine
 10
124.957792
 20
204.115313
 30
0.0
 11
124.940222
 21
204.136957
 31
0.0
  0
LINE
  5
26B
330
1B7
100
AcDbEntity
  8
0
  6
CONTINUOUS
 62
     3
100
AcDbLine
 10
124.940222
 20
204.136957
 30
0.0
 11
124.923306
 21
204.159109
 31
0.0
  0
LINE
  5
26C
330
1B7
100
AcDbEntity
  8
0
  6
CONTINUOUS
 62
     3
100
AcDbLine
 10
124.923306
 20
204.159109
 30
0.0
 11
124.907064
 21
204.181755
 31
0.0
  0
LINE
  5
26D
330
1B7
100
AcDbEntity
  8
0
  6
CONTINUOUS
 62
     3
100
AcDbLine
 10
124.907064
 20
204.181755
 30
0.0
 11
124.893518
 21
204.201825
 31
0.0
  0
LINE
  5
26E
330
1B7
100
AcDbEntity
  8
0
  6
CONTINUOUS
 62
     3
100
AcDbLine
 10
124.893518
 20
204.201825
 30
0.0
 11
124.880512
 21
204.222249
 31
0.0
  0
LINE
  5
26F
330
1B7
100
AcDbEntity
  8
0
  6
CONTINUOUS
 62
     3
100
AcDbLine
 10
124.880512
 20
204.222249
 30
0.0
 11
124.868064
 21
204.243017
 31
0.0
  0
LINE
  5
270
330
1B7
100
AcDbEntity
  8
0
  6
CONTINUOUS
 62
     3
100
AcDbLine
 10
124.868064
 20
204.243017
 30
0.0
 11
124.856186
 21
204.264121
 31
0.0
  0
LINE
  5
271
330
1B7
100
AcDbEntity
  8
0
  6
CONTINUOUS
 62
     3
100
AcDbLine
 10
124.856186
 20
204.264121
 30
0.0
 11
124.844894
 21
204.285549
 31
0.0
  0
LINE
  5
272
330
1B7
100
AcDbEntity
  8
0
  6
CONTINUOUS
 62
     3
100
AcDbLine
 10
124.844894
 20
204.285549
 30
0.0
 11
124.834204
 21
204.307291
 31
0.0
  0
LINE
  5
273
330
1B7
100
AcDbEntity
  8
0
  6
CONTINUOUS
 62
     3
100
AcDbLine
 10
124.834204
 20
204.307291
 30
0.0
 11
124.82413
 21
204.329341
 31
0.0
  0
LINE
  5
274
330
1B7
100
AcDbEntity
  8
0
  6
CONTINUOUS
 62
     3
100
AcDbLine
 10
124.82413
 20
204.329341
 30
0.0
 11
124.814684
 21
204.351687
 31
0.0
  0
LINE
  5
275
330
1B7
100
AcDbEntity
  8
0
  6
CONTINUOUS
 62
     3
100
AcDbLine
 10
124.814684
 20
204.351687
 30
0.0
 11
124.807624
 21
204.369685
 31
0.0
  0
LINE
  5
276
330
1B7
100
AcDbEntity
  8
0
  6
CONTINUOUS
 62
     3
100
AcDbLine
 10
124.807624
 20
204.369685
 30
0.0
 11
124.80098
 21
204.387853
 31
0.0
  0
LINE
  5
277
330
1B7
100
AcDbEntity
  8
0
  6
CONTINUOUS
 62
     3
100
AcDbLine
 10
124.80098
 20
204.387853
 30
0.0
 11
124.794756
 21
204.406179
 31
0.0
  0
LINE
  5
278
330
1B7
100
AcDbEntity
  8
0
  6
CONTINUOUS
 62
     3
100
AcDbLine
 10
124.794756
 20
204.406179
 30
0.0
 11
124.788958
 21
204.424655
 31
0.0
  0
LINE
  5
279
330
1B7
100
AcDbEntity
  8
0
  6
CONTINUOUS
 62
     3
100
AcDbLine
 10
124.788958
 20
204.424655
 30
0.0
 11
124.783592
 21
204.443267
 31
0.0
  0
LINE
  5
27A
330
1B7
100
AcDbEntity
  8
0
  6
CONTINUOUS
 62
     3
100
AcDbLine
 10
124.783592
 20
204.443267
 30
0.0
 11
124.778666
 21
204.462005
 31
0.0
  0
LINE
  5
27B
330
1B7
100
AcDbEntity
  8
0
  6
CONTINUOUS
 62
     3
100
AcDbLine
 10
124.778666
 20
204.462005
 30
0.0
 11
124.774182
 21
204.480859
 31
0.0
  0
LINE
  5
27C
330
1B7
100
AcDbEntity
  8
0
  6
CONTINUOUS
 62
     3
100
AcDbLine
 10
124.774182
 20
204.480859
 30
0.0
 11
124.77015
 21
204.499813
 31
0.0
  0
LINE
  5
27D
330
1B7
100
AcDbEntity
  8
0
  6
CONTINUOUS
 62
     3
100
AcDbLine
 10
124.77015
 20
204.499813
 30
0.0
 11
124.766574
 21
204.518861
 31
0.0
  0
LINE
  5
27E
330
1B7
100
AcDbEntity
  8
0
  6
CONTINUOUS
 62
     3
100
AcDbLine
 10
124.766574
 20
204.518861
 30
0.0
 11
124.763458
 21
204.537989
 31
0.0
  0
LINE
  5
27F
330
1B7
100
AcDbEntity
  8
0
  6
CONTINUOUS
 62
     3
100
AcDbLine
 10
124.763458
 20
204.537989
 30
0.0
 11
124.760812
 21
204.557187
 31
0.0
  0
LINE
  5
280
330
1B7
100
AcDbEntity
  8
0
  6
CONTINUOUS
 62
     3
100
AcDbLine
 10
124.760812
 20
204.557187
 30
0.0
 11
124.758638
 21
204.576443
 31
0.0
  0
LINE
  5
281
330
1B7
100
AcDbEntity
  8
0
  6
CONTINUOUS
 62
     3
100
AcDbLine
 10
124.758638
 20
204.576443
 30
0.0
 11
124.756944
 21
204.595747
 31
0.0
  0
LINE
  5
282
330
1B7
100
AcDbEntity
  8
0
  6
CONTINUOUS
 62
     3
100
AcDbLine
 10
124.756944
 20
204.595747
 30
0.0
 11
124.755734
 21
204.615085
 31
0.0
  0
LINE
  5
283
330
1B7
100
AcDbEntity
  8
0
  6
CONTINUOUS
 62
     3
100
AcDbLine
 10
124.755734
 20
204.615085
 30
0.0
 11
124.755018
 21
204.634447
 31
0.0
  0
LINE
  5
284
330
1B7
100
AcDbEntity
  8
0
  6
CONTINUOUS
 62
     3
100
AcDbLine
 10
124.755018
 20
204.634447
 30
0.0
 11
124.754798
 21
204.653823
 31
0.0
  0
LINE
  5
285
330
1B7
100
AcDbEntity
  8
0
  6
CONTINUOUS
 62
     3
100
AcDbLine
 10
124.754798
 20
204.653823
 30
0.0
 11
124.755068
 21
204.672829
 31
0.0
  0
LINE
  5
286
330
1B7
100
AcDbEntity
  8
0
  6
CONTINUOUS
 62
     3
100
AcDbLine
 10
124.755068
 20
204.672829
 30
0.0
 11
124.75582
 21
204.691825
 31
0.0
  0
LINE
  5
287
330
1B7
100
AcDbEntity
  8
0
  6
CONTINUOUS
 62
     3
100
AcDbLine
 10
124.75582
 20
204.691825
 30
0.0
 11
124.757048
 21
204.710797
 31
0.0
  0
LINE
  5
288
330
1B7
100
AcDbEntity
  8
0
  6
CONTINUOUS
 62
     3
100
AcDbLine
 10
124.757048
 20
204.710797
 30
0.0
 11
124.75875
 21
204.729735
 31
0.0
  0
LINE
  5
289
330
1B7
100
AcDbEntity
  8
0
  6
CONTINUOUS
 62
     3
100
AcDbLine
 10
124.75875
 20
204.729735
 30
0.0
 11
124.76092
 21
204.748627
 31
0.0
  0
LINE
  5
28A
330
1B7
100
AcDbEntity
  8
0
  6
CONTINUOUS
 62
     3
100
AcDbLine
 10
124.76092
 20
204.748627
 30
0.0
 11
124.763558
 21
204.767461
 31
0.0
  0
LINE
  5
28B
330
1B7
100
AcDbEntity
  8
0
  6
CONTINUOUS
 62
     3
100
AcDbLine
 10
124.763558
 20
204.767461
 30
0.0
 11
124.766658
 21
204.786223
 31
0.0
  0
LINE
  5
28C
330
1B7
100
AcDbEntity
  8
0
  6
CONTINUOUS
 62
     3
100
AcDbLine
 10
124.766658
 20
204.786223
 30
0.0
 11
124.770218
 21
204.804903
 31
0.0
  0
LINE
  5
28D
330
1B7
100
AcDbEntity
  8
0
  6
CONTINUOUS
 62
     3
100
AcDbLine
 10
124.770218
 20
204.804903
 30
0.0
 11
124.774232
 21
204.823489
 31
0.0
  0
LINE
  5
28E
330
1B7
100
AcDbEntity
  8
0
  6
CONTINUOUS
 62
     3
100
AcDbLine
 10
124.774232
 20
204.823489
 30
0.0
 11
124.7787
 21
204.841967
 31
0.0
  0
LINE
  5
28F
330
1B7
100
AcDbEntity
  8
0
  6
CONTINUOUS
 62
     3
100
AcDbLine
 10
124.7787
 20
204.841967
 30
0.0
 11
124.783616
 21
204.860325
 31
0.0
  0
LINE
  5
290
330
1B7
100
AcDbEntity
  8
0
  6
CONTINUOUS
 62
     3
100
AcDbLine
 10
124.783616
 20
204.860325
 30
0.0
 11
124.788976
 21
204.878553
 31
0.0
  0
LINE
  5
291
330
1B7
100
AcDbEntity
  8
0
  6
CONTINUOUS
 62
     3
100
AcDbLine
 10
124.788976
 20
204.878553
 30
0.0
 11
124.794778
 21
204.896637
 31
0.0
  0
LINE
  5
292
330
1B7
100
AcDbEntity
  8
0
  6
CONTINUOUS
 62
     3
100
AcDbLine
 10
124.794778
 20
204.896637
 30
0.0
 11
124.801018
 21
204.914565
 31
0.0
  0
LINE
  5
293
330
1B7
100
AcDbEntity
  8
0
  6
CONTINUOUS
 62
     3
100
AcDbLine
 10
124.801018
 20
204.914565
 30
0.0
 11
124.807692
 21
204.932327
 31
0.0
  0
LINE
  5
294
330
1B7
100
AcDbEntity
  8
0
  6
CONTINUOUS
 62
     3
100
AcDbLine
 10
124.807692
 20
204.932327
 30
0.0
 11
124.814796
 21
204.949909
 31
0.0
  0
LINE
  5
295
330
1B7
100
AcDbEntity
  8
0
  6
CONTINUOUS
 62
     3
100
AcDbLine
 10
124.814796
 20
204.949909
 30
0.0
 11
124.824206
 21
204.971461
 31
0.0
  0
LINE
  5
296
330
1B7
100
AcDbEntity
  8
0
  6
CONTINUOUS
 62
     3
100
AcDbLine
 10
124.824206
 20
204.971461
 30
0.0
 11
124.834258
 21
204.992705
 31
0.0
  0
LINE
  5
297
330
1B7
100
AcDbEntity
  8
0
  6
CONTINUOUS
 62
     3
100
AcDbLine
 10
124.834258
 20
204.992705
 30
0.0
 11
124.844936
 21
205.013629
 31
0.0
  0
LINE
  5
298
330
1B7
100
AcDbEntity
  8
0
  6
CONTINUOUS
 62
     3
100
AcDbLine
 10
124.844936
 20
205.013629
 30
0.0
 11
124.856226
 21
205.034221
 31
0.0
  0
LINE
  5
299
330
1B7
100
AcDbEntity
  8
0
  6
CONTINUOUS
 62
     3
100
AcDbLine
 10
124.856226
 20
205.034221
 30
0.0
 11
124.868114
 21
205.054467
 31
0.0
  0
LINE
  5
29A
330
1B7
100
AcDbEntity
  8
0
  6
CONTINUOUS
 62
     3
100
AcDbLine
 10
124.868114
 20
205.054467
 30
0.0
 11
124.88058
 21
205.074353
 31
0.0
  0
LINE
  5
29B
330
1B7
100
AcDbEntity
  8
0
  6
CONTINUOUS
 62
     3
100
AcDbLine
 10
124.88058
 20
205.074353
 30
0.0
 11
124.893612
 21
205.093869
 31
0.0
  0
LINE
  5
29C
330
1B7
100
AcDbEntity
  8
0
  6
CONTINUOUS
 62
     3
100
AcDbLine
 10
124.893612
 20
205.093869
 30
0.0
 11
124.907194
 21
205.113003
 31
0.0
  0
LINE
  5
29D
330
1B7
100
AcDbEntity
  8
0
  6
CONTINUOUS
 62
     3
100
AcDbLine
 10
124.907194
 20
205.113003
 30
0.0
 11
124.923484
 21
205.134529
 31
0.0
  0
LINE
  5
29E
330
1B7
100
AcDbEntity
  8
0
  6
CONTINUOUS
 62
     3
100
AcDbLine
 10
124.923484
 20
205.134529
 30
0.0
 11
124.94045
 21
205.155529
 31
0.0
  0
LINE
  5
29F
330
1B7
100
AcDbEntity
  8
0
  6
CONTINUOUS
 62
     3
100
AcDbLine
 10
124.94045
 20
205.155529
 30
0.0
 11
124.958068
 21
205.175995
 31
0.0
  0
LINE
  5
2A0
330
1B7
100
AcDbEntity
  8
0
  6
CONTINUOUS
 62
     3
100
AcDbLine
 10
124.958068
 20
205.175995
 30
0.0
 11
124.976308
 21
205.195921
 31
0.0
  0
LINE
  5
2A1
330
1B7
100
AcDbEntity
  8
0
  6
CONTINUOUS
 62
     3
100
AcDbLine
 10
124.976308
 20
205.195921
 30
0.0
 11
124.995144
 21
205.215307
 31
0.0
  0
LINE
  5
2A2
330
1B7
100
AcDbEntity
  8
0
  6
CONTINUOUS
 62
     3
100
AcDbLine
 10
124.995144
 20
205.215307
 30
0.0
 11
125.014544
 21
205.234145
 31
0.0
  0
LINE
  5
2A3
330
1B7
100
AcDbEntity
  8
0
  6
CONTINUOUS
 62
     3
100
AcDbLine
 10
125.014544
 20
205.234145
 30
0.0
 11
125.034482
 21
205.252433
 31
0.0
  0
LINE
  5
2A4
330
1B7
100
AcDbEntity
  8
0
  6
CONTINUOUS
 62
     3
100
AcDbLine
 10
125.034482
 20
205.252433
 30
0.0
 11
125.054928
 21
205.270165
 31
0.0
  0
LINE
  5
2A5
330
1B7
100
AcDbEntity
  8
0
  6
CONTINUOUS
 62
     3
100
AcDbLine
 10
125.054928
 20
205.270165
 30
0.0
 11
125.076684
 21
205.287991
 31
0.0
  0
LINE
  5
2A6
330
1B7
100
AcDbEntity
  8
0
  6
CONTINUOUS
 62
     3
100
AcDbLine
 10
125.076684
 20
205.287991
 30
0.0
 11
125.098942
 21
205.305185
 31
0.0
  0
LINE
  5
2A7
330
1B7
100
AcDbEntity
  8
0
  6
CONTINUOUS
 62
     3
100
AcDbLine
 10
125.098942
 20
205.305185
 30
0.0
 11
125.121682
 21
205.321719
 31
0.0
  0
LINE
  5
2A8
330
1B7
100
AcDbEntity
  8
0
  6
CONTINUOUS
 62
     3
100
AcDbLine
 10
125.121682
 20
205.321719
 30
0.0
 11
125.14489
 21
205.337565
 31
0.0
  0
LINE
  5
2A9
330
1B7
100
AcDbEntity
  8
0
  6
CONTINUOUS
 62
     3
100
AcDbLine
 10
125.14489
 20
205.337565
 30
0.0
 11
125.168546
 21
205.352695
 31
0.0
  0
LINE
  5
2AA
330
1B7
100
AcDbEntity
  8
0
  6
CONTINUOUS
 62
     3
100
AcDbLine
 10
125.168546
 20
205.352695
 30
0.0
 11
125.192634
 21
205.367083
 31
0.0
  0
LINE
  5
2AB
330
1B7
100
AcDbEntity
  8
0
  6
CONTINUOUS
 62
     3
100
AcDbLine
 10
125.192634
 20
205.367083
 30
0.0
 11
125.217134
 21
205.380699
 31
0.0
  0
LINE
  5
2AC
330
1B7
100
AcDbEntity
  8
0
  6
CONTINUOUS
 62
     3
100
AcDbLine
 10
125.217134
 20
205.380699
 30
0.0
 11
125.242032
 21
205.393517
 31
0.0
  0
LINE
  5
2AD
330
1B7
100
AcDbEntity
  8
0
  6
CONTINUOUS
 62
     3
100
AcDbLine
 10
125.242032
 20
205.393517
 30
0.0
 11
125.265376
 21
205.404649
 31
0.0
  0
LINE
  5
2AE
330
1B7
100
AcDbEntity
  8
0
  6
CONTINUOUS
 62
     3
100
AcDbLine
 10
125.265376
 20
205.404649
 30
0.0
 11
125.289004
 21
205.415161
 31
0.0
  0
LINE
  5
2AF
330
1B7
100
AcDbEntity
  8
0
  6
CONTINUOUS
 62
     3
100
AcDbLine
 10
125.289004
 20
205.415161
 30
0.0
 11
125.312874
 21
205.425145
 31
0.0
  0
LINE
  5
2B0
330
1B7
100
AcDbEntity
  8
0
  6
CONTINUOUS
 62
     3
100
AcDbLine
 10
125.312874
 20
205.425145
 30
0.0
 11
125.336946
 21
205.434689
 31
0.0
  0
LINE
  5
2B1
330
1B7
100
AcDbEntity
  8
0
  6
CONTINUOUS
 62
     3
100
AcDbLine
 10
125.336946
 20
205.434689
 30
0.0
 11
125.385534
 21
205.452803
 31
0.0
  0
LINE
  5
2B2
330
1B7
100
AcDbEntity
  8
0
  6
CONTINUOUS
 62
     3
100
AcDbLine
 10
125.385534
 20
205.452803
 30
0.0
 11
125.434446
 21
205.470213
 31
0.0
  0
ENDBLK
  5
1B9
330
1B7
100
AcDbEntity
  8
0
100
AcDbBlockEnd
  0
BLOCK
  5
2B4
330
2B3
100
AcDbEntity
  8
0
100
AcDbBlockBegin
  2
BLKF014
 70
     0
 71
     0
 10
0.0
 20
0.0
 30
0.0
  3
BLKF014
  1

  0
LINE
  5
2B7
330
2B3
100
AcDbEntity
  8
0
  6
CONTINUOUS
 62
     3
100
AcDbLine
 10
125.779796
 20
204.560617
 30
0.0
 11
125.865316
 21
204.553131
 31
0.0
  0
LINE
  5
2B8
330
2B3
100
AcDbEntity
  8
0
  6
CONTINUOUS
 62
     3
100
AcDbLine
 10
125.865316
 20
204.553131
 30
0.0
 11
125.907978
 21
204.548813
 31
0.0
  0
LINE
  5
2B9
330
2B3
100
AcDbEntity
  8
0
  6
CONTINUOUS
 62
     3
100
AcDbLine
 10
125.907978
 20
204.548813
 30
0.0
 11
125.950524
 21
204.543807
 31
0.0
  0
LINE
  5
2BA
330
2B3
100
AcDbEntity
  8
0
  6
CONTINUOUS
 62
     3
100
AcDbLine
 10
125.950524
 20
204.543807
 30
0.0
 11
125.992914
 21
204.537881
 31
0.0
  0
LINE
  5
2BB
330
2B3
100
AcDbEntity
  8
0
  6
CONTINUOUS
 62
     3
100
AcDbLine
 10
125.992914
 20
204.537881
 30
0.0
 11
126.035108
 21
204.530807
 31
0.0
  0
LINE
  5
2BC
330
2B3
100
AcDbEntity
  8
0
  6
CONTINUOUS
 62
     3
100
AcDbLine
 10
126.035108
 20
204.530807
 30
0.0
 11
126.077068
 21
204.522353
 31
0.0
  0
LINE
  5
2BD
330
2B3
100
AcDbEntity
  8
0
  6
CONTINUOUS
 62
     3
100
AcDbLine
 10
126.077068
 20
204.522353
 30
0.0
 11
126.118756
 21
204.512291
 31
0.0
  0
LINE
  5
2BE
330
2B3
100
AcDbEntity
  8
0
  6
CONTINUOUS
 62
     3
100
AcDbLine
 10
126.118756
 20
204.512291
 30
0.0
 11
126.158832
 21
204.500827
 31
0.0
  0
LINE
  5
2BF
330
2B3
100
AcDbEntity
  8
0
  6
CONTINUOUS
 62
     3
100
AcDbLine
 10
126.158832
 20
204.500827
 30
0.0
 11
126.198474
 21
204.487637
 31
0.0
  0
LINE
  5
2C0
330
2B3
100
AcDbEntity
  8
0
  6
CONTINUOUS
 62
     3
100
AcDbLine
 10
126.198474
 20
204.487637
 30
0.0
 11
126.237548
 21
204.472723
 31
0.0
  0
LINE
  5
2C1
330
2B3
100
AcDbEntity
  8
0
  6
CONTINUOUS
 62
     3
100
AcDbLine
 10
126.237548
 20
204.472723
 30
0.0
 11
126.275912
 21
204.456085
 31
0.0
  0
LINE
  5
2C2
330
2B3
100
AcDbEntity
  8
0
  6
CONTINUOUS
 62
     3
100
AcDbLine
 10
126.275912
 20
204.456085
 30
0.0
 11
126.313426
 21
204.437721
 31
0.0
  0
LINE
  5
2C3
330
2B3
100
AcDbEntity
  8
0
  6
CONTINUOUS
 62
     3
100
AcDbLine
 10
126.313426
 20
204.437721
 30
0.0
 11
126.349956
 21
204.417635
 31
0.0
  0
LINE
  5
2C4
330
2B3
100
AcDbEntity
  8
0
  6
CONTINUOUS
 62
     3
100
AcDbLine
 10
126.349956
 20
204.417635
 30
0.0
 11
126.385358
 21
204.395827
 31
0.0
  0
LINE
  5
2C5
330
2B3
100
AcDbEntity
  8
0
  6
CONTINUOUS
 62
     3
100
AcDbLine
 10
126.385358
 20
204.395827
 30
0.0
 11
126.419496
 21
204.372295
 31
0.0
  0
LINE
  5
2C6
330
2B3
100
AcDbEntity
  8
0
  6
CONTINUOUS
 62
     3
100
AcDbLine
 10
126.419496
 20
204.372295
 30
0.0
 11
126.449302
 21
204.349483
 31
0.0
  0
LINE
  5
2C7
330
2B3
100
AcDbEntity
  8
0
  6
CONTINUOUS
 62
     3
100
AcDbLine
 10
126.449302
 20
204.349483
 30
0.0
 11
126.478098
 21
204.325429
 31
0.0
  0
LINE
  5
2C8
330
2B3
100
AcDbEntity
  8
0
  6
CONTINUOUS
 62
     3
100
AcDbLine
 10
126.478098
 20
204.325429
 30
0.0
 11
126.506026
 21
204.300311
 31
0.0
  0
LINE
  5
2C9
330
2B3
100
AcDbEntity
  8
0
  6
CONTINUOUS
 62
     3
100
AcDbLine
 10
126.506026
 20
204.300311
 30
0.0
 11
126.533234
 21
204.274307
 31
0.0
  0
LINE
  5
2CA
330
2B3
100
AcDbEntity
  8
0
  6
CONTINUOUS
 62
     3
100
AcDbLine
 10
126.533234
 20
204.274307
 30
0.0
 11
126.559862
 21
204.247595
 31
0.0
  0
LINE
  5
2CB
330
2B3
100
AcDbEntity
  8
0
  6
CONTINUOUS
 62
     3
100
AcDbLine
 10
126.559862
 20
204.247595
 30
0.0
 11
126.586058
 21
204.220351
 31
0.0
  0
LINE
  5
2CC
330
2B3
100
AcDbEntity
  8
0
  6
CONTINUOUS
 62
     3
100
AcDbLine
 10
126.586058
 20
204.220351
 30
0.0
 11
126.637726
 21
204.164975
 31
0.0
  0
ENDBLK
  5
2B5
330
2B3
100
AcDbEntity
  8
0
100
AcDbBlockEnd
  0
BLOCK
  5
2CE
330
2CD
100
AcDbEntity
  8
0
100
AcDbBlockBegin
  2
BLKF015
 70
     0
 71
     0
 10
0.0
 20
0.0
 30
0.0
  3
BLKF015
  1

  0
LINE
  5
2D1
330
2CD
100
AcDbEntity
  8
0
  6
CONTINUOUS
 62
     3
100
AcDbLine
 10
124.928518
 20
204.157511
 30
0.0
 11
124.941706
 21
204.179035
 31
0.0
  0
LINE
  5
2D2
330
2CD
100
AcDbEntity
  8
0
  6
CONTINUOUS
 62
     3
100
AcDbLine
 10
124.941706
 20
204.179035
 30
0.0
 11
124.955166
 21
204.200331
 31
0.0
  0
LINE
  5
2D3
330
2CD
100
AcDbEntity
  8
0
  6
CONTINUOUS
 62
     3
100
AcDbLine
 10
124.955166
 20
204.200331
 30
0.0
 11
124.969168
 21
204.221167
 31
0.0
  0
LINE
  5
2D4
330
2CD
100
AcDbEntity
  8
0
  6
CONTINUOUS
 62
     3
100
AcDbLine
 10
124.969168
 20
204.221167
 30
0.0
 11
124.98398
 21
204.241315
 31
0.0
  0
LINE
  5
2D5
330
2CD
100
AcDbEntity
  8
0
  6
CONTINUOUS
 62
     3
100
AcDbLine
 10
124.98398
 20
204.241315
 30
0.0
 11
124.996582
 21
204.256821
 31
0.0
  0
LINE
  5
2D6
330
2CD
100
AcDbEntity
  8
0
  6
CONTINUOUS
 62
     3
100
AcDbLine
 10
124.996582
 20
204.256821
 30
0.0
 11
125.009838
 21
204.271759
 31
0.0
  0
LINE
  5
2D7
330
2CD
100
AcDbEntity
  8
0
  6
CONTINUOUS
 62
     3
100
AcDbLine
 10
125.009838
 20
204.271759
 30
0.0
 11
125.023712
 21
204.286151
 31
0.0
  0
LINE
  5
2D8
330
2CD
100
AcDbEntity
  8
0
  6
CONTINUOUS
 62
     3
100
AcDbLine
 10
125.023712
 20
204.286151
 30
0.0
 11
125.038164
 21
204.300017
 31
0.0
  0
LINE
  5
2D9
330
2CD
100
AcDbEntity
  8
0
  6
CONTINUOUS
 62
     3
100
AcDbLine
 10
125.038164
 20
204.300017
 30
0.0
 11
125.053156
 21
204.313377
 31
0.0
  0
LINE
  5
2DA
330
2CD
100
AcDbEntity
  8
0
  6
CONTINUOUS
 62
     3
100
AcDbLine
 10
125.053156
 20
204.313377
 30
0.0
 11
125.068648
 21
204.326255
 31
0.0
  0
LINE
  5
2DB
330
2CD
100
AcDbEntity
  8
0
  6
CONTINUOUS
 62
     3
100
AcDbLine
 10
125.068648
 20
204.326255
 30
0.0
 11
125.084604
 21
204.338669
 31
0.0
  0
LINE
  5
2DC
330
2CD
100
AcDbEntity
  8
0
  6
CONTINUOUS
 62
     3
100
AcDbLine
 10
125.084604
 20
204.338669
 30
0.0
 11
125.100982
 21
204.350639
 31
0.0
  0
LINE
  5
2DD
330
2CD
100
AcDbEntity
  8
0
  6
CONTINUOUS
 62
     3
100
AcDbLine
 10
125.100982
 20
204.350639
 30
0.0
 11
125.117744
 21
204.362191
 31
0.0
  0
LINE
  5
2DE
330
2CD
100
AcDbEntity
  8
0
  6
CONTINUOUS
 62
     3
100
AcDbLine
 10
125.117744
 20
204.362191
 30
0.0
 11
125.13485
 21
204.373341
 31
0.0
  0
LINE
  5
2DF
330
2CD
100
AcDbEntity
  8
0
  6
CONTINUOUS
 62
     3
100
AcDbLine
 10
125.13485
 20
204.373341
 30
0.0
 11
125.152266
 21
204.384111
 31
0.0
  0
LINE
  5
2E0
330
2CD
100
AcDbEntity
  8
0
  6
CONTINUOUS
 62
     3
100
AcDbLine
 10
125.152266
 20
204.384111
 30
0.0
 11
125.169948
 21
204.394523
 31
0.0
  0
LINE
  5
2E1
330
2CD
100
AcDbEntity
  8
0
  6
CONTINUOUS
 62
     3
100
AcDbLine
 10
125.169948
 20
204.394523
 30
0.0
 11
125.18786
 21
204.404597
 31
0.0
  0
LINE
  5
2E2
330
2CD
100
AcDbEntity
  8
0
  6
CONTINUOUS
 62
     3
100
AcDbLine
 10
125.18786
 20
204.404597
 30
0.0
 11
125.205962
 21
204.414355
 31
0.0
  0
LINE
  5
2E3
330
2CD
100
AcDbEntity
  8
0
  6
CONTINUOUS
 62
     3
100
AcDbLine
 10
125.205962
 20
204.414355
 30
0.0
 11
125.224216
 21
204.423815
 31
0.0
  0
LINE
  5
2E4
330
2CD
100
AcDbEntity
  8
0
  6
CONTINUOUS
 62
     3
100
AcDbLine
 10
125.224216
 20
204.423815
 30
0.0
 11
125.242582
 21
204.433003
 31
0.0
  0
LINE
  5
2E5
330
2CD
100
AcDbEntity
  8
0
  6
CONTINUOUS
 62
     3
100
AcDbLine
 10
125.242582
 20
204.433003
 30
0.0
 11
125.261908
 21
204.442349
 31
0.0
  0
LINE
  5
2E6
330
2CD
100
AcDbEntity
  8
0
  6
CONTINUOUS
 62
     3
100
AcDbLine
 10
125.261908
 20
204.442349
 30
0.0
 11
125.281316
 21
204.451403
 31
0.0
  0
LINE
  5
2E7
330
2CD
100
AcDbEntity
  8
0
  6
CONTINUOUS
 62
     3
100
AcDbLine
 10
125.281316
 20
204.451403
 30
0.0
 11
125.300806
 21
204.460155
 31
0.0
  0
LINE
  5
2E8
330
2CD
100
AcDbEntity
  8
0
  6
CONTINUOUS
 62
     3
100
AcDbLine
 10
125.300806
 20
204.460155
 30
0.0
 11
125.32038
 21
204.468593
 31
0.0
  0
LINE
  5
2E9
330
2CD
100
AcDbEntity
  8
0
  6
CONTINUOUS
 62
     3
100
AcDbLine
 10
125.32038
 20
204.468593
 30
0.0
 11
125.340038
 21
204.476707
 31
0.0
  0
LINE
  5
2EA
330
2CD
100
AcDbEntity
  8
0
  6
CONTINUOUS
 62
     3
100
AcDbLine
 10
125.340038
 20
204.476707
 30
0.0
 11
125.35978
 21
204.484481
 31
0.0
  0
LINE
  5
2EB
330
2CD
100
AcDbEntity
  8
0
  6
CONTINUOUS
 62
     3
100
AcDbLine
 10
125.35978
 20
204.484481
 30
0.0
 11
125.379608
 21
204.491905
 31
0.0
  0
LINE
  5
2EC
330
2CD
100
AcDbEntity
  8
0
  6
CONTINUOUS
 62
     3
100
AcDbLine
 10
125.379608
 20
204.491905
 30
0.0
 11
125.399522
 21
204.498967
 31
0.0
  0
LINE
  5
2ED
330
2CD
100
AcDbEntity
  8
0
  6
CONTINUOUS
 62
     3
100
AcDbLine
 10
125.399522
 20
204.498967
 30
0.0
 11
125.419522
 21
204.505657
 31
0.0
  0
LINE
  5
2EE
330
2CD
100
AcDbEntity
  8
0
  6
CONTINUOUS
 62
     3
100
AcDbLine
 10
125.419522
 20
204.505657
 30
0.0
 11
125.43961
 21
204.511959
 31
0.0
  0
LINE
  5
2EF
330
2CD
100
AcDbEntity
  8
0
  6
CONTINUOUS
 62
     3
100
AcDbLine
 10
125.43961
 20
204.511959
 30
0.0
 11
125.459786
 21
204.517865
 31
0.0
  0
LINE
  5
2F0
330
2CD
100
AcDbEntity
  8
0
  6
CONTINUOUS
 62
     3
100
AcDbLine
 10
125.459786
 20
204.517865
 30
0.0
 11
125.48005
 21
204.523363
 31
0.0
  0
LINE
  5
2F1
330
2CD
100
AcDbEntity
  8
0
  6
CONTINUOUS
 62
     3
100
AcDbLine
 10
125.48005
 20
204.523363
 30
0.0
 11
125.500404
 21
204.528439
 31
0.0
  0
LINE
  5
2F2
330
2CD
100
AcDbEntity
  8
0
  6
CONTINUOUS
 62
     3
100
AcDbLine
 10
125.500404
 20
204.528439
 30
0.0
 11
125.520848
 21
204.533081
 31
0.0
  0
LINE
  5
2F3
330
2CD
100
AcDbEntity
  8
0
  6
CONTINUOUS
 62
     3
100
AcDbLine
 10
125.520848
 20
204.533081
 30
0.0
 11
125.541382
 21
204.537279
 31
0.0
  0
LINE
  5
2F4
330
2CD
100
AcDbEntity
  8
0
  6
CONTINUOUS
 62
     3
100
AcDbLine
 10
125.541382
 20
204.537279
 30
0.0
 11
125.562008
 21
204.541021
 31
0.0
  0
LINE
  5
2F5
330
2CD
100
AcDbEntity
  8
0
  6
CONTINUOUS
 62
     3
100
AcDbLine
 10
125.562008
 20
204.541021
 30
0.0
 11
125.588892
 21
204.545195
 31
0.0
  0
LINE
  5
2F6
330
2CD
100
AcDbEntity
  8
0
  6
CONTINUOUS
 62
     3
100
AcDbLine
 10
125.588892
 20
204.545195
 30
0.0
 11
125.615914
 21
204.548679
 31
0.0
  0
LINE
  5
2F7
330
2CD
100
AcDbEntity
  8
0
  6
CONTINUOUS
 62
     3
100
AcDbLine
 10
125.615914
 20
204.548679
 30
0.0
 11
125.64305
 21
204.551571
 31
0.0
  0
LINE
  5
2F8
330
2CD
100
AcDbEntity
  8
0
  6
CONTINUOUS
 62
     3
100
AcDbLine
 10
125.64305
 20
204.551571
 30
0.0
 11
125.670282
 21
204.553971
 31
0.0
  0
LINE
  5
2F9
330
2CD
100
AcDbEntity
  8
0
  6
CONTINUOUS
 62
     3
100
AcDbLine
 10
125.670282
 20
204.553971
 30
0.0
 11
125.697594
 21
204.555977
 31
0.0
  0
LINE
  5
2FA
330
2CD
100
AcDbEntity
  8
0
  6
CONTINUOUS
 62
     3
100
AcDbLine
 10
125.697594
 20
204.555977
 30
0.0
 11
125.724962
 21
204.557687
 31
0.0
  0
LINE
  5
2FB
330
2CD
100
AcDbEntity
  8
0
  6
CONTINUOUS
 62
     3
100
AcDbLine
 10
125.724962
 20
204.557687
 30
0.0
 11
125.779796
 21
204.560617
 31
0.0
  0
ENDBLK
  5
2CF
330
2CD
100
AcDbEntity
  8
0
100
AcDbBlockEnd
  0
BLOCK
  5
300
330
2FF
100
AcDbEntity
  8
0
100
AcDbBlockBegin
  2
BLKF016
 70
     0
 71
     0
 10
0.0
 20
0.0
 30
0.0
  3
BLKF016
  1

  0
LINE
  5
303
330
2FF
100
AcDbEntity
  8
0
  6
CONTINUOUS
 62
     3
100
AcDbLine
 10
-7.015504
 20
174.812757
 30
0.0
 11
-7.11196
 21
174.979829
 31
0.0
  0
LINE
  5
304
330
2FF
100
AcDbEntity
  8
0
  6
CONTINUOUS
 62
     3
100
AcDbLine
 10
-7.11196
 20
174.979829
 30
0.0
 11
-7.399732
 21
175.478259
 31
0.0
  0
LINE
  5
305
330
2FF
100
AcDbEntity
  8
0
  6
CONTINUOUS
 62
     3
100
AcDbLine
 10
-7.399732
 20
175.478259
 30
0.0
 11
-7.874006
 21
176.299715
 31
0.0
  0
ENDBLK
  5
301
330
2FF
100
AcDbEntity
  8
0
100
AcDbBlockEnd
  0
BLOCK
  5
307
330
306
100
AcDbEntity
  8
0
100
AcDbBlockBegin
  2
BLKF017
 70
     0
 71
     0
 10
0.0
 20
0.0
 30
0.0
  3
BLKF017
  1

  0
LINE
  5
30A
330
306
100
AcDbEntity
  8
0
  6
CONTINUOUS
 62
     3
100
AcDbLine
 10
-11.9664
 20
176.299715
 30
0.0
 11
-12.440674
 21
175.478259
 31
0.0
  0
LINE
  5
30B
330
306
100
AcDbEntity
  8
0
  6
CONTINUOUS
 62
     3
100
AcDbLine
 10
-12.440674
 20
175.478259
 30
0.0
 11
-12.728446
 21
174.979829
 31
0.0
  0
LINE
  5
30C
330
306
100
AcDbEntity
  8
0
  6
CONTINUOUS
 62
     3
100
AcDbLine
 10
-12.728446
 20
174.979829
 30
0.0
 11
-12.824902
 21
174.812757
 31
0.0
  0
ENDBLK
  5
308
330
306
100
AcDbEntity
  8
0
100
AcDbBlockEnd
  0
BLOCK
  5
30E
330
30D
100
AcDbEntity
  8
0
100
AcDbBlockBegin
  2
BLKF018
 70
     0
 71
     0
 10
0.0
 20
0.0
 30
0.0
  3
BLKF018
  1

  0
LINE
  5
311
330
30D
100
AcDbEntity
  8
0
  6
CONTINUOUS
 62
     3
100
AcDbLine
 10
-7.874006
 20
213.325777
 30
0.0
 11
-7.399732
 21
214.147249
 31
0.0
  0
LINE
  5
312
330
30D
100
AcDbEntity
  8
0
  6
CONTINUOUS
 62
     3
100
AcDbLine
 10
-7.399732
 20
214.147249
 30
0.0
 11
-7.11196
 21
214.645677
 31
0.0
  0
LINE
  5
313
330
30D
100
AcDbEntity
  8
0
  6
CONTINUOUS
 62
     3
100
AcDbLine
 10
-7.11196
 20
214.645677
 30
0.0
 11
-7.015504
 21
214.812749
 31
0.0
  0
ENDBLK
  5
30F
330
30D
100
AcDbEntity
  8
0
100
AcDbBlockEnd
  0
BLOCK
  5
318
330
317
100
AcDbEntity
  8
0
100
AcDbBlockBegin
  2
BLKF019
 70
     0
 71
     0
 10
0.0
 20
0.0
 30
0.0
  3
BLKF019
  1

  0
LINE
  5
31B
330
317
100
AcDbEntity
  8
0
  6
CONTINUOUS
 62
     3
100
AcDbLine
 10
-12.824902
 20
214.812749
 30
0.0
 11
-12.728446
 21
214.645677
 31
0.0
  0
LINE
  5
31C
330
317
100
AcDbEntity
  8
0
  6
CONTINUOUS
 62
     3
100
AcDbLine
 10
-12.728446
 20
214.645677
 30
0.0
 11
-12.440674
 21
214.147249
 31
0.0
  0
LINE
  5
31D
330
317
100
AcDbEntity
  8
0
  6
CONTINUOUS
 62
     3
100
AcDbLine
 10
-12.440674
 20
214.147249
 30
0.0
 11
-11.9664
 21
213.325777
 31
0.0
  0
ENDBLK
  5
319
330
317
100
AcDbEntity
  8
0
100
AcDbBlockEnd
  0
BLOCK
  5
336
330
335
100
AcDbEntity
  8
0
100
AcDbBlockBegin
  2
BLKF020
 70
     0
 71
     0
 10
0.0
 20
0.0
 30
0.0
  3
BLKF020
  1

  0
LINE
  5
339
330
335
100
AcDbEntity
  8
0
  6
CONTINUOUS
 62
     3
100
AcDbLine
 10
147.063954
 20
161.462747
 30
0.0
 11
147.144188
 21
161.429989
 31
0.0
  0
LINE
  5
33A
330
335
100
AcDbEntity
  8
0
  6
CONTINUOUS
 62
     3
100
AcDbLine
 10
147.144188
 20
161.429989
 30
0.0
 11
147.224544
 21
161.397661
 31
0.0
  0
LINE
  5
33B
330
335
100
AcDbEntity
  8
0
  6
CONTINUOUS
 62
     3
100
AcDbLine
 10
147.224544
 20
161.397661
 30
0.0
 11
147.305148
 21
161.366191
 31
0.0
  0
LINE
  5
33C
330
335
100
AcDbEntity
  8
0
  6
CONTINUOUS
 62
     3
100
AcDbLine
 10
147.305148
 20
161.366191
 30
0.0
 11
147.345582
 21
161.350915
 31
0.0
  0
LINE
  5
33D
330
335
100
AcDbEntity
  8
0
  6
CONTINUOUS
 62
     3
100
AcDbLine
 10
147.345582
 20
161.350915
 30
0.0
 11
147.386126
 21
161.336013
 31
0.0
  0
LINE
  5
33E
330
335
100
AcDbEntity
  8
0
  6
CONTINUOUS
 62
     3
100
AcDbLine
 10
147.386126
 20
161.336013
 30
0.0
 11
147.445124
 21
161.315153
 31
0.0
  0
LINE
  5
33F
330
335
100
AcDbEntity
  8
0
  6
CONTINUOUS
 62
     3
100
AcDbLine
 10
147.445124
 20
161.315153
 30
0.0
 11
147.504378
 21
161.295169
 31
0.0
  0
LINE
  5
340
330
335
100
AcDbEntity
  8
0
  6
CONTINUOUS
 62
     3
100
AcDbLine
 10
147.504378
 20
161.295169
 30
0.0
 11
147.563874
 21
161.276033
 31
0.0
  0
LINE
  5
341
330
335
100
AcDbEntity
  8
0
  6
CONTINUOUS
 62
     3
100
AcDbLine
 10
147.563874
 20
161.276033
 30
0.0
 11
147.623606
 21
161.257717
 31
0.0
  0
LINE
  5
342
330
335
100
AcDbEntity
  8
0
  6
CONTINUOUS
 62
     3
100
AcDbLine
 10
147.623606
 20
161.257717
 30
0.0
 11
147.683568
 21
161.240189
 31
0.0
  0
LINE
  5
343
330
335
100
AcDbEntity
  8
0
  6
CONTINUOUS
 62
     3
100
AcDbLine
 10
147.683568
 20
161.240189
 30
0.0
 11
147.74375
 21
161.223427
 31
0.0
  0
LINE
  5
344
330
335
100
AcDbEntity
  8
0
  6
CONTINUOUS
 62
     3
100
AcDbLine
 10
147.74375
 20
161.223427
 30
0.0
 11
147.804142
 21
161.207397
 31
0.0
  0
LINE
  5
345
330
335
100
AcDbEntity
  8
0
  6
CONTINUOUS
 62
     3
100
AcDbLine
 10
147.804142
 20
161.207397
 30
0.0
 11
147.86474
 21
161.192075
 31
0.0
  0
LINE
  5
346
330
335
100
AcDbEntity
  8
0
  6
CONTINUOUS
 62
     3
100
AcDbLine
 10
147.86474
 20
161.192075
 30
0.0
 11
147.925532
 21
161.177431
 31
0.0
  0
LINE
  5
347
330
335
100
AcDbEntity
  8
0
  6
CONTINUOUS
 62
     3
100
AcDbLine
 10
147.925532
 20
161.177431
 30
0.0
 11
147.986512
 21
161.163435
 31
0.0
  0
LINE
  5
348
330
335
100
AcDbEntity
  8
0
  6
CONTINUOUS
 62
     3
100
AcDbLine
 10
147.986512
 20
161.163435
 30
0.0
 11
148.04767
 21
161.150061
 31
0.0
  0
LINE
  5
349
330
335
100
AcDbEntity
  8
0
  6
CONTINUOUS
 62
     3
100
AcDbLine
 10
148.04767
 20
161.150061
 30
0.0
 11
148.109002
 21
161.137281
 31
0.0
  0
LINE
  5
34A
330
335
100
AcDbEntity
  8
0
  6
CONTINUOUS
 62
     3
100
AcDbLine
 10
148.109002
 20
161.137281
 30
0.0
 11
148.170494
 21
161.125067
 31
0.0
  0
LINE
  5
34B
330
335
100
AcDbEntity
  8
0
  6
CONTINUOUS
 62
     3
100
AcDbLine
 10
148.170494
 20
161.125067
 30
0.0
 11
148.232144
 21
161.113387
 31
0.0
  0
LINE
  5
34C
330
335
100
AcDbEntity
  8
0
  6
CONTINUOUS
 62
     3
100
AcDbLine
 10
148.232144
 20
161.113387
 30
0.0
 11
148.293938
 21
161.102217
 31
0.0
  0
LINE
  5
34D
330
335
100
AcDbEntity
  8
0
  6
CONTINUOUS
 62
     3
100
AcDbLine
 10
148.293938
 20
161.102217
 30
0.0
 11
148.355872
 21
161.091529
 31
0.0
  0
LINE
  5
34E
330
335
100
AcDbEntity
  8
0
  6
CONTINUOUS
 62
     3
100
AcDbLine
 10
148.355872
 20
161.091529
 30
0.0
 11
148.417936
 21
161.081291
 31
0.0
  0
LINE
  5
34F
330
335
100
AcDbEntity
  8
0
  6
CONTINUOUS
 62
     3
100
AcDbLine
 10
148.417936
 20
161.081291
 30
0.0
 11
148.480122
 21
161.071477
 31
0.0
  0
LINE
  5
350
330
335
100
AcDbEntity
  8
0
  6
CONTINUOUS
 62
     3
100
AcDbLine
 10
148.480122
 20
161.071477
 30
0.0
 11
148.542422
 21
161.062057
 31
0.0
  0
LINE
  5
351
330
335
100
AcDbEntity
  8
0
  6
CONTINUOUS
 62
     3
100
AcDbLine
 10
148.542422
 20
161.062057
 30
0.0
 11
148.604828
 21
161.053007
 31
0.0
  0
LINE
  5
352
330
335
100
AcDbEntity
  8
0
  6
CONTINUOUS
 62
     3
100
AcDbLine
 10
148.604828
 20
161.053007
 30
0.0
 11
148.667332
 21
161.044295
 31
0.0
  0
LINE
  5
353
330
335
100
AcDbEntity
  8
0
  6
CONTINUOUS
 62
     3
100
AcDbLine
 10
148.667332
 20
161.044295
 30
0.0
 11
148.729926
 21
161.035893
 31
0.0
  0
LINE
  5
354
330
335
100
AcDbEntity
  8
0
  6
CONTINUOUS
 62
     3
100
AcDbLine
 10
148.729926
 20
161.035893
 30
0.0
 11
148.792602
 21
161.027773
 31
0.0
  0
LINE
  5
355
330
335
100
AcDbEntity
  8
0
  6
CONTINUOUS
 62
     3
100
AcDbLine
 10
148.792602
 20
161.027773
 30
0.0
 11
148.85535
 21
161.019909
 31
0.0
  0
LINE
  5
356
330
335
100
AcDbEntity
  8
0
  6
CONTINUOUS
 62
     3
100
AcDbLine
 10
148.85535
 20
161.019909
 30
0.0
 11
148.981036
 21
161.004829
 31
0.0
  0
LINE
  5
357
330
335
100
AcDbEntity
  8
0
  6
CONTINUOUS
 62
     3
100
AcDbLine
 10
148.981036
 20
161.004829
 30
0.0
 11
149.106916
 21
160.990427
 31
0.0
  0
LINE
  5
358
330
335
100
AcDbEntity
  8
0
  6
CONTINUOUS
 62
     3
100
AcDbLine
 10
149.106916
 20
160.990427
 30
0.0
 11
149.232926
 21
160.976477
 31
0.0
  0
LINE
  5
359
330
335
100
AcDbEntity
  8
0
  6
CONTINUOUS
 62
     3
100
AcDbLine
 10
149.232926
 20
160.976477
 30
0.0
 11
149.359002
 21
160.962755
 31
0.0
  0
ENDBLK
  5
337
330
335
100
AcDbEntity
  8
0
100
AcDbBlockEnd
  0
BLOCK
  5
35C
330
35B
100
AcDbEntity
  8
0
100
AcDbBlockBegin
  2
BLKF021
 70
     0
 71
     0
 10
0.0
 20
0.0
 30
0.0
  3
BLKF021
  1

  0
LINE
  5
35F
330
35B
100
AcDbEntity
  8
0
  6
CONTINUOUS
 62
     3
100
AcDbLine
 10
145.405276
 20
161.462747
 30
0.0
 11
145.345586
 21
161.439845
 31
0.0
  0
LINE
  5
360
330
35B
100
AcDbEntity
  8
0
  6
CONTINUOUS
 62
     3
100
AcDbLine
 10
145.345586
 20
161.439845
 30
0.0
 11
145.28589
 21
161.416987
 31
0.0
  0
LINE
  5
361
330
35B
100
AcDbEntity
  8
0
  6
CONTINUOUS
 62
     3
100
AcDbLine
 10
145.28589
 20
161.416987
 30
0.0
 11
145.226184
 21
161.394213
 31
0.0
  0
LINE
  5
362
330
35B
100
AcDbEntity
  8
0
  6
CONTINUOUS
 62
     3
100
AcDbLine
 10
145.226184
 20
161.394213
 30
0.0
 11
145.16646
 21
161.371567
 31
0.0
  0
LINE
  5
363
330
35B
100
AcDbEntity
  8
0
  6
CONTINUOUS
 62
     3
100
AcDbLine
 10
145.16646
 20
161.371567
 30
0.0
 11
145.106714
 21
161.349093
 31
0.0
  0
LINE
  5
364
330
35B
100
AcDbEntity
  8
0
  6
CONTINUOUS
 62
     3
100
AcDbLine
 10
145.106714
 20
161.349093
 30
0.0
 11
145.04694
 21
161.326833
 31
0.0
  0
LINE
  5
365
330
35B
100
AcDbEntity
  8
0
  6
CONTINUOUS
 62
     3
100
AcDbLine
 10
145.04694
 20
161.326833
 30
0.0
 11
144.987132
 21
161.304829
 31
0.0
  0
LINE
  5
366
330
35B
100
AcDbEntity
  8
0
  6
CONTINUOUS
 62
     3
100
AcDbLine
 10
144.987132
 20
161.304829
 30
0.0
 11
144.927284
 21
161.283125
 31
0.0
  0
LINE
  5
367
330
35B
100
AcDbEntity
  8
0
  6
CONTINUOUS
 62
     3
100
AcDbLine
 10
144.927284
 20
161.283125
 30
0.0
 11
144.897344
 21
161.272399
 31
0.0
  0
LINE
  5
368
330
35B
100
AcDbEntity
  8
0
  6
CONTINUOUS
 62
     3
100
AcDbLine
 10
144.897344
 20
161.272399
 30
0.0
 11
144.867392
 21
161.261763
 31
0.0
  0
LINE
  5
369
330
35B
100
AcDbEntity
  8
0
  6
CONTINUOUS
 62
     3
100
AcDbLine
 10
144.867392
 20
161.261763
 30
0.0
 11
144.837428
 21
161.251225
 31
0.0
  0
LINE
  5
36A
330
35B
100
AcDbEntity
  8
0
  6
CONTINUOUS
 62
     3
100
AcDbLine
 10
144.837428
 20
161.251225
 30
0.0
 11
144.80745
 21
161.240787
 31
0.0
  0
LINE
  5
36B
330
35B
100
AcDbEntity
  8
0
  6
CONTINUOUS
 62
     3
100
AcDbLine
 10
144.80745
 20
161.240787
 30
0.0
 11
144.777458
 21
161.230457
 31
0.0
  0
LINE
  5
36C
330
35B
100
AcDbEntity
  8
0
  6
CONTINUOUS
 62
     3
100
AcDbLine
 10
144.777458
 20
161.230457
 30
0.0
 11
144.747452
 21
161.220239
 31
0.0
  0
LINE
  5
36D
330
35B
100
AcDbEntity
  8
0
  6
CONTINUOUS
 62
     3
100
AcDbLine
 10
144.747452
 20
161.220239
 30
0.0
 11
144.71743
 21
161.210137
 31
0.0
  0
LINE
  5
36E
330
35B
100
AcDbEntity
  8
0
  6
CONTINUOUS
 62
     3
100
AcDbLine
 10
144.71743
 20
161.210137
 30
0.0
 11
144.687392
 21
161.200159
 31
0.0
  0
LINE
  5
36F
330
35B
100
AcDbEntity
  8
0
  6
CONTINUOUS
 62
     3
100
AcDbLine
 10
144.687392
 20
161.200159
 30
0.0
 11
144.657336
 21
161.190311
 31
0.0
  0
LINE
  5
370
330
35B
100
AcDbEntity
  8
0
  6
CONTINUOUS
 62
     3
100
AcDbLine
 10
144.657336
 20
161.190311
 30
0.0
 11
144.627264
 21
161.180595
 31
0.0
  0
LINE
  5
371
330
35B
100
AcDbEntity
  8
0
  6
CONTINUOUS
 62
     3
100
AcDbLine
 10
144.627264
 20
161.180595
 30
0.0
 11
144.597174
 21
161.171019
 31
0.0
  0
LINE
  5
372
330
35B
100
AcDbEntity
  8
0
  6
CONTINUOUS
 62
     3
100
AcDbLine
 10
144.597174
 20
161.171019
 30
0.0
 11
144.567064
 21
161.161587
 31
0.0
  0
LINE
  5
373
330
35B
100
AcDbEntity
  8
0
  6
CONTINUOUS
 62
     3
100
AcDbLine
 10
144.567064
 20
161.161587
 30
0.0
 11
144.536936
 21
161.152303
 31
0.0
  0
LINE
  5
374
330
35B
100
AcDbEntity
  8
0
  6
CONTINUOUS
 62
     3
100
AcDbLine
 10
144.536936
 20
161.152303
 30
0.0
 11
144.506786
 21
161.143177
 31
0.0
  0
LINE
  5
375
330
35B
100
AcDbEntity
  8
0
  6
CONTINUOUS
 62
     3
100
AcDbLine
 10
144.506786
 20
161.143177
 30
0.0
 11
144.476616
 21
161.134209
 31
0.0
  0
LINE
  5
376
330
35B
100
AcDbEntity
  8
0
  6
CONTINUOUS
 62
     3
100
AcDbLine
 10
144.476616
 20
161.134209
 30
0.0
 11
144.446424
 21
161.125409
 31
0.0
  0
LINE
  5
377
330
35B
100
AcDbEntity
  8
0
  6
CONTINUOUS
 62
     3
100
AcDbLine
 10
144.446424
 20
161.125409
 30
0.0
 11
144.41621
 21
161.116779
 31
0.0
  0
LINE
  5
378
330
35B
100
AcDbEntity
  8
0
  6
CONTINUOUS
 62
     3
100
AcDbLine
 10
144.41621
 20
161.116779
 30
0.0
 11
144.385972
 21
161.108325
 31
0.0
  0
LINE
  5
379
330
35B
100
AcDbEntity
  8
0
  6
CONTINUOUS
 62
     3
100
AcDbLine
 10
144.385972
 20
161.108325
 30
0.0
 11
144.35571
 21
161.100053
 31
0.0
  0
LINE
  5
37A
330
35B
100
AcDbEntity
  8
0
  6
CONTINUOUS
 62
     3
100
AcDbLine
 10
144.35571
 20
161.100053
 30
0.0
 11
144.325424
 21
161.091969
 31
0.0
  0
LINE
  5
37B
330
35B
100
AcDbEntity
  8
0
  6
CONTINUOUS
 62
     3
100
AcDbLine
 10
144.325424
 20
161.091969
 30
0.0
 11
144.295114
 21
161.084077
 31
0.0
  0
LINE
  5
37C
330
35B
100
AcDbEntity
  8
0
  6
CONTINUOUS
 62
     3
100
AcDbLine
 10
144.295114
 20
161.084077
 30
0.0
 11
144.264776
 21
161.076383
 31
0.0
  0
LINE
  5
37D
330
35B
100
AcDbEntity
  8
0
  6
CONTINUOUS
 62
     3
100
AcDbLine
 10
144.264776
 20
161.076383
 30
0.0
 11
144.234414
 21
161.068891
 31
0.0
  0
LINE
  5
37E
330
35B
100
AcDbEntity
  8
0
  6
CONTINUOUS
 62
     3
100
AcDbLine
 10
144.234414
 20
161.068891
 30
0.0
 11
144.204022
 21
161.061609
 31
0.0
  0
LINE
  5
37F
330
35B
100
AcDbEntity
  8
0
  6
CONTINUOUS
 62
     3
100
AcDbLine
 10
144.204022
 20
161.061609
 30
0.0
 11
144.173604
 21
161.054541
 31
0.0
  0
LINE
  5
380
330
35B
100
AcDbEntity
  8
0
  6
CONTINUOUS
 62
     3
100
AcDbLine
 10
144.173604
 20
161.054541
 30
0.0
 11
144.143156
 21
161.047691
 31
0.0
  0
LINE
  5
381
330
35B
100
AcDbEntity
  8
0
  6
CONTINUOUS
 62
     3
100
AcDbLine
 10
144.143156
 20
161.047691
 30
0.0
 11
144.112678
 21
161.041067
 31
0.0
  0
LINE
  5
382
330
35B
100
AcDbEntity
  8
0
  6
CONTINUOUS
 62
     3
100
AcDbLine
 10
144.112678
 20
161.041067
 30
0.0
 11
144.082172
 21
161.034673
 31
0.0
  0
LINE
  5
383
330
35B
100
AcDbEntity
  8
0
  6
CONTINUOUS
 62
     3
100
AcDbLine
 10
144.082172
 20
161.034673
 30
0.0
 11
144.051634
 21
161.028513
 31
0.0
  0
LINE
  5
384
330
35B
100
AcDbEntity
  8
0
  6
CONTINUOUS
 62
     3
100
AcDbLine
 10
144.051634
 20
161.028513
 30
0.0
 11
144.021064
 21
161.022593
 31
0.0
  0
LINE
  5
385
330
35B
100
AcDbEntity
  8
0
  6
CONTINUOUS
 62
     3
100
AcDbLine
 10
144.021064
 20
161.022593
 30
0.0
 11
143.990464
 21
161.016921
 31
0.0
  0
LINE
  5
386
330
35B
100
AcDbEntity
  8
0
  6
CONTINUOUS
 62
     3
100
AcDbLine
 10
143.990464
 20
161.016921
 30
0.0
 11
143.959828
 21
161.011499
 31
0.0
  0
LINE
  5
387
330
35B
100
AcDbEntity
  8
0
  6
CONTINUOUS
 62
     3
100
AcDbLine
 10
143.959828
 20
161.011499
 30
0.0
 11
143.92916
 21
161.006335
 31
0.0
  0
LINE
  5
388
330
35B
100
AcDbEntity
  8
0
  6
CONTINUOUS
 62
     3
100
AcDbLine
 10
143.92916
 20
161.006335
 30
0.0
 11
143.898458
 21
161.001433
 31
0.0
  0
LINE
  5
389
330
35B
100
AcDbEntity
  8
0
  6
CONTINUOUS
 62
     3
100
AcDbLine
 10
143.898458
 20
161.001433
 30
0.0
 11
143.86772
 21
160.996797
 31
0.0
  0
LINE
  5
38A
330
35B
100
AcDbEntity
  8
0
  6
CONTINUOUS
 62
     3
100
AcDbLine
 10
143.86772
 20
160.996797
 30
0.0
 11
143.836948
 21
160.992435
 31
0.0
  0
LINE
  5
38B
330
35B
100
AcDbEntity
  8
0
  6
CONTINUOUS
 62
     3
100
AcDbLine
 10
143.836948
 20
160.992435
 30
0.0
 11
143.806138
 21
160.988351
 31
0.0
  0
LINE
  5
38C
330
35B
100
AcDbEntity
  8
0
  6
CONTINUOUS
 62
     3
100
AcDbLine
 10
143.806138
 20
160.988351
 30
0.0
 11
143.775292
 21
160.984549
 31
0.0
  0
LINE
  5
38D
330
35B
100
AcDbEntity
  8
0
  6
CONTINUOUS
 62
     3
100
AcDbLine
 10
143.775292
 20
160.984549
 30
0.0
 11
143.744408
 21
160.981037
 31
0.0
  0
LINE
  5
38E
330
35B
100
AcDbEntity
  8
0
  6
CONTINUOUS
 62
     3
100
AcDbLine
 10
143.744408
 20
160.981037
 30
0.0
 11
143.713484
 21
160.977819
 31
0.0
  0
LINE
  5
38F
330
35B
100
AcDbEntity
  8
0
  6
CONTINUOUS
 62
     3
100
AcDbLine
 10
143.713484
 20
160.977819
 30
0.0
 11
143.682522
 21
160.974901
 31
0.0
  0
LINE
  5
390
330
35B
100
AcDbEntity
  8
0
  6
CONTINUOUS
 62
     3
100
AcDbLine
 10
143.682522
 20
160.974901
 30
0.0
 11
143.65152
 21
160.972287
 31
0.0
  0
LINE
  5
391
330
35B
100
AcDbEntity
  8
0
  6
CONTINUOUS
 62
     3
100
AcDbLine
 10
143.65152
 20
160.972287
 30
0.0
 11
143.620478
 21
160.969983
 31
0.0
  0
LINE
  5
392
330
35B
100
AcDbEntity
  8
0
  6
CONTINUOUS
 62
     3
100
AcDbLine
 10
143.620478
 20
160.969983
 30
0.0
 11
143.589394
 21
160.967995
 31
0.0
  0
LINE
  5
393
330
35B
100
AcDbEntity
  8
0
  6
CONTINUOUS
 62
     3
100
AcDbLine
 10
143.589394
 20
160.967995
 30
0.0
 11
143.558268
 21
160.966329
 31
0.0
  0
LINE
  5
394
330
35B
100
AcDbEntity
  8
0
  6
CONTINUOUS
 62
     3
100
AcDbLine
 10
143.558268
 20
160.966329
 30
0.0
 11
143.5271
 21
160.964987
 31
0.0
  0
LINE
  5
395
330
35B
100
AcDbEntity
  8
0
  6
CONTINUOUS
 62
     3
100
AcDbLine
 10
143.5271
 20
160.964987
 30
0.0
 11
143.495888
 21
160.963977
 31
0.0
  0
LINE
  5
396
330
35B
100
AcDbEntity
  8
0
  6
CONTINUOUS
 62
     3
100
AcDbLine
 10
143.495888
 20
160.963977
 30
0.0
 11
143.464632
 21
160.963305
 31
0.0
  0
LINE
  5
397
330
35B
100
AcDbEntity
  8
0
  6
CONTINUOUS
 62
     3
100
AcDbLine
 10
143.464632
 20
160.963305
 30
0.0
 11
143.431944
 21
160.962937
 31
0.0
  0
LINE
  5
398
330
35B
100
AcDbEntity
  8
0
  6
CONTINUOUS
 62
     3
100
AcDbLine
 10
143.431944
 20
160.962937
 30
0.0
 11
143.39923
 21
160.962755
 31
0.0
  0
ENDBLK
  5
35D
330
35B
100
AcDbEntity
  8
0
100
AcDbBlockEnd
  0
BLOCK
  5
39B
330
39A
100
AcDbEntity
  8
0
100
AcDbBlockBegin
  2
BLKF022
 70
     0
 71
     0
 10
0.0
 20
0.0
 30
0.0
  3
BLKF022
  1

  0
LINE
  5
39E
330
39A
100
AcDbEntity
  8
0
  6
CONTINUOUS
 62
     3
100
AcDbLine
 10
141.393184
 20
161.462747
 30
0.0
 11
141.463232
 21
161.429993
 31
0.0
  0
LINE
  5
39F
330
39A
100
AcDbEntity
  8
0
  6
CONTINUOUS
 62
     3
100
AcDbLine
 10
141.463232
 20
161.429993
 30
0.0
 11
141.53342
 21
161.397665
 31
0.0
  0
LINE
  5
3A0
330
39A
100
AcDbEntity
  8
0
  6
CONTINUOUS
 62
     3
100
AcDbLine
 10
141.53342
 20
161.397665
 30
0.0
 11
141.603892
 21
161.366197
 31
0.0
  0
LINE
  5
3A1
330
39A
100
AcDbEntity
  8
0
  6
CONTINUOUS
 62
     3
100
AcDbLine
 10
141.603892
 20
161.366197
 30
0.0
 11
141.639278
 21
161.350917
 31
0.0
  0
LINE
  5
3A2
330
39A
100
AcDbEntity
  8
0
  6
CONTINUOUS
 62
     3
100
AcDbLine
 10
141.639278
 20
161.350917
 30
0.0
 11
141.674786
 21
161.336013
 31
0.0
  0
LINE
  5
3A3
330
39A
100
AcDbEntity
  8
0
  6
CONTINUOUS
 62
     3
100
AcDbLine
 10
141.674786
 20
161.336013
 30
0.0
 11
141.725746
 21
161.315451
 31
0.0
  0
LINE
  5
3A4
330
39A
100
AcDbEntity
  8
0
  6
CONTINUOUS
 62
     3
100
AcDbLine
 10
141.725746
 20
161.315451
 30
0.0
 11
141.776984
 21
161.295737
 31
0.0
  0
LINE
  5
3A5
330
39A
100
AcDbEntity
  8
0
  6
CONTINUOUS
 62
     3
100
AcDbLine
 10
141.776984
 20
161.295737
 30
0.0
 11
141.828494
 21
161.276841
 31
0.0
  0
LINE
  5
3A6
330
39A
100
AcDbEntity
  8
0
  6
CONTINUOUS
 62
     3
100
AcDbLine
 10
141.828494
 20
161.276841
 30
0.0
 11
141.880262
 21
161.258739
 31
0.0
  0
LINE
  5
3A7
330
39A
100
AcDbEntity
  8
0
  6
CONTINUOUS
 62
     3
100
AcDbLine
 10
141.880262
 20
161.258739
 30
0.0
 11
141.932284
 21
161.241403
 31
0.0
  0
LINE
  5
3A8
330
39A
100
AcDbEntity
  8
0
  6
CONTINUOUS
 62
     3
100
AcDbLine
 10
141.932284
 20
161.241403
 30
0.0
 11
141.984548
 21
161.224805
 31
0.0
  0
LINE
  5
3A9
330
39A
100
AcDbEntity
  8
0
  6
CONTINUOUS
 62
     3
100
AcDbLine
 10
141.984548
 20
161.224805
 30
0.0
 11
142.037048
 21
161.208917
 31
0.0
  0
LINE
  5
3AA
330
39A
100
AcDbEntity
  8
0
  6
CONTINUOUS
 62
     3
100
AcDbLine
 10
142.037048
 20
161.208917
 30
0.0
 11
142.08977
 21
161.193713
 31
0.0
  0
LINE
  5
3AB
330
39A
100
AcDbEntity
  8
0
  6
CONTINUOUS
 62
     3
100
AcDbLine
 10
142.08977
 20
161.193713
 30
0.0
 11
142.14271
 21
161.179163
 31
0.0
  0
LINE
  5
3AC
330
39A
100
AcDbEntity
  8
0
  6
CONTINUOUS
 62
     3
100
AcDbLine
 10
142.14271
 20
161.179163
 30
0.0
 11
142.195856
 21
161.165245
 31
0.0
  0
LINE
  5
3AD
330
39A
100
AcDbEntity
  8
0
  6
CONTINUOUS
 62
     3
100
AcDbLine
 10
142.195856
 20
161.165245
 30
0.0
 11
142.249202
 21
161.151925
 31
0.0
  0
LINE
  5
3AE
330
39A
100
AcDbEntity
  8
0
  6
CONTINUOUS
 62
     3
100
AcDbLine
 10
142.249202
 20
161.151925
 30
0.0
 11
142.302734
 21
161.139181
 31
0.0
  0
LINE
  5
3AF
330
39A
100
AcDbEntity
  8
0
  6
CONTINUOUS
 62
     3
100
AcDbLine
 10
142.302734
 20
161.139181
 30
0.0
 11
142.356448
 21
161.126985
 31
0.0
  0
LINE
  5
3B0
330
39A
100
AcDbEntity
  8
0
  6
CONTINUOUS
 62
     3
100
AcDbLine
 10
142.356448
 20
161.126985
 30
0.0
 11
142.410332
 21
161.115307
 31
0.0
  0
LINE
  5
3B1
330
39A
100
AcDbEntity
  8
0
  6
CONTINUOUS
 62
     3
100
AcDbLine
 10
142.410332
 20
161.115307
 30
0.0
 11
142.464378
 21
161.104121
 31
0.0
  0
LINE
  5
3B2
330
39A
100
AcDbEntity
  8
0
  6
CONTINUOUS
 62
     3
100
AcDbLine
 10
142.464378
 20
161.104121
 30
0.0
 11
142.518578
 21
161.093399
 31
0.0
  0
LINE
  5
3B3
330
39A
100
AcDbEntity
  8
0
  6
CONTINUOUS
 62
     3
100
AcDbLine
 10
142.518578
 20
161.093399
 30
0.0
 11
142.572922
 21
161.083115
 31
0.0
  0
LINE
  5
3B4
330
39A
100
AcDbEntity
  8
0
  6
CONTINUOUS
 62
     3
100
AcDbLine
 10
142.572922
 20
161.083115
 30
0.0
 11
142.6274
 21
161.073241
 31
0.0
  0
LINE
  5
3B5
330
39A
100
AcDbEntity
  8
0
  6
CONTINUOUS
 62
     3
100
AcDbLine
 10
142.6274
 20
161.073241
 30
0.0
 11
142.682004
 21
161.063751
 31
0.0
  0
LINE
  5
3B6
330
39A
100
AcDbEntity
  8
0
  6
CONTINUOUS
 62
     3
100
AcDbLine
 10
142.682004
 20
161.063751
 30
0.0
 11
142.736726
 21
161.054615
 31
0.0
  0
LINE
  5
3B7
330
39A
100
AcDbEntity
  8
0
  6
CONTINUOUS
 62
     3
100
AcDbLine
 10
142.736726
 20
161.054615
 30
0.0
 11
142.791554
 21
161.045807
 31
0.0
  0
LINE
  5
3B8
330
39A
100
AcDbEntity
  8
0
  6
CONTINUOUS
 62
     3
100
AcDbLine
 10
142.791554
 20
161.045807
 30
0.0
 11
142.846482
 21
161.037299
 31
0.0
  0
LINE
  5
3B9
330
39A
100
AcDbEntity
  8
0
  6
CONTINUOUS
 62
     3
100
AcDbLine
 10
142.846482
 20
161.037299
 30
0.0
 11
142.901502
 21
161.029067
 31
0.0
  0
LINE
  5
3BA
330
39A
100
AcDbEntity
  8
0
  6
CONTINUOUS
 62
     3
100
AcDbLine
 10
142.901502
 20
161.029067
 30
0.0
 11
142.9566
 21
161.021079
 31
0.0
  0
LINE
  5
3BB
330
39A
100
AcDbEntity
  8
0
  6
CONTINUOUS
 62
     3
100
AcDbLine
 10
142.9566
 20
161.021079
 30
0.0
 11
143.067006
 21
161.005733
 31
0.0
  0
LINE
  5
3BC
330
39A
100
AcDbEntity
  8
0
  6
CONTINUOUS
 62
     3
100
AcDbLine
 10
143.067006
 20
161.005733
 30
0.0
 11
143.177628
 21
160.991041
 31
0.0
  0
LINE
  5
3BD
330
39A
100
AcDbEntity
  8
0
  6
CONTINUOUS
 62
     3
100
AcDbLine
 10
143.177628
 20
160.991041
 30
0.0
 11
143.288392
 21
160.976789
 31
0.0
  0
LINE
  5
3BE
330
39A
100
AcDbEntity
  8
0
  6
CONTINUOUS
 62
     3
100
AcDbLine
 10
143.288392
 20
160.976789
 30
0.0
 11
143.39923
 21
160.962755
 31
0.0
  0
ENDBLK
  5
39C
330
39A
100
AcDbEntity
  8
0
100
AcDbBlockEnd
  0
BLOCK
  5
3C1
330
3C0
100
AcDbEntity
  8
0
100
AcDbBlockBegin
  2
BLKF023
 70
     0
 71
     0
 10
0.0
 20
0.0
 30
0.0
  3
BLKF023
  1

  0
LINE
  5
3C4
330
3C0
100
AcDbEntity
  8
0
  6
CONTINUOUS
 62
     3
100
AcDbLine
 10
145.405276
 20
166.762747
 30
0.0
 11
145.353612
 21
166.786437
 31
0.0
  0
LINE
  5
3C5
330
3C0
100
AcDbEntity
  8
0
  6
CONTINUOUS
 62
     3
100
AcDbLine
 10
145.353612
 20
166.786437
 30
0.0
 11
145.301908
 21
166.810031
 31
0.0
  0
LINE
  5
3C6
330
3C0
100
AcDbEntity
  8
0
  6
CONTINUOUS
 62
     3
100
AcDbLine
 10
145.301908
 20
166.810031
 30
0.0
 11
145.250126
 21
166.833435
 31
0.0
  0
LINE
  5
3C7
330
3C0
100
AcDbEntity
  8
0
  6
CONTINUOUS
 62
     3
100
AcDbLine
 10
145.250126
 20
166.833435
 30
0.0
 11
145.224194
 21
166.845035
 31
0.0
  0
LINE
  5
3C8
330
3C0
100
AcDbEntity
  8
0
  6
CONTINUOUS
 62
     3
100
AcDbLine
 10
145.224194
 20
166.845035
 30
0.0
 11
145.198226
 21
166.856551
 31
0.0
  0
LINE
  5
3C9
330
3C0
100
AcDbEntity
  8
0
  6
CONTINUOUS
 62
     3
100
AcDbLine
 10
145.198226
 20
166.856551
 30
0.0
 11
145.17222
 21
166.867971
 31
0.0
  0
LINE
  5
3CA
330
3C0
100
AcDbEntity
  8
0
  6
CONTINUOUS
 62
     3
100
AcDbLine
 10
145.17222
 20
166.867971
 30
0.0
 11
145.14617
 21
166.879285
 31
0.0
  0
LINE
  5
3CB
330
3C0
100
AcDbEntity
  8
0
  6
CONTINUOUS
 62
     3
100
AcDbLine
 10
145.14617
 20
166.879285
 30
0.0
 11
145.120072
 21
166.890479
 31
0.0
  0
LINE
  5
3CC
330
3C0
100
AcDbEntity
  8
0
  6
CONTINUOUS
 62
     3
100
AcDbLine
 10
145.120072
 20
166.890479
 30
0.0
 11
145.093918
 21
166.901543
 31
0.0
  0
LINE
  5
3CD
330
3C0
100
AcDbEntity
  8
0
  6
CONTINUOUS
 62
     3
100
AcDbLine
 10
145.093918
 20
166.901543
 30
0.0
 11
145.067706
 21
166.912463
 31
0.0
  0
LINE
  5
3CE
330
3C0
100
AcDbEntity
  8
0
  6
CONTINUOUS
 62
     3
100
AcDbLine
 10
145.067706
 20
166.912463
 30
0.0
 11
145.041432
 21
166.923227
 31
0.0
  0
LINE
  5
3CF
330
3C0
100
AcDbEntity
  8
0
  6
CONTINUOUS
 62
     3
100
AcDbLine
 10
145.041432
 20
166.923227
 30
0.0
 11
145.015088
 21
166.933825
 31
0.0
  0
LINE
  5
3D0
330
3C0
100
AcDbEntity
  8
0
  6
CONTINUOUS
 62
     3
100
AcDbLine
 10
145.015088
 20
166.933825
 30
0.0
 11
144.98867
 21
166.944245
 31
0.0
  0
LINE
  5
3D1
330
3C0
100
AcDbEntity
  8
0
  6
CONTINUOUS
 62
     3
100
AcDbLine
 10
144.98867
 20
166.944245
 30
0.0
 11
144.964666
 21
166.953537
 31
0.0
  0
LINE
  5
3D2
330
3C0
100
AcDbEntity
  8
0
  6
CONTINUOUS
 62
     3
100
AcDbLine
 10
144.964666
 20
166.953537
 30
0.0
 11
144.940628
 21
166.962751
 31
0.0
  0
ENDBLK
  5
3C2
330
3C0
100
AcDbEntity
  8
0
100
AcDbBlockEnd
  0
BLOCK
  5
3D4
330
3D3
100
AcDbEntity
  8
0
100
AcDbBlockBegin
  2
BLKF024
 70
     0
 71
     0
 10
0.0
 20
0.0
 30
0.0
  3
BLKF024
  1

  0
LINE
  5
3D7
330
3D3
100
AcDbEntity
  8
0
  6
CONTINUOUS
 62
     3
100
AcDbLine
 10
141.857832
 20
166.962751
 30
0.0
 11
141.806452
 21
166.942007
 31
0.0
  0
LINE
  5
3D8
330
3D3
100
AcDbEntity
  8
0
  6
CONTINUOUS
 62
     3
100
AcDbLine
 10
141.806452
 20
166.942007
 30
0.0
 11
141.755112
 21
166.921177
 31
0.0
  0
LINE
  5
3D9
330
3D3
100
AcDbEntity
  8
0
  6
CONTINUOUS
 62
     3
100
AcDbLine
 10
141.755112
 20
166.921177
 30
0.0
 11
141.703848
 21
166.900177
 31
0.0
  0
LINE
  5
3DA
330
3D3
100
AcDbEntity
  8
0
  6
CONTINUOUS
 62
     3
100
AcDbLine
 10
141.703848
 20
166.900177
 30
0.0
 11
141.652698
 21
166.878923
 31
0.0
  0
LINE
  5
3DB
330
3D3
100
AcDbEntity
  8
0
  6
CONTINUOUS
 62
     3
100
AcDbLine
 10
141.652698
 20
166.878923
 30
0.0
 11
141.627176
 21
166.868175
 31
0.0
  0
LINE
  5
3DC
330
3D3
100
AcDbEntity
  8
0
  6
CONTINUOUS
 62
     3
100
AcDbLine
 10
141.627176
 20
166.868175
 30
0.0
 11
141.6017
 21
166.857329
 31
0.0
  0
LINE
  5
3DD
330
3D3
100
AcDbEntity
  8
0
  6
CONTINUOUS
 62
     3
100
AcDbLine
 10
141.6017
 20
166.857329
 30
0.0
 11
141.57627
 21
166.846379
 31
0.0
  0
LINE
  5
3DE
330
3D3
100
AcDbEntity
  8
0
  6
CONTINUOUS
 62
     3
100
AcDbLine
 10
141.57627
 20
166.846379
 30
0.0
 11
141.550892
 21
166.835311
 31
0.0
  0
LINE
  5
3DF
330
3D3
100
AcDbEntity
  8
0
  6
CONTINUOUS
 62
     3
100
AcDbLine
 10
141.550892
 20
166.835311
 30
0.0
 11
141.525572
 21
166.824115
 31
0.0
  0
LINE
  5
3E0
330
3D3
100
AcDbEntity
  8
0
  6
CONTINUOUS
 62
     3
100
AcDbLine
 10
141.525572
 20
166.824115
 30
0.0
 11
141.500314
 21
166.812783
 31
0.0
  0
LINE
  5
3E1
330
3D3
100
AcDbEntity
  8
0
  6
CONTINUOUS
 62
     3
100
AcDbLine
 10
141.500314
 20
166.812783
 30
0.0
 11
141.475122
 21
166.801301
 31
0.0
  0
LINE
  5
3E2
330
3D3
100
AcDbEntity
  8
0
  6
CONTINUOUS
 62
     3
100
AcDbLine
 10
141.475122
 20
166.801301
 30
0.0
 11
141.450002
 21
166.789659
 31
0.0
  0
LINE
  5
3E3
330
3D3
100
AcDbEntity
  8
0
  6
CONTINUOUS
 62
     3
100
AcDbLine
 10
141.450002
 20
166.789659
 30
0.0
 11
141.421568
 21
166.776259
 31
0.0
  0
LINE
  5
3E4
330
3D3
100
AcDbEntity
  8
0
  6
CONTINUOUS
 62
     3
100
AcDbLine
 10
141.421568
 20
166.776259
 30
0.0
 11
141.393184
 21
166.762747
 31
0.0
  0
ENDBLK
  5
3D5
330
3D3
100
AcDbEntity
  8
0
100
AcDbBlockEnd
  0
BLOCK
  5
3E9
330
3E8
100
AcDbEntity
  8
0
100
AcDbBlockBegin
  2
BLKF025
 70
     0
 71
     0
 10
0.0
 20
0.0
 30
0.0
  3
BLKF025
  1

  0
LINE
  5
3EC
330
3E8
100
AcDbEntity
  8
0
  6
CONTINUOUS
 62
     3
100
AcDbLine
 10
147.595546
 20
166.962751
 30
0.0
 11
147.536858
 21
166.942045
 31
0.0
  0
LINE
  5
3ED
330
3E8
100
AcDbEntity
  8
0
  6
CONTINUOUS
 62
     3
100
AcDbLine
 10
147.536858
 20
166.942045
 30
0.0
 11
147.478204
 21
166.921251
 31
0.0
  0
LINE
  5
3EE
330
3E8
100
AcDbEntity
  8
0
  6
CONTINUOUS
 62
     3
100
AcDbLine
 10
147.478204
 20
166.921251
 30
0.0
 11
147.41962
 21
166.900279
 31
0.0
  0
LINE
  5
3EF
330
3E8
100
AcDbEntity
  8
0
  6
CONTINUOUS
 62
     3
100
AcDbLine
 10
147.41962
 20
166.900279
 30
0.0
 11
147.361142
 21
166.879041
 31
0.0
  0
LINE
  5
3F0
330
3E8
100
AcDbEntity
  8
0
  6
CONTINUOUS
 62
     3
100
AcDbLine
 10
147.361142
 20
166.879041
 30
0.0
 11
147.331952
 21
166.868295
 31
0.0
  0
LINE
  5
3F1
330
3E8
100
AcDbEntity
  8
0
  6
CONTINUOUS
 62
     3
100
AcDbLine
 10
147.331952
 20
166.868295
 30
0.0
 11
147.3028
 21
166.857449
 31
0.0
  0
LINE
  5
3F2
330
3E8
100
AcDbEntity
  8
0
  6
CONTINUOUS
 62
     3
100
AcDbLine
 10
147.3028
 20
166.857449
 30
0.0
 11
147.273694
 21
166.846493
 31
0.0
  0
LINE
  5
3F3
330
3E8
100
AcDbEntity
  8
0
  6
CONTINUOUS
 62
     3
100
AcDbLine
 10
147.273694
 20
166.846493
 30
0.0
 11
147.244634
 21
166.835413
 31
0.0
  0
LINE
  5
3F4
330
3E8
100
AcDbEntity
  8
0
  6
CONTINUOUS
 62
     3
100
AcDbLine
 10
147.244634
 20
166.835413
 30
0.0
 11
147.215626
 21
166.824203
 31
0.0
  0
LINE
  5
3F5
330
3E8
100
AcDbEntity
  8
0
  6
CONTINUOUS
 62
     3
100
AcDbLine
 10
147.215626
 20
166.824203
 30
0.0
 11
147.186676
 21
166.812847
 31
0.0
  0
LINE
  5
3F6
330
3E8
100
AcDbEntity
  8
0
  6
CONTINUOUS
 62
     3
100
AcDbLine
 10
147.186676
 20
166.812847
 30
0.0
 11
147.157786
 21
166.801337
 31
0.0
  0
LINE
  5
3F7
330
3E8
100
AcDbEntity
  8
0
  6
CONTINUOUS
 62
     3
100
AcDbLine
 10
147.157786
 20
166.801337
 30
0.0
 11
147.128962
 21
166.789659
 31
0.0
  0
LINE
  5
3F8
330
3E8
100
AcDbEntity
  8
0
  6
CONTINUOUS
 62
     3
100
AcDbLine
 10
147.128962
 20
166.789659
 30
0.0
 11
147.096436
 21
166.776261
 31
0.0
  0
LINE
  5
3F9
330
3E8
100
AcDbEntity
  8
0
  6
CONTINUOUS
 62
     3
100
AcDbLine
 10
147.096436
 20
166.776261
 30
0.0
 11
147.063956
 21
166.762747
 31
0.0
  0
ENDBLK
  5
3EA
330
3E8
100
AcDbEntity
  8
0
100
AcDbBlockEnd
  0
BLOCK
  5
3FD
330
3FC
100
AcDbEntity
  8
0
100
AcDbBlockBegin
  2
BLKF026
 70
     0
 71
     0
 10
0.0
 20
0.0
 30
0.0
  3
BLKF026
  1

  0
LINE
  5
400
330
3FC
100
AcDbEntity
  8
0
  6
CONTINUOUS
 62
     3
100
AcDbLine
 10
151.654056
 20
161.462747
 30
0.0
 11
151.573824
 21
161.429989
 31
0.0
  0
LINE
  5
401
330
3FC
100
AcDbEntity
  8
0
  6
CONTINUOUS
 62
     3
100
AcDbLine
 10
151.573824
 20
161.429989
 30
0.0
 11
151.493468
 21
161.397661
 31
0.0
  0
LINE
  5
402
330
3FC
100
AcDbEntity
  8
0
  6
CONTINUOUS
 62
     3
100
AcDbLine
 10
151.493468
 20
161.397661
 30
0.0
 11
151.412862
 21
161.366191
 31
0.0
  0
LINE
  5
403
330
3FC
100
AcDbEntity
  8
0
  6
CONTINUOUS
 62
     3
100
AcDbLine
 10
151.412862
 20
161.366191
 30
0.0
 11
151.372428
 21
161.350915
 31
0.0
  0
LINE
  5
404
330
3FC
100
AcDbEntity
  8
0
  6
CONTINUOUS
 62
     3
100
AcDbLine
 10
151.372428
 20
161.350915
 30
0.0
 11
151.331886
 21
161.336013
 31
0.0
  0
LINE
  5
405
330
3FC
100
AcDbEntity
  8
0
  6
CONTINUOUS
 62
     3
100
AcDbLine
 10
151.331886
 20
161.336013
 30
0.0
 11
151.272886
 21
161.315153
 31
0.0
  0
LINE
  5
406
330
3FC
100
AcDbEntity
  8
0
  6
CONTINUOUS
 62
     3
100
AcDbLine
 10
151.272886
 20
161.315153
 30
0.0
 11
151.213634
 21
161.295169
 31
0.0
  0
LINE
  5
407
330
3FC
100
AcDbEntity
  8
0
  6
CONTINUOUS
 62
     3
100
AcDbLine
 10
151.213634
 20
161.295169
 30
0.0
 11
151.154138
 21
161.276033
 31
0.0
  0
LINE
  5
408
330
3FC
100
AcDbEntity
  8
0
  6
CONTINUOUS
 62
     3
100
AcDbLine
 10
151.154138
 20
161.276033
 30
0.0
 11
151.094404
 21
161.257715
 31
0.0
  0
LINE
  5
409
330
3FC
100
AcDbEntity
  8
0
  6
CONTINUOUS
 62
     3
100
AcDbLine
 10
151.094404
 20
161.257715
 30
0.0
 11
151.034442
 21
161.240189
 31
0.0
  0
LINE
  5
40A
330
3FC
100
AcDbEntity
  8
0
  6
CONTINUOUS
 62
     3
100
AcDbLine
 10
151.034442
 20
161.240189
 30
0.0
 11
150.974262
 21
161.223427
 31
0.0
  0
LINE
  5
40B
330
3FC
100
AcDbEntity
  8
0
  6
CONTINUOUS
 62
     3
100
AcDbLine
 10
150.974262
 20
161.223427
 30
0.0
 11
150.913868
 21
161.207397
 31
0.0
  0
LINE
  5
40C
330
3FC
100
AcDbEntity
  8
0
  6
CONTINUOUS
 62
     3
100
AcDbLine
 10
150.913868
 20
161.207397
 30
0.0
 11
150.85327
 21
161.192075
 31
0.0
  0
LINE
  5
40D
330
3FC
100
AcDbEntity
  8
0
  6
CONTINUOUS
 62
     3
100
AcDbLine
 10
150.85327
 20
161.192075
 30
0.0
 11
150.792478
 21
161.177429
 31
0.0
  0
LINE
  5
40E
330
3FC
100
AcDbEntity
  8
0
  6
CONTINUOUS
 62
     3
100
AcDbLine
 10
150.792478
 20
161.177429
 30
0.0
 11
150.731498
 21
161.163435
 31
0.0
  0
LINE
  5
40F
330
3FC
100
AcDbEntity
  8
0
  6
CONTINUOUS
 62
     3
100
AcDbLine
 10
150.731498
 20
161.163435
 30
0.0
 11
150.670338
 21
161.150061
 31
0.0
  0
LINE
  5
410
330
3FC
100
AcDbEntity
  8
0
  6
CONTINUOUS
 62
     3
100
AcDbLine
 10
150.670338
 20
161.150061
 30
0.0
 11
150.609008
 21
161.137281
 31
0.0
  0
LINE
  5
411
330
3FC
100
AcDbEntity
  8
0
  6
CONTINUOUS
 62
     3
100
AcDbLine
 10
150.609008
 20
161.137281
 30
0.0
 11
150.547514
 21
161.125065
 31
0.0
  0
LINE
  5
412
330
3FC
100
AcDbEntity
  8
0
  6
CONTINUOUS
 62
     3
100
AcDbLine
 10
150.547514
 20
161.125065
 30
0.0
 11
150.485866
 21
161.113387
 31
0.0
  0
LINE
  5
413
330
3FC
100
AcDbEntity
  8
0
  6
CONTINUOUS
 62
     3
100
AcDbLine
 10
150.485866
 20
161.113387
 30
0.0
 11
150.42407
 21
161.102217
 31
0.0
  0
LINE
  5
414
330
3FC
100
AcDbEntity
  8
0
  6
CONTINUOUS
 62
     3
100
AcDbLine
 10
150.42407
 20
161.102217
 30
0.0
 11
150.362136
 21
161.091527
 31
0.0
  0
LINE
  5
415
330
3FC
100
AcDbEntity
  8
0
  6
CONTINUOUS
 62
     3
100
AcDbLine
 10
150.362136
 20
161.091527
 30
0.0
 11
150.300072
 21
161.081289
 31
0.0
  0
LINE
  5
416
330
3FC
100
AcDbEntity
  8
0
  6
CONTINUOUS
 62
     3
100
AcDbLine
 10
150.300072
 20
161.081289
 30
0.0
 11
150.237886
 21
161.071475
 31
0.0
  0
LINE
  5
417
330
3FC
100
AcDbEntity
  8
0
  6
CONTINUOUS
 62
     3
100
AcDbLine
 10
150.237886
 20
161.071475
 30
0.0
 11
150.175584
 21
161.062057
 31
0.0
  0
LINE
  5
418
330
3FC
100
AcDbEntity
  8
0
  6
CONTINUOUS
 62
     3
100
AcDbLine
 10
150.175584
 20
161.062057
 30
0.0
 11
150.113178
 21
161.053007
 31
0.0
  0
LINE
  5
419
330
3FC
100
AcDbEntity
  8
0
  6
CONTINUOUS
 62
     3
100
AcDbLine
 10
150.113178
 20
161.053007
 30
0.0
 11
150.050674
 21
161.044295
 31
0.0
  0
LINE
  5
41A
330
3FC
100
AcDbEntity
  8
0
  6
CONTINUOUS
 62
     3
100
AcDbLine
 10
150.050674
 20
161.044295
 30
0.0
 11
149.98808
 21
161.035893
 31
0.0
  0
LINE
  5
41B
330
3FC
100
AcDbEntity
  8
0
  6
CONTINUOUS
 62
     3
100
AcDbLine
 10
149.98808
 20
161.035893
 30
0.0
 11
149.925404
 21
161.027773
 31
0.0
  0
LINE
  5
41C
330
3FC
100
AcDbEntity
  8
0
  6
CONTINUOUS
 62
     3
100
AcDbLine
 10
149.925404
 20
161.027773
 30
0.0
 11
149.862656
 21
161.019909
 31
0.0
  0
LINE
  5
41D
330
3FC
100
AcDbEntity
  8
0
  6
CONTINUOUS
 62
     3
100
AcDbLine
 10
149.862656
 20
161.019909
 30
0.0
 11
149.73697
 21
161.004829
 31
0.0
  0
LINE
  5
41E
330
3FC
100
AcDbEntity
  8
0
  6
CONTINUOUS
 62
     3
100
AcDbLine
 10
149.73697
 20
161.004829
 30
0.0
 11
149.61109
 21
160.990427
 31
0.0
  0
LINE
  5
41F
330
3FC
100
AcDbEntity
  8
0
  6
CONTINUOUS
 62
     3
100
AcDbLine
 10
149.61109
 20
160.990427
 30
0.0
 11
149.485078
 21
160.976477
 31
0.0
  0
LINE
  5
420
330
3FC
100
AcDbEntity
  8
0
  6
CONTINUOUS
 62
     3
100
AcDbLine
 10
149.485078
 20
160.976477
 30
0.0
 11
149.359002
 21
160.962755
 31
0.0
  0
ENDBLK
  5
3FE
330
3FC
100
AcDbEntity
  8
0
100
AcDbBlockEnd
  0
BLOCK
  5
423
330
422
100
AcDbEntity
  8
0
100
AcDbBlockBegin
  2
BLKF027
 70
     0
 71
     0
 10
0.0
 20
0.0
 30
0.0
  3
BLKF027
  1

  0
LINE
  5
426
330
422
100
AcDbEntity
  8
0
  6
CONTINUOUS
 62
     3
100
AcDbLine
 10
151.654056
 20
166.762747
 30
0.0
 11
151.594848
 21
166.786469
 31
0.0
  0
LINE
  5
427
330
422
100
AcDbEntity
  8
0
  6
CONTINUOUS
 62
     3
100
AcDbLine
 10
151.594848
 20
166.786469
 30
0.0
 11
151.535604
 21
166.810091
 31
0.0
  0
LINE
  5
428
330
422
100
AcDbEntity
  8
0
  6
CONTINUOUS
 62
     3
100
AcDbLine
 10
151.535604
 20
166.810091
 30
0.0
 11
151.47629
 21
166.833517
 31
0.0
  0
LINE
  5
429
330
422
100
AcDbEntity
  8
0
  6
CONTINUOUS
 62
     3
100
AcDbLine
 10
151.47629
 20
166.833517
 30
0.0
 11
151.446594
 21
166.845125
 31
0.0
  0
LINE
  5
42A
330
422
100
AcDbEntity
  8
0
  6
CONTINUOUS
 62
     3
100
AcDbLine
 10
151.446594
 20
166.845125
 30
0.0
 11
151.416868
 21
166.856647
 31
0.0
  0
LINE
  5
42B
330
422
100
AcDbEntity
  8
0
  6
CONTINUOUS
 62
     3
100
AcDbLine
 10
151.416868
 20
166.856647
 30
0.0
 11
151.387108
 21
166.868071
 31
0.0
  0
LINE
  5
42C
330
422
100
AcDbEntity
  8
0
  6
CONTINUOUS
 62
     3
100
AcDbLine
 10
151.387108
 20
166.868071
 30
0.0
 11
151.357306
 21
166.879383
 31
0.0
  0
LINE
  5
42D
330
422
100
AcDbEntity
  8
0
  6
CONTINUOUS
 62
     3
100
AcDbLine
 10
151.357306
 20
166.879383
 30
0.0
 11
151.327462
 21
166.890573
 31
0.0
  0
LINE
  5
42E
330
422
100
AcDbEntity
  8
0
  6
CONTINUOUS
 62
     3
100
AcDbLine
 10
151.327462
 20
166.890573
 30
0.0
 11
151.297568
 21
166.901627
 31
0.0
  0
LINE
  5
42F
330
422
100
AcDbEntity
  8
0
  6
CONTINUOUS
 62
     3
100
AcDbLine
 10
151.297568
 20
166.901627
 30
0.0
 11
151.267622
 21
166.912535
 31
0.0
  0
LINE
  5
430
330
422
100
AcDbEntity
  8
0
  6
CONTINUOUS
 62
     3
100
AcDbLine
 10
151.267622
 20
166.912535
 30
0.0
 11
151.237618
 21
166.923281
 31
0.0
  0
LINE
  5
431
330
422
100
AcDbEntity
  8
0
  6
CONTINUOUS
 62
     3
100
AcDbLine
 10
151.237618
 20
166.923281
 30
0.0
 11
151.207552
 21
166.933855
 31
0.0
  0
LINE
  5
432
330
422
100
AcDbEntity
  8
0
  6
CONTINUOUS
 62
     3
100
AcDbLine
 10
151.207552
 20
166.933855
 30
0.0
 11
151.17742
 21
166.944245
 31
0.0
  0
LINE
  5
433
330
422
100
AcDbEntity
  8
0
  6
CONTINUOUS
 62
     3
100
AcDbLine
 10
151.17742
 20
166.944245
 30
0.0
 11
151.149958
 21
166.953539
 31
0.0
  0
LINE
  5
434
330
422
100
AcDbEntity
  8
0
  6
CONTINUOUS
 62
     3
100
AcDbLine
 10
151.149958
 20
166.953539
 30
0.0
 11
151.122466
 21
166.962751
 31
0.0
  0
ENDBLK
  5
424
330
422
100
AcDbEntity
  8
0
100
AcDbBlockEnd
  0
BLOCK
  5
437
330
436
100
AcDbEntity
  8
0
100
AcDbBlockBegin
  2
BLKF028
 70
     0
 71
     0
 10
0.0
 20
0.0
 30
0.0
  3
BLKF028
  1

  0
LINE
  5
43A
330
436
100
AcDbEntity
  8
0
  6
CONTINUOUS
 62
     3
100
AcDbLine
 10
152.650572
 20
161.462747
 30
0.0
 11
152.659824
 21
161.430637
 31
0.0
  0
LINE
  5
43B
330
436
100
AcDbEntity
  8
0
  6
CONTINUOUS
 62
     3
100
AcDbLine
 10
152.659824
 20
161.430637
 30
0.0
 11
152.669432
 21
161.398695
 31
0.0
  0
LINE
  5
43C
330
436
100
AcDbEntity
  8
0
  6
CONTINUOUS
 62
     3
100
AcDbLine
 10
152.669432
 20
161.398695
 30
0.0
 11
152.679752
 21
161.367097
 31
0.0
  0
LINE
  5
43D
330
436
100
AcDbEntity
  8
0
  6
CONTINUOUS
 62
     3
100
AcDbLine
 10
152.679752
 20
161.367097
 30
0.0
 11
152.68529
 21
161.351481
 31
0.0
  0
LINE
  5
43E
330
436
100
AcDbEntity
  8
0
  6
CONTINUOUS
 62
     3
100
AcDbLine
 10
152.68529
 20
161.351481
 30
0.0
 11
152.69114
 21
161.336013
 31
0.0
  0
LINE
  5
43F
330
436
100
AcDbEntity
  8
0
  6
CONTINUOUS
 62
     3
100
AcDbLine
 10
152.69114
 20
161.336013
 30
0.0
 11
152.701776
 21
161.310331
 31
0.0
  0
LINE
  5
440
330
436
100
AcDbEntity
  8
0
  6
CONTINUOUS
 62
     3
100
AcDbLine
 10
152.701776
 20
161.310331
 30
0.0
 11
152.713358
 21
161.285105
 31
0.0
  0
LINE
  5
441
330
436
100
AcDbEntity
  8
0
  6
CONTINUOUS
 62
     3
100
AcDbLine
 10
152.713358
 20
161.285105
 30
0.0
 11
152.725826
 21
161.260303
 31
0.0
  0
LINE
  5
442
330
436
100
AcDbEntity
  8
0
  6
CONTINUOUS
 62
     3
100
AcDbLine
 10
152.725826
 20
161.260303
 30
0.0
 11
152.739112
 21
161.235895
 31
0.0
  0
LINE
  5
443
330
436
100
AcDbEntity
  8
0
  6
CONTINUOUS
 62
     3
100
AcDbLine
 10
152.739112
 20
161.235895
 30
0.0
 11
152.753156
 21
161.211853
 31
0.0
  0
LINE
  5
444
330
436
100
AcDbEntity
  8
0
  6
CONTINUOUS
 62
     3
100
AcDbLine
 10
152.753156
 20
161.211853
 30
0.0
 11
152.767894
 21
161.188145
 31
0.0
  0
LINE
  5
445
330
436
100
AcDbEntity
  8
0
  6
CONTINUOUS
 62
     3
100
AcDbLine
 10
152.767894
 20
161.188145
 30
0.0
 11
152.783264
 21
161.164741
 31
0.0
  0
LINE
  5
446
330
436
100
AcDbEntity
  8
0
  6
CONTINUOUS
 62
     3
100
AcDbLine
 10
152.783264
 20
161.164741
 30
0.0
 11
152.7992
 21
161.141609
 31
0.0
  0
LINE
  5
447
330
436
100
AcDbEntity
  8
0
  6
CONTINUOUS
 62
     3
100
AcDbLine
 10
152.7992
 20
161.141609
 30
0.0
 11
152.815642
 21
161.118721
 31
0.0
  0
LINE
  5
448
330
436
100
AcDbEntity
  8
0
  6
CONTINUOUS
 62
     3
100
AcDbLine
 10
152.815642
 20
161.118721
 30
0.0
 11
152.832526
 21
161.096045
 31
0.0
  0
LINE
  5
449
330
436
100
AcDbEntity
  8
0
  6
CONTINUOUS
 62
     3
100
AcDbLine
 10
152.832526
 20
161.096045
 30
0.0
 11
152.849788
 21
161.073551
 31
0.0
  0
LINE
  5
44A
330
436
100
AcDbEntity
  8
0
  6
CONTINUOUS
 62
     3
100
AcDbLine
 10
152.849788
 20
161.073551
 30
0.0
 11
152.867366
 21
161.051209
 31
0.0
  0
LINE
  5
44B
330
436
100
AcDbEntity
  8
0
  6
CONTINUOUS
 62
     3
100
AcDbLine
 10
152.867366
 20
161.051209
 30
0.0
 11
152.885198
 21
161.028989
 31
0.0
  0
LINE
  5
44C
330
436
100
AcDbEntity
  8
0
  6
CONTINUOUS
 62
     3
100
AcDbLine
 10
152.885198
 20
161.028989
 30
0.0
 11
152.903218
 21
161.006861
 31
0.0
  0
LINE
  5
44D
330
436
100
AcDbEntity
  8
0
  6
CONTINUOUS
 62
     3
100
AcDbLine
 10
152.903218
 20
161.006861
 30
0.0
 11
152.939572
 21
160.962755
 31
0.0
  0
ENDBLK
  5
438
330
436
100
AcDbEntity
  8
0
100
AcDbBlockEnd
  0
BLOCK
  5
452
330
451
100
AcDbEntity
  8
0
100
AcDbBlockBegin
  2
BLKF029
 70
     0
 71
     0
 10
0.0
 20
0.0
 30
0.0
  3
BLKF029
  1

  0
LINE
  5
455
330
451
100
AcDbEntity
  8
0
  6
CONTINUOUS
 62
     3
100
AcDbLine
 10
140.731022
 20
161.462747
 30
0.0
 11
140.735276
 21
161.439983
 31
0.0
  0
LINE
  5
456
330
451
100
AcDbEntity
  8
0
  6
CONTINUOUS
 62
     3
100
AcDbLine
 10
140.735276
 20
161.439983
 30
0.0
 11
140.739558
 21
161.417261
 31
0.0
  0
LINE
  5
457
330
451
100
AcDbEntity
  8
0
  6
CONTINUOUS
 62
     3
100
AcDbLine
 10
140.739558
 20
161.417261
 30
0.0
 11
140.743892
 21
161.394623
 31
0.0
  0
LINE
  5
458
330
451
100
AcDbEntity
  8
0
  6
CONTINUOUS
 62
     3
100
AcDbLine
 10
140.743892
 20
161.394623
 30
0.0
 11
140.748306
 21
161.372111
 31
0.0
  0
LINE
  5
459
330
451
100
AcDbEntity
  8
0
  6
CONTINUOUS
 62
     3
100
AcDbLine
 10
140.748306
 20
161.372111
 30
0.0
 11
140.75055
 21
161.360915
 31
0.0
  0
LINE
  5
45A
330
451
100
AcDbEntity
  8
0
  6
CONTINUOUS
 62
     3
100
AcDbLine
 10
140.75055
 20
161.360915
 30
0.0
 11
140.752824
 21
161.349767
 31
0.0
  0
LINE
  5
45B
330
451
100
AcDbEntity
  8
0
  6
CONTINUOUS
 62
     3
100
AcDbLine
 10
140.752824
 20
161.349767
 30
0.0
 11
140.755132
 21
161.338671
 31
0.0
  0
LINE
  5
45C
330
451
100
AcDbEntity
  8
0
  6
CONTINUOUS
 62
     3
100
AcDbLine
 10
140.755132
 20
161.338671
 30
0.0
 11
140.757474
 21
161.327633
 31
0.0
  0
LINE
  5
45D
330
451
100
AcDbEntity
  8
0
  6
CONTINUOUS
 62
     3
100
AcDbLine
 10
140.757474
 20
161.327633
 30
0.0
 11
140.759856
 21
161.316657
 31
0.0
  0
LINE
  5
45E
330
451
100
AcDbEntity
  8
0
  6
CONTINUOUS
 62
     3
100
AcDbLine
 10
140.759856
 20
161.316657
 30
0.0
 11
140.762282
 21
161.305751
 31
0.0
  0
LINE
  5
45F
330
451
100
AcDbEntity
  8
0
  6
CONTINUOUS
 62
     3
100
AcDbLine
 10
140.762282
 20
161.305751
 30
0.0
 11
140.764752
 21
161.294917
 31
0.0
  0
LINE
  5
460
330
451
100
AcDbEntity
  8
0
  6
CONTINUOUS
 62
     3
100
AcDbLine
 10
140.764752
 20
161.294917
 30
0.0
 11
140.767272
 21
161.284161
 31
0.0
  0
LINE
  5
461
330
451
100
AcDbEntity
  8
0
  6
CONTINUOUS
 62
     3
100
AcDbLine
 10
140.767272
 20
161.284161
 30
0.0
 11
140.769846
 21
161.273491
 31
0.0
  0
LINE
  5
462
330
451
100
AcDbEntity
  8
0
  6
CONTINUOUS
 62
     3
100
AcDbLine
 10
140.769846
 20
161.273491
 30
0.0
 11
140.772474
 21
161.262909
 31
0.0
  0
LINE
  5
463
330
451
100
AcDbEntity
  8
0
  6
CONTINUOUS
 62
     3
100
AcDbLine
 10
140.772474
 20
161.262909
 30
0.0
 11
140.775162
 21
161.252421
 31
0.0
  0
LINE
  5
464
330
451
100
AcDbEntity
  8
0
  6
CONTINUOUS
 62
     3
100
AcDbLine
 10
140.775162
 20
161.252421
 30
0.0
 11
140.777912
 21
161.242033
 31
0.0
  0
LINE
  5
465
330
451
100
AcDbEntity
  8
0
  6
CONTINUOUS
 62
     3
100
AcDbLine
 10
140.777912
 20
161.242033
 30
0.0
 11
140.780728
 21
161.231751
 31
0.0
  0
LINE
  5
466
330
451
100
AcDbEntity
  8
0
  6
CONTINUOUS
 62
     3
100
AcDbLine
 10
140.780728
 20
161.231751
 30
0.0
 11
140.783614
 21
161.221579
 31
0.0
  0
LINE
  5
467
330
451
100
AcDbEntity
  8
0
  6
CONTINUOUS
 62
     3
100
AcDbLine
 10
140.783614
 20
161.221579
 30
0.0
 11
140.786572
 21
161.211521
 31
0.0
  0
LINE
  5
468
330
451
100
AcDbEntity
  8
0
  6
CONTINUOUS
 62
     3
100
AcDbLine
 10
140.786572
 20
161.211521
 30
0.0
 11
140.789604
 21
161.201585
 31
0.0
  0
LINE
  5
469
330
451
100
AcDbEntity
  8
0
  6
CONTINUOUS
 62
     3
100
AcDbLine
 10
140.789604
 20
161.201585
 30
0.0
 11
140.792716
 21
161.191775
 31
0.0
  0
LINE
  5
46A
330
451
100
AcDbEntity
  8
0
  6
CONTINUOUS
 62
     3
100
AcDbLine
 10
140.792716
 20
161.191775
 30
0.0
 11
140.79591
 21
161.182095
 31
0.0
  0
LINE
  5
46B
330
451
100
AcDbEntity
  8
0
  6
CONTINUOUS
 62
     3
100
AcDbLine
 10
140.79591
 20
161.182095
 30
0.0
 11
140.799188
 21
161.172551
 31
0.0
  0
LINE
  5
46C
330
451
100
AcDbEntity
  8
0
  6
CONTINUOUS
 62
     3
100
AcDbLine
 10
140.799188
 20
161.172551
 30
0.0
 11
140.802556
 21
161.163151
 31
0.0
  0
LINE
  5
46D
330
451
100
AcDbEntity
  8
0
  6
CONTINUOUS
 62
     3
100
AcDbLine
 10
140.802556
 20
161.163151
 30
0.0
 11
140.806016
 21
161.153895
 31
0.0
  0
LINE
  5
46E
330
451
100
AcDbEntity
  8
0
  6
CONTINUOUS
 62
     3
100
AcDbLine
 10
140.806016
 20
161.153895
 30
0.0
 11
140.809572
 21
161.144793
 31
0.0
  0
LINE
  5
46F
330
451
100
AcDbEntity
  8
0
  6
CONTINUOUS
 62
     3
100
AcDbLine
 10
140.809572
 20
161.144793
 30
0.0
 11
140.813226
 21
161.135849
 31
0.0
  0
LINE
  5
470
330
451
100
AcDbEntity
  8
0
  6
CONTINUOUS
 62
     3
100
AcDbLine
 10
140.813226
 20
161.135849
 30
0.0
 11
140.816982
 21
161.127067
 31
0.0
  0
LINE
  5
471
330
451
100
AcDbEntity
  8
0
  6
CONTINUOUS
 62
     3
100
AcDbLine
 10
140.816982
 20
161.127067
 30
0.0
 11
140.820842
 21
161.118451
 31
0.0
  0
LINE
  5
472
330
451
100
AcDbEntity
  8
0
  6
CONTINUOUS
 62
     3
100
AcDbLine
 10
140.820842
 20
161.118451
 30
0.0
 11
140.824812
 21
161.110011
 31
0.0
  0
LINE
  5
473
330
451
100
AcDbEntity
  8
0
  6
CONTINUOUS
 62
     3
100
AcDbLine
 10
140.824812
 20
161.110011
 30
0.0
 11
140.828892
 21
161.101747
 31
0.0
  0
LINE
  5
474
330
451
100
AcDbEntity
  8
0
  6
CONTINUOUS
 62
     3
100
AcDbLine
 10
140.828892
 20
161.101747
 30
0.0
 11
140.833088
 21
161.093669
 31
0.0
  0
LINE
  5
475
330
451
100
AcDbEntity
  8
0
  6
CONTINUOUS
 62
     3
100
AcDbLine
 10
140.833088
 20
161.093669
 30
0.0
 11
140.837402
 21
161.085779
 31
0.0
  0
LINE
  5
476
330
451
100
AcDbEntity
  8
0
  6
CONTINUOUS
 62
     3
100
AcDbLine
 10
140.837402
 20
161.085779
 30
0.0
 11
140.841838
 21
161.078081
 31
0.0
  0
LINE
  5
477
330
451
100
AcDbEntity
  8
0
  6
CONTINUOUS
 62
     3
100
AcDbLine
 10
140.841838
 20
161.078081
 30
0.0
 11
140.846398
 21
161.070585
 31
0.0
  0
LINE
  5
478
330
451
100
AcDbEntity
  8
0
  6
CONTINUOUS
 62
     3
100
AcDbLine
 10
140.846398
 20
161.070585
 30
0.0
 11
140.851088
 21
161.063293
 31
0.0
  0
LINE
  5
479
330
451
100
AcDbEntity
  8
0
  6
CONTINUOUS
 62
     3
100
AcDbLine
 10
140.851088
 20
161.063293
 30
0.0
 11
140.855908
 21
161.056211
 31
0.0
  0
LINE
  5
47A
330
451
100
AcDbEntity
  8
0
  6
CONTINUOUS
 62
     3
100
AcDbLine
 10
140.855908
 20
161.056211
 30
0.0
 11
140.860862
 21
161.049343
 31
0.0
  0
LINE
  5
47B
330
451
100
AcDbEntity
  8
0
  6
CONTINUOUS
 62
     3
100
AcDbLine
 10
140.860862
 20
161.049343
 30
0.0
 11
140.865954
 21
161.042697
 31
0.0
  0
LINE
  5
47C
330
451
100
AcDbEntity
  8
0
  6
CONTINUOUS
 62
     3
100
AcDbLine
 10
140.865954
 20
161.042697
 30
0.0
 11
140.87119
 21
161.036275
 31
0.0
  0
LINE
  5
47D
330
451
100
AcDbEntity
  8
0
  6
CONTINUOUS
 62
     3
100
AcDbLine
 10
140.87119
 20
161.036275
 30
0.0
 11
140.876568
 21
161.030085
 31
0.0
  0
LINE
  5
47E
330
451
100
AcDbEntity
  8
0
  6
CONTINUOUS
 62
     3
100
AcDbLine
 10
140.876568
 20
161.030085
 30
0.0
 11
140.882094
 21
161.024131
 31
0.0
  0
LINE
  5
47F
330
451
100
AcDbEntity
  8
0
  6
CONTINUOUS
 62
     3
100
AcDbLine
 10
140.882094
 20
161.024131
 30
0.0
 11
140.887772
 21
161.018417
 31
0.0
  0
LINE
  5
480
330
451
100
AcDbEntity
  8
0
  6
CONTINUOUS
 62
     3
100
AcDbLine
 10
140.887772
 20
161.018417
 30
0.0
 11
140.893604
 21
161.012951
 31
0.0
  0
LINE
  5
481
330
451
100
AcDbEntity
  8
0
  6
CONTINUOUS
 62
     3
100
AcDbLine
 10
140.893604
 20
161.012951
 30
0.0
 11
140.899594
 21
161.007737
 31
0.0
  0
LINE
  5
482
330
451
100
AcDbEntity
  8
0
  6
CONTINUOUS
 62
     3
100
AcDbLine
 10
140.899594
 20
161.007737
 30
0.0
 11
140.905744
 21
161.002779
 31
0.0
  0
LINE
  5
483
330
451
100
AcDbEntity
  8
0
  6
CONTINUOUS
 62
     3
100
AcDbLine
 10
140.905744
 20
161.002779
 30
0.0
 11
140.91206
 21
160.998083
 31
0.0
  0
LINE
  5
484
330
451
100
AcDbEntity
  8
0
  6
CONTINUOUS
 62
     3
100
AcDbLine
 10
140.91206
 20
160.998083
 30
0.0
 11
140.918542
 21
160.993655
 31
0.0
  0
LINE
  5
485
330
451
100
AcDbEntity
  8
0
  6
CONTINUOUS
 62
     3
100
AcDbLine
 10
140.918542
 20
160.993655
 30
0.0
 11
140.925194
 21
160.989501
 31
0.0
  0
LINE
  5
486
330
451
100
AcDbEntity
  8
0
  6
CONTINUOUS
 62
     3
100
AcDbLine
 10
140.925194
 20
160.989501
 30
0.0
 11
140.932022
 21
160.985625
 31
0.0
  0
LINE
  5
487
330
451
100
AcDbEntity
  8
0
  6
CONTINUOUS
 62
     3
100
AcDbLine
 10
140.932022
 20
160.985625
 30
0.0
 11
140.939028
 21
160.982031
 31
0.0
  0
LINE
  5
488
330
451
100
AcDbEntity
  8
0
  6
CONTINUOUS
 62
     3
100
AcDbLine
 10
140.939028
 20
160.982031
 30
0.0
 11
140.946212
 21
160.978727
 31
0.0
  0
LINE
  5
489
330
451
100
AcDbEntity
  8
0
  6
CONTINUOUS
 62
     3
100
AcDbLine
 10
140.946212
 20
160.978727
 30
0.0
 11
140.953582
 21
160.975715
 31
0.0
  0
LINE
  5
48A
330
451
100
AcDbEntity
  8
0
  6
CONTINUOUS
 62
     3
100
AcDbLine
 10
140.953582
 20
160.975715
 30
0.0
 11
140.96114
 21
160.973003
 31
0.0
  0
LINE
  5
48B
330
451
100
AcDbEntity
  8
0
  6
CONTINUOUS
 62
     3
100
AcDbLine
 10
140.96114
 20
160.973003
 30
0.0
 11
140.968886
 21
160.970595
 31
0.0
  0
LINE
  5
48C
330
451
100
AcDbEntity
  8
0
  6
CONTINUOUS
 62
     3
100
AcDbLine
 10
140.968886
 20
160.970595
 30
0.0
 11
140.976828
 21
160.968497
 31
0.0
  0
LINE
  5
48D
330
451
100
AcDbEntity
  8
0
  6
CONTINUOUS
 62
     3
100
AcDbLine
 10
140.976828
 20
160.968497
 30
0.0
 11
140.984966
 21
160.966715
 31
0.0
  0
LINE
  5
48E
330
451
100
AcDbEntity
  8
0
  6
CONTINUOUS
 62
     3
100
AcDbLine
 10
140.984966
 20
160.966715
 30
0.0
 11
140.993304
 21
160.965251
 31
0.0
  0
LINE
  5
48F
330
451
100
AcDbEntity
  8
0
  6
CONTINUOUS
 62
     3
100
AcDbLine
 10
140.993304
 20
160.965251
 30
0.0
 11
140.99755
 21
160.964641
 31
0.0
  0
LINE
  5
490
330
451
100
AcDbEntity
  8
0
  6
CONTINUOUS
 62
     3
100
AcDbLine
 10
140.99755
 20
160.964641
 30
0.0
 11
141.001848
 21
160.964113
 31
0.0
  0
LINE
  5
491
330
451
100
AcDbEntity
  8
0
  6
CONTINUOUS
 62
     3
100
AcDbLine
 10
141.001848
 20
160.964113
 30
0.0
 11
141.006196
 21
160.963667
 31
0.0
  0
LINE
  5
492
330
451
100
AcDbEntity
  8
0
  6
CONTINUOUS
 62
     3
100
AcDbLine
 10
141.006196
 20
160.963667
 30
0.0
 11
141.010596
 21
160.963305
 31
0.0
  0
LINE
  5
493
330
451
100
AcDbEntity
  8
0
  6
CONTINUOUS
 62
     3
100
AcDbLine
 10
141.010596
 20
160.963305
 30
0.0
 11
141.020022
 21
160.962755
 31
0.0
  0
ENDBLK
  5
453
330
451
100
AcDbEntity
  8
0
100
AcDbBlockEnd
  0
BLOCK
  5
497
330
496
100
AcDbEntity
  8
0
100
AcDbBlockBegin
  2
BLKF030
 70
     0
 71
     0
 10
0.0
 20
0.0
 30
0.0
  3
BLKF030
  1

  0
LINE
  5
49A
330
496
100
AcDbEntity
  8
0
  6
CONTINUOUS
 62
     3
100
AcDbLine
 10
152.717508
 20
166.962751
 30
0.0
 11
152.702252
 21
166.919661
 31
0.0
  0
LINE
  5
49B
330
496
100
AcDbEntity
  8
0
  6
CONTINUOUS
 62
     3
100
AcDbLine
 10
152.702252
 20
166.919661
 30
0.0
 11
152.694694
 21
166.898093
 31
0.0
  0
LINE
  5
49C
330
496
100
AcDbEntity
  8
0
  6
CONTINUOUS
 62
     3
100
AcDbLine
 10
152.694694
 20
166.898093
 30
0.0
 11
152.687222
 21
166.876497
 31
0.0
  0
LINE
  5
49D
330
496
100
AcDbEntity
  8
0
  6
CONTINUOUS
 62
     3
100
AcDbLine
 10
152.687222
 20
166.876497
 30
0.0
 11
152.679862
 21
166.854865
 31
0.0
  0
LINE
  5
49E
330
496
100
AcDbEntity
  8
0
  6
CONTINUOUS
 62
     3
100
AcDbLine
 10
152.679862
 20
166.854865
 30
0.0
 11
152.672646
 21
166.833189
 31
0.0
  0
LINE
  5
49F
330
496
100
AcDbEntity
  8
0
  6
CONTINUOUS
 62
     3
100
AcDbLine
 10
152.672646
 20
166.833189
 30
0.0
 11
152.6656
 21
166.811455
 31
0.0
  0
LINE
  5
4A0
330
496
100
AcDbEntity
  8
0
  6
CONTINUOUS
 62
     3
100
AcDbLine
 10
152.6656
 20
166.811455
 30
0.0
 11
152.658752
 21
166.789659
 31
0.0
  0
LINE
  5
4A1
330
496
100
AcDbEntity
  8
0
  6
CONTINUOUS
 62
     3
100
AcDbLine
 10
152.658752
 20
166.789659
 30
0.0
 11
152.650572
 21
166.762747
 31
0.0
  0
ENDBLK
  5
498
330
496
100
AcDbEntity
  8
0
100
AcDbBlockEnd
  0
BLOCK
  5
4A6
330
4A5
100
AcDbEntity
  8
0
100
AcDbBlockBegin
  2
BLKF031
 70
     0
 71
     0
 10
0.0
 20
0.0
 30
0.0
  3
BLKF031
  1

  0
LINE
  5
4A9
330
4A5
100
AcDbEntity
  8
0
  6
CONTINUOUS
 62
     3
100
AcDbLine
 10
140.731022
 20
166.762747
 30
0.0
 11
140.738136
 21
166.785571
 31
0.0
  0
LINE
  5
4AA
330
4A5
100
AcDbEntity
  8
0
  6
CONTINUOUS
 62
     3
100
AcDbLine
 10
140.738136
 20
166.785571
 30
0.0
 11
140.745286
 21
166.808381
 31
0.0
  0
LINE
  5
4AB
330
4A5
100
AcDbEntity
  8
0
  6
CONTINUOUS
 62
     3
100
AcDbLine
 10
140.745286
 20
166.808381
 30
0.0
 11
140.752512
 21
166.831167
 31
0.0
  0
LINE
  5
4AC
330
4A5
100
AcDbEntity
  8
0
  6
CONTINUOUS
 62
     3
100
AcDbLine
 10
140.752512
 20
166.831167
 30
0.0
 11
140.759848
 21
166.853911
 31
0.0
  0
LINE
  5
4AD
330
4A5
100
AcDbEntity
  8
0
  6
CONTINUOUS
 62
     3
100
AcDbLine
 10
140.759848
 20
166.853911
 30
0.0
 11
140.76733
 21
166.876605
 31
0.0
  0
LINE
  5
4AE
330
4A5
100
AcDbEntity
  8
0
  6
CONTINUOUS
 62
     3
100
AcDbLine
 10
140.76733
 20
166.876605
 30
0.0
 11
140.774998
 21
166.899233
 31
0.0
  0
LINE
  5
4AF
330
4A5
100
AcDbEntity
  8
0
  6
CONTINUOUS
 62
     3
100
AcDbLine
 10
140.774998
 20
166.899233
 30
0.0
 11
140.782888
 21
166.921785
 31
0.0
  0
LINE
  5
4B0
330
4A5
100
AcDbEntity
  8
0
  6
CONTINUOUS
 62
     3
100
AcDbLine
 10
140.782888
 20
166.921785
 30
0.0
 11
140.786928
 21
166.933027
 31
0.0
  0
LINE
  5
4B1
330
4A5
100
AcDbEntity
  8
0
  6
CONTINUOUS
 62
     3
100
AcDbLine
 10
140.786928
 20
166.933027
 30
0.0
 11
140.791036
 21
166.944245
 31
0.0
  0
LINE
  5
4B2
330
4A5
100
AcDbEntity
  8
0
  6
CONTINUOUS
 62
     3
100
AcDbLine
 10
140.791036
 20
166.944245
 30
0.0
 11
140.797958
 21
166.962751
 31
0.0
  0
ENDBLK
  5
4A7
330
4A5
100
AcDbEntity
  8
0
100
AcDbBlockEnd
  0
BLOCK
  5
4B6
330
4B5
100
AcDbEntity
  8
0
100
AcDbBlockBegin
  2
BLKF032
 70
     0
 71
     0
 10
0.0
 20
0.0
 30
0.0
  3
BLKF032
  1

  0
LINE
  5
4B9
330
4B5
100
AcDbEntity
  8
0
  6
CONTINUOUS
 62
     3
100
AcDbLine
 10
153.228572
 20
161.462747
 30
0.0
 11
153.224318
 21
161.439985
 31
0.0
  0
LINE
  5
4BA
330
4B5
100
AcDbEntity
  8
0
  6
CONTINUOUS
 62
     3
100
AcDbLine
 10
153.224318
 20
161.439985
 30
0.0
 11
153.220036
 21
161.417263
 31
0.0
  0
LINE
  5
4BB
330
4B5
100
AcDbEntity
  8
0
  6
CONTINUOUS
 62
     3
100
AcDbLine
 10
153.220036
 20
161.417263
 30
0.0
 11
153.2157
 21
161.394625
 31
0.0
  0
LINE
  5
4BC
330
4B5
100
AcDbEntity
  8
0
  6
CONTINUOUS
 62
     3
100
AcDbLine
 10
153.2157
 20
161.394625
 30
0.0
 11
153.211288
 21
161.372113
 31
0.0
  0
LINE
  5
4BD
330
4B5
100
AcDbEntity
  8
0
  6
CONTINUOUS
 62
     3
100
AcDbLine
 10
153.211288
 20
161.372113
 30
0.0
 11
153.209042
 21
161.360917
 31
0.0
  0
LINE
  5
4BE
330
4B5
100
AcDbEntity
  8
0
  6
CONTINUOUS
 62
     3
100
AcDbLine
 10
153.209042
 20
161.360917
 30
0.0
 11
153.206768
 21
161.349769
 31
0.0
  0
LINE
  5
4BF
330
4B5
100
AcDbEntity
  8
0
  6
CONTINUOUS
 62
     3
100
AcDbLine
 10
153.206768
 20
161.349769
 30
0.0
 11
153.204462
 21
161.338673
 31
0.0
  0
LINE
  5
4C0
330
4B5
100
AcDbEntity
  8
0
  6
CONTINUOUS
 62
     3
100
AcDbLine
 10
153.204462
 20
161.338673
 30
0.0
 11
153.202118
 21
161.327635
 31
0.0
  0
LINE
  5
4C1
330
4B5
100
AcDbEntity
  8
0
  6
CONTINUOUS
 62
     3
100
AcDbLine
 10
153.202118
 20
161.327635
 30
0.0
 11
153.199736
 21
161.316659
 31
0.0
  0
LINE
  5
4C2
330
4B5
100
AcDbEntity
  8
0
  6
CONTINUOUS
 62
     3
100
AcDbLine
 10
153.199736
 20
161.316659
 30
0.0
 11
153.19731
 21
161.305753
 31
0.0
  0
LINE
  5
4C3
330
4B5
100
AcDbEntity
  8
0
  6
CONTINUOUS
 62
     3
100
AcDbLine
 10
153.19731
 20
161.305753
 30
0.0
 11
153.19484
 21
161.294919
 31
0.0
  0
LINE
  5
4C4
330
4B5
100
AcDbEntity
  8
0
  6
CONTINUOUS
 62
     3
100
AcDbLine
 10
153.19484
 20
161.294919
 30
0.0
 11
153.19232
 21
161.284165
 31
0.0
  0
LINE
  5
4C5
330
4B5
100
AcDbEntity
  8
0
  6
CONTINUOUS
 62
     3
100
AcDbLine
 10
153.19232
 20
161.284165
 30
0.0
 11
153.189746
 21
161.273493
 31
0.0
  0
LINE
  5
4C6
330
4B5
100
AcDbEntity
  8
0
  6
CONTINUOUS
 62
     3
100
AcDbLine
 10
153.189746
 20
161.273493
 30
0.0
 11
153.187118
 21
161.262911
 31
0.0
  0
LINE
  5
4C7
330
4B5
100
AcDbEntity
  8
0
  6
CONTINUOUS
 62
     3
100
AcDbLine
 10
153.187118
 20
161.262911
 30
0.0
 11
153.18443
 21
161.252425
 31
0.0
  0
LINE
  5
4C8
330
4B5
100
AcDbEntity
  8
0
  6
CONTINUOUS
 62
     3
100
AcDbLine
 10
153.18443
 20
161.252425
 30
0.0
 11
153.181678
 21
161.242037
 31
0.0
  0
LINE
  5
4C9
330
4B5
100
AcDbEntity
  8
0
  6
CONTINUOUS
 62
     3
100
AcDbLine
 10
153.181678
 20
161.242037
 30
0.0
 11
153.178862
 21
161.231755
 31
0.0
  0
LINE
  5
4CA
330
4B5
100
AcDbEntity
  8
0
  6
CONTINUOUS
 62
     3
100
AcDbLine
 10
153.178862
 20
161.231755
 30
0.0
 11
153.175978
 21
161.221581
 31
0.0
  0
LINE
  5
4CB
330
4B5
100
AcDbEntity
  8
0
  6
CONTINUOUS
 62
     3
100
AcDbLine
 10
153.175978
 20
161.221581
 30
0.0
 11
153.17302
 21
161.211525
 31
0.0
  0
LINE
  5
4CC
330
4B5
100
AcDbEntity
  8
0
  6
CONTINUOUS
 62
     3
100
AcDbLine
 10
153.17302
 20
161.211525
 30
0.0
 11
153.169986
 21
161.201587
 31
0.0
  0
LINE
  5
4CD
330
4B5
100
AcDbEntity
  8
0
  6
CONTINUOUS
 62
     3
100
AcDbLine
 10
153.169986
 20
161.201587
 30
0.0
 11
153.166876
 21
161.191777
 31
0.0
  0
LINE
  5
4CE
330
4B5
100
AcDbEntity
  8
0
  6
CONTINUOUS
 62
     3
100
AcDbLine
 10
153.166876
 20
161.191777
 30
0.0
 11
153.163682
 21
161.182099
 31
0.0
  0
LINE
  5
4CF
330
4B5
100
AcDbEntity
  8
0
  6
CONTINUOUS
 62
     3
100
AcDbLine
 10
153.163682
 20
161.182099
 30
0.0
 11
153.160402
 21
161.172555
 31
0.0
  0
LINE
  5
4D0
330
4B5
100
AcDbEntity
  8
0
  6
CONTINUOUS
 62
     3
100
AcDbLine
 10
153.160402
 20
161.172555
 30
0.0
 11
153.157034
 21
161.163153
 31
0.0
  0
LINE
  5
4D1
330
4B5
100
AcDbEntity
  8
0
  6
CONTINUOUS
 62
     3
100
AcDbLine
 10
153.157034
 20
161.163153
 30
0.0
 11
153.153574
 21
161.153899
 31
0.0
  0
LINE
  5
4D2
330
4B5
100
AcDbEntity
  8
0
  6
CONTINUOUS
 62
     3
100
AcDbLine
 10
153.153574
 20
161.153899
 30
0.0
 11
153.150018
 21
161.144797
 31
0.0
  0
LINE
  5
4D3
330
4B5
100
AcDbEntity
  8
0
  6
CONTINUOUS
 62
     3
100
AcDbLine
 10
153.150018
 20
161.144797
 30
0.0
 11
153.146364
 21
161.135853
 31
0.0
  0
LINE
  5
4D4
330
4B5
100
AcDbEntity
  8
0
  6
CONTINUOUS
 62
     3
100
AcDbLine
 10
153.146364
 20
161.135853
 30
0.0
 11
153.142608
 21
161.127071
 31
0.0
  0
LINE
  5
4D5
330
4B5
100
AcDbEntity
  8
0
  6
CONTINUOUS
 62
     3
100
AcDbLine
 10
153.142608
 20
161.127071
 30
0.0
 11
153.138748
 21
161.118455
 31
0.0
  0
LINE
  5
4D6
330
4B5
100
AcDbEntity
  8
0
  6
CONTINUOUS
 62
     3
100
AcDbLine
 10
153.138748
 20
161.118455
 30
0.0
 11
153.134778
 21
161.110015
 31
0.0
  0
LINE
  5
4D7
330
4B5
100
AcDbEntity
  8
0
  6
CONTINUOUS
 62
     3
100
AcDbLine
 10
153.134778
 20
161.110015
 30
0.0
 11
153.130698
 21
161.101751
 31
0.0
  0
LINE
  5
4D8
330
4B5
100
AcDbEntity
  8
0
  6
CONTINUOUS
 62
     3
100
AcDbLine
 10
153.130698
 20
161.101751
 30
0.0
 11
153.126502
 21
161.093673
 31
0.0
  0
LINE
  5
4D9
330
4B5
100
AcDbEntity
  8
0
  6
CONTINUOUS
 62
     3
100
AcDbLine
 10
153.126502
 20
161.093673
 30
0.0
 11
153.122188
 21
161.085783
 31
0.0
  0
LINE
  5
4DA
330
4B5
100
AcDbEntity
  8
0
  6
CONTINUOUS
 62
     3
100
AcDbLine
 10
153.122188
 20
161.085783
 30
0.0
 11
153.117752
 21
161.078085
 31
0.0
  0
LINE
  5
4DB
330
4B5
100
AcDbEntity
  8
0
  6
CONTINUOUS
 62
     3
100
AcDbLine
 10
153.117752
 20
161.078085
 30
0.0
 11
153.11319
 21
161.070589
 31
0.0
  0
LINE
  5
4DC
330
4B5
100
AcDbEntity
  8
0
  6
CONTINUOUS
 62
     3
100
AcDbLine
 10
153.11319
 20
161.070589
 30
0.0
 11
153.108502
 21
161.063297
 31
0.0
  0
LINE
  5
4DD
330
4B5
100
AcDbEntity
  8
0
  6
CONTINUOUS
 62
     3
100
AcDbLine
 10
153.108502
 20
161.063297
 30
0.0
 11
153.103682
 21
161.056215
 31
0.0
  0
LINE
  5
4DE
330
4B5
100
AcDbEntity
  8
0
  6
CONTINUOUS
 62
     3
100
AcDbLine
 10
153.103682
 20
161.056215
 30
0.0
 11
153.098726
 21
161.049347
 31
0.0
  0
LINE
  5
4DF
330
4B5
100
AcDbEntity
  8
0
  6
CONTINUOUS
 62
     3
100
AcDbLine
 10
153.098726
 20
161.049347
 30
0.0
 11
153.093634
 21
161.042701
 31
0.0
  0
LINE
  5
4E0
330
4B5
100
AcDbEntity
  8
0
  6
CONTINUOUS
 62
     3
100
AcDbLine
 10
153.093634
 20
161.042701
 30
0.0
 11
153.0884
 21
161.036279
 31
0.0
  0
LINE
  5
4E1
330
4B5
100
AcDbEntity
  8
0
  6
CONTINUOUS
 62
     3
100
AcDbLine
 10
153.0884
 20
161.036279
 30
0.0
 11
153.08302
 21
161.030089
 31
0.0
  0
LINE
  5
4E2
330
4B5
100
AcDbEntity
  8
0
  6
CONTINUOUS
 62
     3
100
AcDbLine
 10
153.08302
 20
161.030089
 30
0.0
 11
153.077494
 21
161.024133
 31
0.0
  0
LINE
  5
4E3
330
4B5
100
AcDbEntity
  8
0
  6
CONTINUOUS
 62
     3
100
AcDbLine
 10
153.077494
 20
161.024133
 30
0.0
 11
153.071816
 21
161.018421
 31
0.0
  0
LINE
  5
4E4
330
4B5
100
AcDbEntity
  8
0
  6
CONTINUOUS
 62
     3
100
AcDbLine
 10
153.071816
 20
161.018421
 30
0.0
 11
153.065984
 21
161.012955
 31
0.0
  0
LINE
  5
4E5
330
4B5
100
AcDbEntity
  8
0
  6
CONTINUOUS
 62
     3
100
AcDbLine
 10
153.065984
 20
161.012955
 30
0.0
 11
153.059994
 21
161.007739
 31
0.0
  0
LINE
  5
4E6
330
4B5
100
AcDbEntity
  8
0
  6
CONTINUOUS
 62
     3
100
AcDbLine
 10
153.059994
 20
161.007739
 30
0.0
 11
153.053844
 21
161.002781
 31
0.0
  0
LINE
  5
4E7
330
4B5
100
AcDbEntity
  8
0
  6
CONTINUOUS
 62
     3
100
AcDbLine
 10
153.053844
 20
161.002781
 30
0.0
 11
153.047528
 21
160.998087
 31
0.0
  0
LINE
  5
4E8
330
4B5
100
AcDbEntity
  8
0
  6
CONTINUOUS
 62
     3
100
AcDbLine
 10
153.047528
 20
160.998087
 30
0.0
 11
153.041046
 21
160.993659
 31
0.0
  0
LINE
  5
4E9
330
4B5
100
AcDbEntity
  8
0
  6
CONTINUOUS
 62
     3
100
AcDbLine
 10
153.041046
 20
160.993659
 30
0.0
 11
153.034392
 21
160.989503
 31
0.0
  0
LINE
  5
4EA
330
4B5
100
AcDbEntity
  8
0
  6
CONTINUOUS
 62
     3
100
AcDbLine
 10
153.034392
 20
160.989503
 30
0.0
 11
153.027566
 21
160.985627
 31
0.0
  0
LINE
  5
4EB
330
4B5
100
AcDbEntity
  8
0
  6
CONTINUOUS
 62
     3
100
AcDbLine
 10
153.027566
 20
160.985627
 30
0.0
 11
153.02056
 21
160.982033
 31
0.0
  0
LINE
  5
4EC
330
4B5
100
AcDbEntity
  8
0
  6
CONTINUOUS
 62
     3
100
AcDbLine
 10
153.02056
 20
160.982033
 30
0.0
 11
153.013374
 21
160.978729
 31
0.0
  0
LINE
  5
4ED
330
4B5
100
AcDbEntity
  8
0
  6
CONTINUOUS
 62
     3
100
AcDbLine
 10
153.013374
 20
160.978729
 30
0.0
 11
153.006004
 21
160.975717
 31
0.0
  0
LINE
  5
4EE
330
4B5
100
AcDbEntity
  8
0
  6
CONTINUOUS
 62
     3
100
AcDbLine
 10
153.006004
 20
160.975717
 30
0.0
 11
152.998448
 21
160.973005
 31
0.0
  0
LINE
  5
4EF
330
4B5
100
AcDbEntity
  8
0
  6
CONTINUOUS
 62
     3
100
AcDbLine
 10
152.998448
 20
160.973005
 30
0.0
 11
152.9907
 21
160.970597
 31
0.0
  0
LINE
  5
4F0
330
4B5
100
AcDbEntity
  8
0
  6
CONTINUOUS
 62
     3
100
AcDbLine
 10
152.9907
 20
160.970597
 30
0.0
 11
152.98276
 21
160.968499
 31
0.0
  0
LINE
  5
4F1
330
4B5
100
AcDbEntity
  8
0
  6
CONTINUOUS
 62
     3
100
AcDbLine
 10
152.98276
 20
160.968499
 30
0.0
 11
152.97462
 21
160.966715
 31
0.0
  0
LINE
  5
4F2
330
4B5
100
AcDbEntity
  8
0
  6
CONTINUOUS
 62
     3
100
AcDbLine
 10
152.97462
 20
160.966715
 30
0.0
 11
152.966282
 21
160.965251
 31
0.0
  0
LINE
  5
4F3
330
4B5
100
AcDbEntity
  8
0
  6
CONTINUOUS
 62
     3
100
AcDbLine
 10
152.966282
 20
160.965251
 30
0.0
 11
152.962036
 21
160.964641
 31
0.0
  0
LINE
  5
4F4
330
4B5
100
AcDbEntity
  8
0
  6
CONTINUOUS
 62
     3
100
AcDbLine
 10
152.962036
 20
160.964641
 30
0.0
 11
152.95774
 21
160.964113
 31
0.0
  0
LINE
  5
4F5
330
4B5
100
AcDbEntity
  8
0
  6
CONTINUOUS
 62
     3
100
AcDbLine
 10
152.95774
 20
160.964113
 30
0.0
 11
152.95339
 21
160.963667
 31
0.0
  0
LINE
  5
4F6
330
4B5
100
AcDbEntity
  8
0
  6
CONTINUOUS
 62
     3
100
AcDbLine
 10
152.95339
 20
160.963667
 30
0.0
 11
152.94899
 21
160.963305
 31
0.0
  0
LINE
  5
4F7
330
4B5
100
AcDbEntity
  8
0
  6
CONTINUOUS
 62
     3
100
AcDbLine
 10
152.94899
 20
160.963305
 30
0.0
 11
152.939572
 21
160.962755
 31
0.0
  0
ENDBLK
  5
4B7
330
4B5
100
AcDbEntity
  8
0
100
AcDbBlockEnd
  0
BLOCK
  5
4FA
330
4F9
100
AcDbEntity
  8
0
100
AcDbBlockBegin
  2
BLKF033
 70
     0
 71
     0
 10
0.0
 20
0.0
 30
0.0
  3
BLKF033
  1

  0
LINE
  5
4FD
330
4F9
100
AcDbEntity
  8
0
  6
CONTINUOUS
 62
     3
100
AcDbLine
 10
153.228572
 20
166.762747
 30
0.0
 11
153.221458
 21
166.785571
 31
0.0
  0
LINE
  5
4FE
330
4F9
100
AcDbEntity
  8
0
  6
CONTINUOUS
 62
     3
100
AcDbLine
 10
153.221458
 20
166.785571
 30
0.0
 11
153.214304
 21
166.808381
 31
0.0
  0
LINE
  5
4FF
330
4F9
100
AcDbEntity
  8
0
  6
CONTINUOUS
 62
     3
100
AcDbLine
 10
153.214304
 20
166.808381
 30
0.0
 11
153.207078
 21
166.831167
 31
0.0
  0
LINE
  5
500
330
4F9
100
AcDbEntity
  8
0
  6
CONTINUOUS
 62
     3
100
AcDbLine
 10
153.207078
 20
166.831167
 30
0.0
 11
153.199742
 21
166.853911
 31
0.0
  0
LINE
  5
501
330
4F9
100
AcDbEntity
  8
0
  6
CONTINUOUS
 62
     3
100
AcDbLine
 10
153.199742
 20
166.853911
 30
0.0
 11
153.192258
 21
166.876605
 31
0.0
  0
LINE
  5
502
330
4F9
100
AcDbEntity
  8
0
  6
CONTINUOUS
 62
     3
100
AcDbLine
 10
153.192258
 20
166.876605
 30
0.0
 11
153.184588
 21
166.899233
 31
0.0
  0
LINE
  5
503
330
4F9
100
AcDbEntity
  8
0
  6
CONTINUOUS
 62
     3
100
AcDbLine
 10
153.184588
 20
166.899233
 30
0.0
 11
153.176698
 21
166.921785
 31
0.0
  0
LINE
  5
504
330
4F9
100
AcDbEntity
  8
0
  6
CONTINUOUS
 62
     3
100
AcDbLine
 10
153.176698
 20
166.921785
 30
0.0
 11
153.17266
 21
166.933027
 31
0.0
  0
LINE
  5
505
330
4F9
100
AcDbEntity
  8
0
  6
CONTINUOUS
 62
     3
100
AcDbLine
 10
153.17266
 20
166.933027
 30
0.0
 11
153.16855
 21
166.944245
 31
0.0
  0
LINE
  5
506
330
4F9
100
AcDbEntity
  8
0
  6
CONTINUOUS
 62
     3
100
AcDbLine
 10
153.16855
 20
166.944245
 30
0.0
 11
153.16163
 21
166.962751
 31
0.0
  0
ENDBLK
  5
4FB
330
4F9
100
AcDbEntity
  8
0
100
AcDbBlockEnd
  0
BLOCK
  5
509
330
508
100
AcDbEntity
  8
0
100
AcDbBlockBegin
  2
BLKF034
 70
     0
 71
     0
 10
0.0
 20
0.0
 30
0.0
  3
BLKF034
  1

  0
LINE
  5
50C
330
508
100
AcDbEntity
  8
0
  6
CONTINUOUS
 62
     3
100
AcDbLine
 10
148.15571
 20
167.462745
 30
0.0
 11
148.228918
 21
167.429989
 31
0.0
  0
LINE
  5
50D
330
508
100
AcDbEntity
  8
0
  6
CONTINUOUS
 62
     3
100
AcDbLine
 10
148.228918
 20
167.429989
 30
0.0
 11
148.302258
 21
167.397661
 31
0.0
  0
LINE
  5
50E
330
508
100
AcDbEntity
  8
0
  6
CONTINUOUS
 62
     3
100
AcDbLine
 10
148.302258
 20
167.397661
 30
0.0
 11
148.375872
 21
167.366191
 31
0.0
  0
LINE
  5
50F
330
508
100
AcDbEntity
  8
0
  6
CONTINUOUS
 62
     3
100
AcDbLine
 10
148.375872
 20
167.366191
 30
0.0
 11
148.412822
 21
167.350913
 31
0.0
  0
LINE
  5
510
330
508
100
AcDbEntity
  8
0
  6
CONTINUOUS
 62
     3
100
AcDbLine
 10
148.412822
 20
167.350913
 30
0.0
 11
148.44989
 21
167.336011
 31
0.0
  0
LINE
  5
511
330
508
100
AcDbEntity
  8
0
  6
CONTINUOUS
 62
     3
100
AcDbLine
 10
148.44989
 20
167.336011
 30
0.0
 11
148.503346
 21
167.315345
 31
0.0
  0
LINE
  5
512
330
508
100
AcDbEntity
  8
0
  6
CONTINUOUS
 62
     3
100
AcDbLine
 10
148.503346
 20
167.315345
 30
0.0
 11
148.557074
 21
167.295537
 31
0.0
  0
LINE
  5
513
330
508
100
AcDbEntity
  8
0
  6
CONTINUOUS
 62
     3
100
AcDbLine
 10
148.557074
 20
167.295537
 30
0.0
 11
148.611064
 21
167.276557
 31
0.0
  0
LINE
  5
514
330
508
100
AcDbEntity
  8
0
  6
CONTINUOUS
 62
     3
100
AcDbLine
 10
148.611064
 20
167.276557
 30
0.0
 11
148.665306
 21
167.258381
 31
0.0
  0
LINE
  5
515
330
508
100
AcDbEntity
  8
0
  6
CONTINUOUS
 62
     3
100
AcDbLine
 10
148.665306
 20
167.258381
 30
0.0
 11
148.719792
 21
167.240979
 31
0.0
  0
LINE
  5
516
330
508
100
AcDbEntity
  8
0
  6
CONTINUOUS
 62
     3
100
AcDbLine
 10
148.719792
 20
167.240979
 30
0.0
 11
148.774514
 21
167.224323
 31
0.0
  0
LINE
  5
517
330
508
100
AcDbEntity
  8
0
  6
CONTINUOUS
 62
     3
100
AcDbLine
 10
148.774514
 20
167.224323
 30
0.0
 11
148.829462
 21
167.208385
 31
0.0
  0
LINE
  5
518
330
508
100
AcDbEntity
  8
0
  6
CONTINUOUS
 62
     3
100
AcDbLine
 10
148.829462
 20
167.208385
 30
0.0
 11
148.88463
 21
167.193141
 31
0.0
  0
LINE
  5
519
330
508
100
AcDbEntity
  8
0
  6
CONTINUOUS
 62
     3
100
AcDbLine
 10
148.88463
 20
167.193141
 30
0.0
 11
148.940006
 21
167.178559
 31
0.0
  0
LINE
  5
51A
330
508
100
AcDbEntity
  8
0
  6
CONTINUOUS
 62
     3
100
AcDbLine
 10
148.940006
 20
167.178559
 30
0.0
 11
148.995582
 21
167.164613
 31
0.0
  0
LINE
  5
51B
330
508
100
AcDbEntity
  8
0
  6
CONTINUOUS
 62
     3
100
AcDbLine
 10
148.995582
 20
167.164613
 30
0.0
 11
149.051352
 21
167.151275
 31
0.0
  0
LINE
  5
51C
330
508
100
AcDbEntity
  8
0
  6
CONTINUOUS
 62
     3
100
AcDbLine
 10
149.051352
 20
167.151275
 30
0.0
 11
149.107304
 21
167.138519
 31
0.0
  0
LINE
  5
51D
330
508
100
AcDbEntity
  8
0
  6
CONTINUOUS
 62
     3
100
AcDbLine
 10
149.107304
 20
167.138519
 30
0.0
 11
149.16343
 21
167.126315
 31
0.0
  0
LINE
  5
51E
330
508
100
AcDbEntity
  8
0
  6
CONTINUOUS
 62
     3
100
AcDbLine
 10
149.16343
 20
167.126315
 30
0.0
 11
149.219722
 21
167.114637
 31
0.0
  0
LINE
  5
51F
330
508
100
AcDbEntity
  8
0
  6
CONTINUOUS
 62
     3
100
AcDbLine
 10
149.219722
 20
167.114637
 30
0.0
 11
149.27617
 21
167.103457
 31
0.0
  0
LINE
  5
520
330
508
100
AcDbEntity
  8
0
  6
CONTINUOUS
 62
     3
100
AcDbLine
 10
149.27617
 20
167.103457
 30
0.0
 11
149.332768
 21
167.092747
 31
0.0
  0
LINE
  5
521
330
508
100
AcDbEntity
  8
0
  6
CONTINUOUS
 62
     3
100
AcDbLine
 10
149.332768
 20
167.092747
 30
0.0
 11
149.389504
 21
167.082479
 31
0.0
  0
LINE
  5
522
330
508
100
AcDbEntity
  8
0
  6
CONTINUOUS
 62
     3
100
AcDbLine
 10
149.389504
 20
167.082479
 30
0.0
 11
149.446372
 21
167.072625
 31
0.0
  0
LINE
  5
523
330
508
100
AcDbEntity
  8
0
  6
CONTINUOUS
 62
     3
100
AcDbLine
 10
149.446372
 20
167.072625
 30
0.0
 11
149.503362
 21
167.063159
 31
0.0
  0
LINE
  5
524
330
508
100
AcDbEntity
  8
0
  6
CONTINUOUS
 62
     3
100
AcDbLine
 10
149.503362
 20
167.063159
 30
0.0
 11
149.560466
 21
167.054053
 31
0.0
  0
LINE
  5
525
330
508
100
AcDbEntity
  8
0
  6
CONTINUOUS
 62
     3
100
AcDbLine
 10
149.560466
 20
167.054053
 30
0.0
 11
149.617672
 21
167.045279
 31
0.0
  0
LINE
  5
526
330
508
100
AcDbEntity
  8
0
  6
CONTINUOUS
 62
     3
100
AcDbLine
 10
149.617672
 20
167.045279
 30
0.0
 11
149.674976
 21
167.036809
 31
0.0
  0
LINE
  5
527
330
508
100
AcDbEntity
  8
0
  6
CONTINUOUS
 62
     3
100
AcDbLine
 10
149.674976
 20
167.036809
 30
0.0
 11
149.732368
 21
167.028615
 31
0.0
  0
LINE
  5
528
330
508
100
AcDbEntity
  8
0
  6
CONTINUOUS
 62
     3
100
AcDbLine
 10
149.732368
 20
167.028615
 30
0.0
 11
149.789838
 21
167.020669
 31
0.0
  0
LINE
  5
529
330
508
100
AcDbEntity
  8
0
  6
CONTINUOUS
 62
     3
100
AcDbLine
 10
149.789838
 20
167.020669
 30
0.0
 11
149.904976
 21
167.005415
 31
0.0
  0
LINE
  5
52A
330
508
100
AcDbEntity
  8
0
  6
CONTINUOUS
 62
     3
100
AcDbLine
 10
149.904976
 20
167.005415
 30
0.0
 11
150.020326
 21
166.990825
 31
0.0
  0
LINE
  5
52B
330
508
100
AcDbEntity
  8
0
  6
CONTINUOUS
 62
     3
100
AcDbLine
 10
150.020326
 20
166.990825
 30
0.0
 11
150.135814
 21
166.976677
 31
0.0
  0
LINE
  5
52C
330
508
100
AcDbEntity
  8
0
  6
CONTINUOUS
 62
     3
100
AcDbLine
 10
150.135814
 20
166.976677
 30
0.0
 11
150.251372
 21
166.962751
 31
0.0
  0
ENDBLK
  5
50A
330
508
100
AcDbEntity
  8
0
100
AcDbBlockEnd
  0
BLOCK
  5
52F
330
52E
100
AcDbEntity
  8
0
100
AcDbBlockBegin
  2
BLKF035
 70
     0
 71
     0
 10
0.0
 20
0.0
 30
0.0
  3
BLKF035
  1

  0
LINE
  5
532
330
52E
100
AcDbEntity
  8
0
  6
CONTINUOUS
 62
     3
100
AcDbLine
 10
146.48819
 20
167.462745
 30
0.0
 11
146.410306
 21
167.429987
 31
0.0
  0
LINE
  5
533
330
52E
100
AcDbEntity
  8
0
  6
CONTINUOUS
 62
     3
100
AcDbLine
 10
146.410306
 20
167.429987
 30
0.0
 11
146.332296
 21
167.397659
 31
0.0
  0
LINE
  5
534
330
52E
100
AcDbEntity
  8
0
  6
CONTINUOUS
 62
     3
100
AcDbLine
 10
146.332296
 20
167.397659
 30
0.0
 11
146.254032
 21
167.366189
 31
0.0
  0
LINE
  5
535
330
52E
100
AcDbEntity
  8
0
  6
CONTINUOUS
 62
     3
100
AcDbLine
 10
146.254032
 20
167.366189
 30
0.0
 11
146.214764
 21
167.350913
 31
0.0
  0
LINE
  5
536
330
52E
100
AcDbEntity
  8
0
  6
CONTINUOUS
 62
     3
100
AcDbLine
 10
146.214764
 20
167.350913
 30
0.0
 11
146.175384
 21
167.336011
 31
0.0
  0
LINE
  5
537
330
52E
100
AcDbEntity
  8
0
  6
CONTINUOUS
 62
     3
100
AcDbLine
 10
146.175384
 20
167.336011
 30
0.0
 11
146.118236
 21
167.315211
 31
0.0
  0
LINE
  5
538
330
52E
100
AcDbEntity
  8
0
  6
CONTINUOUS
 62
     3
100
AcDbLine
 10
146.118236
 20
167.315211
 30
0.0
 11
146.06083
 21
167.295281
 31
0.0
  0
LINE
  5
539
330
52E
100
AcDbEntity
  8
0
  6
CONTINUOUS
 62
     3
100
AcDbLine
 10
146.06083
 20
167.295281
 30
0.0
 11
146.003174
 21
167.276193
 31
0.0
  0
LINE
  5
53A
330
52E
100
AcDbEntity
  8
0
  6
CONTINUOUS
 62
     3
100
AcDbLine
 10
146.003174
 20
167.276193
 30
0.0
 11
145.945276
 21
167.257919
 31
0.0
  0
LINE
  5
53B
330
52E
100
AcDbEntity
  8
0
  6
CONTINUOUS
 62
     3
100
AcDbLine
 10
145.945276
 20
167.257919
 30
0.0
 11
145.887144
 21
167.240431
 31
0.0
  0
LINE
  5
53C
330
52E
100
AcDbEntity
  8
0
  6
CONTINUOUS
 62
     3
100
AcDbLine
 10
145.887144
 20
167.240431
 30
0.0
 11
145.828788
 21
167.223701
 31
0.0
  0
LINE
  5
53D
330
52E
100
AcDbEntity
  8
0
  6
CONTINUOUS
 62
     3
100
AcDbLine
 10
145.828788
 20
167.223701
 30
0.0
 11
145.770214
 21
167.207701
 31
0.0
  0
LINE
  5
53E
330
52E
100
AcDbEntity
  8
0
  6
CONTINUOUS
 62
     3
100
AcDbLine
 10
145.770214
 20
167.207701
 30
0.0
 11
145.711432
 21
167.192401
 31
0.0
  0
LINE
  5
53F
330
52E
100
AcDbEntity
  8
0
  6
CONTINUOUS
 62
     3
100
AcDbLine
 10
145.711432
 20
167.192401
 30
0.0
 11
145.652452
 21
167.177777
 31
0.0
  0
LINE
  5
540
330
52E
100
AcDbEntity
  8
0
  6
CONTINUOUS
 62
     3
100
AcDbLine
 10
145.652452
 20
167.177777
 30
0.0
 11
145.593278
 21
167.163797
 31
0.0
  0
LINE
  5
541
330
52E
100
AcDbEntity
  8
0
  6
CONTINUOUS
 62
     3
100
AcDbLine
 10
145.593278
 20
167.163797
 30
0.0
 11
145.533922
 21
167.150435
 31
0.0
  0
LINE
  5
542
330
52E
100
AcDbEntity
  8
0
  6
CONTINUOUS
 62
     3
100
AcDbLine
 10
145.533922
 20
167.150435
 30
0.0
 11
145.47439
 21
167.137661
 31
0.0
  0
LINE
  5
543
330
52E
100
AcDbEntity
  8
0
  6
CONTINUOUS
 62
     3
100
AcDbLine
 10
145.47439
 20
167.137661
 30
0.0
 11
145.41469
 21
167.125449
 31
0.0
  0
LINE
  5
544
330
52E
100
AcDbEntity
  8
0
  6
CONTINUOUS
 62
     3
100
AcDbLine
 10
145.41469
 20
167.125449
 30
0.0
 11
145.354834
 21
167.113771
 31
0.0
  0
LINE
  5
545
330
52E
100
AcDbEntity
  8
0
  6
CONTINUOUS
 62
     3
100
AcDbLine
 10
145.354834
 20
167.113771
 30
0.0
 11
145.294828
 21
167.102599
 31
0.0
  0
LINE
  5
546
330
52E
100
AcDbEntity
  8
0
  6
CONTINUOUS
 62
     3
100
AcDbLine
 10
145.294828
 20
167.102599
 30
0.0
 11
145.234678
 21
167.091903
 31
0.0
  0
LINE
  5
547
330
52E
100
AcDbEntity
  8
0
  6
CONTINUOUS
 62
     3
100
AcDbLine
 10
145.234678
 20
167.091903
 30
0.0
 11
145.174396
 21
167.081655
 31
0.0
  0
LINE
  5
548
330
52E
100
AcDbEntity
  8
0
  6
CONTINUOUS
 62
     3
100
AcDbLine
 10
145.174396
 20
167.081655
 30
0.0
 11
145.11399
 21
167.071829
 31
0.0
  0
LINE
  5
549
330
52E
100
AcDbEntity
  8
0
  6
CONTINUOUS
 62
     3
100
AcDbLine
 10
145.11399
 20
167.071829
 30
0.0
 11
145.053466
 21
167.062395
 31
0.0
  0
LINE
  5
54A
330
52E
100
AcDbEntity
  8
0
  6
CONTINUOUS
 62
     3
100
AcDbLine
 10
145.053466
 20
167.062395
 30
0.0
 11
144.992834
 21
167.053327
 31
0.0
  0
LINE
  5
54B
330
52E
100
AcDbEntity
  8
0
  6
CONTINUOUS
 62
     3
100
AcDbLine
 10
144.992834
 20
167.053327
 30
0.0
 11
144.932102
 21
167.044597
 31
0.0
  0
LINE
  5
54C
330
52E
100
AcDbEntity
  8
0
  6
CONTINUOUS
 62
     3
100
AcDbLine
 10
144.932102
 20
167.044597
 30
0.0
 11
144.871278
 21
167.036173
 31
0.0
  0
LINE
  5
54D
330
52E
100
AcDbEntity
  8
0
  6
CONTINUOUS
 62
     3
100
AcDbLine
 10
144.871278
 20
167.036173
 30
0.0
 11
144.810372
 21
167.028031
 31
0.0
  0
LINE
  5
54E
330
52E
100
AcDbEntity
  8
0
  6
CONTINUOUS
 62
     3
100
AcDbLine
 10
144.810372
 20
167.028031
 30
0.0
 11
144.74939
 21
167.020141
 31
0.0
  0
LINE
  5
54F
330
52E
100
AcDbEntity
  8
0
  6
CONTINUOUS
 62
     3
100
AcDbLine
 10
144.74939
 20
167.020141
 30
0.0
 11
144.627234
 21
167.005009
 31
0.0
  0
LINE
  5
550
330
52E
100
AcDbEntity
  8
0
  6
CONTINUOUS
 62
     3
100
AcDbLine
 10
144.627234
 20
167.005009
 30
0.0
 11
144.504878
 21
166.990549
 31
0.0
  0
LINE
  5
551
330
52E
100
AcDbEntity
  8
0
  6
CONTINUOUS
 62
     3
100
AcDbLine
 10
144.504878
 20
166.990549
 30
0.0
 11
144.382388
 21
166.976537
 31
0.0
  0
LINE
  5
552
330
52E
100
AcDbEntity
  8
0
  6
CONTINUOUS
 62
     3
100
AcDbLine
 10
144.382388
 20
166.976537
 30
0.0
 11
144.259832
 21
166.962751
 31
0.0
  0
ENDBLK
  5
530
330
52E
100
AcDbEntity
  8
0
100
AcDbBlockEnd
  0
BLOCK
  5
554
330
553
100
AcDbEntity
  8
0
100
AcDbBlockBegin
  2
BLKF036
 70
     0
 71
     0
 10
0.0
 20
0.0
 30
0.0
  3
BLKF036
  1

  0
LINE
  5
557
330
553
100
AcDbEntity
  8
0
  6
CONTINUOUS
 62
     3
100
AcDbLine
 10
152.347036
 20
167.462745
 30
0.0
 11
152.284596
 21
167.439843
 31
0.0
  0
LINE
  5
558
330
553
100
AcDbEntity
  8
0
  6
CONTINUOUS
 62
     3
100
AcDbLine
 10
152.284596
 20
167.439843
 30
0.0
 11
152.222152
 21
167.416983
 31
0.0
  0
LINE
  5
559
330
553
100
AcDbEntity
  8
0
  6
CONTINUOUS
 62
     3
100
AcDbLine
 10
152.222152
 20
167.416983
 30
0.0
 11
152.159696
 21
167.394209
 31
0.0
  0
LINE
  5
55A
330
553
100
AcDbEntity
  8
0
  6
CONTINUOUS
 62
     3
100
AcDbLine
 10
152.159696
 20
167.394209
 30
0.0
 11
152.097224
 21
167.371565
 31
0.0
  0
LINE
  5
55B
330
553
100
AcDbEntity
  8
0
  6
CONTINUOUS
 62
     3
100
AcDbLine
 10
152.097224
 20
167.371565
 30
0.0
 11
152.034732
 21
167.349091
 31
0.0
  0
LINE
  5
55C
330
553
100
AcDbEntity
  8
0
  6
CONTINUOUS
 62
     3
100
AcDbLine
 10
152.034732
 20
167.349091
 30
0.0
 11
151.972212
 21
167.326831
 31
0.0
  0
LINE
  5
55D
330
553
100
AcDbEntity
  8
0
  6
CONTINUOUS
 62
     3
100
AcDbLine
 10
151.972212
 20
167.326831
 30
0.0
 11
151.90966
 21
167.304827
 31
0.0
  0
LINE
  5
55E
330
553
100
AcDbEntity
  8
0
  6
CONTINUOUS
 62
     3
100
AcDbLine
 10
151.90966
 20
167.304827
 30
0.0
 11
151.84707
 21
167.283123
 31
0.0
  0
LINE
  5
55F
330
553
100
AcDbEntity
  8
0
  6
CONTINUOUS
 62
     3
100
AcDbLine
 10
151.84707
 20
167.283123
 30
0.0
 11
151.81576
 21
167.272397
 31
0.0
  0
LINE
  5
560
330
553
100
AcDbEntity
  8
0
  6
CONTINUOUS
 62
     3
100
AcDbLine
 10
151.81576
 20
167.272397
 30
0.0
 11
151.784438
 21
167.261761
 31
0.0
  0
LINE
  5
561
330
553
100
AcDbEntity
  8
0
  6
CONTINUOUS
 62
     3
100
AcDbLine
 10
151.784438
 20
167.261761
 30
0.0
 11
151.753104
 21
167.251221
 31
0.0
  0
LINE
  5
562
330
553
100
AcDbEntity
  8
0
  6
CONTINUOUS
 62
     3
100
AcDbLine
 10
151.753104
 20
167.251221
 30
0.0
 11
151.721758
 21
167.240783
 31
0.0
  0
LINE
  5
563
330
553
100
AcDbEntity
  8
0
  6
CONTINUOUS
 62
     3
100
AcDbLine
 10
151.721758
 20
167.240783
 30
0.0
 11
151.690396
 21
167.230453
 31
0.0
  0
LINE
  5
564
330
553
100
AcDbEntity
  8
0
  6
CONTINUOUS
 62
     3
100
AcDbLine
 10
151.690396
 20
167.230453
 30
0.0
 11
151.659022
 21
167.220235
 31
0.0
  0
LINE
  5
565
330
553
100
AcDbEntity
  8
0
  6
CONTINUOUS
 62
     3
100
AcDbLine
 10
151.659022
 20
167.220235
 30
0.0
 11
151.627634
 21
167.210135
 31
0.0
  0
LINE
  5
566
330
553
100
AcDbEntity
  8
0
  6
CONTINUOUS
 62
     3
100
AcDbLine
 10
151.627634
 20
167.210135
 30
0.0
 11
151.59623
 21
167.200157
 31
0.0
  0
LINE
  5
567
330
553
100
AcDbEntity
  8
0
  6
CONTINUOUS
 62
     3
100
AcDbLine
 10
151.59623
 20
167.200157
 30
0.0
 11
151.564808
 21
167.190307
 31
0.0
  0
LINE
  5
568
330
553
100
AcDbEntity
  8
0
  6
CONTINUOUS
 62
     3
100
AcDbLine
 10
151.564808
 20
167.190307
 30
0.0
 11
151.533372
 21
167.180591
 31
0.0
  0
LINE
  5
569
330
553
100
AcDbEntity
  8
0
  6
CONTINUOUS
 62
     3
100
AcDbLine
 10
151.533372
 20
167.180591
 30
0.0
 11
151.501916
 21
167.171015
 31
0.0
  0
LINE
  5
56A
330
553
100
AcDbEntity
  8
0
  6
CONTINUOUS
 62
     3
100
AcDbLine
 10
151.501916
 20
167.171015
 30
0.0
 11
151.470444
 21
167.161583
 31
0.0
  0
LINE
  5
56B
330
553
100
AcDbEntity
  8
0
  6
CONTINUOUS
 62
     3
100
AcDbLine
 10
151.470444
 20
167.161583
 30
0.0
 11
151.438952
 21
167.152301
 31
0.0
  0
LINE
  5
56C
330
553
100
AcDbEntity
  8
0
  6
CONTINUOUS
 62
     3
100
AcDbLine
 10
151.438952
 20
167.152301
 30
0.0
 11
151.40744
 21
167.143173
 31
0.0
  0
LINE
  5
56D
330
553
100
AcDbEntity
  8
0
  6
CONTINUOUS
 62
     3
100
AcDbLine
 10
151.40744
 20
167.143173
 30
0.0
 11
151.37591
 21
167.134205
 31
0.0
  0
LINE
  5
56E
330
553
100
AcDbEntity
  8
0
  6
CONTINUOUS
 62
     3
100
AcDbLine
 10
151.37591
 20
167.134205
 30
0.0
 11
151.344358
 21
167.125405
 31
0.0
  0
LINE
  5
56F
330
553
100
AcDbEntity
  8
0
  6
CONTINUOUS
 62
     3
100
AcDbLine
 10
151.344358
 20
167.125405
 30
0.0
 11
151.312784
 21
167.116775
 31
0.0
  0
LINE
  5
570
330
553
100
AcDbEntity
  8
0
  6
CONTINUOUS
 62
     3
100
AcDbLine
 10
151.312784
 20
167.116775
 30
0.0
 11
151.281188
 21
167.108321
 31
0.0
  0
LINE
  5
571
330
553
100
AcDbEntity
  8
0
  6
CONTINUOUS
 62
     3
100
AcDbLine
 10
151.281188
 20
167.108321
 30
0.0
 11
151.24957
 21
167.100049
 31
0.0
  0
LINE
  5
572
330
553
100
AcDbEntity
  8
0
  6
CONTINUOUS
 62
     3
100
AcDbLine
 10
151.24957
 20
167.100049
 30
0.0
 11
151.217928
 21
167.091965
 31
0.0
  0
LINE
  5
573
330
553
100
AcDbEntity
  8
0
  6
CONTINUOUS
 62
     3
100
AcDbLine
 10
151.217928
 20
167.091965
 30
0.0
 11
151.186262
 21
167.084073
 31
0.0
  0
LINE
  5
574
330
553
100
AcDbEntity
  8
0
  6
CONTINUOUS
 62
     3
100
AcDbLine
 10
151.186262
 20
167.084073
 30
0.0
 11
151.15457
 21
167.076379
 31
0.0
  0
LINE
  5
575
330
553
100
AcDbEntity
  8
0
  6
CONTINUOUS
 62
     3
100
AcDbLine
 10
151.15457
 20
167.076379
 30
0.0
 11
151.122854
 21
167.068887
 31
0.0
  0
LINE
  5
576
330
553
100
AcDbEntity
  8
0
  6
CONTINUOUS
 62
     3
100
AcDbLine
 10
151.122854
 20
167.068887
 30
0.0
 11
151.091112
 21
167.061605
 31
0.0
  0
LINE
  5
577
330
553
100
AcDbEntity
  8
0
  6
CONTINUOUS
 62
     3
100
AcDbLine
 10
151.091112
 20
167.061605
 30
0.0
 11
151.059342
 21
167.054537
 31
0.0
  0
LINE
  5
578
330
553
100
AcDbEntity
  8
0
  6
CONTINUOUS
 62
     3
100
AcDbLine
 10
151.059342
 20
167.054537
 30
0.0
 11
151.027546
 21
167.047687
 31
0.0
  0
LINE
  5
579
330
553
100
AcDbEntity
  8
0
  6
CONTINUOUS
 62
     3
100
AcDbLine
 10
151.027546
 20
167.047687
 30
0.0
 11
150.99572
 21
167.041063
 31
0.0
  0
LINE
  5
57A
330
553
100
AcDbEntity
  8
0
  6
CONTINUOUS
 62
     3
100
AcDbLine
 10
150.99572
 20
167.041063
 30
0.0
 11
150.963866
 21
167.034669
 31
0.0
  0
LINE
  5
57B
330
553
100
AcDbEntity
  8
0
  6
CONTINUOUS
 62
     3
100
AcDbLine
 10
150.963866
 20
167.034669
 30
0.0
 11
150.931982
 21
167.028509
 31
0.0
  0
LINE
  5
57C
330
553
100
AcDbEntity
  8
0
  6
CONTINUOUS
 62
     3
100
AcDbLine
 10
150.931982
 20
167.028509
 30
0.0
 11
150.90007
 21
167.022591
 31
0.0
  0
LINE
  5
57D
330
553
100
AcDbEntity
  8
0
  6
CONTINUOUS
 62
     3
100
AcDbLine
 10
150.90007
 20
167.022591
 30
0.0
 11
150.868124
 21
167.016917
 31
0.0
  0
LINE
  5
57E
330
553
100
AcDbEntity
  8
0
  6
CONTINUOUS
 62
     3
100
AcDbLine
 10
150.868124
 20
167.016917
 30
0.0
 11
150.836148
 21
167.011497
 31
0.0
  0
LINE
  5
57F
330
553
100
AcDbEntity
  8
0
  6
CONTINUOUS
 62
     3
100
AcDbLine
 10
150.836148
 20
167.011497
 30
0.0
 11
150.80414
 21
167.006331
 31
0.0
  0
LINE
  5
580
330
553
100
AcDbEntity
  8
0
  6
CONTINUOUS
 62
     3
100
AcDbLine
 10
150.80414
 20
167.006331
 30
0.0
 11
150.772098
 21
167.001429
 31
0.0
  0
LINE
  5
581
330
553
100
AcDbEntity
  8
0
  6
CONTINUOUS
 62
     3
100
AcDbLine
 10
150.772098
 20
167.001429
 30
0.0
 11
150.740024
 21
166.996795
 31
0.0
  0
LINE
  5
582
330
553
100
AcDbEntity
  8
0
  6
CONTINUOUS
 62
     3
100
AcDbLine
 10
150.740024
 20
166.996795
 30
0.0
 11
150.707916
 21
166.992431
 31
0.0
  0
LINE
  5
583
330
553
100
AcDbEntity
  8
0
  6
CONTINUOUS
 62
     3
100
AcDbLine
 10
150.707916
 20
166.992431
 30
0.0
 11
150.675772
 21
166.988347
 31
0.0
  0
LINE
  5
584
330
553
100
AcDbEntity
  8
0
  6
CONTINUOUS
 62
     3
100
AcDbLine
 10
150.675772
 20
166.988347
 30
0.0
 11
150.643592
 21
166.984547
 31
0.0
  0
LINE
  5
585
330
553
100
AcDbEntity
  8
0
  6
CONTINUOUS
 62
     3
100
AcDbLine
 10
150.643592
 20
166.984547
 30
0.0
 11
150.611376
 21
166.981035
 31
0.0
  0
LINE
  5
586
330
553
100
AcDbEntity
  8
0
  6
CONTINUOUS
 62
     3
100
AcDbLine
 10
150.611376
 20
166.981035
 30
0.0
 11
150.579124
 21
166.977817
 31
0.0
  0
LINE
  5
587
330
553
100
AcDbEntity
  8
0
  6
CONTINUOUS
 62
     3
100
AcDbLine
 10
150.579124
 20
166.977817
 30
0.0
 11
150.546834
 21
166.974897
 31
0.0
  0
LINE
  5
588
330
553
100
AcDbEntity
  8
0
  6
CONTINUOUS
 62
     3
100
AcDbLine
 10
150.546834
 20
166.974897
 30
0.0
 11
150.514506
 21
166.972285
 31
0.0
  0
LINE
  5
589
330
553
100
AcDbEntity
  8
0
  6
CONTINUOUS
 62
     3
100
AcDbLine
 10
150.514506
 20
166.972285
 30
0.0
 11
150.482138
 21
166.969981
 31
0.0
  0
LINE
  5
58A
330
553
100
AcDbEntity
  8
0
  6
CONTINUOUS
 62
     3
100
AcDbLine
 10
150.482138
 20
166.969981
 30
0.0
 11
150.449732
 21
166.967993
 31
0.0
  0
LINE
  5
58B
330
553
100
AcDbEntity
  8
0
  6
CONTINUOUS
 62
     3
100
AcDbLine
 10
150.449732
 20
166.967993
 30
0.0
 11
150.417284
 21
166.966325
 31
0.0
  0
LINE
  5
58C
330
553
100
AcDbEntity
  8
0
  6
CONTINUOUS
 62
     3
100
AcDbLine
 10
150.417284
 20
166.966325
 30
0.0
 11
150.384796
 21
166.964985
 31
0.0
  0
LINE
  5
58D
330
553
100
AcDbEntity
  8
0
  6
CONTINUOUS
 62
     3
100
AcDbLine
 10
150.384796
 20
166.964985
 30
0.0
 11
150.352266
 21
166.963975
 31
0.0
  0
LINE
  5
58E
330
553
100
AcDbEntity
  8
0
  6
CONTINUOUS
 62
     3
100
AcDbLine
 10
150.352266
 20
166.963975
 30
0.0
 11
150.319694
 21
166.963303
 31
0.0
  0
LINE
  5
58F
330
553
100
AcDbEntity
  8
0
  6
CONTINUOUS
 62
     3
100
AcDbLine
 10
150.319694
 20
166.963303
 30
0.0
 11
150.285546
 21
166.962933
 31
0.0
  0
LINE
  5
590
330
553
100
AcDbEntity
  8
0
  6
CONTINUOUS
 62
     3
100
AcDbLine
 10
150.285546
 20
166.962933
 30
0.0
 11
150.251374
 21
166.962751
 31
0.0
  0
ENDBLK
  5
555
330
553
100
AcDbEntity
  8
0
100
AcDbBlockEnd
  0
BLOCK
  5
593
330
592
100
AcDbEntity
  8
0
100
AcDbBlockBegin
  2
BLKF037
 70
     0
 71
     0
 10
0.0
 20
0.0
 30
0.0
  3
BLKF037
  1

  0
LINE
  5
596
330
592
100
AcDbEntity
  8
0
  6
CONTINUOUS
 62
     3
100
AcDbLine
 10
152.347036
 20
174.662747
 30
0.0
 11
152.29303
 21
174.686449
 31
0.0
  0
LINE
  5
597
330
592
100
AcDbEntity
  8
0
  6
CONTINUOUS
 62
     3
100
AcDbLine
 10
152.29303
 20
174.686449
 30
0.0
 11
152.238988
 21
174.710053
 31
0.0
  0
LINE
  5
598
330
592
100
AcDbEntity
  8
0
  6
CONTINUOUS
 62
     3
100
AcDbLine
 10
152.238988
 20
174.710053
 30
0.0
 11
152.18487
 21
174.733463
 31
0.0
  0
LINE
  5
599
330
592
100
AcDbEntity
  8
0
  6
CONTINUOUS
 62
     3
100
AcDbLine
 10
152.18487
 20
174.733463
 30
0.0
 11
152.157772
 21
174.745067
 31
0.0
  0
LINE
  5
59A
330
592
100
AcDbEntity
  8
0
  6
CONTINUOUS
 62
     3
100
AcDbLine
 10
152.157772
 20
174.745067
 30
0.0
 11
152.13064
 21
174.756585
 31
0.0
  0
LINE
  5
59B
330
592
100
AcDbEntity
  8
0
  6
CONTINUOUS
 62
     3
100
AcDbLine
 10
152.13064
 20
174.756585
 30
0.0
 11
152.103468
 21
174.768007
 31
0.0
  0
LINE
  5
59C
330
592
100
AcDbEntity
  8
0
  6
CONTINUOUS
 62
     3
100
AcDbLine
 10
152.103468
 20
174.768007
 30
0.0
 11
152.076256
 21
174.779321
 31
0.0
  0
LINE
  5
59D
330
592
100
AcDbEntity
  8
0
  6
CONTINUOUS
 62
     3
100
AcDbLine
 10
152.076256
 20
174.779321
 30
0.0
 11
152.048996
 21
174.790513
 31
0.0
  0
LINE
  5
59E
330
592
100
AcDbEntity
  8
0
  6
CONTINUOUS
 62
     3
100
AcDbLine
 10
152.048996
 20
174.790513
 30
0.0
 11
152.021682
 21
174.801573
 31
0.0
  0
LINE
  5
59F
330
592
100
AcDbEntity
  8
0
  6
CONTINUOUS
 62
     3
100
AcDbLine
 10
152.021682
 20
174.801573
 30
0.0
 11
151.994314
 21
174.812489
 31
0.0
  0
LINE
  5
5A0
330
592
100
AcDbEntity
  8
0
  6
CONTINUOUS
 62
     3
100
AcDbLine
 10
151.994314
 20
174.812489
 30
0.0
 11
151.966882
 21
174.823247
 31
0.0
  0
LINE
  5
5A1
330
592
100
AcDbEntity
  8
0
  6
CONTINUOUS
 62
     3
100
AcDbLine
 10
151.966882
 20
174.823247
 30
0.0
 11
151.939386
 21
174.833835
 31
0.0
  0
LINE
  5
5A2
330
592
100
AcDbEntity
  8
0
  6
CONTINUOUS
 62
     3
100
AcDbLine
 10
151.939386
 20
174.833835
 30
0.0
 11
151.911816
 21
174.844243
 31
0.0
  0
LINE
  5
5A3
330
592
100
AcDbEntity
  8
0
  6
CONTINUOUS
 62
     3
100
AcDbLine
 10
151.911816
 20
174.844243
 30
0.0
 11
151.886738
 21
174.853537
 31
0.0
  0
LINE
  5
5A4
330
592
100
AcDbEntity
  8
0
  6
CONTINUOUS
 62
     3
100
AcDbLine
 10
151.886738
 20
174.853537
 30
0.0
 11
151.86163
 21
174.862751
 31
0.0
  0
ENDBLK
  5
594
330
592
100
AcDbEntity
  8
0
100
AcDbBlockEnd
  0
BLOCK
  5
5A6
330
5A5
100
AcDbEntity
  8
0
100
AcDbBlockBegin
  2
BLKF038
 70
     0
 71
     0
 10
0.0
 20
0.0
 30
0.0
  3
BLKF038
  1

  0
LINE
  5
5A9
330
5A5
100
AcDbEntity
  8
0
  6
CONTINUOUS
 62
     3
100
AcDbLine
 10
148.641116
 20
174.862751
 30
0.0
 11
148.587472
 21
174.842019
 31
0.0
  0
LINE
  5
5AA
330
5A5
100
AcDbEntity
  8
0
  6
CONTINUOUS
 62
     3
100
AcDbLine
 10
148.587472
 20
174.842019
 30
0.0
 11
148.533864
 21
174.821201
 31
0.0
  0
LINE
  5
5AB
330
5A5
100
AcDbEntity
  8
0
  6
CONTINUOUS
 62
     3
100
AcDbLine
 10
148.533864
 20
174.821201
 30
0.0
 11
148.48033
 21
174.800211
 31
0.0
  0
LINE
  5
5AC
330
5A5
100
AcDbEntity
  8
0
  6
CONTINUOUS
 62
     3
100
AcDbLine
 10
148.48033
 20
174.800211
 30
0.0
 11
148.426908
 21
174.778963
 31
0.0
  0
LINE
  5
5AD
330
5A5
100
AcDbEntity
  8
0
  6
CONTINUOUS
 62
     3
100
AcDbLine
 10
148.426908
 20
174.778963
 30
0.0
 11
148.40025
 21
174.768215
 31
0.0
  0
LINE
  5
5AE
330
5A5
100
AcDbEntity
  8
0
  6
CONTINUOUS
 62
     3
100
AcDbLine
 10
148.40025
 20
174.768215
 30
0.0
 11
148.373634
 21
174.757369
 31
0.0
  0
LINE
  5
5AF
330
5A5
100
AcDbEntity
  8
0
  6
CONTINUOUS
 62
     3
100
AcDbLine
 10
148.373634
 20
174.757369
 30
0.0
 11
148.347064
 21
174.746417
 31
0.0
  0
LINE
  5
5B0
330
5A5
100
AcDbEntity
  8
0
  6
CONTINUOUS
 62
     3
100
AcDbLine
 10
148.347064
 20
174.746417
 30
0.0
 11
148.320544
 21
174.735345
 31
0.0
  0
LINE
  5
5B1
330
5A5
100
AcDbEntity
  8
0
  6
CONTINUOUS
 62
     3
100
AcDbLine
 10
148.320544
 20
174.735345
 30
0.0
 11
148.29408
 21
174.724145
 31
0.0
  0
LINE
  5
5B2
330
5A5
100
AcDbEntity
  8
0
  6
CONTINUOUS
 62
     3
100
AcDbLine
 10
148.29408
 20
174.724145
 30
0.0
 11
148.267678
 21
174.712803
 31
0.0
  0
LINE
  5
5B3
330
5A5
100
AcDbEntity
  8
0
  6
CONTINUOUS
 62
     3
100
AcDbLine
 10
148.267678
 20
174.712803
 30
0.0
 11
148.241338
 21
174.701313
 31
0.0
  0
LINE
  5
5B4
330
5A5
100
AcDbEntity
  8
0
  6
CONTINUOUS
 62
     3
100
AcDbLine
 10
148.241338
 20
174.701313
 30
0.0
 11
148.21507
 21
174.689659
 31
0.0
  0
LINE
  5
5B5
330
5A5
100
AcDbEntity
  8
0
  6
CONTINUOUS
 62
     3
100
AcDbLine
 10
148.21507
 20
174.689659
 30
0.0
 11
148.185366
 21
174.676259
 31
0.0
  0
LINE
  5
5B6
330
5A5
100
AcDbEntity
  8
0
  6
CONTINUOUS
 62
     3
100
AcDbLine
 10
148.185366
 20
174.676259
 30
0.0
 11
148.15571
 21
174.662747
 31
0.0
  0
ENDBLK
  5
5A7
330
5A5
100
AcDbEntity
  8
0
100
AcDbBlockEnd
  0
BLOCK
  5
5BA
330
5B9
100
AcDbEntity
  8
0
100
AcDbBlockBegin
  2
BLKF039
 70
     0
 71
     0
 10
0.0
 20
0.0
 30
0.0
  3
BLKF039
  1

  0
LINE
  5
5BD
330
5B9
100
AcDbEntity
  8
0
  6
CONTINUOUS
 62
     3
100
AcDbLine
 10
146.48819
 20
174.662747
 30
0.0
 11
146.430722
 21
174.686463
 31
0.0
  0
LINE
  5
5BE
330
5B9
100
AcDbEntity
  8
0
  6
CONTINUOUS
 62
     3
100
AcDbLine
 10
146.430722
 20
174.686463
 30
0.0
 11
146.373218
 21
174.710079
 31
0.0
  0
LINE
  5
5BF
330
5B9
100
AcDbEntity
  8
0
  6
CONTINUOUS
 62
     3
100
AcDbLine
 10
146.373218
 20
174.710079
 30
0.0
 11
146.315642
 21
174.733501
 31
0.0
  0
LINE
  5
5C0
330
5B9
100
AcDbEntity
  8
0
  6
CONTINUOUS
 62
     3
100
AcDbLine
 10
146.315642
 20
174.733501
 30
0.0
 11
146.286816
 21
174.745107
 31
0.0
  0
LINE
  5
5C1
330
5B9
100
AcDbEntity
  8
0
  6
CONTINUOUS
 62
     3
100
AcDbLine
 10
146.286816
 20
174.745107
 30
0.0
 11
146.257958
 21
174.756629
 31
0.0
  0
LINE
  5
5C2
330
5B9
100
AcDbEntity
  8
0
  6
CONTINUOUS
 62
     3
100
AcDbLine
 10
146.257958
 20
174.756629
 30
0.0
 11
146.229062
 21
174.768051
 31
0.0
  0
LINE
  5
5C3
330
5B9
100
AcDbEntity
  8
0
  6
CONTINUOUS
 62
     3
100
AcDbLine
 10
146.229062
 20
174.768051
 30
0.0
 11
146.200128
 21
174.779365
 31
0.0
  0
LINE
  5
5C4
330
5B9
100
AcDbEntity
  8
0
  6
CONTINUOUS
 62
     3
100
AcDbLine
 10
146.200128
 20
174.779365
 30
0.0
 11
146.171148
 21
174.790555
 31
0.0
  0
LINE
  5
5C5
330
5B9
100
AcDbEntity
  8
0
  6
CONTINUOUS
 62
     3
100
AcDbLine
 10
146.171148
 20
174.790555
 30
0.0
 11
146.142118
 21
174.801611
 31
0.0
  0
LINE
  5
5C6
330
5B9
100
AcDbEntity
  8
0
  6
CONTINUOUS
 62
     3
100
AcDbLine
 10
146.142118
 20
174.801611
 30
0.0
 11
146.113034
 21
174.812521
 31
0.0
  0
LINE
  5
5C7
330
5B9
100
AcDbEntity
  8
0
  6
CONTINUOUS
 62
     3
100
AcDbLine
 10
146.113034
 20
174.812521
 30
0.0
 11
146.083892
 21
174.823271
 31
0.0
  0
LINE
  5
5C8
330
5B9
100
AcDbEntity
  8
0
  6
CONTINUOUS
 62
     3
100
AcDbLine
 10
146.083892
 20
174.823271
 30
0.0
 11
146.054686
 21
174.833849
 31
0.0
  0
LINE
  5
5C9
330
5B9
100
AcDbEntity
  8
0
  6
CONTINUOUS
 62
     3
100
AcDbLine
 10
146.054686
 20
174.833849
 30
0.0
 11
146.025412
 21
174.844243
 31
0.0
  0
LINE
  5
5CA
330
5B9
100
AcDbEntity
  8
0
  6
CONTINUOUS
 62
     3
100
AcDbLine
 10
146.025412
 20
174.844243
 30
0.0
 11
145.998746
 21
174.853537
 31
0.0
  0
LINE
  5
5CB
330
5B9
100
AcDbEntity
  8
0
  6
CONTINUOUS
 62
     3
100
AcDbLine
 10
145.998746
 20
174.853537
 30
0.0
 11
145.97205
 21
174.862751
 31
0.0
  0
ENDBLK
  5
5BB
330
5B9
100
AcDbEntity
  8
0
100
AcDbBlockEnd
  0
BLOCK
  5
5CE
330
5CD
100
AcDbEntity
  8
0
100
AcDbBlockBegin
  2
BLKF040
 70
     0
 71
     0
 10
0.0
 20
0.0
 30
0.0
  3
BLKF040
  1

  0
LINE
  5
5D1
330
5CD
100
AcDbEntity
  8
0
  6
CONTINUOUS
 62
     3
100
AcDbLine
 10
142.031476
 20
167.462745
 30
0.0
 11
142.109358
 21
167.429987
 31
0.0
  0
LINE
  5
5D2
330
5CD
100
AcDbEntity
  8
0
  6
CONTINUOUS
 62
     3
100
AcDbLine
 10
142.109358
 20
167.429987
 30
0.0
 11
142.187368
 21
167.397659
 31
0.0
  0
LINE
  5
5D3
330
5CD
100
AcDbEntity
  8
0
  6
CONTINUOUS
 62
     3
100
AcDbLine
 10
142.187368
 20
167.397659
 30
0.0
 11
142.265632
 21
167.366189
 31
0.0
  0
LINE
  5
5D4
330
5CD
100
AcDbEntity
  8
0
  6
CONTINUOUS
 62
     3
100
AcDbLine
 10
142.265632
 20
167.366189
 30
0.0
 11
142.3049
 21
167.350913
 31
0.0
  0
LINE
  5
5D5
330
5CD
100
AcDbEntity
  8
0
  6
CONTINUOUS
 62
     3
100
AcDbLine
 10
142.3049
 20
167.350913
 30
0.0
 11
142.34428
 21
167.336011
 31
0.0
  0
LINE
  5
5D6
330
5CD
100
AcDbEntity
  8
0
  6
CONTINUOUS
 62
     3
100
AcDbLine
 10
142.34428
 20
167.336011
 30
0.0
 11
142.401428
 21
167.315211
 31
0.0
  0
LINE
  5
5D7
330
5CD
100
AcDbEntity
  8
0
  6
CONTINUOUS
 62
     3
100
AcDbLine
 10
142.401428
 20
167.315211
 30
0.0
 11
142.458834
 21
167.295281
 31
0.0
  0
LINE
  5
5D8
330
5CD
100
AcDbEntity
  8
0
  6
CONTINUOUS
 62
     3
100
AcDbLine
 10
142.458834
 20
167.295281
 30
0.0
 11
142.51649
 21
167.276193
 31
0.0
  0
LINE
  5
5D9
330
5CD
100
AcDbEntity
  8
0
  6
CONTINUOUS
 62
     3
100
AcDbLine
 10
142.51649
 20
167.276193
 30
0.0
 11
142.574388
 21
167.257919
 31
0.0
  0
LINE
  5
5DA
330
5CD
100
AcDbEntity
  8
0
  6
CONTINUOUS
 62
     3
100
AcDbLine
 10
142.574388
 20
167.257919
 30
0.0
 11
142.63252
 21
167.240431
 31
0.0
  0
LINE
  5
5DB
330
5CD
100
AcDbEntity
  8
0
  6
CONTINUOUS
 62
     3
100
AcDbLine
 10
142.63252
 20
167.240431
 30
0.0
 11
142.690876
 21
167.223701
 31
0.0
  0
LINE
  5
5DC
330
5CD
100
AcDbEntity
  8
0
  6
CONTINUOUS
 62
     3
100
AcDbLine
 10
142.690876
 20
167.223701
 30
0.0
 11
142.74945
 21
167.207701
 31
0.0
  0
LINE
  5
5DD
330
5CD
100
AcDbEntity
  8
0
  6
CONTINUOUS
 62
     3
100
AcDbLine
 10
142.74945
 20
167.207701
 30
0.0
 11
142.808232
 21
167.192401
 31
0.0
  0
LINE
  5
5DE
330
5CD
100
AcDbEntity
  8
0
  6
CONTINUOUS
 62
     3
100
AcDbLine
 10
142.808232
 20
167.192401
 30
0.0
 11
142.867214
 21
167.177777
 31
0.0
  0
LINE
  5
5DF
330
5CD
100
AcDbEntity
  8
0
  6
CONTINUOUS
 62
     3
100
AcDbLine
 10
142.867214
 20
167.177777
 30
0.0
 11
142.926386
 21
167.163797
 31
0.0
  0
LINE
  5
5E0
330
5CD
100
AcDbEntity
  8
0
  6
CONTINUOUS
 62
     3
100
AcDbLine
 10
142.926386
 20
167.163797
 30
0.0
 11
142.985744
 21
167.150435
 31
0.0
  0
LINE
  5
5E1
330
5CD
100
AcDbEntity
  8
0
  6
CONTINUOUS
 62
     3
100
AcDbLine
 10
142.985744
 20
167.150435
 30
0.0
 11
143.045274
 21
167.137661
 31
0.0
  0
LINE
  5
5E2
330
5CD
100
AcDbEntity
  8
0
  6
CONTINUOUS
 62
     3
100
AcDbLine
 10
143.045274
 20
167.137661
 30
0.0
 11
143.104974
 21
167.125449
 31
0.0
  0
LINE
  5
5E3
330
5CD
100
AcDbEntity
  8
0
  6
CONTINUOUS
 62
     3
100
AcDbLine
 10
143.104974
 20
167.125449
 30
0.0
 11
143.16483
 21
167.113771
 31
0.0
  0
LINE
  5
5E4
330
5CD
100
AcDbEntity
  8
0
  6
CONTINUOUS
 62
     3
100
AcDbLine
 10
143.16483
 20
167.113771
 30
0.0
 11
143.224838
 21
167.102599
 31
0.0
  0
LINE
  5
5E5
330
5CD
100
AcDbEntity
  8
0
  6
CONTINUOUS
 62
     3
100
AcDbLine
 10
143.224838
 20
167.102599
 30
0.0
 11
143.284986
 21
167.091903
 31
0.0
  0
LINE
  5
5E6
330
5CD
100
AcDbEntity
  8
0
  6
CONTINUOUS
 62
     3
100
AcDbLine
 10
143.284986
 20
167.091903
 30
0.0
 11
143.345268
 21
167.081655
 31
0.0
  0
LINE
  5
5E7
330
5CD
100
AcDbEntity
  8
0
  6
CONTINUOUS
 62
     3
100
AcDbLine
 10
143.345268
 20
167.081655
 30
0.0
 11
143.405674
 21
167.071829
 31
0.0
  0
LINE
  5
5E8
330
5CD
100
AcDbEntity
  8
0
  6
CONTINUOUS
 62
     3
100
AcDbLine
 10
143.405674
 20
167.071829
 30
0.0
 11
143.466198
 21
167.062395
 31
0.0
  0
LINE
  5
5E9
330
5CD
100
AcDbEntity
  8
0
  6
CONTINUOUS
 62
     3
100
AcDbLine
 10
143.466198
 20
167.062395
 30
0.0
 11
143.52683
 21
167.053327
 31
0.0
  0
LINE
  5
5EA
330
5CD
100
AcDbEntity
  8
0
  6
CONTINUOUS
 62
     3
100
AcDbLine
 10
143.52683
 20
167.053327
 30
0.0
 11
143.587562
 21
167.044597
 31
0.0
  0
LINE
  5
5EB
330
5CD
100
AcDbEntity
  8
0
  6
CONTINUOUS
 62
     3
100
AcDbLine
 10
143.587562
 20
167.044597
 30
0.0
 11
143.648386
 21
167.036173
 31
0.0
  0
LINE
  5
5EC
330
5CD
100
AcDbEntity
  8
0
  6
CONTINUOUS
 62
     3
100
AcDbLine
 10
143.648386
 20
167.036173
 30
0.0
 11
143.709292
 21
167.028031
 31
0.0
  0
LINE
  5
5ED
330
5CD
100
AcDbEntity
  8
0
  6
CONTINUOUS
 62
     3
100
AcDbLine
 10
143.709292
 20
167.028031
 30
0.0
 11
143.770276
 21
167.020141
 31
0.0
  0
LINE
  5
5EE
330
5CD
100
AcDbEntity
  8
0
  6
CONTINUOUS
 62
     3
100
AcDbLine
 10
143.770276
 20
167.020141
 30
0.0
 11
143.89243
 21
167.005009
 31
0.0
  0
LINE
  5
5EF
330
5CD
100
AcDbEntity
  8
0
  6
CONTINUOUS
 62
     3
100
AcDbLine
 10
143.89243
 20
167.005009
 30
0.0
 11
144.014786
 21
166.990549
 31
0.0
  0
LINE
  5
5F0
330
5CD
100
AcDbEntity
  8
0
  6
CONTINUOUS
 62
     3
100
AcDbLine
 10
144.014786
 20
166.990549
 30
0.0
 11
144.137276
 21
166.976537
 31
0.0
  0
LINE
  5
5F1
330
5CD
100
AcDbEntity
  8
0
  6
CONTINUOUS
 62
     3
100
AcDbLine
 10
144.137276
 20
166.976537
 30
0.0
 11
144.259832
 21
166.962751
 31
0.0
  0
ENDBLK
  5
5CF
330
5CD
100
AcDbEntity
  8
0
100
AcDbBlockEnd
  0
BLOCK
  5
5F3
330
5F2
100
AcDbEntity
  8
0
100
AcDbBlockBegin
  2
BLKF041
 70
     0
 71
     0
 10
0.0
 20
0.0
 30
0.0
  3
BLKF041
  1

  0
LINE
  5
5F6
330
5F2
100
AcDbEntity
  8
0
  6
CONTINUOUS
 62
     3
100
AcDbLine
 10
142.547614
 20
174.862751
 30
0.0
 11
142.490614
 21
174.842037
 31
0.0
  0
LINE
  5
5F7
330
5F2
100
AcDbEntity
  8
0
  6
CONTINUOUS
 62
     3
100
AcDbLine
 10
142.490614
 20
174.842037
 30
0.0
 11
142.433648
 21
174.821237
 31
0.0
  0
LINE
  5
5F8
330
5F2
100
AcDbEntity
  8
0
  6
CONTINUOUS
 62
     3
100
AcDbLine
 10
142.433648
 20
174.821237
 30
0.0
 11
142.376752
 21
174.800259
 31
0.0
  0
LINE
  5
5F9
330
5F2
100
AcDbEntity
  8
0
  6
CONTINUOUS
 62
     3
100
AcDbLine
 10
142.376752
 20
174.800259
 30
0.0
 11
142.319964
 21
174.779019
 31
0.0
  0
LINE
  5
5FA
330
5F2
100
AcDbEntity
  8
0
  6
CONTINUOUS
 62
     3
100
AcDbLine
 10
142.319964
 20
174.779019
 30
0.0
 11
142.291622
 21
174.768271
 31
0.0
  0
LINE
  5
5FB
330
5F2
100
AcDbEntity
  8
0
  6
CONTINUOUS
 62
     3
100
AcDbLine
 10
142.291622
 20
174.768271
 30
0.0
 11
142.26332
 21
174.757425
 31
0.0
  0
LINE
  5
5FC
330
5F2
100
AcDbEntity
  8
0
  6
CONTINUOUS
 62
     3
100
AcDbLine
 10
142.26332
 20
174.757425
 30
0.0
 11
142.23506
 21
174.746469
 31
0.0
  0
LINE
  5
5FD
330
5F2
100
AcDbEntity
  8
0
  6
CONTINUOUS
 62
     3
100
AcDbLine
 10
142.23506
 20
174.746469
 30
0.0
 11
142.20685
 21
174.735393
 31
0.0
  0
LINE
  5
5FE
330
5F2
100
AcDbEntity
  8
0
  6
CONTINUOUS
 62
     3
100
AcDbLine
 10
142.20685
 20
174.735393
 30
0.0
 11
142.178694
 21
174.724185
 31
0.0
  0
LINE
  5
5FF
330
5F2
100
AcDbEntity
  8
0
  6
CONTINUOUS
 62
     3
100
AcDbLine
 10
142.178694
 20
174.724185
 30
0.0
 11
142.150596
 21
174.712833
 31
0.0
  0
LINE
  5
600
330
5F2
100
AcDbEntity
  8
0
  6
CONTINUOUS
 62
     3
100
AcDbLine
 10
142.150596
 20
174.712833
 30
0.0
 11
142.12256
 21
174.701329
 31
0.0
  0
LINE
  5
601
330
5F2
100
AcDbEntity
  8
0
  6
CONTINUOUS
 62
     3
100
AcDbLine
 10
142.12256
 20
174.701329
 30
0.0
 11
142.09459
 21
174.689659
 31
0.0
  0
LINE
  5
602
330
5F2
100
AcDbEntity
  8
0
  6
CONTINUOUS
 62
     3
100
AcDbLine
 10
142.09459
 20
174.689659
 30
0.0
 11
142.06301
 21
174.676259
 31
0.0
  0
LINE
  5
603
330
5F2
100
AcDbEntity
  8
0
  6
CONTINUOUS
 62
     3
100
AcDbLine
 10
142.06301
 20
174.676259
 30
0.0
 11
142.031476
 21
174.662747
 31
0.0
  0
ENDBLK
  5
5F4
330
5F2
100
AcDbEntity
  8
0
100
AcDbBlockEnd
  0
BLOCK
  5
606
330
605
100
AcDbEntity
  8
0
100
AcDbBlockBegin
  2
BLKF042
 70
     0
 71
     0
 10
0.0
 20
0.0
 30
0.0
  3
BLKF042
  1

  0
LINE
  5
609
330
605
100
AcDbEntity
  8
0
  6
CONTINUOUS
 62
     3
100
AcDbLine
 10
153.104036
 20
167.462745
 30
0.0
 11
153.099924
 21
167.430939
 31
0.0
  0
LINE
  5
60A
330
605
100
AcDbEntity
  8
0
  6
CONTINUOUS
 62
     3
100
AcDbLine
 10
153.099924
 20
167.430939
 30
0.0
 11
153.095594
 21
167.399181
 31
0.0
  0
LINE
  5
60B
330
605
100
AcDbEntity
  8
0
  6
CONTINUOUS
 62
     3
100
AcDbLine
 10
153.095594
 20
167.399181
 30
0.0
 11
153.09083
 21
167.367523
 31
0.0
  0
LINE
  5
60C
330
605
100
AcDbEntity
  8
0
  6
CONTINUOUS
 62
     3
100
AcDbLine
 10
153.09083
 20
167.367523
 30
0.0
 11
153.08541
 21
167.336011
 31
0.0
  0
LINE
  5
60D
330
605
100
AcDbEntity
  8
0
  6
CONTINUOUS
 62
     3
100
AcDbLine
 10
153.08541
 20
167.336011
 30
0.0
 11
153.08073
 21
167.312131
 31
0.0
  0
LINE
  5
60E
330
605
100
AcDbEntity
  8
0
  6
CONTINUOUS
 62
     3
100
AcDbLine
 10
153.08073
 20
167.312131
 30
0.0
 11
153.075576
 21
167.288357
 31
0.0
  0
LINE
  5
60F
330
605
100
AcDbEntity
  8
0
  6
CONTINUOUS
 62
     3
100
AcDbLine
 10
153.075576
 20
167.288357
 30
0.0
 11
153.06998
 21
167.264685
 31
0.0
  0
LINE
  5
610
330
605
100
AcDbEntity
  8
0
  6
CONTINUOUS
 62
     3
100
AcDbLine
 10
153.06998
 20
167.264685
 30
0.0
 11
153.063972
 21
167.241103
 31
0.0
  0
LINE
  5
611
330
605
100
AcDbEntity
  8
0
  6
CONTINUOUS
 62
     3
100
AcDbLine
 10
153.063972
 20
167.241103
 30
0.0
 11
153.057584
 21
167.217607
 31
0.0
  0
LINE
  5
612
330
605
100
AcDbEntity
  8
0
  6
CONTINUOUS
 62
     3
100
AcDbLine
 10
153.057584
 20
167.217607
 30
0.0
 11
153.05085
 21
167.194189
 31
0.0
  0
LINE
  5
613
330
605
100
AcDbEntity
  8
0
  6
CONTINUOUS
 62
     3
100
AcDbLine
 10
153.05085
 20
167.194189
 30
0.0
 11
153.0438
 21
167.170843
 31
0.0
  0
LINE
  5
614
330
605
100
AcDbEntity
  8
0
  6
CONTINUOUS
 62
     3
100
AcDbLine
 10
153.0438
 20
167.170843
 30
0.0
 11
153.036464
 21
167.147561
 31
0.0
  0
LINE
  5
615
330
605
100
AcDbEntity
  8
0
  6
CONTINUOUS
 62
     3
100
AcDbLine
 10
153.036464
 20
167.147561
 30
0.0
 11
153.028876
 21
167.124335
 31
0.0
  0
LINE
  5
616
330
605
100
AcDbEntity
  8
0
  6
CONTINUOUS
 62
     3
100
AcDbLine
 10
153.028876
 20
167.124335
 30
0.0
 11
153.021066
 21
167.101159
 31
0.0
  0
LINE
  5
617
330
605
100
AcDbEntity
  8
0
  6
CONTINUOUS
 62
     3
100
AcDbLine
 10
153.021066
 20
167.101159
 30
0.0
 11
153.00491
 21
167.054929
 31
0.0
  0
LINE
  5
618
330
605
100
AcDbEntity
  8
0
  6
CONTINUOUS
 62
     3
100
AcDbLine
 10
153.00491
 20
167.054929
 30
0.0
 11
152.988248
 21
167.008811
 31
0.0
  0
LINE
  5
619
330
605
100
AcDbEntity
  8
0
  6
CONTINUOUS
 62
     3
100
AcDbLine
 10
152.988248
 20
167.008811
 30
0.0
 11
152.971334
 21
166.962751
 31
0.0
  0
ENDBLK
  5
607
330
605
100
AcDbEntity
  8
0
100
AcDbBlockEnd
  0
BLOCK
  5
61D
330
61C
100
AcDbEntity
  8
0
100
AcDbBlockBegin
  2
BLKF043
 70
     0
 71
     0
 10
0.0
 20
0.0
 30
0.0
  3
BLKF043
  1

  0
LINE
  5
620
330
61C
100
AcDbEntity
  8
0
  6
CONTINUOUS
 62
     3
100
AcDbLine
 10
141.120954
 20
167.462745
 30
0.0
 11
141.122874
 21
167.440415
 31
0.0
  0
LINE
  5
621
330
61C
100
AcDbEntity
  8
0
  6
CONTINUOUS
 62
     3
100
AcDbLine
 10
141.122874
 20
167.440415
 30
0.0
 11
141.124758
 21
167.418125
 31
0.0
  0
LINE
  5
622
330
61C
100
AcDbEntity
  8
0
  6
CONTINUOUS
 62
     3
100
AcDbLine
 10
141.124758
 20
167.418125
 30
0.0
 11
141.125676
 21
167.407007
 31
0.0
  0
LINE
  5
623
330
61C
100
AcDbEntity
  8
0
  6
CONTINUOUS
 62
     3
100
AcDbLine
 10
141.125676
 20
167.407007
 30
0.0
 11
141.126574
 21
167.395913
 31
0.0
  0
LINE
  5
624
330
61C
100
AcDbEntity
  8
0
  6
CONTINUOUS
 62
     3
100
AcDbLine
 10
141.126574
 20
167.395913
 30
0.0
 11
141.127444
 21
167.384849
 31
0.0
  0
LINE
  5
625
330
61C
100
AcDbEntity
  8
0
  6
CONTINUOUS
 62
     3
100
AcDbLine
 10
141.127444
 20
167.384849
 30
0.0
 11
141.128284
 21
167.373819
 31
0.0
  0
LINE
  5
626
330
61C
100
AcDbEntity
  8
0
  6
CONTINUOUS
 62
     3
100
AcDbLine
 10
141.128284
 20
167.373819
 30
0.0
 11
141.12909
 21
167.362829
 31
0.0
  0
LINE
  5
627
330
61C
100
AcDbEntity
  8
0
  6
CONTINUOUS
 62
     3
100
AcDbLine
 10
141.12909
 20
167.362829
 30
0.0
 11
141.129856
 21
167.351885
 31
0.0
  0
LINE
  5
628
330
61C
100
AcDbEntity
  8
0
  6
CONTINUOUS
 62
     3
100
AcDbLine
 10
141.129856
 20
167.351885
 30
0.0
 11
141.130578
 21
167.340989
 31
0.0
  0
LINE
  5
629
330
61C
100
AcDbEntity
  8
0
  6
CONTINUOUS
 62
     3
100
AcDbLine
 10
141.130578
 20
167.340989
 30
0.0
 11
141.131254
 21
167.330145
 31
0.0
  0
LINE
  5
62A
330
61C
100
AcDbEntity
  8
0
  6
CONTINUOUS
 62
     3
100
AcDbLine
 10
141.131254
 20
167.330145
 30
0.0
 11
141.131876
 21
167.319363
 31
0.0
  0
LINE
  5
62B
330
61C
100
AcDbEntity
  8
0
  6
CONTINUOUS
 62
     3
100
AcDbLine
 10
141.131876
 20
167.319363
 30
0.0
 11
141.132442
 21
167.308645
 31
0.0
  0
LINE
  5
62C
330
61C
100
AcDbEntity
  8
0
  6
CONTINUOUS
 62
     3
100
AcDbLine
 10
141.132442
 20
167.308645
 30
0.0
 11
141.132948
 21
167.297995
 31
0.0
  0
LINE
  5
62D
330
61C
100
AcDbEntity
  8
0
  6
CONTINUOUS
 62
     3
100
AcDbLine
 10
141.132948
 20
167.297995
 30
0.0
 11
141.133388
 21
167.287419
 31
0.0
  0
LINE
  5
62E
330
61C
100
AcDbEntity
  8
0
  6
CONTINUOUS
 62
     3
100
AcDbLine
 10
141.133388
 20
167.287419
 30
0.0
 11
141.133758
 21
167.276921
 31
0.0
  0
LINE
  5
62F
330
61C
100
AcDbEntity
  8
0
  6
CONTINUOUS
 62
     3
100
AcDbLine
 10
141.133758
 20
167.276921
 30
0.0
 11
141.134054
 21
167.266507
 31
0.0
  0
LINE
  5
630
330
61C
100
AcDbEntity
  8
0
  6
CONTINUOUS
 62
     3
100
AcDbLine
 10
141.134054
 20
167.266507
 30
0.0
 11
141.134272
 21
167.256183
 31
0.0
  0
LINE
  5
631
330
61C
100
AcDbEntity
  8
0
  6
CONTINUOUS
 62
     3
100
AcDbLine
 10
141.134272
 20
167.256183
 30
0.0
 11
141.134408
 21
167.245953
 31
0.0
  0
LINE
  5
632
330
61C
100
AcDbEntity
  8
0
  6
CONTINUOUS
 62
     3
100
AcDbLine
 10
141.134408
 20
167.245953
 30
0.0
 11
141.134458
 21
167.235819
 31
0.0
  0
LINE
  5
633
330
61C
100
AcDbEntity
  8
0
  6
CONTINUOUS
 62
     3
100
AcDbLine
 10
141.134458
 20
167.235819
 30
0.0
 11
141.134414
 21
167.225791
 31
0.0
  0
LINE
  5
634
330
61C
100
AcDbEntity
  8
0
  6
CONTINUOUS
 62
     3
100
AcDbLine
 10
141.134414
 20
167.225791
 30
0.0
 11
141.134276
 21
167.215871
 31
0.0
  0
LINE
  5
635
330
61C
100
AcDbEntity
  8
0
  6
CONTINUOUS
 62
     3
100
AcDbLine
 10
141.134276
 20
167.215871
 30
0.0
 11
141.134038
 21
167.206063
 31
0.0
  0
LINE
  5
636
330
61C
100
AcDbEntity
  8
0
  6
CONTINUOUS
 62
     3
100
AcDbLine
 10
141.134038
 20
167.206063
 30
0.0
 11
141.133696
 21
167.196375
 31
0.0
  0
LINE
  5
637
330
61C
100
AcDbEntity
  8
0
  6
CONTINUOUS
 62
     3
100
AcDbLine
 10
141.133696
 20
167.196375
 30
0.0
 11
141.133244
 21
167.186809
 31
0.0
  0
LINE
  5
638
330
61C
100
AcDbEntity
  8
0
  6
CONTINUOUS
 62
     3
100
AcDbLine
 10
141.133244
 20
167.186809
 30
0.0
 11
141.13268
 21
167.177371
 31
0.0
  0
LINE
  5
639
330
61C
100
AcDbEntity
  8
0
  6
CONTINUOUS
 62
     3
100
AcDbLine
 10
141.13268
 20
167.177371
 30
0.0
 11
141.131998
 21
167.168067
 31
0.0
  0
LINE
  5
63A
330
61C
100
AcDbEntity
  8
0
  6
CONTINUOUS
 62
     3
100
AcDbLine
 10
141.131998
 20
167.168067
 30
0.0
 11
141.131194
 21
167.158901
 31
0.0
  0
LINE
  5
63B
330
61C
100
AcDbEntity
  8
0
  6
CONTINUOUS
 62
     3
100
AcDbLine
 10
141.131194
 20
167.158901
 30
0.0
 11
141.130264
 21
167.149877
 31
0.0
  0
LINE
  5
63C
330
61C
100
AcDbEntity
  8
0
  6
CONTINUOUS
 62
     3
100
AcDbLine
 10
141.130264
 20
167.149877
 30
0.0
 11
141.129204
 21
167.141001
 31
0.0
  0
LINE
  5
63D
330
61C
100
AcDbEntity
  8
0
  6
CONTINUOUS
 62
     3
100
AcDbLine
 10
141.129204
 20
167.141001
 30
0.0
 11
141.12801
 21
167.132279
 31
0.0
  0
LINE
  5
63E
330
61C
100
AcDbEntity
  8
0
  6
CONTINUOUS
 62
     3
100
AcDbLine
 10
141.12801
 20
167.132279
 30
0.0
 11
141.12736
 21
167.127975
 31
0.0
  0
LINE
  5
63F
330
61C
100
AcDbEntity
  8
0
  6
CONTINUOUS
 62
     3
100
AcDbLine
 10
141.12736
 20
167.127975
 30
0.0
 11
141.126676
 21
167.123713
 31
0.0
  0
LINE
  5
640
330
61C
100
AcDbEntity
  8
0
  6
CONTINUOUS
 62
     3
100
AcDbLine
 10
141.126676
 20
167.123713
 30
0.0
 11
141.125954
 21
167.119491
 31
0.0
  0
LINE
  5
641
330
61C
100
AcDbEntity
  8
0
  6
CONTINUOUS
 62
     3
100
AcDbLine
 10
141.125954
 20
167.119491
 30
0.0
 11
141.125198
 21
167.115311
 31
0.0
  0
LINE
  5
642
330
61C
100
AcDbEntity
  8
0
  6
CONTINUOUS
 62
     3
100
AcDbLine
 10
141.125198
 20
167.115311
 30
0.0
 11
141.124404
 21
167.111171
 31
0.0
  0
LINE
  5
643
330
61C
100
AcDbEntity
  8
0
  6
CONTINUOUS
 62
     3
100
AcDbLine
 10
141.124404
 20
167.111171
 30
0.0
 11
141.123572
 21
167.107075
 31
0.0
  0
LINE
  5
644
330
61C
100
AcDbEntity
  8
0
  6
CONTINUOUS
 62
     3
100
AcDbLine
 10
141.123572
 20
167.107075
 30
0.0
 11
141.122704
 21
167.103023
 31
0.0
  0
LINE
  5
645
330
61C
100
AcDbEntity
  8
0
  6
CONTINUOUS
 62
     3
100
AcDbLine
 10
141.122704
 20
167.103023
 30
0.0
 11
141.121796
 21
167.099013
 31
0.0
  0
LINE
  5
646
330
61C
100
AcDbEntity
  8
0
  6
CONTINUOUS
 62
     3
100
AcDbLine
 10
141.121796
 20
167.099013
 30
0.0
 11
141.120848
 21
167.095047
 31
0.0
  0
LINE
  5
647
330
61C
100
AcDbEntity
  8
0
  6
CONTINUOUS
 62
     3
100
AcDbLine
 10
141.120848
 20
167.095047
 30
0.0
 11
141.11986
 21
167.091127
 31
0.0
  0
LINE
  5
648
330
61C
100
AcDbEntity
  8
0
  6
CONTINUOUS
 62
     3
100
AcDbLine
 10
141.11986
 20
167.091127
 30
0.0
 11
141.118834
 21
167.087253
 31
0.0
  0
LINE
  5
649
330
61C
100
AcDbEntity
  8
0
  6
CONTINUOUS
 62
     3
100
AcDbLine
 10
141.118834
 20
167.087253
 30
0.0
 11
141.117766
 21
167.083425
 31
0.0
  0
LINE
  5
64A
330
61C
100
AcDbEntity
  8
0
  6
CONTINUOUS
 62
     3
100
AcDbLine
 10
141.117766
 20
167.083425
 30
0.0
 11
141.116656
 21
167.079643
 31
0.0
  0
LINE
  5
64B
330
61C
100
AcDbEntity
  8
0
  6
CONTINUOUS
 62
     3
100
AcDbLine
 10
141.116656
 20
167.079643
 30
0.0
 11
141.115506
 21
167.075909
 31
0.0
  0
LINE
  5
64C
330
61C
100
AcDbEntity
  8
0
  6
CONTINUOUS
 62
     3
100
AcDbLine
 10
141.115506
 20
167.075909
 30
0.0
 11
141.114312
 21
167.072223
 31
0.0
  0
LINE
  5
64D
330
61C
100
AcDbEntity
  8
0
  6
CONTINUOUS
 62
     3
100
AcDbLine
 10
141.114312
 20
167.072223
 30
0.0
 11
141.113076
 21
167.068587
 31
0.0
  0
LINE
  5
64E
330
61C
100
AcDbEntity
  8
0
  6
CONTINUOUS
 62
     3
100
AcDbLine
 10
141.113076
 20
167.068587
 30
0.0
 11
141.111796
 21
167.064999
 31
0.0
  0
LINE
  5
64F
330
61C
100
AcDbEntity
  8
0
  6
CONTINUOUS
 62
     3
100
AcDbLine
 10
141.111796
 20
167.064999
 30
0.0
 11
141.110472
 21
167.061459
 31
0.0
  0
LINE
  5
650
330
61C
100
AcDbEntity
  8
0
  6
CONTINUOUS
 62
     3
100
AcDbLine
 10
141.110472
 20
167.061459
 30
0.0
 11
141.109104
 21
167.057973
 31
0.0
  0
LINE
  5
651
330
61C
100
AcDbEntity
  8
0
  6
CONTINUOUS
 62
     3
100
AcDbLine
 10
141.109104
 20
167.057973
 30
0.0
 11
141.10769
 21
167.054535
 31
0.0
  0
LINE
  5
652
330
61C
100
AcDbEntity
  8
0
  6
CONTINUOUS
 62
     3
100
AcDbLine
 10
141.10769
 20
167.054535
 30
0.0
 11
141.106232
 21
167.051151
 31
0.0
  0
LINE
  5
653
330
61C
100
AcDbEntity
  8
0
  6
CONTINUOUS
 62
     3
100
AcDbLine
 10
141.106232
 20
167.051151
 30
0.0
 11
141.104726
 21
167.047819
 31
0.0
  0
LINE
  5
654
330
61C
100
AcDbEntity
  8
0
  6
CONTINUOUS
 62
     3
100
AcDbLine
 10
141.104726
 20
167.047819
 30
0.0
 11
141.103174
 21
167.044539
 31
0.0
  0
LINE
  5
655
330
61C
100
AcDbEntity
  8
0
  6
CONTINUOUS
 62
     3
100
AcDbLine
 10
141.103174
 20
167.044539
 30
0.0
 11
141.101574
 21
167.041313
 31
0.0
  0
LINE
  5
656
330
61C
100
AcDbEntity
  8
0
  6
CONTINUOUS
 62
     3
100
AcDbLine
 10
141.101574
 20
167.041313
 30
0.0
 11
141.099926
 21
167.038143
 31
0.0
  0
LINE
  5
657
330
61C
100
AcDbEntity
  8
0
  6
CONTINUOUS
 62
     3
100
AcDbLine
 10
141.099926
 20
167.038143
 30
0.0
 11
141.098232
 21
167.035025
 31
0.0
  0
LINE
  5
658
330
61C
100
AcDbEntity
  8
0
  6
CONTINUOUS
 62
     3
100
AcDbLine
 10
141.098232
 20
167.035025
 30
0.0
 11
141.096486
 21
167.031963
 31
0.0
  0
LINE
  5
659
330
61C
100
AcDbEntity
  8
0
  6
CONTINUOUS
 62
     3
100
AcDbLine
 10
141.096486
 20
167.031963
 30
0.0
 11
141.094692
 21
167.028959
 31
0.0
  0
LINE
  5
65A
330
61C
100
AcDbEntity
  8
0
  6
CONTINUOUS
 62
     3
100
AcDbLine
 10
141.094692
 20
167.028959
 30
0.0
 11
141.092848
 21
167.026011
 31
0.0
  0
LINE
  5
65B
330
61C
100
AcDbEntity
  8
0
  6
CONTINUOUS
 62
     3
100
AcDbLine
 10
141.092848
 20
167.026011
 30
0.0
 11
141.090954
 21
167.023119
 31
0.0
  0
LINE
  5
65C
330
61C
100
AcDbEntity
  8
0
  6
CONTINUOUS
 62
     3
100
AcDbLine
 10
141.090954
 20
167.023119
 30
0.0
 11
141.089008
 21
167.020285
 31
0.0
  0
LINE
  5
65D
330
61C
100
AcDbEntity
  8
0
  6
CONTINUOUS
 62
     3
100
AcDbLine
 10
141.089008
 20
167.020285
 30
0.0
 11
141.08701
 21
167.017511
 31
0.0
  0
LINE
  5
65E
330
61C
100
AcDbEntity
  8
0
  6
CONTINUOUS
 62
     3
100
AcDbLine
 10
141.08701
 20
167.017511
 30
0.0
 11
141.084962
 21
167.014795
 31
0.0
  0
LINE
  5
65F
330
61C
100
AcDbEntity
  8
0
  6
CONTINUOUS
 62
     3
100
AcDbLine
 10
141.084962
 20
167.014795
 30
0.0
 11
141.08286
 21
167.012139
 31
0.0
  0
LINE
  5
660
330
61C
100
AcDbEntity
  8
0
  6
CONTINUOUS
 62
     3
100
AcDbLine
 10
141.08286
 20
167.012139
 30
0.0
 11
141.080704
 21
167.009543
 31
0.0
  0
LINE
  5
661
330
61C
100
AcDbEntity
  8
0
  6
CONTINUOUS
 62
     3
100
AcDbLine
 10
141.080704
 20
167.009543
 30
0.0
 11
141.078494
 21
167.007009
 31
0.0
  0
LINE
  5
662
330
61C
100
AcDbEntity
  8
0
  6
CONTINUOUS
 62
     3
100
AcDbLine
 10
141.078494
 20
167.007009
 30
0.0
 11
141.07623
 21
167.004535
 31
0.0
  0
LINE
  5
663
330
61C
100
AcDbEntity
  8
0
  6
CONTINUOUS
 62
     3
100
AcDbLine
 10
141.07623
 20
167.004535
 30
0.0
 11
141.073912
 21
167.002125
 31
0.0
  0
LINE
  5
664
330
61C
100
AcDbEntity
  8
0
  6
CONTINUOUS
 62
     3
100
AcDbLine
 10
141.073912
 20
167.002125
 30
0.0
 11
141.071538
 21
166.999777
 31
0.0
  0
LINE
  5
665
330
61C
100
AcDbEntity
  8
0
  6
CONTINUOUS
 62
     3
100
AcDbLine
 10
141.071538
 20
166.999777
 30
0.0
 11
141.069108
 21
166.997493
 31
0.0
  0
LINE
  5
666
330
61C
100
AcDbEntity
  8
0
  6
CONTINUOUS
 62
     3
100
AcDbLine
 10
141.069108
 20
166.997493
 30
0.0
 11
141.066622
 21
166.995273
 31
0.0
  0
LINE
  5
667
330
61C
100
AcDbEntity
  8
0
  6
CONTINUOUS
 62
     3
100
AcDbLine
 10
141.066622
 20
166.995273
 30
0.0
 11
141.064078
 21
166.993117
 31
0.0
  0
LINE
  5
668
330
61C
100
AcDbEntity
  8
0
  6
CONTINUOUS
 62
     3
100
AcDbLine
 10
141.064078
 20
166.993117
 30
0.0
 11
141.061478
 21
166.991027
 31
0.0
  0
LINE
  5
669
330
61C
100
AcDbEntity
  8
0
  6
CONTINUOUS
 62
     3
100
AcDbLine
 10
141.061478
 20
166.991027
 30
0.0
 11
141.058818
 21
166.989001
 31
0.0
  0
LINE
  5
66A
330
61C
100
AcDbEntity
  8
0
  6
CONTINUOUS
 62
     3
100
AcDbLine
 10
141.058818
 20
166.989001
 30
0.0
 11
141.0561
 21
166.987043
 31
0.0
  0
LINE
  5
66B
330
61C
100
AcDbEntity
  8
0
  6
CONTINUOUS
 62
     3
100
AcDbLine
 10
141.0561
 20
166.987043
 30
0.0
 11
141.053322
 21
166.985153
 31
0.0
  0
LINE
  5
66C
330
61C
100
AcDbEntity
  8
0
  6
CONTINUOUS
 62
     3
100
AcDbLine
 10
141.053322
 20
166.985153
 30
0.0
 11
141.050486
 21
166.983329
 31
0.0
  0
LINE
  5
66D
330
61C
100
AcDbEntity
  8
0
  6
CONTINUOUS
 62
     3
100
AcDbLine
 10
141.050486
 20
166.983329
 30
0.0
 11
141.047588
 21
166.981575
 31
0.0
  0
LINE
  5
66E
330
61C
100
AcDbEntity
  8
0
  6
CONTINUOUS
 62
     3
100
AcDbLine
 10
141.047588
 20
166.981575
 30
0.0
 11
141.04463
 21
166.979889
 31
0.0
  0
LINE
  5
66F
330
61C
100
AcDbEntity
  8
0
  6
CONTINUOUS
 62
     3
100
AcDbLine
 10
141.04463
 20
166.979889
 30
0.0
 11
141.04161
 21
166.978273
 31
0.0
  0
LINE
  5
670
330
61C
100
AcDbEntity
  8
0
  6
CONTINUOUS
 62
     3
100
AcDbLine
 10
141.04161
 20
166.978273
 30
0.0
 11
141.038528
 21
166.976727
 31
0.0
  0
LINE
  5
671
330
61C
100
AcDbEntity
  8
0
  6
CONTINUOUS
 62
     3
100
AcDbLine
 10
141.038528
 20
166.976727
 30
0.0
 11
141.035384
 21
166.975253
 31
0.0
  0
LINE
  5
672
330
61C
100
AcDbEntity
  8
0
  6
CONTINUOUS
 62
     3
100
AcDbLine
 10
141.035384
 20
166.975253
 30
0.0
 11
141.032178
 21
166.973849
 31
0.0
  0
LINE
  5
673
330
61C
100
AcDbEntity
  8
0
  6
CONTINUOUS
 62
     3
100
AcDbLine
 10
141.032178
 20
166.973849
 30
0.0
 11
141.028906
 21
166.972517
 31
0.0
  0
LINE
  5
674
330
61C
100
AcDbEntity
  8
0
  6
CONTINUOUS
 62
     3
100
AcDbLine
 10
141.028906
 20
166.972517
 30
0.0
 11
141.025572
 21
166.971259
 31
0.0
  0
LINE
  5
675
330
61C
100
AcDbEntity
  8
0
  6
CONTINUOUS
 62
     3
100
AcDbLine
 10
141.025572
 20
166.971259
 30
0.0
 11
141.022172
 21
166.970073
 31
0.0
  0
LINE
  5
676
330
61C
100
AcDbEntity
  8
0
  6
CONTINUOUS
 62
     3
100
AcDbLine
 10
141.022172
 20
166.970073
 30
0.0
 11
141.018706
 21
166.968961
 31
0.0
  0
LINE
  5
677
330
61C
100
AcDbEntity
  8
0
  6
CONTINUOUS
 62
     3
100
AcDbLine
 10
141.018706
 20
166.968961
 30
0.0
 11
141.015176
 21
166.967925
 31
0.0
  0
LINE
  5
678
330
61C
100
AcDbEntity
  8
0
  6
CONTINUOUS
 62
     3
100
AcDbLine
 10
141.015176
 20
166.967925
 30
0.0
 11
141.01158
 21
166.966963
 31
0.0
  0
LINE
  5
679
330
61C
100
AcDbEntity
  8
0
  6
CONTINUOUS
 62
     3
100
AcDbLine
 10
141.01158
 20
166.966963
 30
0.0
 11
141.007916
 21
166.966077
 31
0.0
  0
LINE
  5
67A
330
61C
100
AcDbEntity
  8
0
  6
CONTINUOUS
 62
     3
100
AcDbLine
 10
141.007916
 20
166.966077
 30
0.0
 11
141.004184
 21
166.965267
 31
0.0
  0
LINE
  5
67B
330
61C
100
AcDbEntity
  8
0
  6
CONTINUOUS
 62
     3
100
AcDbLine
 10
141.004184
 20
166.965267
 30
0.0
 11
141.000386
 21
166.964535
 31
0.0
  0
LINE
  5
67C
330
61C
100
AcDbEntity
  8
0
  6
CONTINUOUS
 62
     3
100
AcDbLine
 10
141.000386
 20
166.964535
 30
0.0
 11
140.996518
 21
166.963879
 31
0.0
  0
LINE
  5
67D
330
61C
100
AcDbEntity
  8
0
  6
CONTINUOUS
 62
     3
100
AcDbLine
 10
140.996518
 20
166.963879
 30
0.0
 11
140.992582
 21
166.963303
 31
0.0
  0
LINE
  5
67E
330
61C
100
AcDbEntity
  8
0
  6
CONTINUOUS
 62
     3
100
AcDbLine
 10
140.992582
 20
166.963303
 30
0.0
 11
140.988252
 21
166.962751
 31
0.0
  0
ENDBLK
  5
61E
330
61C
100
AcDbEntity
  8
0
100
AcDbBlockEnd
  0
BLOCK
  5
681
330
680
100
AcDbEntity
  8
0
100
AcDbBlockBegin
  2
BLKF044
 70
     0
 71
     0
 10
0.0
 20
0.0
 30
0.0
  3
BLKF044
  1

  0
LINE
  5
684
330
680
100
AcDbEntity
  8
0
  6
CONTINUOUS
 62
     3
100
AcDbLine
 10
141.120954
 20
174.662747
 30
0.0
 11
141.114442
 21
174.708183
 31
0.0
  0
LINE
  5
685
330
680
100
AcDbEntity
  8
0
  6
CONTINUOUS
 62
     3
100
AcDbLine
 10
141.114442
 20
174.708183
 30
0.0
 11
141.111138
 21
174.730893
 31
0.0
  0
LINE
  5
686
330
680
100
AcDbEntity
  8
0
  6
CONTINUOUS
 62
     3
100
AcDbLine
 10
141.111138
 20
174.730893
 30
0.0
 11
141.107778
 21
174.753593
 31
0.0
  0
LINE
  5
687
330
680
100
AcDbEntity
  8
0
  6
CONTINUOUS
 62
     3
100
AcDbLine
 10
141.107778
 20
174.753593
 30
0.0
 11
141.104342
 21
174.776281
 31
0.0
  0
LINE
  5
688
330
680
100
AcDbEntity
  8
0
  6
CONTINUOUS
 62
     3
100
AcDbLine
 10
141.104342
 20
174.776281
 30
0.0
 11
141.100812
 21
174.798955
 31
0.0
  0
LINE
  5
689
330
680
100
AcDbEntity
  8
0
  6
CONTINUOUS
 62
     3
100
AcDbLine
 10
141.100812
 20
174.798955
 30
0.0
 11
141.09717
 21
174.821611
 31
0.0
  0
LINE
  5
68A
330
680
100
AcDbEntity
  8
0
  6
CONTINUOUS
 62
     3
100
AcDbLine
 10
141.09717
 20
174.821611
 30
0.0
 11
141.093394
 21
174.844243
 31
0.0
  0
LINE
  5
68B
330
680
100
AcDbEntity
  8
0
  6
CONTINUOUS
 62
     3
100
AcDbLine
 10
141.093394
 20
174.844243
 30
0.0
 11
141.090214
 21
174.862751
 31
0.0
  0
ENDBLK
  5
682
330
680
100
AcDbEntity
  8
0
100
AcDbBlockEnd
  0
BLOCK
  5
68F
330
68E
100
AcDbEntity
  8
0
100
AcDbBlockBegin
  2
BLKF045
 70
     0
 71
     0
 10
0.0
 20
0.0
 30
0.0
  3
BLKF045
  1

  0
LINE
  5
692
330
68E
100
AcDbEntity
  8
0
  6
CONTINUOUS
 62
     3
100
AcDbLine
 10
153.073296
 20
174.862751
 30
0.0
 11
153.080316
 21
174.819519
 31
0.0
  0
LINE
  5
693
330
68E
100
AcDbEntity
  8
0
  6
CONTINUOUS
 62
     3
100
AcDbLine
 10
153.080316
 20
174.819519
 30
0.0
 11
153.087226
 21
174.776271
 31
0.0
  0
LINE
  5
694
330
68E
100
AcDbEntity
  8
0
  6
CONTINUOUS
 62
     3
100
AcDbLine
 10
153.087226
 20
174.776271
 30
0.0
 11
153.090606
 21
174.754635
 31
0.0
  0
LINE
  5
695
330
68E
100
AcDbEntity
  8
0
  6
CONTINUOUS
 62
     3
100
AcDbLine
 10
153.090606
 20
174.754635
 30
0.0
 11
153.093916
 21
174.732989
 31
0.0
  0
LINE
  5
696
330
68E
100
AcDbEntity
  8
0
  6
CONTINUOUS
 62
     3
100
AcDbLine
 10
153.093916
 20
174.732989
 30
0.0
 11
153.097144
 21
174.711331
 31
0.0
  0
LINE
  5
697
330
68E
100
AcDbEntity
  8
0
  6
CONTINUOUS
 62
     3
100
AcDbLine
 10
153.097144
 20
174.711331
 30
0.0
 11
153.100274
 21
174.689659
 31
0.0
  0
LINE
  5
698
330
68E
100
AcDbEntity
  8
0
  6
CONTINUOUS
 62
     3
100
AcDbLine
 10
153.100274
 20
174.689659
 30
0.0
 11
153.104036
 21
174.662747
 31
0.0
  0
ENDBLK
  5
690
330
68E
100
AcDbEntity
  8
0
100
AcDbBlockEnd
  0
BLOCK
  5
69B
330
69A
100
AcDbEntity
  8
0
100
AcDbBlockBegin
  2
BLKF046
 70
     0
 71
     0
 10
0.0
 20
0.0
 30
0.0
  3
BLKF046
  1

  0
LINE
  5
69E
330
69A
100
AcDbEntity
  8
0
  6
CONTINUOUS
 62
     3
100
AcDbLine
 10
140.855558
 20
167.462745
 30
0.0
 11
140.85967
 21
167.430939
 31
0.0
  0
LINE
  5
69F
330
69A
100
AcDbEntity
  8
0
  6
CONTINUOUS
 62
     3
100
AcDbLine
 10
140.85967
 20
167.430939
 30
0.0
 11
140.864
 21
167.399181
 31
0.0
  0
LINE
  5
6A0
330
69A
100
AcDbEntity
  8
0
  6
CONTINUOUS
 62
     3
100
AcDbLine
 10
140.864
 20
167.399181
 30
0.0
 11
140.868764
 21
167.367523
 31
0.0
  0
LINE
  5
6A1
330
69A
100
AcDbEntity
  8
0
  6
CONTINUOUS
 62
     3
100
AcDbLine
 10
140.868764
 20
167.367523
 30
0.0
 11
140.874184
 21
167.336011
 31
0.0
  0
LINE
  5
6A2
330
69A
100
AcDbEntity
  8
0
  6
CONTINUOUS
 62
     3
100
AcDbLine
 10
140.874184
 20
167.336011
 30
0.0
 11
140.878864
 21
167.312131
 31
0.0
  0
LINE
  5
6A3
330
69A
100
AcDbEntity
  8
0
  6
CONTINUOUS
 62
     3
100
AcDbLine
 10
140.878864
 20
167.312131
 30
0.0
 11
140.884018
 21
167.288357
 31
0.0
  0
LINE
  5
6A4
330
69A
100
AcDbEntity
  8
0
  6
CONTINUOUS
 62
     3
100
AcDbLine
 10
140.884018
 20
167.288357
 30
0.0
 11
140.889614
 21
167.264685
 31
0.0
  0
LINE
  5
6A5
330
69A
100
AcDbEntity
  8
0
  6
CONTINUOUS
 62
     3
100
AcDbLine
 10
140.889614
 20
167.264685
 30
0.0
 11
140.895622
 21
167.241103
 31
0.0
  0
LINE
  5
6A6
330
69A
100
AcDbEntity
  8
0
  6
CONTINUOUS
 62
     3
100
AcDbLine
 10
140.895622
 20
167.241103
 30
0.0
 11
140.902008
 21
167.217607
 31
0.0
  0
LINE
  5
6A7
330
69A
100
AcDbEntity
  8
0
  6
CONTINUOUS
 62
     3
100
AcDbLine
 10
140.902008
 20
167.217607
 30
0.0
 11
140.908742
 21
167.194189
 31
0.0
  0
LINE
  5
6A8
330
69A
100
AcDbEntity
  8
0
  6
CONTINUOUS
 62
     3
100
AcDbLine
 10
140.908742
 20
167.194189
 30
0.0
 11
140.915792
 21
167.170843
 31
0.0
  0
LINE
  5
6A9
330
69A
100
AcDbEntity
  8
0
  6
CONTINUOUS
 62
     3
100
AcDbLine
 10
140.915792
 20
167.170843
 30
0.0
 11
140.923128
 21
167.147561
 31
0.0
  0
LINE
  5
6AA
330
69A
100
AcDbEntity
  8
0
  6
CONTINUOUS
 62
     3
100
AcDbLine
 10
140.923128
 20
167.147561
 30
0.0
 11
140.930714
 21
167.124335
 31
0.0
  0
LINE
  5
6AB
330
69A
100
AcDbEntity
  8
0
  6
CONTINUOUS
 62
     3
100
AcDbLine
 10
140.930714
 20
167.124335
 30
0.0
 11
140.938524
 21
167.101159
 31
0.0
  0
LINE
  5
6AC
330
69A
100
AcDbEntity
  8
0
  6
CONTINUOUS
 62
     3
100
AcDbLine
 10
140.938524
 20
167.101159
 30
0.0
 11
140.954678
 21
167.054929
 31
0.0
  0
LINE
  5
6AD
330
69A
100
AcDbEntity
  8
0
  6
CONTINUOUS
 62
     3
100
AcDbLine
 10
140.954678
 20
167.054929
 30
0.0
 11
140.971338
 21
167.008811
 31
0.0
  0
LINE
  5
6AE
330
69A
100
AcDbEntity
  8
0
  6
CONTINUOUS
 62
     3
100
AcDbLine
 10
140.971338
 20
167.008811
 30
0.0
 11
140.988252
 21
166.962751
 31
0.0
  0
ENDBLK
  5
69C
330
69A
100
AcDbEntity
  8
0
100
AcDbBlockEnd
  0
BLOCK
  5
6B0
330
6AF
100
AcDbEntity
  8
0
100
AcDbBlockBegin
  2
BLKF047
 70
     0
 71
     0
 10
0.0
 20
0.0
 30
0.0
  3
BLKF047
  1

  0
LINE
  5
6B3
330
6AF
100
AcDbEntity
  8
0
  6
CONTINUOUS
 62
     3
100
AcDbLine
 10
140.886292
 20
174.862751
 30
0.0
 11
140.879266
 21
174.819519
 31
0.0
  0
LINE
  5
6B4
330
6AF
100
AcDbEntity
  8
0
  6
CONTINUOUS
 62
     3
100
AcDbLine
 10
140.879266
 20
174.819519
 30
0.0
 11
140.872352
 21
174.776271
 31
0.0
  0
LINE
  5
6B5
330
6AF
100
AcDbEntity
  8
0
  6
CONTINUOUS
 62
     3
100
AcDbLine
 10
140.872352
 20
174.776271
 30
0.0
 11
140.868974
 21
174.754635
 31
0.0
  0
LINE
  5
6B6
330
6AF
100
AcDbEntity
  8
0
  6
CONTINUOUS
 62
     3
100
AcDbLine
 10
140.868974
 20
174.754635
 30
0.0
 11
140.865664
 21
174.732991
 31
0.0
  0
LINE
  5
6B7
330
6AF
100
AcDbEntity
  8
0
  6
CONTINUOUS
 62
     3
100
AcDbLine
 10
140.865664
 20
174.732991
 30
0.0
 11
140.86244
 21
174.711331
 31
0.0
  0
LINE
  5
6B8
330
6AF
100
AcDbEntity
  8
0
  6
CONTINUOUS
 62
     3
100
AcDbLine
 10
140.86244
 20
174.711331
 30
0.0
 11
140.859312
 21
174.689659
 31
0.0
  0
LINE
  5
6B9
330
6AF
100
AcDbEntity
  8
0
  6
CONTINUOUS
 62
     3
100
AcDbLine
 10
140.859312
 20
174.689659
 30
0.0
 11
140.855558
 21
174.662747
 31
0.0
  0
ENDBLK
  5
6B1
330
6AF
100
AcDbEntity
  8
0
100
AcDbBlockEnd
  0
BLOCK
  5
745
330
744
100
AcDbEntity
  8
0
100
AcDbBlockBegin
  2
BLKF048
 70
     0
 71
     0
 10
0.0
 20
0.0
 30
0.0
  3
BLKF048
  1

  0
LINE
  5
748
330
744
100
AcDbEntity
  8
CSLAYER2
  6
CONTINUOUS
 62
     3
100
AcDbLine
 10
123.956355
 20
93.178624
 30
0.0
 11
123.962105
 21
93.227678
 31
0.0
  0
LINE
  5
749
330
744
100
AcDbEntity
  8
CSLAYER2
  6
CONTINUOUS
 62
     3
100
AcDbLine
 10
123.962105
 20
93.227678
 30
0.0
 11
123.979311
 21
93.276358
 31
0.0
  0
LINE
  5
74A
330
744
100
AcDbEntity
  8
CSLAYER2
  6
CONTINUOUS
 62
     3
100
AcDbLine
 10
123.979311
 20
93.276358
 30
0.0
 11
124.007841
 21
93.324294
 31
0.0
  0
LINE
  5
74B
330
744
100
AcDbEntity
  8
CSLAYER2
  6
CONTINUOUS
 62
     3
100
AcDbLine
 10
124.007841
 20
93.324294
 30
0.0
 11
124.047479
 21
93.371122
 31
0.0
  0
LINE
  5
74C
330
744
100
AcDbEntity
  8
CSLAYER2
  6
CONTINUOUS
 62
     3
100
AcDbLine
 10
124.047479
 20
93.371122
 30
0.0
 11
124.097923
 21
93.416484
 31
0.0
  0
LINE
  5
74D
330
744
100
AcDbEntity
  8
CSLAYER2
  6
CONTINUOUS
 62
     3
100
AcDbLine
 10
124.097923
 20
93.416484
 30
0.0
 11
124.158789
 21
93.460036
 31
0.0
  0
LINE
  5
74E
330
744
100
AcDbEntity
  8
CSLAYER2
  6
CONTINUOUS
 62
     3
100
AcDbLine
 10
124.158789
 20
93.460036
 30
0.0
 11
124.229615
 21
93.501448
 31
0.0
  0
LINE
  5
74F
330
744
100
AcDbEntity
  8
CSLAYER2
  6
CONTINUOUS
 62
     3
100
AcDbLine
 10
124.229615
 20
93.501448
 30
0.0
 11
124.309861
 21
93.540402
 31
0.0
  0
LINE
  5
750
330
744
100
AcDbEntity
  8
CSLAYER2
  6
CONTINUOUS
 62
     3
100
AcDbLine
 10
124.309861
 20
93.540402
 30
0.0
 11
124.398915
 21
93.576602
 31
0.0
  0
LINE
  5
751
330
744
100
AcDbEntity
  8
CSLAYER2
  6
CONTINUOUS
 62
     3
100
AcDbLine
 10
124.398915
 20
93.576602
 30
0.0
 11
124.496101
 21
93.609774
 31
0.0
  0
LINE
  5
752
330
744
100
AcDbEntity
  8
CSLAYER2
  6
CONTINUOUS
 62
     3
100
AcDbLine
 10
124.496101
 20
93.609774
 30
0.0
 11
124.600677
 21
93.639664
 31
0.0
  0
LINE
  5
753
330
744
100
AcDbEntity
  8
CSLAYER2
  6
CONTINUOUS
 62
     3
100
AcDbLine
 10
124.600677
 20
93.639664
 30
0.0
 11
124.711851
 21
93.666046
 31
0.0
  0
LINE
  5
754
330
744
100
AcDbEntity
  8
CSLAYER2
  6
CONTINUOUS
 62
     3
100
AcDbLine
 10
124.711851
 20
93.666046
 30
0.0
 11
124.828775
 21
93.688716
 31
0.0
  0
LINE
  5
755
330
744
100
AcDbEntity
  8
CSLAYER2
  6
CONTINUOUS
 62
     3
100
AcDbLine
 10
124.828775
 20
93.688716
 30
0.0
 11
124.950557
 21
93.707506
 31
0.0
  0
LINE
  5
756
330
744
100
AcDbEntity
  8
CSLAYER2
  6
CONTINUOUS
 62
     3
100
AcDbLine
 10
124.950557
 20
93.707506
 30
0.0
 11
125.076273
 21
93.722272
 31
0.0
  0
LINE
  5
757
330
744
100
AcDbEntity
  8
CSLAYER2
  6
CONTINUOUS
 62
     3
100
AcDbLine
 10
125.076273
 20
93.722272
 30
0.0
 11
125.204965
 21
93.732898
 31
0.0
  0
LINE
  5
758
330
744
100
AcDbEntity
  8
CSLAYER2
  6
CONTINUOUS
 62
     3
100
AcDbLine
 10
125.204965
 20
93.732898
 30
0.0
 11
125.335655
 21
93.739308
 31
0.0
  0
ENDBLK
  5
746
330
744
100
AcDbEntity
  8
0
100
AcDbBlockEnd
  0
BLOCK
  5
75E
330
75D
100
AcDbEntity
  8
0
100
AcDbBlockBegin
  2
BLKF049
 70
     0
 71
     0
 10
0.0
 20
0.0
 30
0.0
  3
BLKF049
  1

  0
LINE
  5
761
330
75D
100
AcDbEntity
  8
CSLAYER2
  6
CONTINUOUS
 62
     3
100
AcDbLine
 10
124.406329
 20
58.227226
 30
0.0
 11
124.417863
 21
58.27628
 31
0.0
  0
LINE
  5
762
330
75D
100
AcDbEntity
  8
CSLAYER2
  6
CONTINUOUS
 62
     3
100
AcDbLine
 10
124.417863
 20
58.27628
 30
0.0
 11
124.452375
 21
58.32496
 31
0.0
  0
LINE
  5
763
330
75D
100
AcDbEntity
  8
CSLAYER2
  6
CONTINUOUS
 62
     3
100
AcDbLine
 10
124.452375
 20
58.32496
 30
0.0
 11
124.509605
 21
58.372896
 31
0.0
  0
LINE
  5
764
330
75D
100
AcDbEntity
  8
CSLAYER2
  6
CONTINUOUS
 62
     3
100
AcDbLine
 10
124.509605
 20
58.372896
 30
0.0
 11
124.589115
 21
58.419722
 31
0.0
  0
LINE
  5
765
330
75D
100
AcDbEntity
  8
CSLAYER2
  6
CONTINUOUS
 62
     3
100
AcDbLine
 10
124.589115
 20
58.419722
 30
0.0
 11
124.690301
 21
58.465086
 31
0.0
  0
LINE
  5
766
330
75D
100
AcDbEntity
  8
CSLAYER2
  6
CONTINUOUS
 62
     3
100
AcDbLine
 10
124.690301
 20
58.465086
 30
0.0
 11
124.812393
 21
58.508638
 31
0.0
  0
LINE
  5
767
330
75D
100
AcDbEntity
  8
CSLAYER2
  6
CONTINUOUS
 62
     3
100
AcDbLine
 10
124.812393
 20
58.508638
 30
0.0
 11
124.954463
 21
58.550048
 31
0.0
  0
LINE
  5
768
330
75D
100
AcDbEntity
  8
CSLAYER2
  6
CONTINUOUS
 62
     3
100
AcDbLine
 10
124.954463
 20
58.550048
 30
0.0
 11
125.115425
 21
58.589002
 31
0.0
  0
LINE
  5
769
330
75D
100
AcDbEntity
  8
CSLAYER2
  6
CONTINUOUS
 62
     3
100
AcDbLine
 10
125.115425
 20
58.589002
 30
0.0
 11
125.294061
 21
58.625202
 31
0.0
  0
LINE
  5
76A
330
75D
100
AcDbEntity
  8
CSLAYER2
  6
CONTINUOUS
 62
     3
100
AcDbLine
 10
125.294061
 20
58.625202
 30
0.0
 11
125.489005
 21
58.658374
 31
0.0
  0
LINE
  5
76B
330
75D
100
AcDbEntity
  8
CSLAYER2
  6
CONTINUOUS
 62
     3
100
AcDbLine
 10
125.489005
 20
58.658374
 30
0.0
 11
125.698777
 21
58.688264
 31
0.0
  0
LINE
  5
76C
330
75D
100
AcDbEntity
  8
CSLAYER2
  6
CONTINUOUS
 62
     3
100
AcDbLine
 10
125.698777
 20
58.688264
 30
0.0
 11
125.921781
 21
58.714646
 31
0.0
  0
LINE
  5
76D
330
75D
100
AcDbEntity
  8
CSLAYER2
  6
CONTINUOUS
 62
     3
100
AcDbLine
 10
125.921781
 20
58.714646
 30
0.0
 11
126.156317
 21
58.737318
 31
0.0
  0
LINE
  5
76E
330
75D
100
AcDbEntity
  8
CSLAYER2
  6
CONTINUOUS
 62
     3
100
AcDbLine
 10
126.156317
 20
58.737318
 30
0.0
 11
126.400603
 21
58.756108
 31
0.0
  0
LINE
  5
76F
330
75D
100
AcDbEntity
  8
CSLAYER2
  6
CONTINUOUS
 62
     3
100
AcDbLine
 10
126.400603
 20
58.756108
 30
0.0
 11
126.652777
 21
58.770872
 31
0.0
  0
LINE
  5
770
330
75D
100
AcDbEntity
  8
CSLAYER2
  6
CONTINUOUS
 62
     3
100
AcDbLine
 10
126.652777
 20
58.770872
 30
0.0
 11
126.910921
 21
58.781498
 31
0.0
  0
LINE
  5
771
330
75D
100
AcDbEntity
  8
CSLAYER2
  6
CONTINUOUS
 62
     3
100
AcDbLine
 10
126.910921
 20
58.781498
 30
0.0
 11
127.173071
 21
58.787908
 31
0.0
  0
LINE
  5
772
330
75D
100
AcDbEntity
  8
CSLAYER2
  6
CONTINUOUS
 62
     3
100
AcDbLine
 10
127.173071
 20
58.787908
 30
0.0
 11
127.437231
 21
58.79005
 31
0.0
  0
ENDBLK
  5
75F
330
75D
100
AcDbEntity
  8
0
100
AcDbBlockEnd
  0
BLOCK
  5
774
330
773
100
AcDbEntity
  8
0
100
AcDbBlockBegin
  2
BLKF050
 70
     0
 71
     0
 10
0.0
 20
0.0
 30
0.0
  3
BLKF050
  1

  0
LINE
  5
777
330
773
100
AcDbEntity
  8
CSLAYER2
  6
CONTINUOUS
 62
     3
100
AcDbLine
 10
127.437233
 20
53.04924
 30
0.0
 11
127.173071
 21
53.051382
 31
0.0
  0
LINE
  5
778
330
773
100
AcDbEntity
  8
CSLAYER2
  6
CONTINUOUS
 62
     3
100
AcDbLine
 10
127.173071
 20
53.051382
 30
0.0
 11
126.910921
 21
53.057792
 31
0.0
  0
LINE
  5
779
330
773
100
AcDbEntity
  8
CSLAYER2
  6
CONTINUOUS
 62
     3
100
AcDbLine
 10
126.910921
 20
53.057792
 30
0.0
 11
126.652777
 21
53.068418
 31
0.0
  0
LINE
  5
77A
330
773
100
AcDbEntity
  8
CSLAYER2
  6
CONTINUOUS
 62
     3
100
AcDbLine
 10
126.652777
 20
53.068418
 30
0.0
 11
126.400603
 21
53.083184
 31
0.0
  0
LINE
  5
77B
330
773
100
AcDbEntity
  8
CSLAYER2
  6
CONTINUOUS
 62
     3
100
AcDbLine
 10
126.400603
 20
53.083184
 30
0.0
 11
126.156317
 21
53.101972
 31
0.0
  0
LINE
  5
77C
330
773
100
AcDbEntity
  8
CSLAYER2
  6
CONTINUOUS
 62
     3
100
AcDbLine
 10
126.156317
 20
53.101972
 30
0.0
 11
125.921781
 21
53.124644
 31
0.0
  0
LINE
  5
77D
330
773
100
AcDbEntity
  8
CSLAYER2
  6
CONTINUOUS
 62
     3
100
AcDbLine
 10
125.921781
 20
53.124644
 30
0.0
 11
125.698777
 21
53.151026
 31
0.0
  0
LINE
  5
77E
330
773
100
AcDbEntity
  8
CSLAYER2
  6
CONTINUOUS
 62
     3
100
AcDbLine
 10
125.698777
 20
53.151026
 30
0.0
 11
125.489005
 21
53.180916
 31
0.0
  0
LINE
  5
77F
330
773
100
AcDbEntity
  8
CSLAYER2
  6
CONTINUOUS
 62
     3
100
AcDbLine
 10
125.489005
 20
53.180916
 30
0.0
 11
125.294061
 21
53.214088
 31
0.0
  0
LINE
  5
780
330
773
100
AcDbEntity
  8
CSLAYER2
  6
CONTINUOUS
 62
     3
100
AcDbLine
 10
125.294061
 20
53.214088
 30
0.0
 11
125.115427
 21
53.250288
 31
0.0
  0
LINE
  5
781
330
773
100
AcDbEntity
  8
CSLAYER2
  6
CONTINUOUS
 62
     3
100
AcDbLine
 10
125.115427
 20
53.250288
 30
0.0
 11
124.954463
 21
53.289242
 31
0.0
  0
LINE
  5
782
330
773
100
AcDbEntity
  8
CSLAYER2
  6
CONTINUOUS
 62
     3
100
AcDbLine
 10
124.954463
 20
53.289242
 30
0.0
 11
124.812393
 21
53.330652
 31
0.0
  0
LINE
  5
783
330
773
100
AcDbEntity
  8
CSLAYER2
  6
CONTINUOUS
 62
     3
100
AcDbLine
 10
124.812393
 20
53.330652
 30
0.0
 11
124.690301
 21
53.374204
 31
0.0
  0
LINE
  5
784
330
773
100
AcDbEntity
  8
CSLAYER2
  6
CONTINUOUS
 62
     3
100
AcDbLine
 10
124.690301
 20
53.374204
 30
0.0
 11
124.589115
 21
53.419568
 31
0.0
  0
LINE
  5
785
330
773
100
AcDbEntity
  8
CSLAYER2
  6
CONTINUOUS
 62
     3
100
AcDbLine
 10
124.589115
 20
53.419568
 30
0.0
 11
124.509605
 21
53.466394
 31
0.0
  0
LINE
  5
786
330
773
100
AcDbEntity
  8
CSLAYER2
  6
CONTINUOUS
 62
     3
100
AcDbLine
 10
124.509605
 20
53.466394
 30
0.0
 11
124.452375
 21
53.51433
 31
0.0
  0
LINE
  5
787
330
773
100
AcDbEntity
  8
CSLAYER2
  6
CONTINUOUS
 62
     3
100
AcDbLine
 10
124.452375
 20
53.51433
 30
0.0
 11
124.417863
 21
53.56301
 31
0.0
  0
LINE
  5
788
330
773
100
AcDbEntity
  8
CSLAYER2
  6
CONTINUOUS
 62
     3
100
AcDbLine
 10
124.417863
 20
53.56301
 30
0.0
 11
124.406329
 21
53.612064
 31
0.0
  0
ENDBLK
  5
775
330
773
100
AcDbEntity
  8
0
100
AcDbBlockEnd
  0
BLOCK
  5
7B2
330
7B1
100
AcDbEntity
  8
0
100
AcDbBlockBegin
  2
BLKF051
 70
     0
 71
     0
 10
0.0
 20
0.0
 30
0.0
  3
BLKF051
  1

  0
LINE
  5
7B5
330
7B1
100
AcDbEntity
  8
CSLAYER2
  6
CONTINUOUS
 62
     3
100
AcDbLine
 10
129.407117
 20
93.74145
 30
0.0
 11
129.538809
 21
93.739308
 31
0.0
  0
LINE
  5
7B6
330
7B1
100
AcDbEntity
  8
CSLAYER2
  6
CONTINUOUS
 62
     3
100
AcDbLine
 10
129.538809
 20
93.739308
 30
0.0
 11
129.669499
 21
93.732898
 31
0.0
  0
LINE
  5
7B7
330
7B1
100
AcDbEntity
  8
CSLAYER2
  6
CONTINUOUS
 62
     3
100
AcDbLine
 10
129.669499
 20
93.732898
 30
0.0
 11
129.798191
 21
93.722272
 31
0.0
  0
LINE
  5
7B8
330
7B1
100
AcDbEntity
  8
CSLAYER2
  6
CONTINUOUS
 62
     3
100
AcDbLine
 10
129.798191
 20
93.722272
 30
0.0
 11
129.923907
 21
93.707506
 31
0.0
  0
LINE
  5
7B9
330
7B1
100
AcDbEntity
  8
CSLAYER2
  6
CONTINUOUS
 62
     3
100
AcDbLine
 10
129.923907
 20
93.707506
 30
0.0
 11
130.045691
 21
93.688716
 31
0.0
  0
LINE
  5
7BA
330
7B1
100
AcDbEntity
  8
CSLAYER2
  6
CONTINUOUS
 62
     3
100
AcDbLine
 10
130.045691
 20
93.688716
 30
0.0
 11
130.162613
 21
93.666046
 31
0.0
  0
LINE
  5
7BB
330
7B1
100
AcDbEntity
  8
CSLAYER2
  6
CONTINUOUS
 62
     3
100
AcDbLine
 10
130.162613
 20
93.666046
 30
0.0
 11
130.273787
 21
93.639664
 31
0.0
  0
LINE
  5
7BC
330
7B1
100
AcDbEntity
  8
CSLAYER2
  6
CONTINUOUS
 62
     3
100
AcDbLine
 10
130.273787
 20
93.639664
 30
0.0
 11
130.378365
 21
93.609774
 31
0.0
  0
LINE
  5
7BD
330
7B1
100
AcDbEntity
  8
CSLAYER2
  6
CONTINUOUS
 62
     3
100
AcDbLine
 10
130.378365
 20
93.609774
 30
0.0
 11
130.475551
 21
93.576602
 31
0.0
  0
LINE
  5
7BE
330
7B1
100
AcDbEntity
  8
CSLAYER2
  6
CONTINUOUS
 62
     3
100
AcDbLine
 10
130.475551
 20
93.576602
 30
0.0
 11
130.564605
 21
93.540402
 31
0.0
  0
LINE
  5
7BF
330
7B1
100
AcDbEntity
  8
CSLAYER2
  6
CONTINUOUS
 62
     3
100
AcDbLine
 10
130.564605
 20
93.540402
 30
0.0
 11
130.644849
 21
93.501448
 31
0.0
  0
LINE
  5
7C0
330
7B1
100
AcDbEntity
  8
CSLAYER2
  6
CONTINUOUS
 62
     3
100
AcDbLine
 10
130.644849
 20
93.501448
 30
0.0
 11
130.715675
 21
93.460036
 31
0.0
  0
LINE
  5
7C1
330
7B1
100
AcDbEntity
  8
CSLAYER2
  6
CONTINUOUS
 62
     3
100
AcDbLine
 10
130.715675
 20
93.460036
 30
0.0
 11
130.776541
 21
93.416484
 31
0.0
  0
LINE
  5
7C2
330
7B1
100
AcDbEntity
  8
CSLAYER2
  6
CONTINUOUS
 62
     3
100
AcDbLine
 10
130.776541
 20
93.416484
 30
0.0
 11
130.826985
 21
93.371122
 31
0.0
  0
LINE
  5
7C3
330
7B1
100
AcDbEntity
  8
CSLAYER2
  6
CONTINUOUS
 62
     3
100
AcDbLine
 10
130.826985
 20
93.371122
 30
0.0
 11
130.866623
 21
93.324294
 31
0.0
  0
LINE
  5
7C4
330
7B1
100
AcDbEntity
  8
CSLAYER2
  6
CONTINUOUS
 62
     3
100
AcDbLine
 10
130.866623
 20
93.324294
 30
0.0
 11
130.895153
 21
93.276358
 31
0.0
  0
LINE
  5
7C5
330
7B1
100
AcDbEntity
  8
CSLAYER2
  6
CONTINUOUS
 62
     3
100
AcDbLine
 10
130.895153
 20
93.276358
 30
0.0
 11
130.912359
 21
93.227678
 31
0.0
  0
ENDBLK
  5
7B3
330
7B1
100
AcDbEntity
  8
0
100
AcDbBlockEnd
  0
BLOCK
  5
7CB
330
7CA
100
AcDbEntity
  8
0
100
AcDbBlockBegin
  2
BLKF052
 70
     0
 71
     0
 10
0.0
 20
0.0
 30
0.0
  3
BLKF052
  1

  0
LINE
  5
7CE
330
7CA
100
AcDbEntity
  8
CSLAYER2
  6
CONTINUOUS
 62
     3
100
AcDbLine
 10
127.437233
 20
58.79005
 30
0.0
 11
127.701393
 21
58.787908
 31
0.0
  0
LINE
  5
7CF
330
7CA
100
AcDbEntity
  8
CSLAYER2
  6
CONTINUOUS
 62
     3
100
AcDbLine
 10
127.701393
 20
58.787908
 30
0.0
 11
127.963543
 21
58.781498
 31
0.0
  0
LINE
  5
7D0
330
7CA
100
AcDbEntity
  8
CSLAYER2
  6
CONTINUOUS
 62
     3
100
AcDbLine
 10
127.963543
 20
58.781498
 30
0.0
 11
128.221687
 21
58.770872
 31
0.0
  0
LINE
  5
7D1
330
7CA
100
AcDbEntity
  8
CSLAYER2
  6
CONTINUOUS
 62
     3
100
AcDbLine
 10
128.221687
 20
58.770872
 30
0.0
 11
128.473861
 21
58.756108
 31
0.0
  0
LINE
  5
7D2
330
7CA
100
AcDbEntity
  8
CSLAYER2
  6
CONTINUOUS
 62
     3
100
AcDbLine
 10
128.473861
 20
58.756108
 30
0.0
 11
128.718147
 21
58.737318
 31
0.0
  0
LINE
  5
7D3
330
7CA
100
AcDbEntity
  8
CSLAYER2
  6
CONTINUOUS
 62
     3
100
AcDbLine
 10
128.718147
 20
58.737318
 30
0.0
 11
128.952683
 21
58.714646
 31
0.0
  0
LINE
  5
7D4
330
7CA
100
AcDbEntity
  8
CSLAYER2
  6
CONTINUOUS
 62
     3
100
AcDbLine
 10
128.952683
 20
58.714646
 30
0.0
 11
129.175687
 21
58.688264
 31
0.0
  0
LINE
  5
7D5
330
7CA
100
AcDbEntity
  8
CSLAYER2
  6
CONTINUOUS
 62
     3
100
AcDbLine
 10
129.175687
 20
58.688264
 30
0.0
 11
129.385459
 21
58.658374
 31
0.0
  0
LINE
  5
7D6
330
7CA
100
AcDbEntity
  8
CSLAYER2
  6
CONTINUOUS
 62
     3
100
AcDbLine
 10
129.385459
 20
58.658374
 30
0.0
 11
129.580403
 21
58.625202
 31
0.0
  0
LINE
  5
7D7
330
7CA
100
AcDbEntity
  8
CSLAYER2
  6
CONTINUOUS
 62
     3
100
AcDbLine
 10
129.580403
 20
58.625202
 30
0.0
 11
129.759039
 21
58.589002
 31
0.0
  0
LINE
  5
7D8
330
7CA
100
AcDbEntity
  8
CSLAYER2
  6
CONTINUOUS
 62
     3
100
AcDbLine
 10
129.759039
 20
58.589002
 30
0.0
 11
129.920003
 21
58.550048
 31
0.0
  0
LINE
  5
7D9
330
7CA
100
AcDbEntity
  8
CSLAYER2
  6
CONTINUOUS
 62
     3
100
AcDbLine
 10
129.920003
 20
58.550048
 30
0.0
 11
130.062071
 21
58.508638
 31
0.0
  0
LINE
  5
7DA
330
7CA
100
AcDbEntity
  8
CSLAYER2
  6
CONTINUOUS
 62
     3
100
AcDbLine
 10
130.062071
 20
58.508638
 30
0.0
 11
130.184163
 21
58.465086
 31
0.0
  0
LINE
  5
7DB
330
7CA
100
AcDbEntity
  8
CSLAYER2
  6
CONTINUOUS
 62
     3
100
AcDbLine
 10
130.184163
 20
58.465086
 30
0.0
 11
130.285349
 21
58.419724
 31
0.0
  0
LINE
  5
7DC
330
7CA
100
AcDbEntity
  8
CSLAYER2
  6
CONTINUOUS
 62
     3
100
AcDbLine
 10
130.285349
 20
58.419724
 30
0.0
 11
130.364859
 21
58.372896
 31
0.0
  0
LINE
  5
7DD
330
7CA
100
AcDbEntity
  8
CSLAYER2
  6
CONTINUOUS
 62
     3
100
AcDbLine
 10
130.364859
 20
58.372896
 30
0.0
 11
130.422089
 21
58.32496
 31
0.0
  0
LINE
  5
7DE
330
7CA
100
AcDbEntity
  8
CSLAYER2
  6
CONTINUOUS
 62
     3
100
AcDbLine
 10
130.422089
 20
58.32496
 30
0.0
 11
130.456601
 21
58.27628
 31
0.0
  0
LINE
  5
7DF
330
7CA
100
AcDbEntity
  8
CSLAYER2
  6
CONTINUOUS
 62
     3
100
AcDbLine
 10
130.456601
 20
58.27628
 30
0.0
 11
130.468135
 21
58.227226
 31
0.0
  0
ENDBLK
  5
7CC
330
7CA
100
AcDbEntity
  8
0
100
AcDbBlockEnd
  0
BLOCK
  5
7E1
330
7E0
100
AcDbEntity
  8
0
100
AcDbBlockBegin
  2
BLKF053
 70
     0
 71
     0
 10
0.0
 20
0.0
 30
0.0
  3
BLKF053
  1

  0
LINE
  5
7E4
330
7E0
100
AcDbEntity
  8
CSLAYER2
  6
CONTINUOUS
 62
     3
100
AcDbLine
 10
130.468135
 20
53.612064
 30
0.0
 11
130.456601
 21
53.56301
 31
0.0
  0
LINE
  5
7E5
330
7E0
100
AcDbEntity
  8
CSLAYER2
  6
CONTINUOUS
 62
     3
100
AcDbLine
 10
130.456601
 20
53.56301
 30
0.0
 11
130.422089
 21
53.51433
 31
0.0
  0
LINE
  5
7E6
330
7E0
100
AcDbEntity
  8
CSLAYER2
  6
CONTINUOUS
 62
     3
100
AcDbLine
 10
130.422089
 20
53.51433
 30
0.0
 11
130.364859
 21
53.466394
 31
0.0
  0
LINE
  5
7E7
330
7E0
100
AcDbEntity
  8
CSLAYER2
  6
CONTINUOUS
 62
     3
100
AcDbLine
 10
130.364859
 20
53.466394
 30
0.0
 11
130.285349
 21
53.419568
 31
0.0
  0
LINE
  5
7E8
330
7E0
100
AcDbEntity
  8
CSLAYER2
  6
CONTINUOUS
 62
     3
100
AcDbLine
 10
130.285349
 20
53.419568
 30
0.0
 11
130.184163
 21
53.374204
 31
0.0
  0
LINE
  5
7E9
330
7E0
100
AcDbEntity
  8
CSLAYER2
  6
CONTINUOUS
 62
     3
100
AcDbLine
 10
130.184163
 20
53.374204
 30
0.0
 11
130.062071
 21
53.330652
 31
0.0
  0
LINE
  5
7EA
330
7E0
100
AcDbEntity
  8
CSLAYER2
  6
CONTINUOUS
 62
     3
100
AcDbLine
 10
130.062071
 20
53.330652
 30
0.0
 11
129.920003
 21
53.289242
 31
0.0
  0
LINE
  5
7EB
330
7E0
100
AcDbEntity
  8
CSLAYER2
  6
CONTINUOUS
 62
     3
100
AcDbLine
 10
129.920003
 20
53.289242
 30
0.0
 11
129.759039
 21
53.250288
 31
0.0
  0
LINE
  5
7EC
330
7E0
100
AcDbEntity
  8
CSLAYER2
  6
CONTINUOUS
 62
     3
100
AcDbLine
 10
129.759039
 20
53.250288
 30
0.0
 11
129.580403
 21
53.214088
 31
0.0
  0
LINE
  5
7ED
330
7E0
100
AcDbEntity
  8
CSLAYER2
  6
CONTINUOUS
 62
     3
100
AcDbLine
 10
129.580403
 20
53.214088
 30
0.0
 11
129.385459
 21
53.180916
 31
0.0
  0
LINE
  5
7EE
330
7E0
100
AcDbEntity
  8
CSLAYER2
  6
CONTINUOUS
 62
     3
100
AcDbLine
 10
129.385459
 20
53.180916
 30
0.0
 11
129.175687
 21
53.151026
 31
0.0
  0
LINE
  5
7EF
330
7E0
100
AcDbEntity
  8
CSLAYER2
  6
CONTINUOUS
 62
     3
100
AcDbLine
 10
129.175687
 20
53.151026
 30
0.0
 11
128.952683
 21
53.124644
 31
0.0
  0
LINE
  5
7F0
330
7E0
100
AcDbEntity
  8
CSLAYER2
  6
CONTINUOUS
 62
     3
100
AcDbLine
 10
128.952683
 20
53.124644
 30
0.0
 11
128.718147
 21
53.101972
 31
0.0
  0
LINE
  5
7F1
330
7E0
100
AcDbEntity
  8
CSLAYER2
  6
CONTINUOUS
 62
     3
100
AcDbLine
 10
128.718147
 20
53.101972
 30
0.0
 11
128.473861
 21
53.083184
 31
0.0
  0
LINE
  5
7F2
330
7E0
100
AcDbEntity
  8
CSLAYER2
  6
CONTINUOUS
 62
     3
100
AcDbLine
 10
128.473861
 20
53.083184
 30
0.0
 11
128.221687
 21
53.068418
 31
0.0
  0
LINE
  5
7F3
330
7E0
100
AcDbEntity
  8
CSLAYER2
  6
CONTINUOUS
 62
     3
100
AcDbLine
 10
128.221687
 20
53.068418
 30
0.0
 11
127.963543
 21
53.057792
 31
0.0
  0
LINE
  5
7F4
330
7E0
100
AcDbEntity
  8
CSLAYER2
  6
CONTINUOUS
 62
     3
100
AcDbLine
 10
127.963543
 20
53.057792
 30
0.0
 11
127.701393
 21
53.051382
 31
0.0
  0
LINE
  5
7F5
330
7E0
100
AcDbEntity
  8
CSLAYER2
  6
CONTINUOUS
 62
     3
100
AcDbLine
 10
127.701393
 20
53.051382
 30
0.0
 11
127.437233
 21
53.04924
 31
0.0
  0
ENDBLK
  5
7E2
330
7E0
100
AcDbEntity
  8
0
100
AcDbBlockEnd
  0
BLOCK
  5
81F
330
81E
100
AcDbEntity
  8
0
100
AcDbBlockBegin
  2
*D52
 70
     1
 71
     0
 10
0.0
 20
0.0
 30
0.0
  3
*D52
  1

  0
LINE
  5
821
330
81E
100
AcDbEntity
  8
0
  6
CONTINUOUS
 62
     7
100
AcDbLine
 10
-37.9202
 20
215.597755
 30
0.0
 11
-37.9202
 21
228.899754
 31
0.0
  0
LINE
  5
822
330
81E
100
AcDbEntity
  8
0
  6
CONTINUOUS
 62
     7
100
AcDbLine
 10
157.279796
 20
215.262747
 30
0.0
 11
157.279796
 21
228.899754
 31
0.0
  0
LINE
  5
823
330
81E
100
AcDbEntity
  8
0
  6
CONTINUOUS
 62
     7
100
AcDbLine
 10
-37.9202
 20
227.899754
 30
0.0
 11
157.279796
 21
227.899754
 31
0.0
  0
INSERT
  5
824
330
81E
100
AcDbEntity
  8
0
  6
CONTINUOUS
 62
     7
100
AcDbBlockReference
  2
EDTIP_ARROW_S
 10
-37.9202
 20
227.899754
 30
0.0
 41
3.0
 42
3.0
 50
180.0
  0
INSERT
  5
825
330
81E
100
AcDbEntity
  8
0
  6
CONTINUOUS
 62
     7
100
AcDbBlockReference
  2
EDTIP_ARROW_E
 10
157.279796
 20
227.899754
 30
0.0
 41
3.0
 42
3.0
  0
TEXT
  5
826
330
81E
100
AcDbEntity
  8
0
 62
     7
100
AcDbText
 10
52.179794
 20
228.899765
 30
0.0
 40
4.0
  1
195.2
 41
0.905172
  7
ED_VECTOR
 72
     5
 11
67.179794
 21
228.899765
 31
0.0
100
AcDbText
  0
ENDBLK
  5
820
330
81E
100
AcDbEntity
  8
0
100
AcDbBlockEnd
  0
BLOCK
  5
829
330
828
100
AcDbEntity
  8
0
100
AcDbBlockBegin
  2
*D53
 70
     1
 71
     0
 10
0.0
 20
0.0
 30
0.0
  3
*D53
  1

  0
LINE
  5
82B
330
828
100
AcDbEntity
  8
0
  6
CONTINUOUS
 62
     7
100
AcDbLine
 10
152.722304
 20
160.962755
 30
0.0
 11
175.846594
 21
160.962755
 31
0.0
  0
LINE
  5
82C
330
828
100
AcDbEntity
  8
0
  6
CONTINUOUS
 62
     7
100
AcDbLine
 10
157.779796
 20
174.862751
 30
0.0
 11
175.846594
 21
174.862751
 31
0.0
  0
LINE
  5
82D
330
828
100
AcDbEntity
  8
0
  6
CONTINUOUS
 62
     7
100
AcDbLine
 10
174.846594
 20
160.962755
 30
0.0
 11
174.846594
 21
174.862751
 31
0.0
  0
LINE
  5
82E
330
828
100
AcDbEntity
  8
0
  6
CONTINUOUS
 62
     7
100
AcDbLine
 10
174.846594
 20
142.962755
 30
0.0
 11
174.846594
 21
160.962755
 31
0.0
  0
INSERT
  5
82F
330
828
100
AcDbEntity
  8
0
  6
CONTINUOUS
 62
     7
100
AcDbBlockReference
  2
EDTIP_ARROW_E
 10
174.846594
 20
160.962755
 30
0.0
 41
3.0
 42
3.0
 50
90.0
  0
LINE
  5
830
330
828
100
AcDbEntity
  8
0
  6
CONTINUOUS
 62
     7
100
AcDbLine
 10
174.846594
 20
174.862751
 30
0.0
 11
174.846594
 21
179.862751
 31
0.0
  0
INSERT
  5
831
330
828
100
AcDbEntity
  8
0
  6
CONTINUOUS
 62
     7
100
AcDbBlockReference
  2
EDTIP_ARROW_S
 10
174.846594
 20
174.862751
 30
0.0
 41
3.0
 42
3.0
 50
270.0
  0
TEXT
  5
832
330
828
100
AcDbEntity
  8
0
 62
     7
100
AcDbText
 10
173.846588
 20
141.462753
 30
0.0
 40
4.0
  1
(14.4)
 50
90.0
 41
1.005319
  7
ED_VECTOR
 72
     5
 11
173.846588
 21
159.462753
 31
0.0
100
AcDbText
  0
ENDBLK
  5
82A
330
828
100
AcDbEntity
  8
0
100
AcDbBlockEnd
  0
BLOCK
  5
835
330
834
100
AcDbEntity
  8
0
100
AcDbBlockBegin
  2
*D54
 70
     1
 71
     0
 10
0.0
 20
0.0
 30
0.0
  3
*D54
  1

  0
LINE
  5
837
330
834
100
AcDbEntity
  8
0
  6
CONTINUOUS
 62
     7
100
AcDbLine
 10
164.072365
 20
37.46202
 30
0.0
 11
184.966795
 21
37.46202
 31
0.0
  0
LINE
  5
838
330
834
100
AcDbEntity
  8
0
  6
CONTINUOUS
 62
     7
100
AcDbLine
 10
157.779796
 20
174.862751
 30
0.0
 11
184.966795
 21
174.862751
 31
0.0
  0
LINE
  5
839
330
834
100
AcDbEntity
  8
0
  6
CONTINUOUS
 62
     7
100
AcDbLine
 10
183.966795
 20
37.46202
 30
0.0
 11
183.966795
 21
174.862751
 31
0.0
  0
INSERT
  5
83A
330
834
100
AcDbEntity
  8
0
  6
CONTINUOUS
 62
     7
100
AcDbBlockReference
  2
EDTIP_ARROW_S
 10
183.966795
 20
37.46202
 30
0.0
 41
3.0
 42
3.0
 50
270.0
  0
INSERT
  5
83B
330
834
100
AcDbEntity
  8
0
  6
CONTINUOUS
 62
     7
100
AcDbBlockReference
  2
EDTIP_ARROW_E
 10
183.966795
 20
174.862751
 30
0.0
 41
3.0
 42
3.0
 50
90.0
  0
TEXT
  5
83C
330
834
100
AcDbEntity
  8
0
 62
     7
100
AcDbText
 10
182.966782
 20
97.162392
 30
0.0
 40
4.0
  1
(2000)
 50
90.0
 41
0.908654
  7
ED_VECTOR
 72
     5
 11
182.966782
 21
115.162392
 31
0.0
100
AcDbText
  0
ENDBLK
  5
836
330
834
100
AcDbEntity
  8
0
100
AcDbBlockEnd
  0
BLOCK
  5
83F
330
83E
100
AcDbEntity
  8
0
100
AcDbBlockBegin
  2
*D55
 70
     1
 71
     0
 10
0.0
 20
0.0
 30
0.0
  3
*D55
  1

  0
LINE
  5
841
330
83E
100
AcDbEntity
  8
0
  6
CONTINUOUS
 62
     7
100
AcDbLine
 10
-38.720196
 20
174.827749
 30
0.0
 11
-49.986429
 21
174.827749
 31
0.0
  0
LINE
  5
842
330
83E
100
AcDbEntity
  8
0
  6
CONTINUOUS
 62
     7
100
AcDbLine
 10
-38.720196
 20
214.797743
 30
0.0
 11
-49.986429
 21
214.797743
 31
0.0
  0
LINE
  5
843
330
83E
100
AcDbEntity
  8
0
  6
CONTINUOUS
 62
     7
100
AcDbLine
 10
-48.986429
 20
174.827749
 30
0.0
 11
-48.986429
 21
214.797743
 31
0.0
  0
INSERT
  5
844
330
83E
100
AcDbEntity
  8
0
  6
CONTINUOUS
 62
     7
100
AcDbBlockReference
  2
EDTIP_ARROW_S
 10
-48.986429
 20
174.827749
 30
0.0
 41
3.0
 42
3.0
 50
270.0
  0
INSERT
  5
845
330
83E
100
AcDbEntity
  8
0
  6
CONTINUOUS
 62
     7
100
AcDbBlockReference
  2
EDTIP_ARROW_E
 10
-48.986429
 20
214.797743
 30
0.0
 41
3.0
 42
3.0
 50
90.0
  0
TEXT
  5
846
330
83E
100
AcDbEntity
  8
0
 62
     7
100
AcDbText
 10
-49.986431
 20
186.562759
 30
0.0
 40
4.0
  1
%%c40
 50
90.0
 41
0.84375
  7
ED_VECTOR
 72
     5
 11
-49.986431
 21
195.562759
 31
0.0
100
AcDbText
  0
TEXT
  5
847
330
83E
100
AcDbEntity
  8
0
 62
     7
100
AcDbText
 10
-51.986431
 20
195.562759
 30
0.0
 40
2.0
  1
 0
 50
90.0
 41
0.828947
  7
ED_VECTOR
 72
     5
 11
-51.986431
 21
198.562759
 31
0.0
100
AcDbText
  0
TEXT
  5
848
330
83E
100
AcDbEntity
  8
0
 62
     7
100
AcDbText
 10
-49.986431
 20
195.562759
 30
0.0
 40
2.0
  1
-0.01
 50
90.0
 41
0.905172
  7
ED_VECTOR
 72
     5
 11
-49.986431
 21
203.062759
 31
0.0
100
AcDbText
  0
ENDBLK
  5
840
330
83E
100
AcDbEntity
  8
0
100
AcDbBlockEnd
  0
ENDSEC
  0
SECTION
  2
ENTITIES
  0
LINE
  5
6F
330
1F
100
AcDbEntity
  8
CSLAYER3
  6
CONTINUOUS
 62
     3
100
AcDbLine
 10
156.775598
 20
214.753253
 30
0.0
 11
123.479796
 21
214.753253
 31
0.0
  0
TEXT
  5
70
330
1F
100
AcDbEntity
  8
CSLAYER3
 62
     3
100
AcDbText
 10
55.573288
 20
20.0
 30
0.0
 40
3.5
  1
EM-4020A EM-4040A
 41
0.705932
  7
ED_VECTOR
 72
     5
 11
97.223289
 21
20.0
 31
0.0
100
AcDbText
  0
LINE
  5
71
330
1F
100
AcDbEntity
  8
0
  6
CONTINUOUS
 62
     3
100
AcDbLine
 10
123.079794
 20
174.912745
 30
0.0
 11
113.479796
 21
174.912745
 31
0.0
  0
LINE
  5
72
330
1F
100
AcDbEntity
  8
0
  6
CONTINUOUS
 62
     3
100
AcDbLine
 10
122.52659
 20
214.712747
 30
0.0
 11
123.079794
 21
214.712747
 31
0.0
  0
LINE
  5
73
330
1F
100
AcDbEntity
  8
0
  6
CONTINUOUS
 62
     3
100
AcDbLine
 10
113.479796
 20
214.712747
 30
0.0
 11
122.030236
 21
214.712747
 31
0.0
  0
LINE
  5
74
330
1F
100
AcDbEntity
  8
0
  6
CONTINUOUS
 62
     3
100
AcDbLine
 10
113.479796
 20
174.912745
 30
0.0
 11
113.279796
 21
175.112747
 31
0.0
  0
LINE
  5
75
330
1F
100
AcDbEntity
  8
0
  6
CONTINUOUS
 62
     3
100
AcDbLine
 10
113.279796
 20
214.512745
 30
0.0
 11
113.479796
 21
214.712747
 31
0.0
  0
LINE
  5
76
330
1F
100
AcDbEntity
  8
0
  6
CONTINUOUS
 62
     3
100
AcDbLine
 10
123.079794
 20
214.712747
 30
0.0
 11
123.279794
 21
214.512745
 31
0.0
  0
LINE
  5
77
330
1F
100
AcDbEntity
  8
0
  6
CONTINUOUS
 62
     3
100
AcDbLine
 10
123.279794
 20
175.112747
 30
0.0
 11
123.079794
 21
174.912745
 31
0.0
  0
LINE
  5
78
330
1F
100
AcDbEntity
  8
0
  6
CONTINUOUS
 62
     3
100
AcDbLine
 10
156.779796
 20
214.762755
 30
0.0
 11
157.279796
 21
214.262747
 31
0.0
  0
LINE
  5
79
330
1F
100
AcDbEntity
  8
0
  6
CONTINUOUS
 62
     3
100
AcDbLine
 10
123.279794
 20
214.562753
 30
0.0
 11
123.479794
 21
214.762755
 31
0.0
  0
LINE
  5
7A
330
1F
100
AcDbEntity
  8
0
  6
CONTINUOUS
 62
     3
100
AcDbLine
 10
-12.824902
 20
174.812757
 30
0.0
 11
-13.92021
 21
174.812757
 31
0.0
  0
LINE
  5
7B
330
1F
100
AcDbEntity
  8
0
  6
CONTINUOUS
 62
     3
100
AcDbLine
 10
-0.743412
 20
174.812757
 30
0.0
 11
-7.015504
 21
174.812757
 31
0.0
  0
LINE
  5
7C
330
1F
100
AcDbEntity
  8
0
  6
CONTINUOUS
 62
     3
100
AcDbLine
 10
104.279796
 20
174.812757
 30
0.0
 11
2.603002
 21
174.812757
 31
0.0
  0
LINE
  5
7D
330
1F
100
AcDbEntity
  8
0
  6
CONTINUOUS
 62
     3
100
AcDbLine
 10
-7.015504
 20
214.812749
 30
0.0
 11
104.279796
 21
214.812749
 31
0.0
  0
LINE
  5
7E
330
1F
100
AcDbEntity
  8
0
  6
CONTINUOUS
 62
     3
100
AcDbLine
 10
-13.92021
 20
214.812749
 30
0.0
 11
-12.824902
 21
214.812749
 31
0.0
  0
LINE
  5
7F
330
1F
100
AcDbEntity
  8
0
  6
CONTINUOUS
 62
     3
100
AcDbLine
 10
113.279796
 20
174.827749
 30
0.0
 11
104.279796
 21
174.827749
 31
0.0
  0
LINE
  5
80
330
1F
100
AcDbEntity
  8
0
  6
CONTINUOUS
 62
     3
100
AcDbLine
 10
104.279796
 20
214.797743
 30
0.0
 11
113.279796
 21
214.797743
 31
0.0
  0
LINE
  5
81
330
1F
100
AcDbEntity
  8
0
  6
CONTINUOUS
 62
     3
100
AcDbLine
 10
-37.720196
 20
174.827749
 30
0.0
 11
-37.9202
 21
175.027751
 31
0.0
  0
LINE
  5
82
330
1F
100
AcDbEntity
  8
0
  6
CONTINUOUS
 62
     3
100
AcDbLine
 10
-37.9202
 20
214.597755
 30
0.0
 11
-37.720196
 21
214.797743
 31
0.0
  0
LINE
  5
83
330
1F
100
AcDbEntity
  8
0
  6
CONTINUOUS
 62
     3
100
AcDbLine
 10
-13.92021
 20
174.827749
 30
0.0
 11
-37.720196
 21
174.827749
 31
0.0
  0
LINE
  5
84
330
1F
100
AcDbEntity
  8
0
  6
CONTINUOUS
 62
     3
100
AcDbLine
 10
-37.720196
 20
214.797743
 30
0.0
 11
-13.92021
 21
214.797743
 31
0.0
  0
LINE
  5
85
330
1F
100
AcDbEntity
  8
0
  6
CONTINUOUS
 62
     3
100
AcDbLine
 10
139.279798
 20
169.902751
 30
0.0
 11
139.279798
 21
162.062757
 31
0.0
  0
LINE
  5
86
330
1F
100
AcDbEntity
  8
0
  6
CONTINUOUS
 62
     3
100
AcDbLine
 10
129.2798
 20
162.062757
 30
0.0
 11
129.2798
 21
169.902751
 31
0.0
  0
LINE
  5
87
330
1F
100
AcDbEntity
  8
0
  6
CONTINUOUS
 62
     3
100
AcDbLine
 10
139.179796
 20
161.062755
 30
0.0
 11
139.179796
 21
160.062753
 31
0.0
  0
LINE
  5
88
330
1F
100
AcDbEntity
  8
0
  6
CONTINUOUS
 62
     3
100
AcDbLine
 10
129.379794
 20
160.062753
 30
0.0
 11
129.379794
 21
161.062755
 31
0.0
  0
LINE
  5
89
330
1F
100
AcDbEntity
  8
0
  6
CONTINUOUS
 62
     3
100
AcDbLine
 10
139.179796
 20
162.062757
 30
0.0
 11
139.179796
 21
161.562749
 31
0.0
  0
LINE
  5
8A
330
1F
100
AcDbEntity
  8
0
  6
CONTINUOUS
 62
     3
100
AcDbLine
 10
129.379794
 20
161.562749
 30
0.0
 11
129.379794
 21
162.062757
 31
0.0
  0
LINE
  5
8B
330
1F
100
AcDbEntity
  8
0
  6
CONTINUOUS
 62
     3
100
AcDbLine
 10
138.779796
 20
174.862751
 30
0.0
 11
138.779796
 21
169.902751
 31
0.0
  0
LINE
  5
8C
330
1F
100
AcDbEntity
  8
0
  6
CONTINUOUS
 62
     3
100
AcDbLine
 10
129.779792
 20
169.902751
 30
0.0
 11
129.779792
 21
174.862751
 31
0.0
  0
LINE
  5
8D
330
1F
100
AcDbEntity
  8
0
  6
CONTINUOUS
 62
     3
100
AcDbLine
 10
137.879796
 20
161.562749
 30
0.0
 11
137.879796
 21
161.062755
 31
0.0
  0
LINE
  5
8E
330
1F
100
AcDbEntity
  8
0
  6
CONTINUOUS
 62
     3
100
AcDbLine
 10
130.679792
 20
161.062755
 30
0.0
 11
130.679792
 21
161.562749
 31
0.0
  0
LINE
  5
8F
330
1F
100
AcDbEntity
  8
0
  6
CONTINUOUS
 62
     3
100
AcDbLine
 10
143.479794
 20
136.530333
 30
0.0
 11
143.479794
 21
160.962755
 31
0.0
  0
LINE
  5
90
330
1F
100
AcDbEntity
  8
0
  6
CONTINUOUS
 62
     3
100
AcDbLine
 10
139.179796
 20
135.000654
 30
0.0
 11
139.179796
 21
160.062753
 31
0.0
  0
LINE
  5
91
330
1F
100
AcDbEntity
  8
0
  6
CONTINUOUS
 62
     3
100
AcDbLine
 10
153.179794
 20
166.962751
 30
0.0
 11
153.379798
 21
166.762747
 31
0.0
  0
LINE
  5
92
330
1F
100
AcDbEntity
  8
0
  6
CONTINUOUS
 62
     3
100
AcDbLine
 10
153.379798
 20
166.762747
 30
0.0
 11
153.379798
 21
161.462747
 31
0.0
  0
LINE
  5
93
330
1F
100
AcDbEntity
  8
0
  6
CONTINUOUS
 62
     3
100
AcDbLine
 10
153.179794
 20
174.862751
 30
0.0
 11
153.379798
 21
174.662747
 31
0.0
  0
LINE
  5
94
330
1F
100
AcDbEntity
  8
0
  6
CONTINUOUS
 62
     3
100
AcDbLine
 10
153.379798
 20
174.662747
 30
0.0
 11
153.379798
 21
167.462745
 31
0.0
  0
INSERT
  5
98
330
1F
100
AcDbEntity
  8
0
100
AcDbBlockReference
  2
BLKF011
 10
0.0
 20
0.0
 30
0.0
  0
INSERT
  5
BC
330
1F
100
AcDbEntity
  8
0
100
AcDbBlockReference
  2
BLKF012
 10
0.0
 20
0.0
 30
0.0
  0
LINE
  5
1AE
330
1F
100
AcDbEntity
  8
0
  6
CONTINUOUS
 62
     3
100
AcDbLine
 10
123.279794
 20
175.945589
 30
0.0
 11
123.279794
 21
175.062755
 31
0.0
  0
LINE
  5
1AF
330
1F
100
AcDbEntity
  8
0
  6
CONTINUOUS
 62
     3
100
AcDbLine
 10
123.279794
 20
175.062755
 30
0.0
 11
123.479794
 21
174.862751
 31
0.0
  0
LINE
  5
1B0
330
1F
100
AcDbEntity
  8
0
  6
CONTINUOUS
 62
     3
100
AcDbLine
 10
157.279796
 20
175.362745
 30
0.0
 11
156.779796
 21
174.862751
 31
0.0
  0
LINE
  5
1B1
330
1F
100
AcDbEntity
  8
0
  6
CONTINUOUS
 62
     3
100
AcDbLine
 10
123.479794
 20
174.862751
 30
0.0
 11
156.779796
 21
174.862751
 31
0.0
  0
LINE
  5
1B2
330
1F
100
AcDbEntity
  8
0
  6
CONTINUOUS
 62
     3
100
AcDbLine
 10
157.279796
 20
175.362745
 30
0.0
 11
157.279796
 21
194.812753
 31
0.0
  0
LINE
  5
1B3
330
1F
100
AcDbEntity
  8
0
  6
CONTINUOUS
 62
     3
100
AcDbLine
 10
123.279794
 20
194.812753
 30
0.0
 11
123.279794
 21
175.945589
 31
0.0
  0
LINE
  5
1B4
330
1F
100
AcDbEntity
  8
0
  6
CONTINUOUS
 62
     3
100
AcDbLine
 10
123.479794
 20
194.812753
 30
0.0
 11
123.279794
 21
194.812753
 31
0.0
  0
LINE
  5
1B5
330
1F
100
AcDbEntity
  8
0
  6
CONTINUOUS
 62
     3
100
AcDbLine
 10
157.279796
 20
194.812753
 30
0.0
 11
157.279796
 21
214.262747
 31
0.0
  0
LINE
  5
1B6
330
1F
100
AcDbEntity
  8
0
  6
CONTINUOUS
 62
     3
100
AcDbLine
 10
123.279794
 20
214.562753
 30
0.0
 11
123.279794
 21
194.812753
 31
0.0
  0
INSERT
  5
1BA
330
1F
100
AcDbEntity
  8
0
100
AcDbBlockReference
  2
BLKF013
 10
0.0
 20
0.0
 30
0.0
  0
INSERT
  5
2B6
330
1F
100
AcDbEntity
  8
0
100
AcDbBlockReference
  2
BLKF014
 10
0.0
 20
0.0
 30
0.0
  0
INSERT
  5
2D0
330
1F
100
AcDbEntity
  8
0
100
AcDbBlockReference
  2
BLKF015
 10
0.0
 20
0.0
 30
0.0
  0
ARC
  5
2FC
330
1F
100
AcDbEntity
  8
0
  6
CONTINUOUS
 62
     3
100
AcDbCircle
 10
0.17479
 20
173.862541
 30
0.0
 40
12.38338806254644
100
AcDbArc
 50
163.042762
 51
168.649527
  0
LINE
  5
2FD
330
1F
100
AcDbEntity
  8
0
  6
CONTINUOUS
 62
     3
100
AcDbLine
 10
-11.670202
 20
177.474255
 30
0.0
 11
-8.170204
 21
177.474255
 31
0.0
  0
ARC
  5
2FE
330
1F
100
AcDbEntity
  8
0
  6
CONTINUOUS
 62
     3
100
AcDbCircle
 10
-20.018354
 20
173.861745
 30
0.0
 40
12.38664140360703
100
AcDbArc
 50
11.35121
 51
16.956501
  0
INSERT
  5
302
330
1F
100
AcDbEntity
  8
0
100
AcDbBlockReference
  2
BLKF016
 10
0.0
 20
0.0
 30
0.0
  0
INSERT
  5
309
330
1F
100
AcDbEntity
  8
0
100
AcDbBlockReference
  2
BLKF017
 10
0.0
 20
0.0
 30
0.0
  0
INSERT
  5
310
330
1F
100
AcDbEntity
  8
0
100
AcDbBlockReference
  2
BLKF018
 10
0.0
 20
0.0
 30
0.0
  0
ARC
  5
314
330
1F
100
AcDbEntity
  8
0
  6
CONTINUOUS
 62
     3
100
AcDbCircle
 10
-20.01981
 20
215.764115
 30
0.0
 40
12.38814180390511
100
AcDbArc
 50
343.043839
 51
348.64845
  0
LINE
  5
315
330
1F
100
AcDbEntity
  8
0
  6
CONTINUOUS
 62
     3
100
AcDbLine
 10
-11.670202
 20
212.151237
 30
0.0
 11
-8.170204
 21
212.151237
 31
0.0
  0
ARC
  5
316
330
1F
100
AcDbEntity
  8
0
  6
CONTINUOUS
 62
     3
100
AcDbCircle
 10
0.176244
 20
215.763317
 30
0.0
 40
12.38488673085928
100
AcDbArc
 50
191.350813
 51
196.956898
  0
INSERT
  5
31A
330
1F
100
AcDbEntity
  8
0
100
AcDbBlockReference
  2
BLKF019
 10
0.0
 20
0.0
 30
0.0
  0
LINE
  5
31E
330
1F
100
AcDbEntity
  8
0
  6
CONTINUOUS
 62
     3
100
AcDbLine
 10
-0.743412
 20
174.812757
 30
0.0
 11
-0.724122
 21
174.846151
 31
0.0
  0
LINE
  5
31F
330
1F
100
AcDbEntity
  8
0
  6
CONTINUOUS
 62
     3
100
AcDbLine
 10
-0.724122
 20
174.846151
 30
0.0
 11
-0.570202
 21
175.112747
 31
0.0
  0
LINE
  5
320
330
1F
100
AcDbEntity
  8
0
  6
CONTINUOUS
 62
     3
100
AcDbLine
 10
-0.570202
 20
175.112747
 30
0.0
 11
2.429798
 21
175.112747
 31
0.0
  0
LINE
  5
321
330
1F
100
AcDbEntity
  8
0
  6
CONTINUOUS
 62
     3
100
AcDbLine
 10
2.429798
 20
175.112747
 30
0.0
 11
2.583712
 21
174.846151
 31
0.0
  0
LINE
  5
322
330
1F
100
AcDbEntity
  8
0
  6
CONTINUOUS
 62
     3
100
AcDbLine
 10
2.583712
 20
174.846151
 30
0.0
 11
2.603002
 21
174.812757
 31
0.0
  0
LINE
  5
323
330
1F
100
AcDbEntity
  8
0
  6
CONTINUOUS
 62
     3
100
AcDbLine
 10
113.279796
 20
174.827749
 30
0.0
 11
113.279796
 21
214.797743
 31
0.0
  0
LINE
  5
324
330
1F
100
AcDbEntity
  8
0
  6
CONTINUOUS
 62
     3
100
AcDbLine
 10
-37.9202
 20
194.812753
 30
0.0
 11
-37.9202
 21
175.027751
 31
0.0
  0
LINE
  5
325
330
1F
100
AcDbEntity
  8
0
  6
CONTINUOUS
 62
     3
100
AcDbLine
 10
-37.9202
 20
214.597755
 30
0.0
 11
-37.9202
 21
194.812753
 31
0.0
  0
LINE
  5
326
330
1F
100
AcDbEntity
  8
0
  6
CONTINUOUS
 62
     3
100
AcDbLine
 10
-8.170204
 20
176.812747
 30
0.0
 11
-8.170204
 21
177.474255
 31
0.0
  0
LINE
  5
327
330
1F
100
AcDbEntity
  8
0
  6
CONTINUOUS
 62
     3
100
AcDbLine
 10
-8.170204
 20
176.812747
 30
0.0
 11
-7.874006
 21
176.299715
 31
0.0
  0
LINE
  5
328
330
1F
100
AcDbEntity
  8
0
  6
CONTINUOUS
 62
     3
100
AcDbLine
 10
-11.670202
 20
176.812747
 30
0.0
 11
-11.670202
 21
177.474255
 31
0.0
  0
LINE
  5
329
330
1F
100
AcDbEntity
  8
0
  6
CONTINUOUS
 62
     3
100
AcDbLine
 10
-11.670202
 20
176.812747
 30
0.0
 11
-8.170204
 21
176.812747
 31
0.0
  0
LINE
  5
32A
330
1F
100
AcDbEntity
  8
0
  6
CONTINUOUS
 62
     3
100
AcDbLine
 10
-11.9664
 20
176.299715
 30
0.0
 11
-11.670202
 21
176.812747
 31
0.0
  0
LINE
  5
32B
330
1F
100
AcDbEntity
  8
0
  6
CONTINUOUS
 62
     3
100
AcDbLine
 10
-8.170204
 20
212.812745
 30
0.0
 11
-7.874006
 21
213.325777
 31
0.0
  0
LINE
  5
32C
330
1F
100
AcDbEntity
  8
0
  6
CONTINUOUS
 62
     3
100
AcDbLine
 10
-8.170204
 20
212.812745
 30
0.0
 11
-8.170204
 21
212.151237
 31
0.0
  0
LINE
  5
32D
330
1F
100
AcDbEntity
  8
0
  6
CONTINUOUS
 62
     3
100
AcDbLine
 10
-11.670202
 20
212.812745
 30
0.0
 11
-8.170204
 21
212.812745
 31
0.0
  0
LINE
  5
32E
330
1F
100
AcDbEntity
  8
0
  6
CONTINUOUS
 62
     3
100
AcDbLine
 10
-11.670202
 20
212.812745
 30
0.0
 11
-11.670202
 21
212.151237
 31
0.0
  0
LINE
  5
32F
330
1F
100
AcDbEntity
  8
0
  6
CONTINUOUS
 62
     3
100
AcDbLine
 10
-11.9664
 20
213.325777
 30
0.0
 11
-11.670202
 21
212.812745
 31
0.0
  0
LINE
  5
330
330
1F
100
AcDbEntity
  8
0
  6
CONTINUOUS
 62
     3
100
AcDbLine
 10
129.2798
 20
169.902751
 30
0.0
 11
139.279798
 21
169.902751
 31
0.0
  0
LINE
  5
331
330
1F
100
AcDbEntity
  8
0
  6
CONTINUOUS
 62
     3
100
AcDbLine
 10
129.2798
 20
162.062757
 30
0.0
 11
139.279798
 21
162.062757
 31
0.0
  0
LINE
  5
332
330
1F
100
AcDbEntity
  8
0
  6
CONTINUOUS
 62
     3
100
AcDbLine
 10
129.379794
 20
160.062753
 30
0.0
 11
139.179796
 21
160.062753
 31
0.0
  0
LINE
  5
333
330
1F
100
AcDbEntity
  8
0
  6
CONTINUOUS
 62
     3
100
AcDbLine
 10
129.379794
 20
161.062755
 30
0.0
 11
139.179796
 21
161.062755
 31
0.0
  0
LINE
  5
334
330
1F
100
AcDbEntity
  8
0
  6
CONTINUOUS
 62
     3
100
AcDbLine
 10
129.379794
 20
161.562749
 30
0.0
 11
139.179796
 21
161.562749
 31
0.0
  0
INSERT
  5
338
330
1F
100
AcDbEntity
  8
0
100
AcDbBlockReference
  2
BLKF020
 10
0.0
 20
0.0
 30
0.0
  0
LINE
  5
35A
330
1F
100
AcDbEntity
  8
0
  6
CONTINUOUS
 62
     3
100
AcDbLine
 10
147.063954
 20
161.462747
 30
0.0
 11
145.405276
 21
161.462747
 31
0.0
  0
INSERT
  5
35E
330
1F
100
AcDbEntity
  8
0
100
AcDbBlockReference
  2
BLKF021
 10
0.0
 20
0.0
 30
0.0
  0
LINE
  5
399
330
1F
100
AcDbEntity
  8
0
  6
CONTINUOUS
 62
     3
100
AcDbLine
 10
143.39923
 20
160.962755
 30
0.0
 11
149.359002
 21
160.962755
 31
0.0
  0
INSERT
  5
39D
330
1F
100
AcDbEntity
  8
0
100
AcDbBlockReference
  2
BLKF022
 10
0.0
 20
0.0
 30
0.0
  0
LINE
  5
3BF
330
1F
100
AcDbEntity
  8
0
  6
CONTINUOUS
 62
     3
100
AcDbLine
 10
145.405276
 20
166.762747
 30
0.0
 11
145.405276
 21
161.462747
 31
0.0
  0
INSERT
  5
3C3
330
1F
100
AcDbEntity
  8
0
100
AcDbBlockReference
  2
BLKF023
 10
0.0
 20
0.0
 30
0.0
  0
INSERT
  5
3D6
330
1F
100
AcDbEntity
  8
0
100
AcDbBlockReference
  2
BLKF024
 10
0.0
 20
0.0
 30
0.0
  0
LINE
  5
3E5
330
1F
100
AcDbEntity
  8
0
  6
CONTINUOUS
 62
     3
100
AcDbLine
 10
141.393184
 20
166.762747
 30
0.0
 11
141.393184
 21
161.462747
 31
0.0
  0
LINE
  5
3E6
330
1F
100
AcDbEntity
  8
0
  6
CONTINUOUS
 62
     3
100
AcDbLine
 10
144.940628
 20
166.962751
 30
0.0
 11
141.857832
 21
166.962751
 31
0.0
  0
LINE
  5
3E7
330
1F
100
AcDbEntity
  8
0
  6
CONTINUOUS
 62
     3
100
AcDbLine
 10
145.405276
 20
166.762747
 30
0.0
 11
147.063954
 21
166.762747
 31
0.0
  0
INSERT
  5
3EB
330
1F
100
AcDbEntity
  8
0
100
AcDbBlockReference
  2
BLKF025
 10
0.0
 20
0.0
 30
0.0
  0
LINE
  5
3FA
330
1F
100
AcDbEntity
  8
0
  6
CONTINUOUS
 62
     3
100
AcDbLine
 10
147.595546
 20
166.962751
 30
0.0
 11
144.940628
 21
166.962751
 31
0.0
  0
LINE
  5
3FB
330
1F
100
AcDbEntity
  8
0
  6
CONTINUOUS
 62
     3
100
AcDbLine
 10
147.063954
 20
166.762747
 30
0.0
 11
147.063954
 21
161.462747
 31
0.0
  0
INSERT
  5
3FF
330
1F
100
AcDbEntity
  8
0
100
AcDbBlockReference
  2
BLKF026
 10
0.0
 20
0.0
 30
0.0
  0
LINE
  5
421
330
1F
100
AcDbEntity
  8
0
  6
CONTINUOUS
 62
     3
100
AcDbLine
 10
151.654056
 20
166.762747
 30
0.0
 11
151.654056
 21
161.462747
 31
0.0
  0
INSERT
  5
425
330
1F
100
AcDbEntity
  8
0
100
AcDbBlockReference
  2
BLKF027
 10
0.0
 20
0.0
 30
0.0
  0
LINE
  5
435
330
1F
100
AcDbEntity
  8
0
  6
CONTINUOUS
 62
     3
100
AcDbLine
 10
151.122466
 20
166.962751
 30
0.0
 11
147.595546
 21
166.962751
 31
0.0
  0
INSERT
  5
439
330
1F
100
AcDbEntity
  8
0
100
AcDbBlockReference
  2
BLKF028
 10
0.0
 20
0.0
 30
0.0
  0
LINE
  5
44E
330
1F
100
AcDbEntity
  8
0
  6
CONTINUOUS
 62
     3
100
AcDbLine
 10
152.650572
 20
161.462747
 30
0.0
 11
151.654056
 21
161.462747
 31
0.0
  0
LINE
  5
44F
330
1F
100
AcDbEntity
  8
0
  6
CONTINUOUS
 62
     3
100
AcDbLine
 10
149.359002
 20
160.962755
 30
0.0
 11
152.939572
 21
160.962755
 31
0.0
  0
LINE
  5
450
330
1F
100
AcDbEntity
  8
0
  6
CONTINUOUS
 62
     3
100
AcDbLine
 10
141.393184
 20
161.462747
 30
0.0
 11
140.731022
 21
161.462747
 31
0.0
  0
INSERT
  5
454
330
1F
100
AcDbEntity
  8
0
100
AcDbBlockReference
  2
BLKF029
 10
0.0
 20
0.0
 30
0.0
  0
LINE
  5
494
330
1F
100
AcDbEntity
  8
0
  6
CONTINUOUS
 62
     3
100
AcDbLine
 10
143.39923
 20
160.962755
 30
0.0
 11
140.980474
 21
160.962755
 31
0.0
  0
LINE
  5
495
330
1F
100
AcDbEntity
  8
0
  6
CONTINUOUS
 62
     3
100
AcDbLine
 10
151.654056
 20
166.762747
 30
0.0
 11
152.650572
 21
166.762747
 31
0.0
  0
INSERT
  5
499
330
1F
100
AcDbEntity
  8
0
100
AcDbBlockReference
  2
BLKF030
 10
0.0
 20
0.0
 30
0.0
  0
LINE
  5
4A2
330
1F
100
AcDbEntity
  8
0
  6
CONTINUOUS
 62
     3
100
AcDbLine
 10
152.717508
 20
166.962751
 30
0.0
 11
151.122466
 21
166.962751
 31
0.0
  0
LINE
  5
4A3
330
1F
100
AcDbEntity
  8
0
  6
CONTINUOUS
 62
     3
100
AcDbLine
 10
152.650572
 20
166.762747
 30
0.0
 11
152.650572
 21
161.462747
 31
0.0
  0
LINE
  5
4A4
330
1F
100
AcDbEntity
  8
0
  6
CONTINUOUS
 62
     3
100
AcDbLine
 10
140.731022
 20
166.762747
 30
0.0
 11
141.393184
 21
166.762747
 31
0.0
  0
INSERT
  5
4A8
330
1F
100
AcDbEntity
  8
0
100
AcDbBlockReference
  2
BLKF031
 10
0.0
 20
0.0
 30
0.0
  0
LINE
  5
4B3
330
1F
100
AcDbEntity
  8
0
  6
CONTINUOUS
 62
     3
100
AcDbLine
 10
141.857832
 20
166.962751
 30
0.0
 11
140.797958
 21
166.962751
 31
0.0
  0
LINE
  5
4B4
330
1F
100
AcDbEntity
  8
0
  6
CONTINUOUS
 62
     3
100
AcDbLine
 10
140.731022
 20
166.762747
 30
0.0
 11
140.731022
 21
161.462747
 31
0.0
  0
INSERT
  5
4B8
330
1F
100
AcDbEntity
  8
0
100
AcDbBlockReference
  2
BLKF032
 10
0.0
 20
0.0
 30
0.0
  0
LINE
  5
4F8
330
1F
100
AcDbEntity
  8
0
  6
CONTINUOUS
 62
     3
100
AcDbLine
 10
153.228572
 20
166.762747
 30
0.0
 11
153.228572
 21
161.462747
 31
0.0
  0
INSERT
  5
4FC
330
1F
100
AcDbEntity
  8
0
100
AcDbBlockReference
  2
BLKF033
 10
0.0
 20
0.0
 30
0.0
  0
LINE
  5
507
330
1F
100
AcDbEntity
  8
0
  6
CONTINUOUS
 62
     3
100
AcDbLine
 10
153.16163
 20
166.962751
 30
0.0
 11
152.717508
 21
166.962751
 31
0.0
  0
INSERT
  5
50B
330
1F
100
AcDbEntity
  8
0
100
AcDbBlockReference
  2
BLKF034
 10
0.0
 20
0.0
 30
0.0
  0
LINE
  5
52D
330
1F
100
AcDbEntity
  8
0
  6
CONTINUOUS
 62
     3
100
AcDbLine
 10
148.15571
 20
167.462745
 30
0.0
 11
146.48819
 21
167.462745
 31
0.0
  0
INSERT
  5
531
330
1F
100
AcDbEntity
  8
0
100
AcDbBlockReference
  2
BLKF035
 10
0.0
 20
0.0
 30
0.0
  0
INSERT
  5
556
330
1F
100
AcDbEntity
  8
0
100
AcDbBlockReference
  2
BLKF036
 10
0.0
 20
0.0
 30
0.0
  0
LINE
  5
591
330
1F
100
AcDbEntity
  8
0
  6
CONTINUOUS
 62
     3
100
AcDbLine
 10
152.347036
 20
174.662747
 30
0.0
 11
152.347036
 21
167.462745
 31
0.0
  0
INSERT
  5
595
330
1F
100
AcDbEntity
  8
0
100
AcDbBlockReference
  2
BLKF037
 10
0.0
 20
0.0
 30
0.0
  0
INSERT
  5
5A8
330
1F
100
AcDbEntity
  8
0
100
AcDbBlockReference
  2
BLKF038
 10
0.0
 20
0.0
 30
0.0
  0
LINE
  5
5B7
330
1F
100
AcDbEntity
  8
0
  6
CONTINUOUS
 62
     3
100
AcDbLine
 10
148.15571
 20
174.662747
 30
0.0
 11
148.15571
 21
167.462745
 31
0.0
  0
LINE
  5
5B8
330
1F
100
AcDbEntity
  8
0
  6
CONTINUOUS
 62
     3
100
AcDbLine
 10
146.48819
 20
174.662747
 30
0.0
 11
148.15571
 21
174.662747
 31
0.0
  0
INSERT
  5
5BC
330
1F
100
AcDbEntity
  8
0
100
AcDbBlockReference
  2
BLKF039
 10
0.0
 20
0.0
 30
0.0
  0
LINE
  5
5CC
330
1F
100
AcDbEntity
  8
0
  6
CONTINUOUS
 62
     3
100
AcDbLine
 10
146.48819
 20
174.662747
 30
0.0
 11
146.48819
 21
167.462745
 31
0.0
  0
INSERT
  5
5D0
330
1F
100
AcDbEntity
  8
0
100
AcDbBlockReference
  2
BLKF040
 10
0.0
 20
0.0
 30
0.0
  0
INSERT
  5
5F5
330
1F
100
AcDbEntity
  8
0
100
AcDbBlockReference
  2
BLKF041
 10
0.0
 20
0.0
 30
0.0
  0
LINE
  5
604
330
1F
100
AcDbEntity
  8
0
  6
CONTINUOUS
 62
     3
100
AcDbLine
 10
142.031476
 20
174.662747
 30
0.0
 11
142.031476
 21
167.462745
 31
0.0
  0
INSERT
  5
608
330
1F
100
AcDbEntity
  8
0
100
AcDbBlockReference
  2
BLKF042
 10
0.0
 20
0.0
 30
0.0
  0
LINE
  5
61A
330
1F
100
AcDbEntity
  8
0
  6
CONTINUOUS
 62
     3
100
AcDbLine
 10
153.104036
 20
167.462745
 30
0.0
 11
152.347036
 21
167.462745
 31
0.0
  0
LINE
  5
61B
330
1F
100
AcDbEntity
  8
0
  6
CONTINUOUS
 62
     3
100
AcDbLine
 10
142.031476
 20
167.462745
 30
0.0
 11
141.120954
 21
167.462745
 31
0.0
  0
INSERT
  5
61F
330
1F
100
AcDbEntity
  8
0
100
AcDbBlockReference
  2
BLKF043
 10
0.0
 20
0.0
 30
0.0
  0
LINE
  5
67F
330
1F
100
AcDbEntity
  8
0
  6
CONTINUOUS
 62
     3
100
AcDbLine
 10
141.120954
 20
174.662747
 30
0.0
 11
142.031476
 21
174.662747
 31
0.0
  0
INSERT
  5
683
330
1F
100
AcDbEntity
  8
0
100
AcDbBlockReference
  2
BLKF044
 10
0.0
 20
0.0
 30
0.0
  0
LINE
  5
68C
330
1F
100
AcDbEntity
  8
0
  6
CONTINUOUS
 62
     3
100
AcDbLine
 10
141.120954
 20
174.662747
 30
0.0
 11
141.120954
 21
167.462745
 31
0.0
  0
LINE
  5
68D
330
1F
100
AcDbEntity
  8
0
  6
CONTINUOUS
 62
     3
100
AcDbLine
 10
152.347036
 20
174.662747
 30
0.0
 11
153.104036
 21
174.662747
 31
0.0
  0
INSERT
  5
691
330
1F
100
AcDbEntity
  8
0
100
AcDbBlockReference
  2
BLKF045
 10
0.0
 20
0.0
 30
0.0
  0
LINE
  5
699
330
1F
100
AcDbEntity
  8
0
  6
CONTINUOUS
 62
     3
100
AcDbLine
 10
153.104036
 20
174.662747
 30
0.0
 11
153.104036
 21
167.462745
 31
0.0
  0
INSERT
  5
69D
330
1F
100
AcDbEntity
  8
0
100
AcDbBlockReference
  2
BLKF046
 10
0.0
 20
0.0
 30
0.0
  0
INSERT
  5
6B2
330
1F
100
AcDbEntity
  8
0
100
AcDbBlockReference
  2
BLKF047
 10
0.0
 20
0.0
 30
0.0
  0
LINE
  5
6BA
330
1F
100
AcDbEntity
  8
0
  6
CONTINUOUS
 62
     3
100
AcDbLine
 10
140.855558
 20
174.662747
 30
0.0
 11
140.855558
 21
167.462745
 31
0.0
  0
LINE
  5
6BB
330
1F
100
AcDbEntity
  8
0
  6
CONTINUOUS
 62
     3
100
AcDbLine
 10
140.731022
 20
161.462747
 30
0.0
 11
138.627454
 21
161.462747
 31
0.0
  0
LINE
  5
6BC
330
1F
100
AcDbEntity
  8
0
  6
CONTINUOUS
 62
     3
100
AcDbLine
 10
137.879796
 20
161.108995
 30
0.0
 11
138.627454
 21
161.462747
 31
0.0
  0
LINE
  5
6BD
330
1F
100
AcDbEntity
  8
0
  6
CONTINUOUS
 62
     3
100
AcDbLine
 10
139.179796
 20
160.962755
 30
0.0
 11
141.020022
 21
160.962755
 31
0.0
  0
LINE
  5
6BE
330
1F
100
AcDbEntity
  8
0
  6
CONTINUOUS
 62
     3
100
AcDbLine
 10
139.279798
 20
166.762747
 30
0.0
 11
140.731022
 21
166.762747
 31
0.0
  0
LINE
  5
6BF
330
1F
100
AcDbEntity
  8
0
  6
CONTINUOUS
 62
     3
100
AcDbLine
 10
140.718862
 20
166.962751
 30
0.0
 11
139.179796
 21
166.962751
 31
0.0
  0
LINE
  5
6C0
330
1F
100
AcDbEntity
  8
0
  6
CONTINUOUS
 62
     3
100
AcDbLine
 10
138.627454
 20
161.562749
 30
0.0
 11
138.627454
 21
161.462747
 31
0.0
  0
LINE
  5
6C1
330
1F
100
AcDbEntity
  8
0
  6
CONTINUOUS
 62
     3
100
AcDbLine
 10
140.855558
 20
167.462745
 30
0.0
 11
139.279798
 21
167.462745
 31
0.0
  0
LINE
  5
6C2
330
1F
100
AcDbEntity
  8
0
  6
CONTINUOUS
 62
     3
100
AcDbLine
 10
138.715348
 20
174.662747
 30
0.0
 11
140.82317
 21
174.662747
 31
0.0
  0
LINE
  5
6C3
330
1F
100
AcDbEntity
  8
0
  6
CONTINUOUS
 62
     3
100
AcDbLine
 10
151.722304
 20
138.009725
 30
0.0
 11
151.722304
 21
160.962755
 31
0.0
  0
ARC
  5
6C4
330
1F
100
AcDbEntity
  8
0
  6
CONTINUOUS
 62
     3
100
AcDbCircle
 10
152.029811
 20
112.594956
 30
0.0
 40
25.4166301406175
100
AcDbArc
 50
67.380135
 51
120.369535
  0
ARC
  5
6C5
330
1F
100
AcDbEntity
  8
0
  6
CONTINUOUS
 62
     3
100
AcDbCircle
 10
132.478557
 20
159.517964
 30
0.0
 40
25.4166301406175
100
AcDbArc
 50
238.865183
 51
285.287089
  0
ARC
  5
6C6
330
1F
100
AcDbEntity
  8
0
  6
CONTINUOUS
 62
     3
100
AcDbCircle
 10
152.029811
 20
106.594956
 30
0.0
 40
25.4166301406175
100
AcDbArc
 50
67.380135
 51
112.619865
  0
ARC
  5
6C7
330
1F
100
AcDbEntity
  8
0
  6
CONTINUOUS
 62
     3
100
AcDbCircle
 10
132.478557
 20
153.517964
 30
0.0
 40
25.4166301406175
100
AcDbArc
 50
235.531381
 51
292.619865
  0
LINE
  5
6C8
330
1F
100
AcDbEntity
  8
0
  6
CONTINUOUS
 62
     3
100
AcDbLine
 10
142.572365
 20
37.46202
 30
0.0
 11
152.822365
 21
37.46202
 31
0.0
  0
LINE
  5
6C9
330
1F
100
AcDbEntity
  8
0
  6
CONTINUOUS
 62
     3
100
AcDbLine
 10
142.572365
 20
37.46202
 30
0.0
 11
142.572365
 21
43.66202
 31
0.0
  0
LINE
  5
6CA
330
1F
100
AcDbEntity
  8
0
  6
CONTINUOUS
 62
     3
100
AcDbLine
 10
145.473547
 20
38.26202
 30
0.0
 11
145.473547
 21
43.66202
 31
0.0
  0
LINE
  5
6CB
330
1F
100
AcDbEntity
  8
0
  6
CONTINUOUS
 62
     3
100
AcDbLine
 10
144.705627
 20
38.26202
 30
0.0
 11
144.705627
 21
43.66202
 31
0.0
  0
LINE
  5
6CC
330
1F
100
AcDbEntity
  8
0
  6
CONTINUOUS
 62
     3
100
AcDbLine
 10
143.741445
 20
38.26202
 30
0.0
 11
143.741445
 21
43.66202
 31
0.0
  0
LINE
  5
6CD
330
1F
100
AcDbEntity
  8
0
  6
CONTINUOUS
 62
     3
100
AcDbLine
 10
145.473547
 20
38.26202
 30
0.0
 11
143.741445
 21
38.26202
 31
0.0
  0
LINE
  5
6CE
330
1F
100
AcDbEntity
  8
0
  6
CONTINUOUS
 62
     3
100
AcDbLine
 10
139.822365
 20
57.16202
 30
0.0
 11
139.822365
 21
61.66202
 31
0.0
  0
LINE
  5
6CF
330
1F
100
AcDbEntity
  8
0
  6
CONTINUOUS
 62
     3
100
AcDbLine
 10
141.322365
 20
85.66202
 30
0.0
 11
139.822365
 21
61.66202
 31
0.0
  0
LINE
  5
6D0
330
1F
100
AcDbEntity
  8
0
  6
CONTINUOUS
 62
     3
100
AcDbLine
 10
143.499697
 20
57.16202
 30
0.0
 11
139.022365
 21
57.16202
 31
0.0
  0
LINE
  5
6D1
330
1F
100
AcDbEntity
  8
0
  6
CONTINUOUS
 62
     3
100
AcDbLine
 10
138.622365
 20
44.16202
 30
0.0
 11
138.622365
 21
44.878214
 31
0.0
  0
ARC
  5
6D2
330
1F
100
AcDbEntity
  8
0
  6
CONTINUOUS
 62
     3
100
AcDbCircle
 10
139.122365
 20
44.16202
 30
0.0
 40
0.4999999999999998
100
AcDbArc
 50
180.0
 51
269.999997
  0
LINE
  5
6D3
330
1F
100
AcDbEntity
  8
0
  6
CONTINUOUS
 62
     3
100
AcDbLine
 10
137.822365
 20
45.46202
 30
0.0
 11
137.822365
 21
55.96202
 31
0.0
  0
ARC
  5
6D4
330
1F
100
AcDbEntity
  8
0
  6
CONTINUOUS
 62
     3
100
AcDbCircle
 10
139.022365
 20
55.96202
 30
0.0
 40
1.2
100
AcDbArc
 50
90.0
 51
180.000002
  0
ARC
  5
6D5
330
1F
100
AcDbEntity
  8
0
  6
CONTINUOUS
 62
     3
100
AcDbCircle
 10
138.622365
 20
45.46202
 30
0.0
 40
0.7999999999999998
100
AcDbArc
 50
180.000002
 51
269.999997
  0
LINE
  5
6D6
330
1F
100
AcDbEntity
  8
0
  6
CONTINUOUS
 62
     3
100
AcDbLine
 10
141.822595
 20
53.66202
 30
0.0
 11
141.822595
 21
45.306156
 31
0.0
  0
LINE
  5
6D7
330
1F
100
AcDbEntity
  8
0
  6
CONTINUOUS
 62
     3
100
AcDbLine
 10
140.534323
 20
53.66202
 30
0.0
 11
140.534323
 21
45.306156
 31
0.0
  0
LINE
  5
6D8
330
1F
100
AcDbEntity
  8
0
  6
CONTINUOUS
 62
     3
100
AcDbLine
 10
139.585909
 20
53.66202
 30
0.0
 11
139.585909
 21
45.196294
 31
0.0
  0
LINE
  5
6D9
330
1F
100
AcDbEntity
  8
0
  6
CONTINUOUS
 62
     3
100
AcDbLine
 10
138.517361
 20
53.66202
 30
0.0
 11
138.517361
 21
45.196294
 31
0.0
  0
ARC
  5
6DA
330
1F
100
AcDbEntity
  8
0
  6
CONTINUOUS
 62
     3
100
AcDbCircle
 10
141.178459
 20
45.306156
 30
0.0
 40
0.6441364861105886
100
AcDbArc
 50
180.000002
 51
359.999998
  0
ARC
  5
6DB
330
1F
100
AcDbEntity
  8
0
  6
CONTINUOUS
 62
     3
100
AcDbCircle
 10
139.051635
 20
45.196294
 30
0.0
 40
0.5342738771925556
100
AcDbArc
 50
180.0
 51
360.0
  0
LINE
  5
6DC
330
1F
100
AcDbEntity
  8
0
  6
CONTINUOUS
 62
     3
100
AcDbLine
 10
144.343933
 20
85.66202
 30
0.0
 11
141.322365
 21
85.66202
 31
0.0
  0
LINE
  5
6DD
330
1F
100
AcDbEntity
  8
0
  6
CONTINUOUS
 62
     3
100
AcDbLine
 10
138.322365
 20
93.988868
 30
0.0
 11
140.322365
 21
91.988868
 31
0.0
  0
LINE
  5
6DE
330
1F
100
AcDbEntity
  8
0
  6
CONTINUOUS
 62
     3
100
AcDbLine
 10
139.322365
 20
101.988868
 30
0.0
 11
139.322365
 21
92.988868
 31
0.0
  0
ARC
  5
6DF
330
1F
100
AcDbEntity
  8
0
  6
CONTINUOUS
 62
     3
100
AcDbCircle
 10
142.322365
 20
101.988868
 30
0.0
 40
2.999999999999998
100
AcDbArc
 50
90.0
 51
180.000002
  0
LINE
  5
6E0
330
1F
100
AcDbEntity
  8
0
  6
CONTINUOUS
 62
     3
100
AcDbLine
 10
138.322365
 20
93.988868
 30
0.0
 11
138.322365
 21
100.505628
 31
0.0
  0
ARC
  5
6E1
330
1F
100
AcDbEntity
  8
0
  6
CONTINUOUS
 62
     3
100
AcDbCircle
 10
139.922365
 20
100.505628
 30
0.0
 40
1.599999999999999
100
AcDbArc
 50
112.024313
 51
180.000002
  0
LINE
  5
6E2
330
1F
100
AcDbEntity
  8
0
  6
CONTINUOUS
 62
     3
100
AcDbLine
 10
144.407945
 20
92.988868
 30
0.0
 11
144.407945
 21
100.83524
 31
0.0
  0
LINE
  5
6E3
330
1F
100
AcDbEntity
  8
0
  6
CONTINUOUS
 62
     3
100
AcDbLine
 10
142.100687
 20
92.988868
 30
0.0
 11
142.100687
 21
100.83524
 31
0.0
  0
LINE
  5
6E4
330
1F
100
AcDbEntity
  8
0
  6
CONTINUOUS
 62
     3
100
AcDbLine
 10
142.100687
 20
92.988868
 30
0.0
 11
139.322365
 21
92.988868
 31
0.0
  0
ARC
  5
6E5
330
1F
100
AcDbEntity
  8
0
  6
CONTINUOUS
 62
     3
100
AcDbCircle
 10
143.254315
 20
100.83524
 30
0.0
 40
1.153629407326412
100
AcDbArc
 50
-0.000002
 51
180.000002
  0
ARC
  5
6E6
330
1F
100
AcDbEntity
  8
0
  6
CONTINUOUS
 62
     3
100
AcDbCircle
 10
143.254315
 20
92.988868
 30
0.0
 40
1.153629407326412
100
AcDbArc
 50
-0.000002
 51
180.000002
  0
LINE
  5
6E7
330
1F
100
AcDbEntity
  8
0
  6
CONTINUOUS
 62
     3
100
AcDbLine
 10
141.417365
 20
91.988868
 30
0.0
 11
141.417365
 21
89.06702
 31
0.0
  0
LINE
  5
6E8
330
1F
100
AcDbEntity
  8
0
  6
CONTINUOUS
 62
     3
100
AcDbLine
 10
142.322365
 20
88.16202
 30
0.0
 11
141.417365
 21
89.06702
 31
0.0
  0
LINE
  5
6E9
330
1F
100
AcDbEntity
  8
0
  6
CONTINUOUS
 62
     3
100
AcDbLine
 10
142.322365
 20
88.16202
 30
0.0
 11
142.322365
 21
85.66202
 31
0.0
  0
LINE
  5
6EA
330
1F
100
AcDbEntity
  8
0
  6
CONTINUOUS
 62
     3
100
AcDbLine
 10
142.322365
 20
85.66202
 30
0.0
 11
141.322365
 21
85.66202
 31
0.0
  0
LINE
  5
6EB
330
1F
100
AcDbEntity
  8
0
  6
CONTINUOUS
 62
     3
100
AcDbLine
 10
141.917365
 20
88.56702
 30
0.0
 11
141.917365
 21
91.988868
 31
0.0
  0
LINE
  5
6EC
330
1F
100
AcDbEntity
  8
0
  6
CONTINUOUS
 62
     3
100
AcDbLine
 10
141.417365
 20
89.06702
 30
0.0
 11
144.343933
 21
89.06702
 31
0.0
  0
LINE
  5
6ED
330
1F
100
AcDbEntity
  8
0
  6
CONTINUOUS
 62
     3
100
AcDbLine
 10
142.322365
 20
88.16202
 30
0.0
 11
144.343933
 21
88.16202
 31
0.0
  0
LINE
  5
6EE
330
1F
100
AcDbEntity
  8
0
  6
CONTINUOUS
 62
     3
100
AcDbLine
 10
143.499697
 20
53.66202
 30
0.0
 11
137.822365
 21
53.66202
 31
0.0
  0
ARC
  5
6EF
330
1F
100
AcDbEntity
  8
0
  6
CONTINUOUS
 62
     3
100
AcDbCircle
 10
139.822365
 20
59.96202
 30
0.0
 40
1.5
100
AcDbArc
 50
-90.000003
 51
90.0
  0
LINE
  5
6F0
330
1F
100
AcDbEntity
  8
0
  6
CONTINUOUS
 62
     3
100
AcDbLine
 10
139.822365
 20
59.46202
 30
0.0
 11
141.299693
 21
60.221828
 31
0.0
  0
LINE
  5
6F1
330
1F
100
AcDbEntity
  8
0
  6
CONTINUOUS
 62
     3
100
AcDbLine
 10
139.822365
 20
60.024274
 30
0.0
 11
141.130053
 21
60.696834
 31
0.0
  0
LINE
  5
6F2
330
1F
100
AcDbEntity
  8
0
  6
CONTINUOUS
 62
     3
100
AcDbLine
 10
163.072365
 20
37.46202
 30
0.0
 11
152.822365
 21
37.46202
 31
0.0
  0
LINE
  5
6F3
330
1F
100
AcDbEntity
  8
0
  6
CONTINUOUS
 62
     3
100
AcDbLine
 10
163.072365
 20
37.46202
 30
0.0
 11
163.072365
 21
43.66202
 31
0.0
  0
LINE
  5
6F4
330
1F
100
AcDbEntity
  8
0
  6
CONTINUOUS
 62
     3
100
AcDbLine
 10
165.822365
 20
57.16202
 30
0.0
 11
165.822365
 21
61.66202
 31
0.0
  0
LINE
  5
6F5
330
1F
100
AcDbEntity
  8
0
  6
CONTINUOUS
 62
     3
100
AcDbLine
 10
164.322365
 20
85.66202
 30
0.0
 11
165.822365
 21
61.66202
 31
0.0
  0
LINE
  5
6F6
330
1F
100
AcDbEntity
  8
0
  6
CONTINUOUS
 62
     3
100
AcDbLine
 10
165.822365
 20
61.66202
 30
0.0
 11
139.822365
 21
61.66202
 31
0.0
  0
LINE
  5
6F7
330
1F
100
AcDbEntity
  8
0
  6
CONTINUOUS
 62
     3
100
AcDbLine
 10
166.522365
 20
43.66202
 30
0.0
 11
139.122365
 21
43.66202
 31
0.0
  0
LINE
  5
6F8
330
1F
100
AcDbEntity
  8
0
  6
CONTINUOUS
 62
     3
100
AcDbLine
 10
139.022365
 20
57.16202
 30
0.0
 11
166.622365
 21
57.16202
 31
0.0
  0
LINE
  5
6F9
330
1F
100
AcDbEntity
  8
0
  6
CONTINUOUS
 62
     3
100
AcDbLine
 10
167.022365
 20
44.16202
 30
0.0
 11
167.022365
 21
44.878214
 31
0.0
  0
ARC
  5
6FA
330
1F
100
AcDbEntity
  8
0
  6
CONTINUOUS
 62
     3
100
AcDbCircle
 10
166.522365
 20
44.16202
 30
0.0
 40
0.4999999999999998
100
AcDbArc
 50
270.000003
 51
360.0
  0
LINE
  5
6FB
330
1F
100
AcDbEntity
  8
0
  6
CONTINUOUS
 62
     3
100
AcDbLine
 10
167.822365
 20
45.46202
 30
0.0
 11
167.822365
 21
55.96202
 31
0.0
  0
ARC
  5
6FC
330
1F
100
AcDbEntity
  8
0
  6
CONTINUOUS
 62
     3
100
AcDbCircle
 10
166.622365
 20
55.96202
 30
0.0
 40
1.2
100
AcDbArc
 50
-0.000002
 51
90.0
  0
ARC
  5
6FD
330
1F
100
AcDbEntity
  8
0
  6
CONTINUOUS
 62
     3
100
AcDbCircle
 10
167.022365
 20
45.46202
 30
0.0
 40
0.7999999999999998
100
AcDbArc
 50
270.000003
 51
359.999998
  0
LINE
  5
6FE
330
1F
100
AcDbEntity
  8
0
  6
CONTINUOUS
 62
     3
100
AcDbLine
 10
160.508711
 20
53.66202
 30
0.0
 11
160.508711
 21
45.392122
 31
0.0
  0
LINE
  5
6FF
330
1F
100
AcDbEntity
  8
0
  6
CONTINUOUS
 62
     3
100
AcDbLine
 10
161.968915
 20
53.66202
 30
0.0
 11
161.968915
 21
45.392122
 31
0.0
  0
LINE
  5
700
330
1F
100
AcDbEntity
  8
0
  6
CONTINUOUS
 62
     3
100
AcDbLine
 10
163.822133
 20
53.66202
 30
0.0
 11
163.822133
 21
45.306156
 31
0.0
  0
LINE
  5
701
330
1F
100
AcDbEntity
  8
0
  6
CONTINUOUS
 62
     3
100
AcDbLine
 10
165.110405
 20
53.66202
 30
0.0
 11
165.110405
 21
45.306156
 31
0.0
  0
LINE
  5
702
330
1F
100
AcDbEntity
  8
0
  6
CONTINUOUS
 62
     3
100
AcDbLine
 10
166.058819
 20
53.66202
 30
0.0
 11
166.058819
 21
45.196294
 31
0.0
  0
LINE
  5
703
330
1F
100
AcDbEntity
  8
0
  6
CONTINUOUS
 62
     3
100
AcDbLine
 10
167.127367
 20
53.66202
 30
0.0
 11
167.127367
 21
45.196294
 31
0.0
  0
ARC
  5
704
330
1F
100
AcDbEntity
  8
0
  6
CONTINUOUS
 62
     3
100
AcDbCircle
 10
161.238813
 20
45.392122
 30
0.0
 40
0.7301013147692098
100
AcDbArc
 50
180.000002
 51
359.999998
  0
ARC
  5
705
330
1F
100
AcDbEntity
  8
0
  6
CONTINUOUS
 62
     3
100
AcDbCircle
 10
164.466269
 20
45.306156
 30
0.0
 40
0.6441364861105886
100
AcDbArc
 50
180.000002
 51
359.999998
  0
ARC
  5
706
330
1F
100
AcDbEntity
  8
0
  6
CONTINUOUS
 62
     3
100
AcDbCircle
 10
166.593093
 20
45.196294
 30
0.0
 40
0.5342738771925556
100
AcDbArc
 50
180.0
 51
360.0
  0
LINE
  5
707
330
1F
100
AcDbEntity
  8
0
  6
CONTINUOUS
 62
     3
100
AcDbLine
 10
142.322365
 20
85.66202
 30
0.0
 11
164.322365
 21
85.66202
 31
0.0
  0
LINE
  5
708
330
1F
100
AcDbEntity
  8
0
  6
CONTINUOUS
 62
     3
100
AcDbLine
 10
140.322365
 20
91.988868
 30
0.0
 11
165.322365
 21
91.988868
 31
0.0
  0
LINE
  5
709
330
1F
100
AcDbEntity
  8
0
  6
CONTINUOUS
 62
     3
100
AcDbLine
 10
167.322365
 20
93.988868
 30
0.0
 11
165.322365
 21
91.988868
 31
0.0
  0
LINE
  5
70A
330
1F
100
AcDbEntity
  8
0
  6
CONTINUOUS
 62
     3
100
AcDbLine
 10
166.322365
 20
101.988868
 30
0.0
 11
166.322365
 21
92.988868
 31
0.0
  0
ARC
  5
70B
330
1F
100
AcDbEntity
  8
0
  6
CONTINUOUS
 62
     3
100
AcDbCircle
 10
163.322365
 20
101.988868
 30
0.0
 40
2.999999999999998
100
AcDbArc
 50
-0.000002
 51
90.0
  0
LINE
  5
70C
330
1F
100
AcDbEntity
  8
0
  6
CONTINUOUS
 62
     3
100
AcDbLine
 10
167.322365
 20
93.988868
 30
0.0
 11
167.322365
 21
100.505628
 31
0.0
  0
ARC
  5
70D
330
1F
100
AcDbEntity
  8
0
  6
CONTINUOUS
 62
     3
100
AcDbCircle
 10
165.722365
 20
100.505628
 30
0.0
 40
1.599999999999999
100
AcDbArc
 50
-0.000002
 51
67.975687
  0
LINE
  5
70E
330
1F
100
AcDbEntity
  8
0
  6
CONTINUOUS
 62
     3
100
AcDbLine
 10
161.236783
 20
92.988868
 30
0.0
 11
161.236783
 21
100.83524
 31
0.0
  0
LINE
  5
70F
330
1F
100
AcDbEntity
  8
0
  6
CONTINUOUS
 62
     3
100
AcDbLine
 10
163.544041
 20
92.988868
 30
0.0
 11
163.544041
 21
100.83524
 31
0.0
  0
LINE
  5
710
330
1F
100
AcDbEntity
  8
0
  6
CONTINUOUS
 62
     3
100
AcDbLine
 10
163.544041
 20
92.988868
 30
0.0
 11
142.100687
 21
92.988868
 31
0.0
  0
LINE
  5
711
330
1F
100
AcDbEntity
  8
0
  6
CONTINUOUS
 62
     3
100
AcDbLine
 10
163.544041
 20
92.988868
 30
0.0
 11
166.322365
 21
92.988868
 31
0.0
  0
ARC
  5
712
330
1F
100
AcDbEntity
  8
0
  6
CONTINUOUS
 62
     3
100
AcDbCircle
 10
162.390413
 20
100.83524
 30
0.0
 40
1.153629407326412
100
AcDbArc
 50
-0.000002
 51
180.000002
  0
ARC
  5
713
330
1F
100
AcDbEntity
  8
0
  6
CONTINUOUS
 62
     3
100
AcDbCircle
 10
162.390413
 20
92.988868
 30
0.0
 40
1.153629407326412
100
AcDbArc
 50
-0.000002
 51
180.000002
  0
LINE
  5
714
330
1F
100
AcDbEntity
  8
0
  6
CONTINUOUS
 62
     3
100
AcDbLine
 10
164.227365
 20
91.988868
 30
0.0
 11
164.227365
 21
89.06702
 31
0.0
  0
LINE
  5
715
330
1F
100
AcDbEntity
  8
0
  6
CONTINUOUS
 62
     3
100
AcDbLine
 10
163.322365
 20
88.16202
 30
0.0
 11
164.227365
 21
89.06702
 31
0.0
  0
LINE
  5
716
330
1F
100
AcDbEntity
  8
0
  6
CONTINUOUS
 62
     3
100
AcDbLine
 10
163.322365
 20
88.16202
 30
0.0
 11
163.322365
 21
85.66202
 31
0.0
  0
LINE
  5
717
330
1F
100
AcDbEntity
  8
0
  6
CONTINUOUS
 62
     3
100
AcDbLine
 10
163.322365
 20
85.66202
 30
0.0
 11
164.322365
 21
85.66202
 31
0.0
  0
LINE
  5
718
330
1F
100
AcDbEntity
  8
0
  6
CONTINUOUS
 62
     3
100
AcDbLine
 10
163.727365
 20
88.56702
 30
0.0
 11
163.727365
 21
91.988868
 31
0.0
  0
LINE
  5
719
330
1F
100
AcDbEntity
  8
0
  6
CONTINUOUS
 62
     3
100
AcDbLine
 10
164.227365
 20
89.06702
 30
0.0
 11
159.540195
 21
89.06702
 31
0.0
  0
LINE
  5
71A
330
1F
100
AcDbEntity
  8
0
  6
CONTINUOUS
 62
     3
100
AcDbLine
 10
163.322365
 20
88.16202
 30
0.0
 11
142.322365
 21
88.16202
 31
0.0
  0
LINE
  5
71B
330
1F
100
AcDbEntity
  8
0
  6
CONTINUOUS
 62
     3
100
AcDbLine
 10
141.822595
 20
53.66202
 30
0.0
 11
167.822365
 21
53.66202
 31
0.0
  0
LINE
  5
71C
330
1F
100
AcDbEntity
  8
CSLAYER2
  6
CONTINUOUS
 62
     3
100
AcDbLine
 10
145.919843
 20
43.66202
 30
0.0
 11
145.919843
 21
37.418494
 31
0.0
  0
LINE
  5
71D
330
1F
100
AcDbEntity
  8
CSLAYER2
  6
CONTINUOUS
 62
     3
100
AcDbLine
 10
145.919843
 20
37.418494
 30
0.0
 11
151.942065
 21
37.418494
 31
0.0
  0
LINE
  5
71E
330
1F
100
AcDbEntity
  8
CSLAYER2
  6
CONTINUOUS
 62
     3
100
AcDbLine
 10
151.942065
 20
89.648604
 30
0.0
 11
144.906759
 21
89.648604
 31
0.0
  0
ARC
  5
71F
330
1F
100
AcDbEntity
  8
CSLAYER2
  6
CONTINUOUS
 62
     3
100
AcDbCircle
 10
144.906759
 20
89.08578
 30
0.0
 40
0.5628245
100
AcDbArc
 50
90.0
 51
180.0
  0
LINE
  5
720
330
1F
100
AcDbEntity
  8
CSLAYER2
  6
CONTINUOUS
 62
     3
100
AcDbLine
 10
157.964287
 20
43.66202
 30
0.0
 11
157.964287
 21
37.418494
 31
0.0
  0
LINE
  5
721
330
1F
100
AcDbEntity
  8
CSLAYER2
  6
CONTINUOUS
 62
     3
100
AcDbLine
 10
157.964287
 20
37.418494
 30
0.0
 11
151.942065
 21
37.418494
 31
0.0
  0
LINE
  5
722
330
1F
100
AcDbEntity
  8
CSLAYER2
  6
CONTINUOUS
 62
     3
100
AcDbLine
 10
151.942065
 20
89.648604
 30
0.0
 11
158.977371
 21
89.648604
 31
0.0
  0
ARC
  5
723
330
1F
100
AcDbEntity
  8
CSLAYER2
  6
CONTINUOUS
 62
     3
100
AcDbCircle
 10
158.977371
 20
89.08578
 30
0.0
 40
0.5628245
100
AcDbArc
 50
0.0
 51
90.0
  0
LINE
  5
724
330
1F
100
AcDbEntity
  8
0
  6
CONTINUOUS
 62
     3
100
AcDbLine
 10
148.337795
 20
104.988868
 30
0.0
 11
142.322365
 21
104.988868
 31
0.0
  0
LINE
  5
725
330
1F
100
AcDbEntity
  8
0
  6
CONTINUOUS
 62
     3
100
AcDbLine
 10
142.322365
 20
104.988868
 30
0.0
 11
163.322365
 21
104.988868
 31
0.0
  0
LINE
  5
726
330
1F
100
AcDbEntity
  8
0
  6
CONTINUOUS
 62
     3
100
AcDbLine
 10
140.322365
 20
91.988868
 30
0.0
 11
144.343933
 21
91.988868
 31
0.0
  0
LINE
  5
727
330
1F
100
AcDbEntity
  8
0
  6
CONTINUOUS
 62
     3
100
AcDbLine
 10
157.910207
 20
53.677722
 30
0.0
 11
157.910207
 21
45.407824
 31
0.0
  0
LINE
  5
728
330
1F
100
AcDbEntity
  8
0
  6
CONTINUOUS
 62
     3
100
AcDbLine
 10
159.370411
 20
53.677722
 30
0.0
 11
159.370411
 21
45.407824
 31
0.0
  0
ARC
  5
729
330
1F
100
AcDbEntity
  8
0
  6
CONTINUOUS
 62
     3
100
AcDbCircle
 10
158.640309
 20
45.407824
 30
0.0
 40
0.7301013147692098
100
AcDbArc
 50
180.000002
 51
359.999998
  0
LINE
  5
72A
330
1F
100
AcDbEntity
  8
0
  6
CONTINUOUS
 62
     3
100
AcDbLine
 10
155.311703
 20
53.693424
 30
0.0
 11
155.311703
 21
45.423526
 31
0.0
  0
LINE
  5
72B
330
1F
100
AcDbEntity
  8
0
  6
CONTINUOUS
 62
     3
100
AcDbLine
 10
156.771907
 20
53.693424
 30
0.0
 11
156.771907
 21
45.423526
 31
0.0
  0
ARC
  5
72C
330
1F
100
AcDbEntity
  8
0
  6
CONTINUOUS
 62
     3
100
AcDbCircle
 10
156.041805
 20
45.423526
 30
0.0
 40
0.7301013147692098
100
AcDbArc
 50
180.000002
 51
359.999998
  0
LINE
  5
72D
330
1F
100
AcDbEntity
  8
0
  6
CONTINUOUS
 62
     3
100
AcDbLine
 10
152.713201
 20
53.709126
 30
0.0
 11
152.713201
 21
45.439228
 31
0.0
  0
LINE
  5
72E
330
1F
100
AcDbEntity
  8
0
  6
CONTINUOUS
 62
     3
100
AcDbLine
 10
154.173405
 20
53.709126
 30
0.0
 11
154.173405
 21
45.439228
 31
0.0
  0
ARC
  5
72F
330
1F
100
AcDbEntity
  8
0
  6
CONTINUOUS
 62
     3
100
AcDbCircle
 10
153.443303
 20
45.439228
 30
0.0
 40
0.7301013147692098
100
AcDbArc
 50
180.000002
 51
359.999998
  0
LINE
  5
730
330
1F
100
AcDbEntity
  8
0
  6
CONTINUOUS
 62
     3
100
AcDbLine
 10
150.114697
 20
53.724828
 30
0.0
 11
150.114697
 21
45.45493
 31
0.0
  0
LINE
  5
731
330
1F
100
AcDbEntity
  8
0
  6
CONTINUOUS
 62
     3
100
AcDbLine
 10
151.574901
 20
53.724828
 30
0.0
 11
151.574901
 21
45.45493
 31
0.0
  0
ARC
  5
732
330
1F
100
AcDbEntity
  8
0
  6
CONTINUOUS
 62
     3
100
AcDbCircle
 10
150.844799
 20
45.45493
 30
0.0
 40
0.7301013147692098
100
AcDbArc
 50
180.000002
 51
359.999998
  0
LINE
  5
733
330
1F
100
AcDbEntity
  8
0
  6
CONTINUOUS
 62
     3
100
AcDbLine
 10
147.516193
 20
53.74053
 30
0.0
 11
147.516193
 21
45.470632
 31
0.0
  0
LINE
  5
734
330
1F
100
AcDbEntity
  8
0
  6
CONTINUOUS
 62
     3
100
AcDbLine
 10
148.976397
 20
53.74053
 30
0.0
 11
148.976397
 21
45.470632
 31
0.0
  0
ARC
  5
735
330
1F
100
AcDbEntity
  8
0
  6
CONTINUOUS
 62
     3
100
AcDbCircle
 10
148.246295
 20
45.470632
 30
0.0
 40
0.7301013147692098
100
AcDbArc
 50
180.000002
 51
359.999998
  0
LINE
  5
736
330
1F
100
AcDbEntity
  8
0
  6
CONTINUOUS
 62
     3
100
AcDbLine
 10
144.917691
 20
53.756232
 30
0.0
 11
144.917691
 21
45.486334
 31
0.0
  0
LINE
  5
737
330
1F
100
AcDbEntity
  8
0
  6
CONTINUOUS
 62
     3
100
AcDbLine
 10
146.377895
 20
53.756232
 30
0.0
 11
146.377895
 21
45.486334
 31
0.0
  0
ARC
  5
738
330
1F
100
AcDbEntity
  8
0
  6
CONTINUOUS
 62
     3
100
AcDbCircle
 10
145.647793
 20
45.486334
 30
0.0
 40
0.7301013147692098
100
AcDbArc
 50
180.000002
 51
359.999998
  0
LINE
  5
739
330
1F
100
AcDbEntity
  8
0
  6
CONTINUOUS
 62
     3
100
AcDbLine
 10
142.570991
 20
53.677722
 30
0.0
 11
142.570991
 21
45.407824
 31
0.0
  0
LINE
  5
73A
330
1F
100
AcDbEntity
  8
0
  6
CONTINUOUS
 62
     3
100
AcDbLine
 10
144.031195
 20
53.677722
 30
0.0
 11
144.031195
 21
45.407824
 31
0.0
  0
ARC
  5
73B
330
1F
100
AcDbEntity
  8
0
  6
CONTINUOUS
 62
     3
100
AcDbCircle
 10
143.301093
 20
45.407824
 30
0.0
 40
0.7301013147692098
100
AcDbArc
 50
180.000002
 51
359.999998
  0
LINE
  5
73C
330
1F
100
AcDbEntity
  8
0
  6
CONTINUOUS
 62
     3
100
AcDbLine
 10
119.170981
 20
54.040224
 30
0.0
 11
119.170981
 21
48.602926
 31
0.0
  0
LINE
  5
73D
330
1F
100
AcDbEntity
  8
0
  6
CONTINUOUS
 62
     3
100
AcDbLine
 10
136.003879
 20
54.040224
 30
0.0
 11
136.003879
 21
45.770326
 31
0.0
  0
LINE
  5
73E
330
1F
100
AcDbEntity
  8
CSLAYER2
  6
CONTINUOUS
 62
     3
100
AcDbLine
 10
121.246163
 20
90.026808
 30
0.0
 11
121.246163
 21
90.927326
 31
0.0
  0
LINE
  5
73F
330
1F
100
AcDbEntity
  8
CSLAYER2
  6
CONTINUOUS
 62
     3
100
AcDbLine
 10
127.437233
 20
90.927326
 30
0.0
 11
119.839101
 21
90.927326
 31
0.0
  0
LINE
  5
740
330
1F
100
AcDbEntity
  8
CSLAYER2
  6
CONTINUOUS
 62
     3
100
AcDbLine
 10
119.839101
 20
90.927326
 30
0.0
 11
119.839101
 21
93.178624
 31
0.0
  0
ARC
  5
741
330
1F
100
AcDbEntity
  8
CSLAYER2
  6
CONTINUOUS
 62
     3
100
AcDbCircle
 10
120.401927
 20
93.178624
 30
0.0
 40
0.5628245
100
AcDbArc
 50
90.0
 51
180.0
  0
LINE
  5
742
330
1F
100
AcDbEntity
  8
CSLAYER2
  6
CONTINUOUS
 62
     3
100
AcDbLine
 10
120.401927
 20
93.74145
 30
0.0
 11
127.437233
 21
93.74145
 31
0.0
  0
LINE
  5
743
330
1F
100
AcDbEntity
  8
CSLAYER2
  6
CONTINUOUS
 62
     3
100
AcDbLine
 10
123.956355
 20
90.927326
 30
0.0
 11
123.956355
 21
93.178624
 31
0.0
  0
INSERT
  5
747
330
1F
100
AcDbEntity
  8
0
100
AcDbBlockReference
  2
BLKF048
 10
0.0
 20
0.0
 30
0.0
  0
LINE
  5
759
330
1F
100
AcDbEntity
  8
CSLAYER2
  6
CONTINUOUS
 62
     3
100
AcDbLine
 10
120.795903
 20
48.602926
 30
0.0
 11
120.795903
 21
52.317568
 31
0.0
  0
LINE
  5
75A
330
1F
100
AcDbEntity
  8
CSLAYER2
  6
CONTINUOUS
 62
     3
100
AcDbLine
 10
121.415011
 20
41.173644
 30
0.0
 11
121.415011
 21
37.796698
 31
0.0
  0
LINE
  5
75B
330
1F
100
AcDbEntity
  8
CSLAYER2
  6
CONTINUOUS
 62
     3
100
AcDbLine
 10
121.415011
 20
37.796698
 30
0.0
 11
127.437233
 21
37.796698
 31
0.0
  0
LINE
  5
75C
330
1F
100
AcDbEntity
  8
CSLAYER2
  6
CONTINUOUS
 62
     3
100
AcDbLine
 10
120.795903
 20
52.317568
 30
0.0
 11
127.437233
 21
52.317568
 31
0.0
  0
INSERT
  5
760
330
1F
100
AcDbEntity
  8
0
100
AcDbBlockReference
  2
BLKF049
 10
0.0
 20
0.0
 30
0.0
  0
INSERT
  5
776
330
1F
100
AcDbEntity
  8
0
100
AcDbBlockReference
  2
BLKF050
 10
0.0
 20
0.0
 30
0.0
  0
LINE
  5
789
330
1F
100
AcDbEntity
  8
CSLAYER2
  6
CONTINUOUS
 62
     3
100
AcDbLine
 10
124.406329
 20
53.612064
 30
0.0
 11
124.406329
 21
58.227226
 31
0.0
  0
LINE
  5
78A
330
1F
100
AcDbEntity
  8
CSLAYER2
  6
CONTINUOUS
 62
     3
100
AcDbLine
 10
124.406329
 20
53.612064
 30
0.0
 11
118.994865
 21
53.612064
 31
0.0
  0
LINE
  5
78B
330
1F
100
AcDbEntity
  8
CSLAYER2
  6
CONTINUOUS
 62
     3
100
AcDbLine
 10
124.406329
 20
58.227226
 30
0.0
 11
118.994865
 21
58.227226
 31
0.0
  0
LINE
  5
78C
330
1F
100
AcDbEntity
  8
CSLAYER2
  6
CONTINUOUS
 62
     3
100
AcDbLine
 10
127.437233
 20
52.655264
 30
0.0
 11
119.951667
 21
52.655262
 31
0.0
  0
LINE
  5
78D
330
1F
100
AcDbEntity
  8
CSLAYER2
  6
CONTINUOUS
 62
     3
100
AcDbLine
 10
119.951667
 20
52.317568
 30
0.0
 11
119.951667
 21
52.655264
 31
0.0
  0
LINE
  5
78E
330
1F
100
AcDbEntity
  8
CSLAYER2
  6
CONTINUOUS
 62
     3
100
AcDbLine
 10
118.994865
 20
53.612064
 30
0.0
 11
119.951667
 21
52.655262
 31
0.0
  0
LINE
  5
78F
330
1F
100
AcDbEntity
  8
CSLAYER2
  6
CONTINUOUS
 62
     3
100
AcDbLine
 10
119.951667
 20
52.317568
 30
0.0
 11
127.437233
 21
52.317568
 31
0.0
  0
LINE
  5
790
330
1F
100
AcDbEntity
  8
CSLAYER2
  6
CONTINUOUS
 62
     3
100
AcDbLine
 10
118.994865
 20
58.227226
 30
0.0
 11
118.994865
 21
53.612064
 31
0.0
  0
LINE
  5
791
330
1F
100
AcDbEntity
  8
CSLAYER2
  6
CONTINUOUS
 62
     3
100
AcDbLine
 10
119.839101
 20
59.071462
 30
0.0
 11
118.994865
 21
58.227226
 31
0.0
  0
LINE
  5
792
330
1F
100
AcDbEntity
  8
CSLAYER2
  6
CONTINUOUS
 62
     3
100
AcDbLine
 10
127.437233
 20
59.071462
 30
0.0
 11
119.839103
 21
59.071462
 31
0.0
  0
LINE
  5
793
330
1F
100
AcDbEntity
  8
CSLAYER2
  6
CONTINUOUS
 62
     3
100
AcDbLine
 10
127.437233
 20
90.026808
 30
0.0
 11
120.401927
 21
90.026808
 31
0.0
  0
LINE
  5
794
330
1F
100
AcDbEntity
  8
CSLAYER2
  6
CONTINUOUS
 62
     3
100
AcDbLine
 10
119.839101
 20
89.463984
 30
0.0
 11
119.839101
 21
59.071462
 31
0.0
  0
ARC
  5
795
330
1F
100
AcDbEntity
  8
CSLAYER2
  6
CONTINUOUS
 62
     3
100
AcDbCircle
 10
120.401927
 20
89.463984
 30
0.0
 40
0.5628245
100
AcDbArc
 50
90.0
 51
180.0
  0
LINE
  5
796
330
1F
100
AcDbEntity
  8
CSLAYER2
  6
CONTINUOUS
 62
     3
100
AcDbLine
 10
118.761243
 20
41.623904
 30
0.0
 11
118.761243
 21
48.152668
 31
0.0
  0
LINE
  5
797
330
1F
100
AcDbEntity
  8
CSLAYER2
  6
CONTINUOUS
 62
     3
100
AcDbLine
 10
118.904089
 20
41.623904
 30
0.0
 11
118.904089
 21
48.152668
 31
0.0
  0
LINE
  5
798
330
1F
100
AcDbEntity
  8
CSLAYER2
  6
CONTINUOUS
 62
     3
100
AcDbLine
 10
119.140425
 20
41.623904
 30
0.0
 11
119.140425
 21
48.152668
 31
0.0
  0
LINE
  5
799
330
1F
100
AcDbEntity
  8
CSLAYER2
  6
CONTINUOUS
 62
     3
100
AcDbLine
 10
119.467663
 20
41.623904
 30
0.0
 11
119.467663
 21
48.152668
 31
0.0
  0
LINE
  5
79A
330
1F
100
AcDbEntity
  8
CSLAYER2
  6
CONTINUOUS
 62
     3
100
AcDbLine
 10
119.882217
 20
41.623904
 30
0.0
 11
119.882217
 21
48.152668
 31
0.0
  0
LINE
  5
79B
330
1F
100
AcDbEntity
  8
CSLAYER2
  6
CONTINUOUS
 62
     3
100
AcDbLine
 10
120.379547
 20
41.623904
 30
0.0
 11
120.379547
 21
48.152668
 31
0.0
  0
LINE
  5
79C
330
1F
100
AcDbEntity
  8
CSLAYER2
  6
CONTINUOUS
 62
     3
100
AcDbLine
 10
120.954201
 20
41.623904
 30
0.0
 11
120.954201
 21
48.152668
 31
0.0
  0
LINE
  5
79D
330
1F
100
AcDbEntity
  8
CSLAYER2
  6
CONTINUOUS
 62
     3
100
AcDbLine
 10
121.599885
 20
41.623904
 30
0.0
 11
121.599885
 21
48.152668
 31
0.0
  0
LINE
  5
79E
330
1F
100
AcDbEntity
  8
CSLAYER2
  6
CONTINUOUS
 62
     3
100
AcDbLine
 10
122.309523
 20
41.623904
 30
0.0
 11
122.309523
 21
48.152668
 31
0.0
  0
LINE
  5
79F
330
1F
100
AcDbEntity
  8
CSLAYER2
  6
CONTINUOUS
 62
     3
100
AcDbLine
 10
123.075343
 20
41.623904
 30
0.0
 11
123.075343
 21
48.152668
 31
0.0
  0
LINE
  5
7A0
330
1F
100
AcDbEntity
  8
CSLAYER2
  6
CONTINUOUS
 62
     3
100
AcDbLine
 10
123.888951
 20
41.623904
 30
0.0
 11
123.888951
 21
48.152668
 31
0.0
  0
LINE
  5
7A1
330
1F
100
AcDbEntity
  8
CSLAYER2
  6
CONTINUOUS
 62
     3
100
AcDbLine
 10
124.741437
 20
41.623904
 30
0.0
 11
124.741437
 21
48.152668
 31
0.0
  0
LINE
  5
7A2
330
1F
100
AcDbEntity
  8
CSLAYER2
  6
CONTINUOUS
 62
     3
100
AcDbLine
 10
125.623457
 20
41.623904
 30
0.0
 11
125.623457
 21
48.152668
 31
0.0
  0
LINE
  5
7A3
330
1F
100
AcDbEntity
  8
CSLAYER2
  6
CONTINUOUS
 62
     3
100
AcDbLine
 10
126.525349
 20
41.623904
 30
0.0
 11
126.525349
 21
48.152668
 31
0.0
  0
LINE
  5
7A4
330
1F
100
AcDbEntity
  8
CSLAYER2
  6
CONTINUOUS
 62
     3
100
AcDbLine
 10
127.437233
 20
48.152668
 30
0.0
 11
118.713453
 21
48.152668
 31
0.0
  0
LINE
  5
7A5
330
1F
100
AcDbEntity
  8
CSLAYER2
  6
CONTINUOUS
 62
     3
100
AcDbLine
 10
127.437233
 20
41.623904
 30
0.0
 11
118.713453
 21
41.623904
 31
0.0
  0
LINE
  5
7A6
330
1F
100
AcDbEntity
  8
CSLAYER2
  6
CONTINUOUS
 62
     3
100
AcDbLine
 10
118.713453
 20
48.152668
 30
0.0
 11
119.163713
 21
48.602926
 31
0.0
  0
LINE
  5
7A7
330
1F
100
AcDbEntity
  8
CSLAYER2
  6
CONTINUOUS
 62
     3
100
AcDbLine
 10
127.437233
 20
48.602926
 30
0.0
 11
119.163713
 21
48.602926
 31
0.0
  0
LINE
  5
7A8
330
1F
100
AcDbEntity
  8
CSLAYER2
  6
CONTINUOUS
 62
     3
100
AcDbLine
 10
118.713453
 20
41.623904
 30
0.0
 11
118.713453
 21
48.152668
 31
0.0
  0
LINE
  5
7A9
330
1F
100
AcDbEntity
  8
CSLAYER2
  6
CONTINUOUS
 62
     3
100
AcDbLine
 10
119.163713
 20
41.173644
 30
0.0
 11
118.713453
 21
41.623904
 31
0.0
  0
LINE
  5
7AA
330
1F
100
AcDbEntity
  8
CSLAYER2
  6
CONTINUOUS
 62
     3
100
AcDbLine
 10
127.437233
 20
41.173644
 30
0.0
 11
119.163713
 21
41.173644
 31
0.0
  0
LINE
  5
7AB
330
1F
100
AcDbEntity
  8
CSLAYER2
  6
CONTINUOUS
 62
     3
100
AcDbLine
 10
133.628301
 20
90.026808
 30
0.0
 11
133.628301
 21
90.927326
 31
0.0
  0
LINE
  5
7AC
330
1F
100
AcDbEntity
  8
CSLAYER2
  6
CONTINUOUS
 62
     3
100
AcDbLine
 10
127.437233
 20
90.927326
 30
0.0
 11
135.035363
 21
90.927326
 31
0.0
  0
LINE
  5
7AD
330
1F
100
AcDbEntity
  8
CSLAYER2
  6
CONTINUOUS
 62
     3
100
AcDbLine
 10
135.035363
 20
90.927326
 30
0.0
 11
135.035363
 21
93.178624
 31
0.0
  0
ARC
  5
7AE
330
1F
100
AcDbEntity
  8
CSLAYER2
  6
CONTINUOUS
 62
     3
100
AcDbCircle
 10
134.472539
 20
93.178624
 30
0.0
 40
0.5628245
100
AcDbArc
 50
0.0
 51
90.0
  0
LINE
  5
7AF
330
1F
100
AcDbEntity
  8
CSLAYER2
  6
CONTINUOUS
 62
     3
100
AcDbLine
 10
134.472539
 20
93.74145
 30
0.0
 11
127.437233
 21
93.74145
 31
0.0
  0
LINE
  5
7B0
330
1F
100
AcDbEntity
  8
CSLAYER2
  6
CONTINUOUS
 62
     3
100
AcDbLine
 10
130.918109
 20
90.927326
 30
0.0
 11
130.918109
 21
93.178624
 31
0.0
  0
INSERT
  5
7B4
330
1F
100
AcDbEntity
  8
0
100
AcDbBlockReference
  2
BLKF051
 10
0.0
 20
0.0
 30
0.0
  0
LINE
  5
7C6
330
1F
100
AcDbEntity
  8
CSLAYER2
  6
CONTINUOUS
 62
     3
100
AcDbLine
 10
134.078561
 20
48.602926
 30
0.0
 11
134.078561
 21
52.317568
 31
0.0
  0
LINE
  5
7C7
330
1F
100
AcDbEntity
  8
CSLAYER2
  6
CONTINUOUS
 62
     3
100
AcDbLine
 10
133.459455
 20
41.173644
 30
0.0
 11
133.459455
 21
37.796698
 31
0.0
  0
LINE
  5
7C8
330
1F
100
AcDbEntity
  8
CSLAYER2
  6
CONTINUOUS
 62
     3
100
AcDbLine
 10
133.459455
 20
37.796698
 30
0.0
 11
127.437233
 21
37.796698
 31
0.0
  0
LINE
  5
7C9
330
1F
100
AcDbEntity
  8
CSLAYER2
  6
CONTINUOUS
 62
     3
100
AcDbLine
 10
134.078561
 20
52.317568
 30
0.0
 11
127.437233
 21
52.317568
 31
0.0
  0
INSERT
  5
7CD
330
1F
100
AcDbEntity
  8
0
100
AcDbBlockReference
  2
BLKF052
 10
0.0
 20
0.0
 30
0.0
  0
INSERT
  5
7E3
330
1F
100
AcDbEntity
  8
0
100
AcDbBlockReference
  2
BLKF053
 10
0.0
 20
0.0
 30
0.0
  0
LINE
  5
7F6
330
1F
100
AcDbEntity
  8
CSLAYER2
  6
CONTINUOUS
 62
     3
100
AcDbLine
 10
130.468135
 20
53.612064
 30
0.0
 11
130.468135
 21
58.227226
 31
0.0
  0
LINE
  5
7F7
330
1F
100
AcDbEntity
  8
CSLAYER2
  6
CONTINUOUS
 62
     3
100
AcDbLine
 10
130.468135
 20
53.612064
 30
0.0
 11
135.879599
 21
53.612064
 31
0.0
  0
LINE
  5
7F8
330
1F
100
AcDbEntity
  8
CSLAYER2
  6
CONTINUOUS
 62
     3
100
AcDbLine
 10
130.468135
 20
58.227226
 30
0.0
 11
135.879599
 21
58.227226
 31
0.0
  0
LINE
  5
7F9
330
1F
100
AcDbEntity
  8
CSLAYER2
  6
CONTINUOUS
 62
     3
100
AcDbLine
 10
127.437233
 20
52.655264
 30
0.0
 11
134.922797
 21
52.655262
 31
0.0
  0
LINE
  5
7FA
330
1F
100
AcDbEntity
  8
CSLAYER2
  6
CONTINUOUS
 62
     3
100
AcDbLine
 10
134.922797
 20
52.317568
 30
0.0
 11
134.922797
 21
52.655264
 31
0.0
  0
LINE
  5
7FB
330
1F
100
AcDbEntity
  8
CSLAYER2
  6
CONTINUOUS
 62
     3
100
AcDbLine
 10
135.879599
 20
53.612064
 30
0.0
 11
134.922797
 21
52.655262
 31
0.0
  0
LINE
  5
7FC
330
1F
100
AcDbEntity
  8
CSLAYER2
  6
CONTINUOUS
 62
     3
100
AcDbLine
 10
134.922797
 20
52.317568
 30
0.0
 11
127.437233
 21
52.317568
 31
0.0
  0
LINE
  5
7FD
330
1F
100
AcDbEntity
  8
CSLAYER2
  6
CONTINUOUS
 62
     3
100
AcDbLine
 10
135.879599
 20
58.227226
 30
0.0
 11
135.879599
 21
53.612064
 31
0.0
  0
LINE
  5
7FE
330
1F
100
AcDbEntity
  8
CSLAYER2
  6
CONTINUOUS
 62
     3
100
AcDbLine
 10
135.035363
 20
59.071462
 30
0.0
 11
135.879599
 21
58.227226
 31
0.0
  0
LINE
  5
7FF
330
1F
100
AcDbEntity
  8
CSLAYER2
  6
CONTINUOUS
 62
     3
100
AcDbLine
 10
127.437233
 20
59.071462
 30
0.0
 11
135.035363
 21
59.071462
 31
0.0
  0
LINE
  5
800
330
1F
100
AcDbEntity
  8
CSLAYER2
  6
CONTINUOUS
 62
     3
100
AcDbLine
 10
127.437233
 20
90.026808
 30
0.0
 11
134.472539
 21
90.026808
 31
0.0
  0
LINE
  5
801
330
1F
100
AcDbEntity
  8
CSLAYER2
  6
CONTINUOUS
 62
     3
100
AcDbLine
 10
135.035363
 20
89.463984
 30
0.0
 11
135.035363
 21
59.071462
 31
0.0
  0
ARC
  5
802
330
1F
100
AcDbEntity
  8
CSLAYER2
  6
CONTINUOUS
 62
     3
100
AcDbCircle
 10
134.472539
 20
89.463984
 30
0.0
 40
0.5628245
100
AcDbArc
 50
0.0
 51
90.0
  0
LINE
  5
803
330
1F
100
AcDbEntity
  8
CSLAYER2
  6
CONTINUOUS
 62
     3
100
AcDbLine
 10
136.113221
 20
41.623904
 30
0.0
 11
136.113221
 21
48.152668
 31
0.0
  0
LINE
  5
804
330
1F
100
AcDbEntity
  8
CSLAYER2
  6
CONTINUOUS
 62
     3
100
AcDbLine
 10
135.970375
 20
41.623904
 30
0.0
 11
135.970375
 21
48.152668
 31
0.0
  0
LINE
  5
805
330
1F
100
AcDbEntity
  8
CSLAYER2
  6
CONTINUOUS
 62
     3
100
AcDbLine
 10
135.734039
 20
41.623904
 30
0.0
 11
135.734039
 21
48.152668
 31
0.0
  0
LINE
  5
806
330
1F
100
AcDbEntity
  8
CSLAYER2
  6
CONTINUOUS
 62
     3
100
AcDbLine
 10
135.406801
 20
41.623904
 30
0.0
 11
135.406801
 21
48.152668
 31
0.0
  0
LINE
  5
807
330
1F
100
AcDbEntity
  8
CSLAYER2
  6
CONTINUOUS
 62
     3
100
AcDbLine
 10
134.992247
 20
41.623904
 30
0.0
 11
134.992247
 21
48.152668
 31
0.0
  0
LINE
  5
808
330
1F
100
AcDbEntity
  8
CSLAYER2
  6
CONTINUOUS
 62
     3
100
AcDbLine
 10
134.494917
 20
41.623904
 30
0.0
 11
134.494917
 21
48.152668
 31
0.0
  0
LINE
  5
809
330
1F
100
AcDbEntity
  8
CSLAYER2
  6
CONTINUOUS
 62
     3
100
AcDbLine
 10
133.920263
 20
41.623904
 30
0.0
 11
133.920263
 21
48.152668
 31
0.0
  0
LINE
  5
80A
330
1F
100
AcDbEntity
  8
CSLAYER2
  6
CONTINUOUS
 62
     3
100
AcDbLine
 10
133.274581
 20
41.623904
 30
0.0
 11
133.274581
 21
48.152668
 31
0.0
  0
LINE
  5
80B
330
1F
100
AcDbEntity
  8
CSLAYER2
  6
CONTINUOUS
 62
     3
100
AcDbLine
 10
132.564941
 20
41.623904
 30
0.0
 11
132.564941
 21
48.152668
 31
0.0
  0
LINE
  5
80C
330
1F
100
AcDbEntity
  8
CSLAYER2
  6
CONTINUOUS
 62
     3
100
AcDbLine
 10
131.799121
 20
41.623904
 30
0.0
 11
131.799121
 21
48.152668
 31
0.0
  0
LINE
  5
80D
330
1F
100
AcDbEntity
  8
CSLAYER2
  6
CONTINUOUS
 62
     3
100
AcDbLine
 10
130.985513
 20
41.623904
 30
0.0
 11
130.985513
 21
48.152668
 31
0.0
  0
LINE
  5
80E
330
1F
100
AcDbEntity
  8
CSLAYER2
  6
CONTINUOUS
 62
     3
100
AcDbLine
 10
130.133029
 20
41.623904
 30
0.0
 11
130.133029
 21
48.152668
 31
0.0
  0
LINE
  5
80F
330
1F
100
AcDbEntity
  8
CSLAYER2
  6
CONTINUOUS
 62
     3
100
AcDbLine
 10
129.251007
 20
41.623904
 30
0.0
 11
129.251007
 21
48.152668
 31
0.0
  0
LINE
  5
810
330
1F
100
AcDbEntity
  8
CSLAYER2
  6
CONTINUOUS
 62
     3
100
AcDbLine
 10
128.349115
 20
41.623904
 30
0.0
 11
128.349115
 21
48.152668
 31
0.0
  0
LINE
  5
811
330
1F
100
AcDbEntity
  8
CSLAYER2
  6
CONTINUOUS
 62
     3
100
AcDbLine
 10
127.437233
 20
48.152668
 30
0.0
 11
136.161011
 21
48.152668
 31
0.0
  0
LINE
  5
812
330
1F
100
AcDbEntity
  8
CSLAYER2
  6
CONTINUOUS
 62
     3
100
AcDbLine
 10
127.437233
 20
41.623904
 30
0.0
 11
136.161011
 21
41.623904
 31
0.0
  0
LINE
  5
813
330
1F
100
AcDbEntity
  8
CSLAYER2
  6
CONTINUOUS
 62
     3
100
AcDbLine
 10
136.161011
 20
48.152668
 30
0.0
 11
135.710751
 21
48.602926
 31
0.0
  0
LINE
  5
814
330
1F
100
AcDbEntity
  8
CSLAYER2
  6
CONTINUOUS
 62
     3
100
AcDbLine
 10
127.437233
 20
48.602926
 30
0.0
 11
135.710751
 21
48.602926
 31
0.0
  0
LINE
  5
815
330
1F
100
AcDbEntity
  8
CSLAYER2
  6
CONTINUOUS
 62
     3
100
AcDbLine
 10
136.161011
 20
41.623904
 30
0.0
 11
136.161011
 21
48.152668
 31
0.0
  0
LINE
  5
816
330
1F
100
AcDbEntity
  8
CSLAYER2
  6
CONTINUOUS
 62
     3
100
AcDbLine
 10
135.710751
 20
41.173644
 30
0.0
 11
136.161011
 21
41.623904
 31
0.0
  0
LINE
  5
817
330
1F
100
AcDbEntity
  8
CSLAYER2
  6
CONTINUOUS
 62
     3
100
AcDbLine
 10
127.437233
 20
41.173644
 30
0.0
 11
135.710751
 21
41.173644
 31
0.0
  0
LINE
  5
818
330
1F
100
AcDbEntity
  8
CSLAYER2
  6
CONTINUOUS
 62
     3
100
AcDbLine
 10
127.437233
 20
41.623904
 30
0.0
 11
127.437233
 21
48.152668
 31
0.0
  0
LINE
  5
819
330
1F
100
AcDbEntity
  8
0
  6
CONTINUOUS
 62
     3
100
AcDbLine
 10
157.395905
 20
131.438669
 30
0.0
 11
157.395905
 21
104.988868
 31
0.0
  0
LINE
  5
81A
330
1F
100
AcDbEntity
  8
0
  6
CONTINUOUS
 62
     3
100
AcDbLine
 10
145.995905
 20
131.284975
 30
0.0
 11
145.995905
 21
104.988868
 31
0.0
  0
LINE
  5
81B
330
1F
100
AcDbEntity
  8
0
  6
CONTINUOUS
 62
     3
100
AcDbLine
 10
132.081428
 20
93.74145
 30
0.0
 11
132.081428
 21
128.104436
 31
0.0
  0
LINE
  5
81C
330
1F
100
AcDbEntity
  8
0
  6
CONTINUOUS
 62
     3
100
AcDbLine
 10
122.767024
 20
93.74145
 30
0.0
 11
122.767024
 21
130.029856
 31
0.0
  0
DIMENSION
  5
81D
330
1F
100
AcDbEntity
  8
0
100
AcDbDimension
  2
*D52
 10
157.279796
 20
227.899754
 30
0.0
 11
59.679794
 21
228.899765
 31
0.0
 70
    32
  3
EDDIMINFO
100
AcDbAlignedDimension
 13
-37.9202
 23
214.597755
 33
0.0
 14
157.279796
 24
214.262747
 34
0.0
 50
180.0
100
AcDbRotatedDimension
1001
ACAD
1000
DSTYLE
1002
{
1070
     7
1000
EDTIP_ARROW_E
1070
     6
1000
EDTIP_ARROW_S
1070
   173
1070
     1
1002
}
  0
DIMENSION
  5
827
330
1F
100
AcDbEntity
  8
0
100
AcDbDimension
  2
*D53
 10
174.846594
 20
174.862751
 30
0.0
 11
173.846588
 21
150.462753
 31
0.0
 70
    32
  3
EDDIMINFO
100
AcDbAlignedDimension
 13
151.722304
 23
160.962755
 33
0.0
 14
156.779796
 24
174.862751
 34
0.0
 50
270.0
100
AcDbRotatedDimension
  0
DIMENSION
  5
833
330
1F
100
AcDbEntity
  8
0
100
AcDbDimension
  2
*D54
 10
183.966795
 20
174.862751
 30
0.0
 11
182.966782
 21
106.162392
 31
0.0
 70
    32
  3
EDDIMINFO
100
AcDbAlignedDimension
 13
163.072365
 23
37.46202
 33
0.0
 14
156.779796
 24
174.862751
 34
0.0
 50
270.0
100
AcDbRotatedDimension
1001
ACAD
1000
DSTYLE
1002
{
1070
     7
1000
EDTIP_ARROW_E
1070
     6
1000
EDTIP_ARROW_S
1070
   173
1070
     1
1002
}
  0
DIMENSION
  5
83D
330
1F
100
AcDbEntity
  8
0
100
AcDbDimension
  2
*D55
 10
-48.986429
 20
214.797743
 30
0.0
 11
-49.986431
 21
194.812759
 31
0.0
 70
    33
  3
EDDIMINFO
100
AcDbAlignedDimension
 13
-37.720196
 23
174.827749
 33
0.0
 14
-37.720196
 24
214.797743
 34
0.0
1001
ACAD
1000
DSTYLE
1002
{
1070
     7
1000
EDTIP_ARROW_E
1070
     6
1000
EDTIP_ARROW_S
1070
   173
1070
     1
1002
}
  0
ENDSEC
  0
SECTION
  2
OBJECTS
  0
DICTIONARY
  5
C
330
0
100
AcDbDictionary
  3
ACAD_GROUP
350
D
  3
ACAD_LAYOUT
350
1A
  3
ACAD_MLINESTYLE
350
17
  3
ACAD_PLOTSETTINGS
350
19
1001
ACAD
1000
TREAT_AS_HARD
1070
     0
  0
DICTIONARY
  5
D
102
{ACAD_REACTORS
330
C
102
}
330
C
100
AcDbDictionary
1001
ACAD
1000
TREAT_AS_HARD
1070
     0
  0
DICTIONARY
  5
1A
102
{ACAD_REACTORS
330
C
102
}
330
C
100
AcDbDictionary
1001
ACAD
1000
TREAT_AS_HARD
1070
     0
  0
DICTIONARY
  5
17
102
{ACAD_REACTORS
330
C
102
}
330
C
100
AcDbDictionary
  3
STANDARD
350
18
1001
ACAD
1000
TREAT_AS_HARD
1070
     0
  0
DICTIONARY
  5
19
102
{ACAD_REACTORS
330
C
102
}
330
C
100
AcDbDictionary
1001
ACAD
1000
TREAT_AS_HARD
1070
     0
  0
MLINESTYLE
  5
18
102
{ACAD_REACTORS
330
17
102
}
330
17
100
AcDbMlineStyle
  2
Standard
 70
     0
  3

 62
   256
 51
90.0
 52
90.0
 71
     2
 49
0.5
 62
   256
  6
BYLAYER
 49
-0.5
 62
   256
  6
BYLAYER
  0
ENDSEC
  0
EOF
