  0
SECTION
  2
HEADER
  9
$ACADVER
  1
AC1009
  9
$INSBASE
 10
0.000000000
 20
0.000000000
  9
$EXTMIN
 10
-100.920102802
 20
-25.505072464
  9
$EXTMAX
 10
376.175345314
 20
280.555797101
  9
$LIMMIN
 10
-100.920102802
 20
-25.505072464
  9
$LIMMAX
 10
376.175345314
 20
280.555797101
  9
$SNAPBASE
 10
0.000000000
 20
0.000000000
  9
$SNAPANG
 50
0.000000000
  9
$SNAPSTYLE
 70
0
  9
$GRIDMODE
 70
0
  9
$GRIDUNIT
 10
0.000000000
 20
0.000000000
  9
$DIMEXO
 40
0.000000000
  9
$DIMDLI
 40
8.000000000
  9
$DIMDLE
 40
0.000000000
  9
$DIMEXE
 40
1.000000000
  9
$DIMTIH
 70
1
  9
$DIMTOH
 70
1
  9
$DIMTAD
 70
2
  9
$DIMZIN
 70
0
  9
$FILLETRAD
 40
1.000000000
  9
$CHAMFERA
 40
1.000000000
  9
$CHAMFERB
 40
1.000000000
  9
$TDCREATE
 40
2454176.622951389
  9
$TDUPDATE
 40
2454176.622951389
  9
$ANGBASE
 50
0.000000000
  9
$ANGDIR
 70
0
  0
ENDSEC
  0
SECTION
  2
TABLES
  0
TABLE
  2
LTYPE
 70
4
  0
LTYPE
  2
CENTER
 70
64
  3
___ _ ___ _ __
 72
65
 73
4
 40
13.000000000
 49
8.500000000
 49
-1.500000000
 49
1.500000000
 49
-1.500000000
  0
LTYPE
  2
CONTINUOUS
 70
64
  3
______________
 72
65
 73
0
 40
0.000000000
  0
LTYPE
  2
DASHED
 70
64
  3
___ ___ ___ __
 72
65
 73
2
 40
5.000000119
 49
3.400000095
 49
-1.600000024
  0
LTYPE
  2
DIVIDE
 70
64
  3
___ . . ___ . 
 72
65
 73
6
 40
12.999999523
 49
5.199999809
 49
-2.599999905
 49
0.000000000
 49
-2.599999905
 49
0.000000000
 49
-2.599999905
  0
ENDTAB
  0
TABLE
  2
LAYER
 70
2
  0
LAYER
  2
1
 70
0
 62
7
  6
CONTINUOUS
999
Comment001
  0
LAYER
  2
3
 70
0
 62
7
  6
CONTINUOUS
999
LAYER0016
  0
LAYER
  2
_CONSTR
 70
0
 62
5
  6
CONTINUOUS
  0
ENDTAB
  0
TABLE
  2
STYLE
 70
1
  0
STYLE
  2
STANDARD
 70
64
 40
0.000000000
 41
1.000000000
 50
0.000000000
 71
0
 42
3.200000000
  3
TXT
  4
EXTFONT
  0
ENDTAB
  0
TABLE
  2
VIEW
 70
0
  0
ENDTAB
  0
ENDSEC
  0
SECTION
  2
BLOCKS
  0
BLOCK
  8
0
  2
blk7
 70
64
 10
0.000000000
 20
0.000000000
  3
blk7
  0
CIRCLE
  8
1
 62
7
  6
CONTINUOUS
 10
0.000000000
 20
0.000000000
 40
1.000000000
  0
ENDBLK
  8
0
  0
BLOCK
  8
0
  2
blk8
 70
64
 10
0.000000000
 20
0.000000000
  3
blk8
  0
CIRCLE
  8
1
 62
7
  6
CONTINUOUS
 10
0.000000000
 20
0.000000000
 40
1.000000000
  0
ENDBLK
  8
0
  0
BLOCK
  8
0
  2
*D79
 70
65
 10
0.000000000
 20
0.000000000
  3
*D
  0
TEXT
  8
1
 62
4
  6
CONTINUOUS
 72
5
 10
39.740888689
 20
166.419124638
 40
2.800000000
  1
φ
 41
1.270648030
 50
90.000000000
 11
39.740888689
 21
169.779124638
  0
TEXT
  8
1
 62
4
  6
CONTINUOUS
 72
5
 10
39.740888689
 20
171.459124638
 40
2.800000000
  1
16.9
 41
1.237498917
 50
90.000000000
 11
39.740888689
 21
180.699124638
  0
LINE
  8
1
 62
4
  6
CONTINUOUS
 10
56.110952199
 20
182.000724638
 11
39.945888689
 21
182.000724638
  0
POLYLINE
  8
1
 62
4
  6
CONTINUOUS
 66
1
  0
VERTEX
  8
1
 10
42.245888689
 20
180.000724638
  0
VERTEX
  8
1
 10
41.945888689
 20
182.000724638
  0
VERTEX
  8
1
 10
41.645888689
 20
180.000724638
  0
SEQEND
  8
1
  0
LINE
  8
1
 62
4
  6
CONTINUOUS
 10
41.945888689
 20
182.000724638
 11
41.945888689
 21
165.100724638
  0
POLYLINE
  8
1
 62
4
  6
CONTINUOUS
 66
1
  0
VERTEX
  8
1
 10
41.645888689
 20
167.100724638
  0
VERTEX
  8
1
 10
41.945888689
 20
165.100724638
  0
VERTEX
  8
1
 10
42.245888689
 20
167.100724638
  0
SEQEND
  8
1
  0
LINE
  8
1
 62
4
  6
CONTINUOUS
 10
56.110952199
 20
165.100724638
 11
39.945888689
 21
165.100724638
  0
ENDBLK
  8
0
  0
BLOCK
  8
0
  2
blk147
 70
64
 10
0.000000000
 20
0.000000000
  3
blk147
  0
CIRCLE
  8
1
 62
7
  6
CONTINUOUS
 10
0.000000000
 20
0.000000000
 40
1.000000000
  0
ENDBLK
  8
0
  0
BLOCK
  8
0
  2
blk148
 70
64
 10
0.000000000
 20
0.000000000
  3
blk148
  0
CIRCLE
  8
1
 62
7
  6
CONTINUOUS
 10
0.000000000
 20
0.000000000
 40
1.000000000
  0
ENDBLK
  8
0
  0
BLOCK
  8
0
  2
blk168
 70
64
 10
0.000000000
 20
0.000000000
  3
blk168
  0
CIRCLE
  8
1
 62
7
  6
CONTINUOUS
 10
0.000000000
 20
0.000000000
 40
1.000000000
  0
ENDBLK
  8
0
  0
BLOCK
  8
0
  2
blk252
 70
64
 10
0.000000000
 20
0.000000000
  3
blk252
  0
CIRCLE
  8
1
 62
7
  6
CONTINUOUS
 10
0.000000000
 20
0.000000000
 40
1.000000000
  0
ENDBLK
  8
0
  0
BLOCK
  8
0
  2
*D372
 70
65
 10
0.000000000
 20
0.000000000
  3
*D
  0
TEXT
  8
1
 62
4
  6
CONTINUOUS
 72
5
 10
23.740888689
 20
168.939124638
 40
2.800000000
  1
φ
 41
1.270648030
 50
90.000000000
 11
23.740888689
 21
172.299124638
  0
TEXT
  8
1
 62
4
  6
CONTINUOUS
 72
5
 10
23.740888689
 20
173.979124638
 40
2.800000000
  1
40
 41
1.000000667
 50
90.000000000
 11
23.740888689
 21
178.179124638
  0
LINE
  8
1
 62
4
  6
CONTINUOUS
 10
93.377645342
 20
193.550724638
 11
23.945888689
 21
193.550724638
  0
POLYLINE
  8
1
 62
4
  6
CONTINUOUS
 66
1
  0
VERTEX
  8
1
 10
26.245888689
 20
191.550724638
  0
VERTEX
  8
1
 10
25.945888689
 20
193.550724638
  0
VERTEX
  8
1
 10
25.645888689
 20
191.550724638
  0
SEQEND
  8
1
  0
LINE
  8
1
 62
4
  6
CONTINUOUS
 10
25.945888689
 20
193.550724638
 11
25.945888689
 21
153.550724638
  0
POLYLINE
  8
1
 62
4
  6
CONTINUOUS
 66
1
  0
VERTEX
  8
1
 10
25.645888689
 20
155.550724638
  0
VERTEX
  8
1
 10
25.945888689
 20
153.550724638
  0
VERTEX
  8
1
 10
26.245888689
 20
155.550724638
  0
SEQEND
  8
1
  0
LINE
  8
1
 62
4
  6
CONTINUOUS
 10
93.377645342
 20
153.550724638
 11
23.945888689
 21
153.550724638
  0
ENDBLK
  8
0
  0
BLOCK
  8
0
  2
*D610
 70
65
 10
0.000000000
 20
0.000000000
  3
*D
  0
TEXT
  8
1
 62
4
  6
CONTINUOUS
 72
5
 10
289.325791304
 20
249.255724638
 40
2.800000000
  1
50
 41
1.000000667
 11
293.525791304
 21
249.255724638
  0
LINE
  8
1
 62
4
  6
CONTINUOUS
 10
316.417391304
 20
207.149463698
 11
316.417391304
 21
249.050724638
  0
POLYLINE
  8
1
 62
4
  6
CONTINUOUS
 66
1
  0
VERTEX
  8
1
 10
314.417391304
 20
246.750724638
  0
VERTEX
  8
1
 10
316.417391304
 20
247.050724638
  0
VERTEX
  8
1
 10
314.417391304
 20
247.350724638
  0
SEQEND
  8
1
  0
LINE
  8
1
 62
4
  6
CONTINUOUS
 10
316.417391304
 20
247.050724638
 11
266.417391304
 21
247.050724638
  0
POLYLINE
  8
1
 62
4
  6
CONTINUOUS
 66
1
  0
VERTEX
  8
1
 10
268.417391304
 20
247.350724638
  0
VERTEX
  8
1
 10
266.417391304
 20
247.050724638
  0
VERTEX
  8
1
 10
268.417391304
 20
246.750724638
  0
SEQEND
  8
1
  0
LINE
  8
1
 62
4
  6
CONTINUOUS
 10
266.417391304
 20
223.050724638
 11
266.417391304
 21
249.050724638
  0
ENDBLK
  8
0
  0
BLOCK
  8
0
  2
*D612
 70
65
 10
0.000000000
 20
0.000000000
  3
*D
  0
TEXT
  8
1
 62
4
  6
CONTINUOUS
 72
5
 10
258.815791304
 20
241.255724638
 40
2.800000000
  1
8.5
 41
1.199998800
 11
265.535791304
 21
241.255724638
  0
LINE
  8
1
 62
4
  6
CONTINUOUS
 10
257.917391304
 20
225.550724638
 11
257.917391304
 21
241.050724638
  0
POLYLINE
  8
1
 62
4
  6
CONTINUOUS
 66
1
  0
VERTEX
  8
1
 10
255.917391304
 20
239.350724638
  0
VERTEX
  8
1
 10
257.917391304
 20
239.050724638
  0
SEQEND
  8
1
  0
POLYLINE
  8
1
 62
4
  6
CONTINUOUS
 66
1
  0
VERTEX
  8
1
 10
254.917391304
 20
239.050724638
  0
VERTEX
  8
1
 10
257.917391304
 20
239.050724638
  0
VERTEX
  8
1
 10
255.917391304
 20
238.750724638
  0
SEQEND
  8
1
  0
LINE
  8
1
 62
4
  6
CONTINUOUS
 10
257.917391304
 20
239.050724638
 11
266.417391304
 21
239.050724638
  0
POLYLINE
  8
1
 62
4
  6
CONTINUOUS
 66
1
  0
VERTEX
  8
1
 10
268.417391304
 20
238.750724638
  0
VERTEX
  8
1
 10
266.417391304
 20
239.050724638
  0
SEQEND
  8
1
  0
POLYLINE
  8
1
 62
4
  6
CONTINUOUS
 66
1
  0
VERTEX
  8
1
 10
269.417391304
 20
239.050724638
  0
VERTEX
  8
1
 10
266.417391304
 20
239.050724638
  0
VERTEX
  8
1
 10
268.417391304
 20
239.350724638
  0
SEQEND
  8
1
  0
LINE
  8
1
 62
4
  6
CONTINUOUS
 10
266.417391304
 20
223.050724638
 11
266.417391304
 21
241.050724638
  0
ENDBLK
  8
0
  0
BLOCK
  8
0
  2
*D614
 70
65
 10
0.000000000
 20
0.000000000
  3
*D
  0
TEXT
  8
1
 62
4
  6
CONTINUOUS
 72
5
 10
53.500039997
 20
257.255724638
 40
2.800000000
  1
(
 41
1.800001800
 11
55.180039997
 21
257.255724638
  0
TEXT
  8
1
 62
4
  6
CONTINUOUS
 72
5
 10
56.020039997
 20
257.255724638
 40
2.800000000
  1
17.4
 41
1.237498917
 11
65.260039997
 21
257.255724638
  0
TEXT
  8
1
 62
4
  6
CONTINUOUS
 72
5
 10
66.100039997
 20
257.255724638
 40
2.800000000
  1
)
 41
1.800001800
 11
67.780039997
 21
257.255724638
  0
POLYLINE
  8
1
 62
4
  6
CONTINUOUS
 66
1
  0
VERTEX
  8
1
 10
67.317391304
 20
254.750724638
  0
VERTEX
  8
1
 10
69.317391304
 20
255.050724638
  0
VERTEX
  8
1
 10
67.317391304
 20
255.350724638
  0
SEQEND
  8
1
  0
LINE
  8
1
 62
4
  6
CONTINUOUS
 10
69.317391304
 20
255.050724638
 11
51.945888689
 21
255.050724638
  0
POLYLINE
  8
1
 62
4
  6
CONTINUOUS
 66
1
  0
VERTEX
  8
1
 10
53.945888689
 20
255.350724638
  0
VERTEX
  8
1
 10
51.945888689
 20
255.050724638
  0
VERTEX
  8
1
 10
53.945888689
 20
254.750724638
  0
SEQEND
  8
1
  0
LINE
  8
1
 62
4
  6
CONTINUOUS
 10
51.945888689
 20
179.173374368
 11
51.945888689
 21
257.050724638
  0
ENDBLK
  8
0
  0
BLOCK
  8
0
  2
*D616
 70
65
 10
0.000000000
 20
0.000000000
  3
*D
  0
TEXT
  8
1
 62
4
  6
CONTINUOUS
 72
5
 10
184.475791304
 20
257.255724638
 40
2.800000000
  1
(
 41
1.800001800
 11
186.155791304
 21
257.255724638
  0
TEXT
  8
1
 62
4
  6
CONTINUOUS
 72
5
 10
186.995791304
 20
257.255724638
 40
2.800000000
  1
247.1
 41
1.145454754
 11
198.755791304
 21
257.255724638
  0
TEXT
  8
1
 62
4
  6
CONTINUOUS
 72
5
 10
199.595791304
 20
257.255724638
 40
2.800000000
  1
)
 41
1.800001800
 11
201.275791304
 21
257.255724638
  0
LINE
  8
1
 62
4
  6
CONTINUOUS
 10
69.317391304
 20
188.050724638
 11
69.317391304
 21
257.050724638
  0
POLYLINE
  8
1
 62
4
  6
CONTINUOUS
 66
1
  0
VERTEX
  8
1
 10
71.317391304
 20
255.350724638
  0
VERTEX
  8
1
 10
69.317391304
 20
255.050724638
  0
VERTEX
  8
1
 10
71.317391304
 20
254.750724638
  0
SEQEND
  8
1
  0
LINE
  8
1
 62
4
  6
CONTINUOUS
 10
69.317391304
 20
255.050724638
 11
316.417391304
 21
255.050724638
  0
POLYLINE
  8
1
 62
4
  6
CONTINUOUS
 66
1
  0
VERTEX
  8
1
 10
314.417391304
 20
254.750724638
  0
VERTEX
  8
1
 10
316.417391304
 20
255.050724638
  0
VERTEX
  8
1
 10
314.417391304
 20
255.350724638
  0
SEQEND
  8
1
  0
LINE
  8
1
 62
4
  6
CONTINUOUS
 10
316.417391304
 20
207.149463698
 11
316.417391304
 21
257.050724638
  0
ENDBLK
  8
0
  0
BLOCK
  8
0
  2
*D617
 70
65
 10
0.000000000
 20
0.000000000
  3
*D
  0
TEXT
  8
1
 62
4
  6
CONTINUOUS
 72
5
 10
97.276499161
 20
249.255724638
 40
2.800000000
  1
(
 41
1.800001800
 11
98.956499161
 21
249.255724638
  0
TEXT
  8
1
 62
4
  6
CONTINUOUS
 72
5
 10
99.796499161
 20
249.255724638
 40
2.800000000
  1
70.2
 41
1.164705197
 11
109.036499161
 21
249.255724638
  0
TEXT
  8
1
 62
4
  6
CONTINUOUS
 72
5
 10
109.876499161
 20
249.255724638
 40
2.800000000
  1
)
 41
1.800001800
 11
111.556499161
 21
249.255724638
  0
LINE
  8
1
 62
4
  6
CONTINUOUS
 10
69.317391304
 20
188.050724638
 11
69.317391304
 21
249.050724638
  0
POLYLINE
  8
1
 62
4
  6
CONTINUOUS
 66
1
  0
VERTEX
  8
1
 10
71.317391304
 20
247.350724638
  0
VERTEX
  8
1
 10
69.317391304
 20
247.050724638
  0
VERTEX
  8
1
 10
71.317391304
 20
246.750724638
  0
SEQEND
  8
1
  0
LINE
  8
1
 62
4
  6
CONTINUOUS
 10
69.317391304
 20
247.050724638
 11
139.498807017
 21
247.050724638
  0
POLYLINE
  8
1
 62
4
  6
CONTINUOUS
 66
1
  0
VERTEX
  8
1
 10
137.498807017
 20
246.750724638
  0
VERTEX
  8
1
 10
139.498807017
 20
247.050724638
  0
VERTEX
  8
1
 10
137.498807017
 20
247.350724638
  0
SEQEND
  8
1
  0
LINE
  8
1
 62
4
  6
CONTINUOUS
 10
139.498807017
 20
193.550724638
 11
139.498807017
 21
249.050724638
  0
ENDBLK
  8
0
  0
BLOCK
  8
0
  2
*D618
 70
65
 10
0.000000000
 20
0.000000000
  3
*D
  0
TEXT
  8
1
 62
4
  6
CONTINUOUS
 72
5
 10
194.566499161
 20
249.255724638
 40
2.800000000
  1
(
 41
1.800001800
 11
196.246499161
 21
249.255724638
  0
TEXT
  8
1
 62
4
  6
CONTINUOUS
 72
5
 10
197.086499161
 20
249.255724638
 40
2.800000000
  1
126.9
 41
1.145453817
 11
208.846499161
 21
249.255724638
  0
TEXT
  8
1
 62
4
  6
CONTINUOUS
 72
5
 10
209.686499161
 20
249.255724638
 40
2.800000000
  1
)
 41
1.800001800
 11
211.366499161
 21
249.255724638
  0
POLYLINE
  8
1
 62
4
  6
CONTINUOUS
 66
1
  0
VERTEX
  8
1
 10
141.498807017
 20
247.350724638
  0
VERTEX
  8
1
 10
139.498807017
 20
247.050724638
  0
VERTEX
  8
1
 10
141.498807017
 20
246.750724638
  0
SEQEND
  8
1
  0
LINE
  8
1
 62
4
  6
CONTINUOUS
 10
139.498807017
 20
247.050724638
 11
266.417391304
 21
247.050724638
  0
POLYLINE
  8
1
 62
4
  6
CONTINUOUS
 66
1
  0
VERTEX
  8
1
 10
264.417391304
 20
246.750724638
  0
VERTEX
  8
1
 10
266.417391304
 20
247.050724638
  0
VERTEX
  8
1
 10
264.417391304
 20
247.350724638
  0
SEQEND
  8
1
  0
LINE
  8
1
 62
4
  6
CONTINUOUS
 10
266.417391304
 20
223.050724638
 11
266.417391304
 21
249.050724638
  0
ENDBLK
  8
0
  0
BLOCK
  8
0
  2
*D623
 70
65
 10
0.000000000
 20
0.000000000
  3
*D
  0
TEXT
  8
1
 62
4
  6
CONTINUOUS
 72
5
 10
156.448736274
 20
229.612063295
 40
2.800000000
  1
60
 41
1.000000667
 50
330.000000000
 11
160.086042970
 21
227.512063295
  0
TEXT
  8
1
 62
4
  6
CONTINUOUS
 72
5
 10
160.813504309
 20
227.092063295
 40
2.800000000
  1
°
 41
1.270648030
 50
330.000000000
 11
163.723349666
 21
225.412063295
  0
LINE
  8
1
 62
4
  6
CONTINUOUS
 10
139.498807017
 20
193.550724638
 11
173.706810467
 21
213.300724638
  0
POLYLINE
  8
1
 62
4
  6
CONTINUOUS
 66
1
  0
VERTEX
  8
1
 10
170.714952038
 20
213.882775445
  0
VERTEX
  8
1
 10
171.974759659
 20
212.300724638
  0
VERTEX
  8
1
 10
171.234567280
 20
214.182775445
  0
SEQEND
  8
1
  0
ARC
  8
1
 62
4
  6
CONTINUOUS
 10
139.498807017
 20
193.550724638
 40
37.500000000
 50
30.000000000
 51
90.000000000
  0
POLYLINE
  8
1
 62
4
  6
CONTINUOUS
 66
1
  0
VERTEX
  8
1
 10
141.498807017
 20
231.350724638
  0
VERTEX
  8
1
 10
139.498807017
 20
231.050724638
  0
VERTEX
  8
1
 10
141.498807017
 20
230.750724638
  0
SEQEND
  8
1
  0
LINE
  8
1
 62
4
  6
CONTINUOUS
 10
139.498807017
 20
199.034825736
 11
139.498807017
 21
233.050724638
  0
ENDBLK
  8
0
  0
BLOCK
  8
0
  2
*D629
 70
65
 10
0.000000000
 20
0.000000000
  3
*D
  0
TEXT
  8
1
 62
4
  6
CONTINUOUS
 72
5
 10
334.212391304
 20
167.679124638
 40
2.800000000
  1
φ
 41
1.270648030
 50
90.000000000
 11
334.212391304
 21
171.039124638
  0
TEXT
  8
1
 62
4
  6
CONTINUOUS
 72
5
 10
334.212391304
 20
172.719124638
 40
2.800000000
  1
100
 41
1.200000600
 50
90.000000000
 11
334.212391304
 21
179.439124638
  0
LINE
  8
1
 62
4
  6
CONTINUOUS
 10
265.917391304
 20
223.550724638
 11
338.417391304
 21
223.550724638
  0
POLYLINE
  8
1
 62
4
  6
CONTINUOUS
 66
1
  0
VERTEX
  8
1
 10
336.717391304
 20
221.550724638
  0
VERTEX
  8
1
 10
336.417391304
 20
223.550724638
  0
VERTEX
  8
1
 10
336.117391304
 20
221.550724638
  0
SEQEND
  8
1
  0
LINE
  8
1
 62
4
  6
CONTINUOUS
 10
336.417391304
 20
223.550724638
 11
336.417391304
 21
123.550724638
  0
POLYLINE
  8
1
 62
4
  6
CONTINUOUS
 66
1
  0
VERTEX
  8
1
 10
336.117391304
 20
125.550724638
  0
VERTEX
  8
1
 10
336.417391304
 20
123.550724638
  0
VERTEX
  8
1
 10
336.717391304
 20
125.550724638
  0
SEQEND
  8
1
  0
LINE
  8
1
 62
4
  6
CONTINUOUS
 10
265.917391304
 20
123.550724638
 11
338.417391304
 21
123.550724638
  0
ENDBLK
  8
0
  0
BLOCK
  8
0
  2
*D641
 70
65
 10
0.000000000
 20
0.000000000
  3
*D
  0
TEXT
  8
1
 62
4
  6
CONTINUOUS
 72
5
 10
31.740888689
 20
166.419124638
 40
2.800000000
  1
φ
 41
1.270648030
 50
90.000000000
 11
31.740888689
 21
169.779124638
  0
TEXT
  8
1
 62
4
  6
CONTINUOUS
 72
5
 10
31.740888689
 20
171.459124638
 40
2.800000000
  1
29.6
 41
1.099999267
 50
90.000000000
 11
31.740888689
 21
180.699124638
  0
LINE
  8
1
 62
4
  6
CONTINUOUS
 10
69.617391304
 20
188.350724638
 11
31.945888689
 21
188.350724638
  0
POLYLINE
  8
1
 62
4
  6
CONTINUOUS
 66
1
  0
VERTEX
  8
1
 10
34.245888689
 20
186.350724638
  0
VERTEX
  8
1
 10
33.945888689
 20
188.350724638
  0
VERTEX
  8
1
 10
33.645888689
 20
186.350724638
  0
SEQEND
  8
1
  0
LINE
  8
1
 62
4
  6
CONTINUOUS
 10
33.945888689
 20
188.350724638
 11
33.945888689
 21
158.750724638
  0
POLYLINE
  8
1
 62
4
  6
CONTINUOUS
 66
1
  0
VERTEX
  8
1
 10
33.645888689
 20
160.750724638
  0
VERTEX
  8
1
 10
33.945888689
 20
158.750724638
  0
VERTEX
  8
1
 10
34.245888689
 20
160.750724638
  0
SEQEND
  8
1
  0
LINE
  8
1
 62
4
  6
CONTINUOUS
 10
69.617391304
 20
158.750724638
 11
31.945888689
 21
158.750724638
  0
ENDBLK
  8
0
  0
ENDSEC
  0
SECTION
  2
ENTITIES
  0
LINE
  8
1
 62
7
  6
CONTINUOUS
 10
84.305909382
 20
57.250724638
 11
84.305909382
 21
71.250724638
  0
LINE
  8
1
 62
7
  6
CONTINUOUS
 10
84.305909382
 20
57.250724638
 11
82.305909382
 21
57.250724638
  0
LINE
  8
1
 62
7
  6
CONTINUOUS
 10
81.655909382
 20
71.100724638
 11
82.305909382
 21
71.100724638
  0
LINE
  8
1
 62
1
  6
CENTER
 10
48.945888689
 20
173.550724638
 11
319.417391304
 21
173.550724638
  0
LINE
  8
1
 62
7
  6
CONTINUOUS
 10
81.655909382
 20
57.400724638
 11
82.305909382
 21
57.400724638
  0
LINE
  8
1
 62
7
  6
CONTINUOUS
 10
82.305909382
 20
57.250724638
 11
82.305909382
 21
71.250724638
  0
INSERT
  8
1
 62
7
  6
CONTINUOUS
  2
blk7
 10
97.055909382
 20
70.049543471
 41
5.694116184
 42
0.802327900
 50
358.000000000
  0
INSERT
  8
1
 62
7
  6
CONTINUOUS
  2
blk8
 10
97.055909382
 20
64.250724638
 41
5.690647482
 42
1.134662997
 50
0.000000000
  0
LINE
  8
1
 62
7
  6
CONTINUOUS
 10
74.317391304
 20
159.850724638
 11
74.717391304
 21
159.850724638
  0
LINE
  8
1
 62
7
  6
CONTINUOUS
 10
74.813983887
 20
188.576606542
 11
74.717391304
 21
188.450724638
  0
LINE
  8
1
 62
7
  6
CONTINUOUS
 10
93.377645342
 20
193.550724638
 11
139.498807017
 21
193.550724638
  0
LINE
  8
1
 62
7
  6
CONTINUOUS
 10
186.417391304
 20
204.550724638
 11
185.917391304
 21
205.050724638
  0
LINE
  8
1
 62
7
  6
CONTINUOUS
 10
74.717391304
 20
188.450724638
 11
74.717391304
 21
158.650724638
  0
LINE
  8
1
 62
7
  6
CONTINUOUS
 10
74.813983887
 20
188.576606542
 11
93.377645342
 21
193.550724638
  0
LINE
  8
1
 62
7
  6
CONTINUOUS
 10
64.299442080
 20
180.647171247
 11
64.299442080
 21
166.454278028
  0
LINE
  8
1
 62
7
  6
CONTINUOUS
 10
56.645888689
 20
178.033852567
 11
56.895888689
 21
178.283852567
  0
LINE
  8
1
 62
7
  6
CONTINUOUS
 10
74.813983887
 20
158.524842733
 11
93.377645342
 21
153.550724638
  0
LINE
  8
1
 62
7
  6
CONTINUOUS
 10
93.377645342
 20
153.550724638
 11
139.498807017
 21
153.550724638
  0
LINE
  8
1
 62
7
  6
CONTINUOUS
 10
64.445888689
 20
166.850724638
 11
68.817391304
 21
166.850724638
  0
LINE
  8
1
 62
7
  6
CONTINUOUS
 10
56.895888689
 20
178.283852567
 11
59.395888689
 21
178.283852567
  0
LINE
  8
1
 62
7
  6
CONTINUOUS
 10
59.395888689
 20
178.283852567
 11
59.645888689
 21
178.033852567
  0
LINE
  8
1
 62
7
  6
CONTINUOUS
 10
59.395888689
 20
168.817596708
 11
59.645888689
 21
169.067596708
  0
LINE
  8
1
 62
7
  6
CONTINUOUS
 10
56.645888689
 20
169.067596708
 11
56.895888689
 21
168.817596708
  0
LINE
  8
1
 62
7
  6
CONTINUOUS
 10
56.395888689
 20
182.000724638
 11
56.395888689
 21
165.100724638
  0
LINE
  8
1
 62
7
  6
CONTINUOUS
 10
93.377645342
 20
193.550724638
 11
93.377645342
 21
153.550724638
  0
LINE
  8
1
 62
7
  6
CONTINUOUS
 10
56.895888689
 20
168.817596708
 11
59.395888689
 21
168.817596708
  0
LINE
  8
1
 62
7
  6
CONTINUOUS
 10
74.317391304
 20
187.250724638
 11
74.717391304
 21
187.250724638
  0
LINE
  8
1
 62
7
  6
CONTINUOUS
 10
139.498807017
 20
193.550724638
 11
139.498807017
 21
153.550724638
  0
LINE
  8
1
 62
7
  6
CONTINUOUS
 10
186.417391304
 20
145.263945435
 11
186.417391304
 21
204.550724638
  0
LINE
  8
1
 62
7
  6
CONTINUOUS
 10
159.417391304
 20
205.050724638
 11
185.917391304
 21
205.050724638
  0
LINE
  8
1
 62
7
  6
CONTINUOUS
 10
159.417391304
 20
205.050724638
 11
139.498807017
 21
193.550724638
  0
LINE
  8
1
 62
7
  6
CONTINUOUS
 10
56.895888689
 20
168.817596708
 11
56.895888689
 21
166.550724638
  0
LINE
  8
1
 62
7
  6
CONTINUOUS
 10
59.895888689
 20
182.000724638
 11
59.895888689
 21
165.100724638
  0
LINE
  8
1
 62
7
  6
CONTINUOUS
 10
59.395888689
 20
168.817596708
 11
59.395888689
 21
166.550724638
  0
LINE
  8
1
 62
7
  6
CONTINUOUS
 10
56.895888689
 20
180.550724638
 11
56.895888689
 21
178.283852567
  0
LINE
  8
1
 62
7
  6
CONTINUOUS
 10
56.645888689
 20
166.550724638
 11
59.645888689
 21
166.550724638
  0
LINE
  8
1
 62
7
  6
CONTINUOUS
 10
56.645888689
 20
181.750724638
 11
56.645888689
 21
165.350724638
  0
LINE
  8
1
 62
7
  6
CONTINUOUS
 10
64.299442080
 20
181.147171247
 11
63.592335299
 21
181.854278028
  0
LINE
  8
1
 62
7
  6
CONTINUOUS
 10
63.592335299
 20
165.247171247
 11
64.299442080
 21
165.954278028
  0
LINE
  8
1
 62
7
  6
CONTINUOUS
 10
64.445888689
 20
166.307831419
 11
64.445888689
 21
180.793617856
  0
LINE
  8
1
 62
7
  6
CONTINUOUS
 10
63.238781908
 20
182.000724638
 11
59.895888689
 21
182.000724638
  0
LINE
  8
1
 62
7
  6
CONTINUOUS
 10
56.645888689
 20
180.550724638
 11
59.645888689
 21
180.550724638
  0
LINE
  8
1
 62
7
  6
CONTINUOUS
 10
52.445888689
 20
167.062049503
 11
55.610952199
 21
165.234699234
  0
LINE
  8
1
 62
7
  6
CONTINUOUS
 10
59.895888689
 20
165.100724638
 11
63.238781908
 21
165.100724638
  0
LINE
  8
1
 62
7
  6
CONTINUOUS
 10
56.395888689
 20
182.000724638
 11
56.645888689
 21
181.750724638
  0
LINE
  8
1
 62
7
  6
CONTINUOUS
 10
56.110952199
 20
165.100724638
 11
56.395888689
 21
165.100724638
  0
LINE
  8
1
 62
7
  6
CONTINUOUS
 10
56.395888689
 20
165.100724638
 11
56.645888689
 21
165.350724638
  0
LINE
  8
1
 62
7
  6
CONTINUOUS
 10
56.110952199
 20
182.000724638
 11
56.395888689
 21
182.000724638
  0
LINE
  8
1
 62
7
  6
CONTINUOUS
 10
59.645888689
 20
181.750724638
 11
59.645888689
 21
165.350724638
  0
LINE
  8
1
 62
7
  6
CONTINUOUS
 10
59.645888689
 20
165.350724638
 11
59.895888689
 21
165.100724638
  0
LINE
  8
1
 62
7
  6
CONTINUOUS
 10
52.445888689
 20
180.039399772
 11
55.610952199
 21
181.866750041
  0
ARC
  8
1
 62
7
  6
CONTINUOUS
 10
56.110952199
 20
181.000724638
 40
1.000000000
 50
90.000000000
 51
120.000000000
  0
LINE
  8
1
 62
7
  6
CONTINUOUS
 10
59.645888689
 20
181.750724638
 11
59.895888689
 21
182.000724638
  0
LINE
  8
1
 62
7
  6
CONTINUOUS
 10
51.945888689
 20
179.173374368
 11
51.945888689
 21
167.928074907
  0
ARC
  8
1
 62
7
  6
CONTINUOUS
 10
63.945888689
 20
180.793617856
 40
0.500000000
 50
0.000000000
 51
45.000000000
  0
ARC
  8
1
 62
7
  6
CONTINUOUS
 10
63.945888689
 20
166.307831419
 40
0.500000000
 50
315.000000000
 51
0.000000000
  0
LINE
  8
1
 62
7
  6
CONTINUOUS
 10
182.917391304
 20
144.550724638
 11
182.917391304
 21
143.050724638
  0
LINE
  8
1
 62
1
  6
CONTINUOUS
 10
181.317391304
 20
142.011494153
 11
181.917391304
 21
143.050724638
  0
ARC
  8
1
 62
7
  6
CONTINUOUS
 10
63.238781908
 20
165.600724638
 40
0.500000000
 50
270.000000000
 51
315.000000000
  0
ARC
  8
1
 62
7
  6
CONTINUOUS
 10
56.110952199
 20
166.100724638
 40
1.000000000
 50
240.000000000
 51
270.000000000
  0
LINE
  8
1
 62
1
  6
CONTINUOUS
 10
181.317391304
 20
140.550724638
 11
181.317391304
 21
142.011494153
  0
ARC
  8
1
 62
7
  6
CONTINUOUS
 10
52.945888689
 20
167.928074907
 40
1.000000000
 50
180.000000000
 51
240.000000000
  0
LINE
  8
1
 62
7
  6
CONTINUOUS
 10
59.395888689
 20
180.550724638
 11
59.395888689
 21
178.283852567
  0
LINE
  8
1
 62
7
  6
CONTINUOUS
 10
74.317391304
 20
188.350724638
 11
69.617391304
 21
188.350724638
  0
LINE
  8
1
 62
7
  6
CONTINUOUS
 10
69.617391304
 20
158.750724638
 11
74.317391304
 21
158.750724638
  0
ARC
  8
1
 62
7
  6
CONTINUOUS
 10
52.945888689
 20
179.173374368
 40
1.000000000
 50
120.000000000
 51
180.000000000
  0
ARC
  8
1
 62
7
  6
CONTINUOUS
 10
63.238781908
 20
181.500724638
 40
0.500000000
 50
45.000000000
 51
90.000000000
  0
LINE
  8
1
 62
7
  6
CONTINUOUS
 10
181.917391304
 20
143.050724638
 11
181.917391304
 21
140.550724638
  0
LINE
  8
1
 62
7
  6
CONTINUOUS
 10
186.417391304
 20
145.263945435
 11
186.417391304
 21
144.750724638
  0
LINE
  8
1
 62
7
  6
CONTINUOUS
 10
186.217391304
 20
144.550724638
 11
186.417391304
 21
144.750724638
  0
LINE
  8
1
 62
7
  6
CONTINUOUS
 10
56.110952199
 20
182.000724638
 11
56.110952199
 21
165.100724638
  0
LINE
  8
1
 62
7
  6
CONTINUOUS
 10
159.617391304
 20
144.550724638
 11
159.417391304
 21
144.750724638
  0
LINE
  8
1
 62
7
  6
CONTINUOUS
 10
82.305909382
 20
71.250724638
 11
84.305909382
 21
71.250724638
  0
LINE
  8
1
 62
7
  6
CONTINUOUS
 10
159.417391304
 20
145.263945435
 11
159.417391304
 21
144.750724638
  0
LINE
  8
1
 62
4
  6
CONTINUOUS
 10
56.645888689
 20
178.033852567
 11
59.645888689
 21
169.067596708
  0
LINE
  8
1
 62
7
  6
CONTINUOUS
 10
52.445888689
 20
179.539399772
 11
52.445888689
 21
167.562049503
  0
LINE
  8
1
 62
4
  6
CONTINUOUS
 10
59.645888689
 20
178.033852567
 11
56.645888689
 21
169.067596708
  0
LINE
  8
1
 62
7
  6
CONTINUOUS
 10
63.238781908
 20
182.000724638
 11
63.238781908
 21
165.100724638
  0
DIMENSION
  8
1
 62
4
  6
CONTINUOUS
  2
*D79
 70
1
 10
41.945888689
 20
165.100724638
 11
41.945888689
 21
173.550724638
 14
56.110952199
 24
165.100724638
 13
56.110952199
 23
182.000724638
 50
90.000000000
  0
LINE
  8
1
 62
7
  6
CONTINUOUS
 10
65.517391304
 20
176.532334941
 11
65.517391304
 21
170.569114335
  0
LINE
  8
1
 62
4
  6
CONTINUOUS
 10
65.517391304
 20
176.532334941
 11
68.517391304
 21
170.569114335
  0
LINE
  8
1
 62
4
  6
CONTINUOUS
 10
68.517391304
 20
176.532334941
 11
65.517391304
 21
170.569114335
  0
LINE
  8
1
 62
7
  6
CONTINUOUS
 10
65.517391304
 20
176.532334941
 11
68.517391304
 21
176.532334941
  0
LINE
  8
1
 62
7
  6
CONTINUOUS
 10
68.517391304
 20
170.569114335
 11
68.517391304
 21
176.532334941
  0
LINE
  8
1
 62
7
  6
CONTINUOUS
 10
68.817391304
 20
166.950724638
 11
69.317391304
 21
166.950724638
  0
LINE
  8
1
 62
7
  6
CONTINUOUS
 10
68.817391304
 20
180.150724638
 11
69.317391304
 21
180.150724638
  0
LINE
  8
1
 62
7
  6
CONTINUOUS
 10
68.817391304
 20
180.250724638
 11
68.817391304
 21
166.850724638
  0
LINE
  8
1
 62
7
  6
CONTINUOUS
 10
64.445888689
 20
180.250724638
 11
68.817391304
 21
180.250724638
  0
LINE
  8
1
 62
7
  6
CONTINUOUS
 10
55.610952199
 20
181.366750041
 11
55.610952199
 21
165.734699234
  0
LINE
  8
1
 62
7
  6
CONTINUOUS
 10
65.517391304
 20
170.569114335
 11
68.517391304
 21
170.569114335
  0
LINE
  8
1
 62
7
  6
CONTINUOUS
 10
69.317391304
 20
188.050724638
 11
69.317391304
 21
159.050724638
  0
LINE
  8
1
 62
7
  6
CONTINUOUS
 10
81.655909382
 20
57.400724638
 11
81.655909382
 21
71.100724638
  0
LINE
  8
1
 62
7
  6
CONTINUOUS
 10
63.592335299
 20
181.354278028
 11
63.592335299
 21
165.747171247
  0
LINE
  8
1
 62
7
  6
CONTINUOUS
 10
74.317391304
 20
158.750724638
 11
74.317391304
 21
188.350724638
  0
LINE
  8
1
 62
7
  6
CONTINUOUS
 10
69.317391304
 20
188.050724638
 11
69.617391304
 21
188.350724638
  0
LINE
  8
1
 62
7
  6
CONTINUOUS
 10
69.617391304
 20
158.750724638
 11
69.317391304
 21
159.050724638
  0
LINE
  8
1
 62
7
  6
CONTINUOUS
 10
173.817391304
 20
160.161196518
 11
169.017391304
 21
160.161196518
  0
LINE
  8
1
 62
7
  6
CONTINUOUS
 10
162.917391304
 20
143.050724638
 11
169.417391304
 21
143.050724638
  0
LINE
  8
1
 62
7
  6
CONTINUOUS
 10
174.617391304
 20
159.699196518
 11
168.217391304
 21
159.699196518
  0
LINE
  8
1
 62
7
  6
CONTINUOUS
 10
174.617391304
 20
157.606196518
 11
168.217391304
 21
157.606196518
  0
LINE
  8
1
 62
7
  6
CONTINUOUS
 10
175.867391304
 20
156.884196518
 11
166.967391304
 21
156.884196518
  0
LINE
  8
1
 62
7
  6
CONTINUOUS
 10
175.867391304
 20
153.342196518
 11
166.967391304
 21
153.342196518
  0
LINE
  8
1
 62
7
  6
CONTINUOUS
 10
176.067391304
 20
152.996196518
 11
166.767391304
 21
152.996196518
  0
LINE
  8
1
 62
7
  6
CONTINUOUS
 10
176.067391304
 20
152.996196518
 11
176.067391304
 21
147.996196518
  0
LINE
  8
1
 62
7
  6
CONTINUOUS
 10
174.617391304
 20
157.606196518
 11
175.867391304
 21
156.884196518
  0
LINE
  8
1
 62
7
  6
CONTINUOUS
 10
175.867391304
 20
156.884196518
 11
175.867391304
 21
153.342196518
  0
LINE
  8
1
 62
7
  6
CONTINUOUS
 10
176.067391304
 20
152.996196518
 11
175.867391304
 21
153.342196518
  0
LINE
  8
1
 62
7
  6
CONTINUOUS
 10
74.813983887
 20
158.524842733
 11
74.717391304
 21
158.650724638
  0
LINE
  8
1
 62
7
  6
CONTINUOUS
 10
173.610391304
 20
147.996196518
 11
173.610391304
 21
147.396196518
  0
LINE
  8
1
 62
7
  6
CONTINUOUS
 10
175.967391304
 20
147.396196518
 11
175.967391304
 21
145.896196518
  0
LINE
  8
1
 62
7
  6
CONTINUOUS
 10
166.767391304
 20
152.996196518
 11
166.767391304
 21
147.996196518
  0
LINE
  8
1
 62
7
  6
CONTINUOUS
 10
168.217391304
 20
157.606196518
 11
166.967391304
 21
156.884196518
  0
LINE
  8
1
 62
7
  6
CONTINUOUS
 10
166.967391304
 20
156.884196518
 11
166.967391304
 21
153.342196518
  0
LINE
  8
1
 62
7
  6
CONTINUOUS
 10
166.767391304
 20
152.996196518
 11
166.967391304
 21
153.342196518
  0
LINE
  8
1
 62
7
  6
CONTINUOUS
 10
176.067391304
 20
147.996196518
 11
166.767391304
 21
147.996196518
  0
LINE
  8
1
 62
7
  6
CONTINUOUS
 10
166.867391304
 20
147.396196518
 11
175.967391304
 21
147.396196518
  0
LINE
  8
1
 62
7
  6
CONTINUOUS
 10
163.917391304
 20
143.050724638
 11
163.917391304
 21
140.550724638
  0
LINE
  8
1
 62
7
  6
CONTINUOUS
 10
153.851929627
 20
145.263945435
 11
139.498807017
 21
153.550724638
  0
LINE
  8
1
 62
7
  6
CONTINUOUS
 10
169.417391304
 20
145.263945435
 11
153.851929627
 21
145.263945435
  0
LINE
  8
1
 62
7
  6
CONTINUOUS
 10
186.417391304
 20
145.263945435
 11
173.417391304
 21
145.263945435
  0
LINE
  8
1
 62
1
  6
CONTINUOUS
 10
164.517391304
 20
140.550724638
 11
164.517391304
 21
142.011494153
  0
LINE
  8
1
 62
7
  6
CONTINUOUS
 10
169.224391304
 20
147.996196518
 11
169.224391304
 21
147.396196518
  0
LINE
  8
1
 62
7
  6
CONTINUOUS
 10
166.867391304
 20
147.396196518
 11
166.867391304
 21
145.896196518
  0
LINE
  8
1
 62
7
  6
CONTINUOUS
 10
166.867391304
 20
145.896196518
 11
175.967391304
 21
145.896196518
  0
LINE
  8
1
 62
7
  6
CONTINUOUS
 10
167.917391304
 20
163.516196518
 11
167.917391304
 21
159.475196518
  0
LINE
  8
1
 62
7
  6
CONTINUOUS
 10
167.917391304
 20
163.516196518
 11
171.417391304
 21
165.537196518
  0
LINE
  8
1
 62
7
  6
CONTINUOUS
 10
174.917391304
 20
159.475196518
 11
174.617391304
 21
159.302196518
  0
LINE
  8
1
 62
7
  6
CONTINUOUS
 10
174.917391304
 20
163.516196518
 11
174.917391304
 21
159.475196518
  0
LINE
  8
1
 62
7
  6
CONTINUOUS
 10
174.917391304
 20
163.516196518
 11
171.417391304
 21
165.537196518
  0
LINE
  8
1
 62
7
  6
CONTINUOUS
 10
174.617391304
 20
159.699196518
 11
173.817391304
 21
160.161196518
  0
LINE
  8
1
 62
7
  6
CONTINUOUS
 10
173.817391304
 20
160.161196518
 11
173.817391304
 21
161.496196518
  0
LINE
  8
1
 62
7
  6
CONTINUOUS
 10
167.917391304
 20
159.475196518
 11
168.217391304
 21
159.302196518
  0
LINE
  8
1
 62
1
  6
CONTINUOUS
 10
164.517391304
 20
142.011494153
 11
163.917391304
 21
143.050724638
  0
LINE
  8
1
 62
7
  6
CONTINUOUS
 10
163.917391304
 20
142.011494153
 11
169.417391304
 21
142.011494153
  0
LINE
  8
1
 62
7
  6
CONTINUOUS
 10
159.617391304
 20
144.550724638
 11
169.417391304
 21
144.550724638
  0
LINE
  8
1
 62
7
  6
CONTINUOUS
 10
162.917391304
 20
144.550724638
 11
162.917391304
 21
143.050724638
  0
LINE
  8
1
 62
7
  6
CONTINUOUS
 10
168.217391304
 20
159.699196518
 11
169.017391304
 21
160.161196518
  0
LINE
  8
1
 62
7
  6
CONTINUOUS
 10
169.017391304
 20
160.161196518
 11
169.017391304
 21
161.496196518
  0
ARC
  8
1
 62
7
  6
CONTINUOUS
 10
171.417391304
 20
161.496196518
 40
2.400000000
 50
0.000000000
 51
180.000000000
  0
LINE
  8
1
 62
7
  6
CONTINUOUS
 10
174.617391304
 20
157.606196518
 11
174.617391304
 21
159.700196518
  0
LINE
  8
1
 62
7
  6
CONTINUOUS
 10
168.217391304
 20
157.606196518
 11
168.217391304
 21
159.700196518
  0
ARC
  8
1
 62
7
  6
CONTINUOUS
 10
171.417391304
 20
161.496196518
 40
3.500000000
 50
330.725200000
 51
209.275000000
  0
LINE
  8
1
 62
7
  6
CONTINUOUS
 10
41.637479243
 20
65.625724638
 11
41.637479243
 21
64.800724638
  0
ARC
  8
1
 62
7
  6
CONTINUOUS
 10
10.455909382
 20
70.669705633
 40
0.500000000
 50
112.704232352
 51
180.000000000
  0
LINE
  8
1
 62
7
  6
CONTINUOUS
 10
38.255909382
 20
57.400724638
 11
38.255909382
 21
71.100724638
  0
LINE
  8
1
 62
7
  6
CONTINUOUS
 10
37.605909382
 20
71.250724638
 11
36.437395584
 21
71.250724638
  0
INSERT
  8
1
 62
7
  6
CONTINUOUS
  2
blk147
 10
22.855909382
 20
64.250724638
 41
5.690647482
 42
1.134662997
 50
180.000000000
  0
INSERT
  8
1
 62
7
  6
CONTINUOUS
  2
blk148
 10
22.855909382
 20
70.049543471
 41
5.694116184
 42
0.802327900
 50
182.000000000
  0
LINE
  8
1
 62
7
  6
CONTINUOUS
 10
37.605909382
 20
57.250724638
 11
37.605909382
 21
71.250724638
  0
LINE
  8
1
 62
7
  6
CONTINUOUS
 10
38.255909382
 20
57.400724638
 11
37.605909382
 21
57.400724638
  0
LINE
  8
1
 62
7
  6
CONTINUOUS
 10
38.255909382
 20
71.100724638
 11
37.605909382
 21
71.100724638
  0
LINE
  8
1
 62
7
  6
CONTINUOUS
 10
36.437395584
 20
57.250724638
 11
37.605909382
 21
57.250724638
  0
LINE
  8
1
 62
7
  6
CONTINUOUS
 10
30.305909382
 20
57.250724638
 11
31.687395584
 21
57.250724638
  0
LINE
  8
1
 62
7
  6
CONTINUOUS
 10
173.417391304
 20
145.896196518
 11
173.417391304
 21
131.100724638
  0
LINE
  8
1
 62
7
  6
CONTINUOUS
 10
30.305909382
 20
57.400724638
 11
29.655909382
 21
57.400724638
  0
LINE
  8
1
 62
7
  6
CONTINUOUS
 10
30.305909382
 20
71.100724638
 11
29.655909382
 21
71.100724638
  0
LINE
  8
1
 62
7
  6
CONTINUOUS
 10
30.305909382
 20
57.250724638
 11
30.305909382
 21
71.250724638
  0
ARC
  8
1
 62
4
  6
CONTINUOUS
 10
104.246838306
 20
82.100724638
 40
1.250000000
 50
126.869897646
 51
233.130102354
  0
LINE
  8
1
 62
7
  6
CONTINUOUS
 10
169.417391304
 20
140.550724638
 11
162.917391304
 21
140.550724638
  0
ARC
  8
1
 62
7
  6
CONTINUOUS
 10
45.913018704
 20
70.250724638
 40
2.000000000
 50
90.000000000
 51
99.373202633
  0
LINE
  8
1
 62
7
  6
CONTINUOUS
 10
52.955909382
 20
56.250724638
 11
52.955909382
 21
72.250724638
  0
POLYLINE
  8
1
 62
7
  6
CONTINUOUS
 66
1
  0
VERTEX
  8
1
 10
45.587289655
 20
56.277427755
  0
VERTEX
  8
1
 10
45.325452646
 20
56.323209416
 42
-0.004649752
  0
VERTEX
  8
1
 10
44.804516611
 20
56.427659871
 42
-0.003401432
  0
VERTEX
  8
1
 10
44.286345772
 20
56.544939053
 42
-0.002143715
  0
VERTEX
  8
1
 10
43.769739774
 20
56.669269907
 42
-0.000401379
  0
VERTEX
  8
1
 10
43.253124496
 20
56.793378049
 42
0.001410244
  0
VERTEX
  8
1
 10
42.734863377
 20
56.909739063
 42
0.003218665
  0
VERTEX
  8
1
 10
42.213831830
 20
57.013065505
 42
0.002929824
  0
VERTEX
  8
1
 10
41.690470758
 20
57.104910017
 42
0.002235974
  0
VERTEX
  8
1
 10
41.165519245
 20
57.188128093
 42
0.001544364
  0
VERTEX
  8
1
 10
40.639607863
 20
57.264840873
 42
0.002056093
  0
VERTEX
  8
1
 10
40.112473454
 20
57.331121172
 42
0.003694314
  0
VERTEX
  8
1
 10
39.583444946
 20
57.380142629
 42
0.005092700
  0
VERTEX
  8
1
 10
39.052722662
 20
57.407141871
 42
0.005624902
  0
VERTEX
  8
1
 10
38.521452426
 20
57.409610351
 42
0.006276090
  0
VERTEX
  8
1
 10
38.255909382
 20
57.400724638
  0
VERTEX
  8
1
 10
38.255909382
 20
57.400724638
  0
VERTEX
  8
1
 10
38.255909382
 20
57.400724638
  0
VERTEX
  8
1
 10
38.255909382
 20
57.400724638
  0
VERTEX
  8
1
 10
38.255909382
 20
57.400724638
  0
VERTEX
  8
1
 10
38.255909382
 20
57.400724638
  0
VERTEX
  8
1
 10
38.255909382
 20
57.400724638
  0
VERTEX
  8
1
 10
38.255909382
 20
57.400724638
  0
VERTEX
  8
1
 10
38.255909382
 20
57.400724638
  0
VERTEX
  8
1
 10
38.255909382
 20
57.400724638
  0
VERTEX
  8
1
 10
38.255909382
 20
57.400724638
  0
VERTEX
  8
1
 10
38.255909382
 20
57.400724638
  0
VERTEX
  8
1
 10
38.255909382
 20
57.400724638
  0
VERTEX
  8
1
 10
38.255909382
 20
57.400724638
  0
VERTEX
  8
1
 10
38.255909382
 20
57.400724638
  0
VERTEX
  8
1
 10
38.255909382
 20
57.400724638
  0
VERTEX
  8
1
 10
38.255909382
 20
57.400724638
  0
VERTEX
  8
1
 10
38.255909382
 20
57.400724638
  0
VERTEX
  8
1
 10
38.255909382
 20
57.400724638
  0
VERTEX
  8
1
 10
38.255909382
 20
57.400724638
  0
VERTEX
  8
1
 10
38.255909382
 20
57.400724638
  0
VERTEX
  8
1
 10
38.255909382
 20
57.400724638
  0
VERTEX
  8
1
 10
38.255909382
 20
57.400724638
  0
VERTEX
  8
1
 10
38.255909382
 20
57.400724638
  0
VERTEX
  8
1
 10
38.255909382
 20
57.400724638
  0
VERTEX
  8
1
 10
38.255909382
 20
57.400724638
  0
VERTEX
  8
1
 10
38.255909382
 20
57.400724638
  0
VERTEX
  8
1
 10
38.255909382
 20
57.400724638
  0
VERTEX
  8
1
 10
38.255909382
 20
57.400724638
  0
VERTEX
  8
1
 10
38.255909382
 20
57.400724638
  0
VERTEX
  8
1
 10
38.255909382
 20
57.400724638
  0
VERTEX
  8
1
 10
38.255909382
 20
57.400724638
  0
SEQEND
  8
1
  0
LINE
  8
1
 62
7
  6
CONTINUOUS
 10
31.687395584
 20
71.250724638
 11
30.305909382
 21
71.250724638
  0
LINE
  8
1
 62
7
  6
CONTINUOUS
 10
54.955909382
 20
56.250724638
 11
45.913018704
 21
56.250724638
  0
ARC
  8
1
 62
7
  6
CONTINUOUS
 10
45.913018704
 20
58.250724638
 40
2.000000000
 50
260.626797261
 51
270.000000000
  0
LINE
  8
1
 62
7
  6
CONTINUOUS
 10
54.955909382
 20
72.250724638
 11
45.913018704
 21
72.250724638
  0
LINE
  8
1
 62
7
  6
CONTINUOUS
 10
29.655909382
 20
72.734573101
 11
29.655909382
 21
57.250724638
  0
INSERT
  8
1
 62
7
  6
CONTINUOUS
  2
blk168
 10
22.855909382
 20
58.451905804
 41
5.694116184
 42
0.802327900
 50
178.000000000
  0
ARC
  8
1
 62
7
  6
CONTINUOUS
 10
29.155909382
 20
72.734573101
 40
0.500000000
 50
0.000000000
 51
79.897997052
  0
LINE
  8
1
 62
7
  6
CONTINUOUS
 10
9.955909382
 20
70.669705633
 11
9.955909382
 21
57.831743642
  0
ARC
  8
1
 62
7
  6
CONTINUOUS
 10
23.313113689
 20
88.561503635
 40
33.811046993
 50
247.295767648
 51
274.664048196
  0
POLYLINE
  8
1
 62
7
  6
CONTINUOUS
 66
1
  0
VERTEX
  8
1
 10
45.587289659
 20
72.224021521
  0
VERTEX
  8
1
 10
45.325452650
 20
72.178239860
 42
0.004649752
  0
VERTEX
  8
1
 10
44.804516614
 20
72.073789405
 42
0.003401432
  0
VERTEX
  8
1
 10
44.286345775
 20
71.956510223
 42
0.002143715
  0
VERTEX
  8
1
 10
43.769739777
 20
71.832179369
 42
0.000401379
  0
VERTEX
  8
1
 10
43.253124498
 20
71.708071227
 42
-0.001410244
  0
VERTEX
  8
1
 10
42.734863379
 20
71.591710213
 42
-0.003218665
  0
VERTEX
  8
1
 10
42.213831832
 20
71.488383771
 42
-0.002929824
  0
VERTEX
  8
1
 10
41.690470760
 20
71.396539258
 42
-0.002235974
  0
VERTEX
  8
1
 10
41.165519247
 20
71.313321183
 42
-0.001544364
  0
VERTEX
  8
1
 10
40.639607865
 20
71.236608402
 42
-0.002056093
  0
VERTEX
  8
1
 10
40.112473455
 20
71.170328103
 42
-0.003694314
  0
VERTEX
  8
1
 10
39.583444946
 20
71.121306646
 42
-0.005092700
  0
VERTEX
  8
1
 10
39.052722662
 20
71.094307405
 42
-0.005624902
  0
VERTEX
  8
1
 10
38.521452426
 20
71.091838925
 42
-0.006276090
  0
VERTEX
  8
1
 10
38.255909382
 20
71.100724638
  0
VERTEX
  8
1
 10
38.255909382
 20
71.100724638
  0
VERTEX
  8
1
 10
38.255909382
 20
71.100724638
  0
VERTEX
  8
1
 10
38.255909382
 20
71.100724638
  0
VERTEX
  8
1
 10
38.255909382
 20
71.100724638
  0
VERTEX
  8
1
 10
38.255909382
 20
71.100724638
  0
VERTEX
  8
1
 10
38.255909382
 20
71.100724638
  0
VERTEX
  8
1
 10
38.255909382
 20
71.100724638
  0
VERTEX
  8
1
 10
38.255909382
 20
71.100724638
  0
VERTEX
  8
1
 10
38.255909382
 20
71.100724638
  0
VERTEX
  8
1
 10
38.255909382
 20
71.100724638
  0
VERTEX
  8
1
 10
38.255909382
 20
71.100724638
  0
VERTEX
  8
1
 10
38.255909382
 20
71.100724638
  0
VERTEX
  8
1
 10
38.255909382
 20
71.100724638
  0
VERTEX
  8
1
 10
38.255909382
 20
71.100724638
  0
VERTEX
  8
1
 10
38.255909382
 20
71.100724638
  0
VERTEX
  8
1
 10
38.255909382
 20
71.100724638
  0
VERTEX
  8
1
 10
38.255909382
 20
71.100724638
  0
VERTEX
  8
1
 10
38.255909382
 20
71.100724638
  0
VERTEX
  8
1
 10
38.255909382
 20
71.100724638
  0
VERTEX
  8
1
 10
38.255909382
 20
71.100724638
  0
VERTEX
  8
1
 10
38.255909382
 20
71.100724638
  0
VERTEX
  8
1
 10
38.255909382
 20
71.100724638
  0
VERTEX
  8
1
 10
38.255909382
 20
71.100724638
  0
VERTEX
  8
1
 10
38.255909382
 20
71.100724638
  0
VERTEX
  8
1
 10
38.255909382
 20
71.100724638
  0
VERTEX
  8
1
 10
38.255909382
 20
71.100724638
  0
VERTEX
  8
1
 10
38.255909382
 20
71.100724638
  0
VERTEX
  8
1
 10
38.255909382
 20
71.100724638
  0
VERTEX
  8
1
 10
38.255909382
 20
71.100724638
  0
VERTEX
  8
1
 10
38.255909382
 20
71.100724638
  0
VERTEX
  8
1
 10
38.255909382
 20
71.100724638
  0
SEQEND
  8
1
  0
LINE
  8
1
 62
7
  6
CONTINUOUS
 10
181.877391304
 20
125.550724638
 11
182.837391304
 21
126.510724638
  0
LINE
  8
1
 62
7
  6
CONTINUOUS
 10
176.917391304
 20
80.250724638
 11
176.917391304
 21
99.250724638
  0
LINE
  8
1
 62
7
  6
CONTINUOUS
 10
43.874339522
 20
63.700724638
 11
41.637479243
 21
63.700724638
  0
LINE
  8
1
 62
7
  6
CONTINUOUS
 10
182.917391304
 20
140.550724638
 11
173.417391304
 21
140.550724638
  0
ARC
  8
1
 62
7
  6
CONTINUOUS
 10
23.313113689
 20
39.939945641
 40
33.811046993
 50
79.897997052
 51
112.704232352
  0
ARC
  8
1
 62
7
  6
CONTINUOUS
 10
10.455909382
 20
57.831743642
 40
0.500000000
 50
180.000000000
 51
247.295767648
  0
LINE
  8
1
 62
7
  6
CONTINUOUS
 10
41.637479243
 20
64.800724638
 11
43.874339522
 21
64.800724638
  0
LINE
  8
1
 62
7
  6
CONTINUOUS
 10
41.637479243
 20
62.875724638
 11
39.255909382
 21
64.250724638
  0
LINE
  8
1
 62
7
  6
CONTINUOUS
 10
39.255909382
 20
64.250724638
 11
41.637479243
 21
65.625724638
  0
LINE
  8
1
 62
7
  6
CONTINUOUS
 10
62.755909382
 20
61.450724638
 11
56.955909382
 21
61.450724638
  0
LINE
  8
1
 62
7
  6
CONTINUOUS
 10
56.955909382
 20
61.450724638
 11
56.955909382
 21
67.050724638
  0
LINE
  8
1
 62
7
  6
CONTINUOUS
 10
56.955909382
 20
67.050724638
 11
62.755909382
 21
67.050724638
  0
LINE
  8
1
 62
7
  6
CONTINUOUS
 10
46.255909382
 20
64.250724638
 11
43.874339522
 21
65.625724638
  0
LINE
  8
1
 62
7
  6
CONTINUOUS
 10
43.874339522
 20
62.875724638
 11
46.255909382
 21
64.250724638
  0
LINE
  8
1
 62
7
  6
CONTINUOUS
 10
62.755909382
 20
61.450724638
 11
62.755909382
 21
62.250724638
  0
LINE
  8
1
 62
7
  6
CONTINUOUS
 10
62.755909382
 20
62.250724638
 11
57.755909382
 21
62.250724638
  0
LINE
  8
1
 62
7
  6
CONTINUOUS
 10
57.755909382
 20
62.250724638
 11
57.755909382
 21
66.250724638
  0
LINE
  8
1
 62
7
  6
CONTINUOUS
 10
174.374271533
 20
130.130724638
 11
174.374271533
 21
126.510724638
  0
LINE
  8
1
 62
7
  6
CONTINUOUS
 10
57.755909382
 20
66.250724638
 11
62.755909382
 21
66.250724638
  0
LINE
  8
1
 62
4
  6
CONTINUOUS
 10
180.967391304
 20
140.550724638
 11
180.967391304
 21
132.550724638
  0
LINE
  8
1
 62
7
  6
CONTINUOUS
 10
62.755909382
 20
66.250724638
 11
62.755909382
 21
67.050724638
  0
LINE
  8
1
 62
7
  6
CONTINUOUS
 10
182.837391304
 20
130.130724638
 11
181.417391304
 21
131.550724638
  0
LINE
  8
1
 62
7
  6
CONTINUOUS
 10
169.825062085
 20
99.250724638
 11
169.825062085
 21
101.750724638
  0
LINE
  8
1
 62
7
  6
CONTINUOUS
 10
164.417391304
 20
131.550724638
 11
162.997391304
 21
130.130724638
  0
LINE
  8
1
 62
4
  6
CONTINUOUS
 10
177.967391304
 20
140.550724638
 11
177.967391304
 21
132.550724638
  0
LINE
  8
1
 62
7
  6
CONTINUOUS
 10
163.977391304
 20
101.750724638
 11
163.977391304
 21
99.250724638
  0
LINE
  8
1
 62
7
  6
CONTINUOUS
 10
181.877391304
 20
125.550724638
 11
181.877391304
 21
103.750724638
  0
LINE
  8
1
 62
7
  6
CONTINUOUS
 10
182.917391304
 20
132.550724638
 11
182.917391304
 21
140.550724638
  0
LINE
  8
1
 62
7
  6
CONTINUOUS
 10
174.374271533
 20
126.510724638
 11
182.837391304
 21
126.510724638
  0
LINE
  8
1
 62
7
  6
CONTINUOUS
 10
181.857391304
 20
101.750724638
 11
163.977391304
 21
101.750724638
  0
LINE
  8
1
 62
7
  6
CONTINUOUS
 10
174.374271533
 20
130.130724638
 11
182.837391304
 21
130.130724638
  0
LINE
  8
1
 62
4
  6
CONTINUOUS
 10
176.167391304
 20
140.550724638
 11
176.167391304
 21
132.550724638
  0
LINE
  8
1
 62
7
  6
CONTINUOUS
 10
168.917391304
 20
80.250724638
 11
168.917391304
 21
99.250724638
  0
LINE
  8
1
 62
7
  6
CONTINUOUS
 10
181.877391304
 20
103.750724638
 11
165.274021604
 21
103.750724638
  0
LINE
  8
1
 62
7
  6
CONTINUOUS
 10
179.917391304
 20
131.550724638
 11
179.917391304
 21
132.550724638
  0
LINE
  8
1
 62
7
  6
CONTINUOUS
 10
165.917391304
 20
131.550724638
 11
165.917391304
 21
132.550724638
  0
LINE
  8
1
 62
7
  6
CONTINUOUS
 10
159.417391304
 20
205.050724638
 11
159.417391304
 21
145.263945435
  0
LINE
  8
1
 62
7
  6
CONTINUOUS
 10
84.955909382
 20
57.250724638
 11
84.955909382
 21
71.250724638
  0
LINE
  8
1
 62
7
  6
CONTINUOUS
 10
89.605909382
 20
57.250724638
 11
87.605909382
 21
57.250724638
  0
LINE
  8
1
 62
7
  6
CONTINUOUS
 10
84.305909382
 20
57.400724638
 11
84.955909382
 21
57.400724638
  0
LINE
  8
1
 62
7
  6
CONTINUOUS
 10
89.605909382
 20
57.400724638
 11
90.255909382
 21
57.400724638
  0
LINE
  8
1
 62
7
  6
CONTINUOUS
 10
89.605909382
 20
71.100724638
 11
90.255909382
 21
71.100724638
  0
LINE
  8
1
 62
7
  6
CONTINUOUS
 10
89.605909382
 20
57.250724638
 11
89.605909382
 21
71.250724638
  0
LINE
  8
1
 62
7
  6
CONTINUOUS
 10
86.955909382
 20
71.100724638
 11
87.605909382
 21
71.100724638
  0
LINE
  8
1
 62
7
  6
CONTINUOUS
 10
86.955909382
 20
57.400724638
 11
87.605909382
 21
57.400724638
  0
ARC
  8
1
 62
7
  6
CONTINUOUS
 10
73.998800061
 20
70.250724638
 40
2.000000000
 50
80.626797367
 51
90.000000000
  0
LINE
  8
1
 62
7
  6
CONTINUOUS
 10
67.655909382
 20
56.250724638
 11
67.655909382
 21
72.250724638
  0
POLYLINE
  8
1
 62
7
  6
CONTINUOUS
 66
1
  0
VERTEX
  8
1
 10
74.324529109
 20
56.277427755
  0
VERTEX
  8
1
 10
74.586366118
 20
56.323209416
 42
0.004649752
  0
VERTEX
  8
1
 10
75.107302154
 20
56.427659871
 42
0.003401432
  0
VERTEX
  8
1
 10
75.625472993
 20
56.544939053
 42
0.002143715
  0
VERTEX
  8
1
 10
76.142078990
 20
56.669269907
 42
0.000401379
  0
VERTEX
  8
1
 10
76.658694269
 20
56.793378049
 42
-0.001410244
  0
VERTEX
  8
1
 10
77.176955388
 20
56.909739063
 42
-0.003218665
  0
VERTEX
  8
1
 10
77.697986934
 20
57.013065505
 42
-0.002929824
  0
VERTEX
  8
1
 10
78.221348006
 20
57.104910017
 42
-0.002235974
  0
VERTEX
  8
1
 10
78.746299519
 20
57.188128093
 42
-0.001544364
  0
VERTEX
  8
1
 10
79.272210901
 20
57.264840873
 42
-0.002056093
  0
VERTEX
  8
1
 10
79.799345310
 20
57.331121172
 42
-0.003694314
  0
VERTEX
  8
1
 10
80.328373819
 20
57.380142629
 42
-0.005092700
  0
VERTEX
  8
1
 10
80.859096103
 20
57.407141871
 42
-0.005624902
  0
VERTEX
  8
1
 10
81.390366339
 20
57.409610351
 42
-0.006276090
  0
VERTEX
  8
1
 10
81.655909382
 20
57.400724638
  0
VERTEX
  8
1
 10
81.655909382
 20
57.400724638
  0
VERTEX
  8
1
 10
81.655909382
 20
57.400724638
  0
VERTEX
  8
1
 10
81.655909382
 20
57.400724638
  0
VERTEX
  8
1
 10
81.655909382
 20
57.400724638
  0
VERTEX
  8
1
 10
81.655909382
 20
57.400724638
  0
VERTEX
  8
1
 10
81.655909382
 20
57.400724638
  0
VERTEX
  8
1
 10
81.655909382
 20
57.400724638
  0
VERTEX
  8
1
 10
81.655909382
 20
57.400724638
  0
VERTEX
  8
1
 10
81.655909382
 20
57.400724638
  0
VERTEX
  8
1
 10
81.655909382
 20
57.400724638
  0
VERTEX
  8
1
 10
81.655909382
 20
57.400724638
  0
VERTEX
  8
1
 10
81.655909382
 20
57.400724638
  0
VERTEX
  8
1
 10
81.655909382
 20
57.400724638
  0
VERTEX
  8
1
 10
81.655909382
 20
57.400724638
  0
VERTEX
  8
1
 10
81.655909382
 20
57.400724638
  0
VERTEX
  8
1
 10
81.655909382
 20
57.400724638
  0
VERTEX
  8
1
 10
81.655909382
 20
57.400724638
  0
VERTEX
  8
1
 10
81.655909382
 20
57.400724638
  0
VERTEX
  8
1
 10
81.655909382
 20
57.400724638
  0
VERTEX
  8
1
 10
81.655909382
 20
57.400724638
  0
VERTEX
  8
1
 10
81.655909382
 20
57.400724638
  0
VERTEX
  8
1
 10
81.655909382
 20
57.400724638
  0
VERTEX
  8
1
 10
81.655909382
 20
57.400724638
  0
VERTEX
  8
1
 10
81.655909382
 20
57.400724638
  0
VERTEX
  8
1
 10
81.655909382
 20
57.400724638
  0
VERTEX
  8
1
 10
81.655909382
 20
57.400724638
  0
VERTEX
  8
1
 10
81.655909382
 20
57.400724638
  0
VERTEX
  8
1
 10
81.655909382
 20
57.400724638
  0
VERTEX
  8
1
 10
81.655909382
 20
57.400724638
  0
VERTEX
  8
1
 10
81.655909382
 20
57.400724638
  0
VERTEX
  8
1
 10
81.655909382
 20
57.400724638
  0
SEQEND
  8
1
  0
LINE
  8
1
 62
7
  6
CONTINUOUS
 10
87.605909382
 20
57.250724638
 11
87.605909382
 21
71.250724638
  0
LINE
  8
1
 62
7
  6
CONTINUOUS
 10
84.305909382
 20
71.100724638
 11
84.955909382
 21
71.100724638
  0
LINE
  8
1
 62
7
  6
CONTINUOUS
 10
86.955909382
 20
57.250724638
 11
84.955909382
 21
57.250724638
  0
LINE
  8
1
 62
7
  6
CONTINUOUS
 10
87.605909382
 20
71.250724638
 11
89.605909382
 21
71.250724638
  0
LINE
  8
1
 62
7
  6
CONTINUOUS
 10
86.955909382
 20
57.250724638
 11
86.955909382
 21
71.250724638
  0
LINE
  8
1
 62
7
  6
CONTINUOUS
 10
163.957391304
 20
125.550724638
 11
162.997391304
 21
126.510724638
  0
ARC
  8
1
 62
4
  6
CONTINUOUS
 10
143.615080603
 20
66.250724638
 40
2.500000000
 50
126.869897646
 51
233.130102354
  0
LINE
  8
1
 62
7
  6
CONTINUOUS
 10
84.955909382
 20
71.250724638
 11
86.955909382
 21
71.250724638
  0
ARC
  8
1
 62
4
  6
CONTINUOUS
 10
140.615080603
 20
66.250724638
 40
2.500000000
 50
306.869897646
 51
53.130102354
  0
LINE
  8
1
 62
7
  6
CONTINUOUS
 10
109.955909382
 20
60.250724638
 11
138.465080603
 21
60.250724638
  0
LINE
  8
1
 62
7
  6
CONTINUOUS
 10
181.857391304
 20
99.250724638
 11
181.857391304
 21
101.750724638
  0
LINE
  8
1
 62
4
  6
CONTINUOUS
 10
174.467391304
 20
140.550724638
 11
174.467391304
 21
132.550724638
  0
LINE
  8
1
 62
7
  6
CONTINUOUS
 10
169.417391304
 20
132.550724638
 11
162.917391304
 21
132.550724638
  0
LINE
  8
1
 62
4
  6
CONTINUOUS
 10
182.167391304
 20
140.550724638
 11
182.167391304
 21
132.550724638
  0
LINE
  8
1
 62
4
  6
CONTINUOUS
 10
179.567391304
 20
140.550724638
 11
179.567391304
 21
132.550724638
  0
LINE
  8
1
 62
7
  6
CONTINUOUS
 10
182.837391304
 20
130.130724638
 11
182.837391304
 21
126.510724638
  0
LINE
  8
1
 62
7
  6
CONTINUOUS
 10
54.955909382
 20
56.250724638
 11
74.162759139
 21
56.250724638
  0
ARC
  8
1
 62
7
  6
CONTINUOUS
 10
172.917391305
 20
127.893042837
 40
2.670153523
 50
56.933186383
 51
79.281881903
  0
ARC
  8
1
 62
7
  6
CONTINUOUS
 10
73.998800061
 20
58.250724638
 40
2.000000000
 50
270.000000000
 51
279.373202739
  0
LINE
  8
1
 62
7
  6
CONTINUOUS
 10
109.955909382
 20
68.250724638
 11
138.465080603
 21
68.250724638
  0
LINE
  8
1
 62
7
  6
CONTINUOUS
 10
163.957391304
 20
125.550724638
 11
163.957391304
 21
109.363466301
  0
LINE
  8
1
 62
7
  6
CONTINUOUS
 10
162.917391304
 20
140.550724638
 11
162.917391304
 21
132.550724638
  0
LINE
  8
1
 62
7
  6
CONTINUOUS
 10
173.417391304
 20
131.550724638
 11
181.417391304
 21
131.550724638
  0
LINE
  8
1
 62
7
  6
CONTINUOUS
 10
162.997391304
 20
130.130724638
 11
162.997391304
 21
126.510724638
  0
ARC
  8
1
 62
7
  6
CONTINUOUS
 10
172.917391305
 20
128.748406435
 40
2.670153523
 50
275.335150874
 51
303.066813617
  0
LINE
  8
1
 62
7
  6
CONTINUOUS
 10
54.955909382
 20
72.250724638
 11
73.998800061
 21
72.250724638
  0
LINE
  8
1
 62
7
  6
CONTINUOUS
 10
178.567391305
 20
103.750724638
 11
178.567391305
 21
101.750724638
  0
LINE
  8
1
 62
7
  6
CONTINUOUS
 10
162.997391304
 20
130.130724638
 11
169.407162993
 21
130.130724638
  0
LINE
  8
1
 62
7
  6
CONTINUOUS
 10
181.877391304
 20
125.550724638
 11
173.108411620
 21
125.550724638
  0
LINE
  8
1
 62
7
  6
CONTINUOUS
 10
167.267391305
 20
103.750724638
 11
167.267391305
 21
101.750724638
  0
LINE
  8
1
 62
7
  6
CONTINUOUS
 10
90.255909382
 20
72.734573101
 11
90.255909382
 21
55.766876174
  0
INSERT
  8
1
 62
7
  6
CONTINUOUS
  2
blk252
 10
97.055909382
 20
58.451905804
 41
5.694116184
 42
0.802327900
 50
2.000000000
  0
LINE
  8
1
 62
7
  6
CONTINUOUS
 10
176.009720524
 20
99.250724638
 11
176.009720524
 21
101.750724638
  0
ARC
  8
1
 62
7
  6
CONTINUOUS
 10
156.917391304
 20
80.250724638
 40
12.000000000
 50
270.000000000
 51
0.000000000
  0
ARC
  8
1
 62
7
  6
CONTINUOUS
 10
90.755909382
 20
72.734573101
 40
0.500000000
 50
100.102002948
 51
180.000000000
  0
LINE
  8
1
 62
7
  6
CONTINUOUS
 10
109.955909382
 20
70.669705633
 11
109.955909382
 21
57.831743642
  0
ARC
  8
1
 62
7
  6
CONTINUOUS
 10
96.598705076
 20
88.561503635
 40
33.811046993
 50
259.897997052
 51
292.704232352
  0
LINE
  8
1
 62
4
  6
CONTINUOUS
 10
163.667391304
 20
140.550724638
 11
163.667391304
 21
132.550724638
  0
LINE
  8
1
 62
7
  6
CONTINUOUS
 10
162.997391304
 20
126.510724638
 11
169.187817346
 21
126.510724638
  0
LINE
  8
1
 62
4
  6
CONTINUOUS
 10
164.867391304
 20
140.550724638
 11
164.867391304
 21
132.550724638
  0
LINE
  8
1
 62
4
  6
CONTINUOUS
 10
166.267391304
 20
140.550724638
 11
166.267391304
 21
132.550724638
  0
LINE
  8
1
 62
4
  6
CONTINUOUS
 10
88.946875077
 20
120.657423377
 11
83.896875041
 21
119.304279945
  0
LINE
  8
1
 62
4
  6
CONTINUOUS
 10
88.946875077
 20
118.657423377
 11
83.896875041
 21
117.304279945
  0
LINE
  8
1
 62
4
  6
CONTINUOUS
 10
88.946875077
 20
116.657423377
 11
83.896875041
 21
115.304279945
  0
LINE
  8
1
 62
4
  6
CONTINUOUS
 10
88.946875077
 20
114.657423377
 11
85.189824233
 21
113.650724637
  0
LINE
  8
1
 62
4
  6
CONTINUOUS
 10
88.862724332
 20
130.634875253
 11
83.896875041
 21
129.304279945
  0
LINE
  8
1
 62
7
  6
CONTINUOUS
 10
76.696875079
 20
120.573673602
 11
76.696875079
 21
123.927775673
  0
LINE
  8
1
 62
7
  6
CONTINUOUS
 10
75.696875079
 20
123.927775673
 11
75.696875079
 21
120.573673602
  0
LINE
  8
1
 62
7
  6
CONTINUOUS
 10
66.696874690
 20
129.250724853
 11
66.696874690
 21
115.250724421
  0
LINE
  8
1
 62
7
  6
CONTINUOUS
 10
82.796875079
 20
130.735724637
 11
82.796875079
 21
113.765724637
  0
LINE
  8
1
 62
7
  6
CONTINUOUS
 10
82.796875079
 20
114.350725019
 11
81.696875053
 21
114.350725019
  0
LINE
  8
1
 62
7
  6
CONTINUOUS
 10
81.696875053
 20
114.350725019
 11
66.696874690
 21
115.250724421
  0
LINE
  8
1
 62
7
  6
CONTINUOUS
 10
66.696874690
 20
129.250724853
 11
64.696875293
 21
128.200724774
  0
LINE
  8
1
 62
7
  6
CONTINUOUS
 10
81.696875053
 20
130.150724256
 11
66.696874690
 21
129.250724853
  0
LINE
  8
1
 62
7
  6
CONTINUOUS
 10
82.796875079
 20
130.150724256
 11
81.696875053
 21
130.150724256
  0
LINE
  8
1
 62
7
  6
CONTINUOUS
 10
64.696875293
 20
127.699955382
 11
52.796875950
 21
127.150724695
  0
LINE
  8
1
 62
7
  6
CONTINUOUS
 10
52.796875950
 20
127.150724695
 11
52.296874937
 21
126.800724824
  0
LINE
  8
1
 62
7
  6
CONTINUOUS
 10
52.296874937
 20
126.800724824
 11
52.296874937
 21
117.700724450
  0
LINE
  8
1
 62
7
  6
CONTINUOUS
 10
99.196875360
 20
130.150724637
 11
96.896875360
 21
130.150724637
  0
LINE
  8
1
 62
7
  6
CONTINUOUS
 10
88.946875077
 20
130.550724508
 11
91.146875065
 21
130.550724508
  0
LINE
  8
1
 62
7
  6
CONTINUOUS
 10
83.896875041
 20
113.650724637
 11
88.646874947
 21
113.650724637
  0
LINE
  8
1
 62
7
  6
CONTINUOUS
 10
99.196875360
 20
114.350724637
 11
96.896875360
 21
114.350724637
  0
LINE
  8
1
 62
7
  6
CONTINUOUS
 10
82.796875079
 20
113.765724637
 11
83.896875041
 21
113.765724637
  0
LINE
  8
1
 62
1
  6
CONTINUOUS
 10
99.196875360
 20
114.850724637
 11
96.896875360
 21
114.850724637
  0
LINE
  8
1
 62
7
  6
CONTINUOUS
 10
96.896875360
 20
114.350724637
 11
96.896875360
 21
130.150724637
  0
LINE
  8
1
 62
1
  6
CONTINUOUS
 10
99.196875360
 20
129.650724637
 11
96.896875360
 21
129.650724637
  0
LINE
  8
1
 62
7
  6
CONTINUOUS
 10
96.896875360
 20
114.850724637
 11
96.196875360
 21
114.850724637
  0
LINE
  8
1
 62
7
  6
CONTINUOUS
 10
96.896875360
 20
129.650724637
 11
96.196875360
 21
129.650724637
  0
LINE
  8
1
 62
7
  6
CONTINUOUS
 10
83.896875041
 20
130.735724637
 11
82.796875079
 21
130.735724637
  0
LINE
  8
1
 62
7
  6
CONTINUOUS
 10
83.896875041
 20
130.850724637
 11
83.896875041
 21
113.650724637
  0
LINE
  8
1
 62
7
  6
CONTINUOUS
 10
96.196875360
 20
130.850724637
 11
91.446875487
 21
130.850724637
  0
LINE
  8
1
 62
7
  6
CONTINUOUS
 10
96.196875360
 20
113.650724637
 11
96.196875360
 21
130.850724637
  0
LINE
  8
1
 62
7
  6
CONTINUOUS
 10
88.946875077
 20
130.550724508
 11
88.946875077
 21
113.950724767
  0
LINE
  8
1
 62
7
  6
CONTINUOUS
 10
91.146875065
 20
113.950724767
 11
91.146875065
 21
130.550724508
  0
LINE
  8
1
 62
7
  6
CONTINUOUS
 10
99.196875360
 20
115.250724637
 11
105.296875079
 21
115.250724637
  0
LINE
  8
1
 62
7
  6
CONTINUOUS
 10
99.196875360
 20
130.150724637
 11
99.196875360
 21
114.350724637
  0
LINE
  8
1
 62
7
  6
CONTINUOUS
 10
105.296875079
 20
115.250724637
 11
105.296875079
 21
129.250724637
  0
LINE
  8
1
 62
7
  6
CONTINUOUS
 10
105.296875079
 20
129.250724637
 11
99.196875360
 21
129.250724637
  0
LINE
  8
1
 62
7
  6
CONTINUOUS
 10
91.146875065
 20
113.950724767
 11
88.946875077
 21
113.950724767
  0
LINE
  8
1
 62
7
  6
CONTINUOUS
 10
91.146875065
 20
130.550724508
 11
91.446875487
 21
130.850724929
  0
LINE
  8
1
 62
7
  6
CONTINUOUS
 10
91.446875487
 20
113.650724345
 11
91.146875065
 21
113.950724767
  0
LINE
  8
1
 62
7
  6
CONTINUOUS
 10
88.946875077
 20
113.950724767
 11
88.646874655
 21
113.650724345
  0
LINE
  8
1
 62
7
  6
CONTINUOUS
 10
88.646874655
 20
130.850724929
 11
88.946875077
 21
130.550724508
  0
LINE
  8
1
 62
7
  6
CONTINUOUS
 10
91.446875487
 20
113.650724637
 11
96.196875360
 21
113.650724637
  0
LINE
  8
1
 62
7
  6
CONTINUOUS
 10
88.646874655
 20
130.850724637
 11
83.896875041
 21
130.850724637
  0
LINE
  8
1
 62
7
  6
CONTINUOUS
 10
43.874339522
 20
65.625724638
 11
43.874339522
 21
64.800724638
  0
LINE
  8
1
 62
7
  6
CONTINUOUS
 10
43.874339522
 20
63.700724638
 11
43.874339522
 21
62.875724638
  0
ARC
  8
1
 62
7
  6
CONTINUOUS
 10
109.455909382
 20
70.669705633
 40
0.500000000
 50
0.000000000
 51
67.295767648
  0
LINE
  8
1
 62
7
  6
CONTINUOUS
 10
52.796875950
 20
117.350724579
 11
52.823958880
 21
127.169682701
  0
LINE
  8
1
 62
7
  6
CONTINUOUS
 10
52.796875950
 20
117.350724579
 11
52.296874937
 21
117.700724450
  0
CIRCLE
  8
1
 62
7
  6
CONTINUOUS
 10
76.196875079
 20
122.250724637
 40
1.750000050
  0
LINE
  8
1
 62
7
  6
CONTINUOUS
 10
64.696875293
 20
116.801493893
 11
52.796875950
 21
117.350724579
  0
LINE
  8
1
 62
7
  6
CONTINUOUS
 10
64.696875293
 20
116.300724500
 11
64.696875293
 21
128.200724774
  0
LINE
  8
1
 62
7
  6
CONTINUOUS
 10
66.696874690
 20
115.250724421
 11
64.696875293
 21
116.300724500
  0
LINE
  8
1
 62
7
  6
CONTINUOUS
 10
4.554523372
 20
126.250724638
 11
52.296874937
 21
126.250724638
  0
LINE
  8
1
 62
7
  6
CONTINUOUS
 10
4.554523372
 20
118.250724638
 11
52.296874937
 21
118.250724638
  0
ARC
  8
1
 62
4
  6
CONTINUOUS
 10
-0.544610581
 20
124.250724638
 40
2.500000000
 50
306.869897646
 51
53.130102354
  0
ARC
  8
1
 62
4
  6
CONTINUOUS
 10
2.455389419
 20
120.250724638
 40
2.500000000
 50
126.869897646
 51
233.130102354
  0
ARC
  8
1
 62
4
  6
CONTINUOUS
 10
-0.544610581
 20
120.250724638
 40
2.500000000
 50
306.869897646
 51
53.130102354
  0
ARC
  8
1
 62
4
  6
CONTINUOUS
 10
6.105389419
 20
120.250724638
 40
2.500000000
 50
126.869897646
 51
233.130102354
  0
LINE
  8
1
 62
7
  6
CONTINUOUS
 10
-28.162148792
 20
126.250724638
 11
0.955389419
 21
126.250724638
  0
LINE
  8
1
 62
7
  6
CONTINUOUS
 10
-28.162148792
 20
118.250724638
 11
0.955389419
 21
118.250724638
  0
ARC
  8
1
 62
4
  6
CONTINUOUS
 10
3.105389419
 20
124.250724638
 40
2.500000000
 50
306.869897646
 51
53.130102354
  0
ARC
  8
1
 62
4
  6
CONTINUOUS
 10
6.105389419
 20
124.250724638
 40
2.500000000
 50
126.869897646
 51
233.130102354
  0
POLYLINE
  8
1
 62
7
  6
CONTINUOUS
 66
1
  0
VERTEX
  8
1
 10
74.324529106
 20
72.224021521
  0
VERTEX
  8
1
 10
74.586366115
 20
72.178239860
 42
-0.004649752
  0
VERTEX
  8
1
 10
75.107302151
 20
72.073789405
 42
-0.003401432
  0
VERTEX
  8
1
 10
75.625472990
 20
71.956510223
 42
-0.002143715
  0
VERTEX
  8
1
 10
76.142078988
 20
71.832179369
 42
-0.000401379
  0
VERTEX
  8
1
 10
76.658694266
 20
71.708071227
 42
0.001410244
  0
VERTEX
  8
1
 10
77.176955386
 20
71.591710213
 42
0.003218665
  0
VERTEX
  8
1
 10
77.697986932
 20
71.488383771
 42
0.002929824
  0
VERTEX
  8
1
 10
78.221348004
 20
71.396539258
 42
0.002235974
  0
VERTEX
  8
1
 10
78.746299518
 20
71.313321183
 42
0.001544364
  0
VERTEX
  8
1
 10
79.272210900
 20
71.236608402
 42
0.002056093
  0
VERTEX
  8
1
 10
79.799345309
 20
71.170328103
 42
0.003694314
  0
VERTEX
  8
1
 10
80.328373818
 20
71.121306646
 42
0.005092700
  0
VERTEX
  8
1
 10
80.859096102
 20
71.094307405
 42
0.005624902
  0
VERTEX
  8
1
 10
81.390366339
 20
71.091838925
 42
0.006276090
  0
VERTEX
  8
1
 10
81.655909382
 20
71.100724638
  0
VERTEX
  8
1
 10
81.655909382
 20
71.100724638
  0
VERTEX
  8
1
 10
81.655909382
 20
71.100724638
  0
VERTEX
  8
1
 10
81.655909382
 20
71.100724638
  0
VERTEX
  8
1
 10
81.655909382
 20
71.100724638
  0
VERTEX
  8
1
 10
81.655909382
 20
71.100724638
  0
VERTEX
  8
1
 10
81.655909382
 20
71.100724638
  0
VERTEX
  8
1
 10
81.655909382
 20
71.100724638
  0
VERTEX
  8
1
 10
81.655909382
 20
71.100724638
  0
VERTEX
  8
1
 10
81.655909382
 20
71.100724638
  0
VERTEX
  8
1
 10
81.655909382
 20
71.100724638
  0
VERTEX
  8
1
 10
81.655909382
 20
71.100724638
  0
VERTEX
  8
1
 10
81.655909382
 20
71.100724638
  0
VERTEX
  8
1
 10
81.655909382
 20
71.100724638
  0
VERTEX
  8
1
 10
81.655909382
 20
71.100724638
  0
VERTEX
  8
1
 10
81.655909382
 20
71.100724638
  0
VERTEX
  8
1
 10
81.655909382
 20
71.100724638
  0
VERTEX
  8
1
 10
81.655909382
 20
71.100724638
  0
VERTEX
  8
1
 10
81.655909382
 20
71.100724638
  0
VERTEX
  8
1
 10
81.655909382
 20
71.100724638
  0
VERTEX
  8
1
 10
81.655909382
 20
71.100724638
  0
VERTEX
  8
1
 10
81.655909382
 20
71.100724638
  0
VERTEX
  8
1
 10
81.655909382
 20
71.100724638
  0
VERTEX
  8
1
 10
81.655909382
 20
71.100724638
  0
VERTEX
  8
1
 10
81.655909382
 20
71.100724638
  0
VERTEX
  8
1
 10
81.655909382
 20
71.100724638
  0
VERTEX
  8
1
 10
81.655909382
 20
71.100724638
  0
VERTEX
  8
1
 10
81.655909382
 20
71.100724638
  0
VERTEX
  8
1
 10
81.655909382
 20
71.100724638
  0
VERTEX
  8
1
 10
81.655909382
 20
71.100724638
  0
VERTEX
  8
1
 10
81.655909382
 20
71.100724638
  0
VERTEX
  8
1
 10
81.655909382
 20
71.100724638
  0
SEQEND
  8
1
  0
LINE
  8
1
 62
7
  6
CONTINUOUS
 10
54.955909382
 20
56.250724638
 11
54.955909382
 21
72.250724638
  0
LINE
  8
1
 62
7
  6
CONTINUOUS
 10
41.637479243
 20
63.700724638
 11
41.637479243
 21
62.875724638
  0
ARC
  8
1
 62
7
  6
CONTINUOUS
 10
96.598705076
 20
39.939945641
 40
33.811046993
 50
67.295767648
 51
100.102002948
  0
ARC
  8
1
 62
7
  6
CONTINUOUS
 10
90.755909382
 20
55.766876174
 40
0.500000000
 50
180.000000000
 51
259.897997052
  0
ARC
  8
1
 62
4
  6
CONTINUOUS
 10
102.746838306
 20
82.100724638
 40
1.250000000
 50
306.869897646
 51
53.130102354
  0
ARC
  8
1
 62
7
  6
CONTINUOUS
 10
109.455909382
 20
57.831743642
 40
0.500000000
 50
292.704232352
 51
0.000000000
  0
ARC
  8
1
 62
4
  6
CONTINUOUS
 10
100.746838306
 20
84.100724638
 40
1.250000000
 50
306.869897646
 51
53.130102354
  0
LINE
  8
1
 62
7
  6
CONTINUOUS
 10
169.417391304
 20
131.100724638
 11
169.417391304
 21
145.896196518
  0
LINE
  8
1
 62
4
  6
CONTINUOUS
 10
35.662395584
 20
55.375724638
 11
35.662395584
 21
55.775724638
  0
LINE
  8
1
 62
4
  6
CONTINUOUS
 10
35.662395584
 20
53.275724638
 11
35.662395584
 21
53.075724638
  0
LINE
  8
1
 62
4
  6
CONTINUOUS
 10
32.462395584
 20
53.275724638
 11
32.462395584
 21
53.075724638
  0
LINE
  8
1
 62
4
  6
CONTINUOUS
 10
35.662395584
 20
54.175724638
 11
32.462395584
 21
54.175724638
  0
LINE
  8
1
 62
4
  6
CONTINUOUS
 10
32.462395584
 20
57.075724638
 11
32.462395584
 21
57.675724638
  0
LINE
  8
1
 62
4
  6
CONTINUOUS
 10
35.662395584
 20
57.075724638
 11
35.662395584
 21
57.675724638
  0
LINE
  8
1
 62
4
  6
CONTINUOUS
 10
32.462395584
 20
55.775724638
 11
35.662395584
 21
55.775724638
  0
LINE
  8
1
 62
4
  6
CONTINUOUS
 10
35.662395584
 20
55.375724638
 11
32.462395584
 21
55.375724638
  0
LINE
  8
1
 62
4
  6
CONTINUOUS
 10
32.462395584
 20
54.475724638
 11
35.662395584
 21
54.475724638
  0
LINE
  8
1
 62
4
  6
CONTINUOUS
 10
35.662395584
 20
72.475724638
 11
35.662395584
 21
72.275724638
  0
LINE
  8
1
 62
4
  6
CONTINUOUS
 10
35.662395584
 20
53.075724638
 11
32.462395584
 21
53.075724638
  0
LINE
  8
1
 62
4
  6
CONTINUOUS
 10
32.462395584
 20
54.175724638
 11
32.462395584
 21
54.475724638
  0
LINE
  8
1
 62
4
  6
CONTINUOUS
 10
35.662395584
 20
54.175724638
 11
35.662395584
 21
54.475724638
  0
LINE
  8
1
 62
4
  6
CONTINUOUS
 10
35.662395584
 20
53.275724638
 11
32.462395584
 21
53.275724638
  0
LINE
  8
1
 62
4
  6
CONTINUOUS
 10
32.462395584
 20
80.475724638
 11
35.662395584
 21
80.475724638
  0
LINE
  8
1
 62
4
  6
CONTINUOUS
 10
32.462395584
 20
55.375724638
 11
32.462395584
 21
55.775724638
  0
LINE
  8
1
 62
7
  6
CONTINUOUS
 10
28.062395584
 20
47.550724638
 11
40.062395584
 21
47.550724638
  0
ARC
  8
1
 62
7
  6
CONTINUOUS
 10
37.962395584
 20
53.300724638
 40
1.000000000
 50
0.000000000
 51
90.000000000
  0
LINE
  8
1
 62
4
  6
CONTINUOUS
 10
32.462395584
 20
72.475724638
 11
32.462395584
 21
72.275724638
  0
LINE
  8
1
 62
4
  6
CONTINUOUS
 10
32.462395584
 20
57.675724638
 11
35.662395584
 21
57.675724638
  0
ARC
  8
1
 62
7
  6
CONTINUOUS
 10
30.162395584
 20
53.300724638
 40
1.000000000
 50
90.000000000
 51
180.000000000
  0
ARC
  8
1
 62
7
  6
CONTINUOUS
 10
30.162395584
 20
51.500724638
 40
1.000000000
 50
180.000000000
 51
270.000000000
  0
LINE
  8
1
 62
7
  6
CONTINUOUS
 10
37.520449729
 20
71.250724638
 11
36.437395584
 21
71.250724638
  0
LINE
  8
1
 62
7
  6
CONTINUOUS
 10
31.687395584
 20
71.250724638
 11
30.604341441
 21
71.250724638
  0
LINE
  8
1
 62
7
  6
CONTINUOUS
 10
30.105959463
 20
71.790916733
 11
30.525314302
 21
76.990916733
  0
ARC
  8
1
 62
7
  6
CONTINUOUS
 10
37.101094890
 20
76.950724638
 40
0.500000000
 50
4.610649319
 51
90.000000000
  0
ARC
  8
1
 62
7
  6
CONTINUOUS
 10
31.023696280
 20
76.950724638
 40
0.500000000
 50
90.000000000
 51
175.389350681
  0
LINE
  8
1
 62
7
  6
CONTINUOUS
 10
26.062395584
 20
55.250724638
 11
26.062395584
 21
49.550724638
  0
ARC
  8
1
 62
7
  6
CONTINUOUS
 10
37.520449729
 20
71.750724638
 40
0.500000000
 50
270.000000000
 51
4.610649319
  0
ARC
  8
1
 62
7
  6
CONTINUOUS
 10
30.604341441
 20
71.750724638
 40
0.500000000
 50
175.389350681
 51
270.000000000
  0
LINE
  8
1
 62
7
  6
CONTINUOUS
 10
37.599476867
 20
76.990916733
 11
38.018831706
 21
71.790916733
  0
LINE
  8
1
 62
7
  6
CONTINUOUS
 10
31.023696280
 20
77.450724638
 11
37.101094890
 21
77.450724638
  0
LINE
  8
1
 62
7
  6
CONTINUOUS
 10
45.712395584
 20
78.450724638
 11
45.712395584
 21
87.750724638
  0
LINE
  8
1
 62
7
  6
CONTINUOUS
 10
44.712395584
 20
78.450724638
 11
44.712395584
 21
87.750724638
  0
LINE
  8
1
 62
7
  6
CONTINUOUS
 10
47.212395584
 20
78.950724638
 11
47.212395584
 21
87.250724638
  0
LINE
  8
1
 62
7
  6
CONTINUOUS
 10
36.437395584
 20
77.450724638
 11
36.437395584
 21
88.600724638
  0
LINE
  8
1
 62
7
  6
CONTINUOUS
 10
31.687395584
 20
77.450724638
 11
31.687395584
 21
88.600724638
  0
LINE
  8
1
 62
7
  6
CONTINUOUS
 10
35.937395584
 20
89.100724638
 11
32.187395584
 21
89.100724638
  0
DIMENSION
  8
1
 62
4
  6
CONTINUOUS
  2
*D372
 70
1
 10
25.945888689
 20
153.550724638
 11
25.945888689
 21
173.550724638
 14
93.377645342
 24
153.550724638
 13
93.377645342
 23
193.550724638
 50
90.000000000
  0
LINE
  8
1
 62
4
  6
CONTINUOUS
 10
35.662395584
 20
77.775724638
 11
32.462395584
 21
77.775724638
  0
LINE
  8
1
 62
4
  6
CONTINUOUS
 10
35.662395584
 20
77.975724638
 11
32.462395584
 21
77.975724638
  0
LINE
  8
1
 62
4
  6
CONTINUOUS
 10
32.462395584
 20
78.675724638
 11
32.462395584
 21
78.475724638
  0
LINE
  8
1
 62
4
  6
CONTINUOUS
 10
32.462395584
 20
81.775724638
 11
35.662395584
 21
81.775724638
  0
LINE
  8
1
 62
4
  6
CONTINUOUS
 10
35.662395584
 20
81.375724638
 11
32.462395584
 21
81.375724638
  0
LINE
  8
1
 62
4
  6
CONTINUOUS
 10
35.662395584
 20
88.075724638
 11
32.462395584
 21
88.075724638
  0
LINE
  8
1
 62
4
  6
CONTINUOUS
 10
35.662395584
 20
87.875724638
 11
32.462395584
 21
87.875724638
  0
LINE
  8
1
 62
4
  6
CONTINUOUS
 10
32.462395584
 20
81.375724638
 11
32.462395584
 21
81.775724638
  0
LINE
  8
1
 62
4
  6
CONTINUOUS
 10
35.662395584
 20
78.675724638
 11
35.662395584
 21
78.475724638
  0
LINE
  8
1
 62
4
  6
CONTINUOUS
 10
35.662395584
 20
81.375724638
 11
35.662395584
 21
81.775724638
  0
LINE
  8
1
 62
4
  6
CONTINUOUS
 10
35.662395584
 20
80.175724638
 11
32.462395584
 21
80.175724638
  0
LINE
  8
1
 62
4
  6
CONTINUOUS
 10
32.462395584
 20
80.175724638
 11
32.462395584
 21
80.475724638
  0
LINE
  8
1
 62
4
  6
CONTINUOUS
 10
35.662395584
 20
80.175724638
 11
35.662395584
 21
80.475724638
  0
LINE
  8
1
 62
4
  6
CONTINUOUS
 10
35.662395584
 20
79.275724638
 11
32.462395584
 21
79.275724638
  0
LINE
  8
1
 62
4
  6
CONTINUOUS
 10
35.662395584
 20
79.475724638
 11
32.462395584
 21
79.475724638
  0
LINE
  8
1
 62
4
  6
CONTINUOUS
 10
35.662395584
 20
79.475724638
 11
35.662395584
 21
79.275724638
  0
LINE
  8
1
 62
4
  6
CONTINUOUS
 10
32.462395584
 20
79.475724638
 11
32.462395584
 21
79.275724638
  0
LINE
  8
1
 62
4
  6
CONTINUOUS
 10
35.662395584
 20
77.975724638
 11
35.662395584
 21
77.775724638
  0
LINE
  8
1
 62
4
  6
CONTINUOUS
 10
32.462395584
 20
88.575724638
 11
32.462395584
 21
88.775724638
  0
LINE
  8
1
 62
4
  6
CONTINUOUS
 10
35.662395584
 20
88.575724638
 11
35.662395584
 21
88.775724638
  0
LINE
  8
1
 62
4
  6
CONTINUOUS
 10
35.662395584
 20
83.575724638
 11
32.462395584
 21
83.575724638
  0
LINE
  8
1
 62
4
  6
CONTINUOUS
 10
32.462395584
 20
87.075724638
 11
32.462395584
 21
87.275724638
  0
LINE
  8
1
 62
4
  6
CONTINUOUS
 10
35.662395584
 20
87.075724638
 11
35.662395584
 21
87.275724638
  0
LINE
  8
1
 62
4
  6
CONTINUOUS
 10
35.662395584
 20
87.075724638
 11
32.462395584
 21
87.075724638
  0
LINE
  8
1
 62
4
  6
CONTINUOUS
 10
35.662395584
 20
87.275724638
 11
32.462395584
 21
87.275724638
  0
LINE
  8
1
 62
4
  6
CONTINUOUS
 10
35.662395584
 20
86.375724638
 11
35.662395584
 21
86.075724638
  0
LINE
  8
1
 62
4
  6
CONTINUOUS
 10
32.462395584
 20
86.375724638
 11
32.462395584
 21
86.075724638
  0
LINE
  8
1
 62
4
  6
CONTINUOUS
 10
35.662395584
 20
86.375724638
 11
32.462395584
 21
86.375724638
  0
LINE
  8
1
 62
4
  6
CONTINUOUS
 10
35.662395584
 20
85.175724638
 11
35.662395584
 21
84.775724638
  0
LINE
  8
1
 62
4
  6
CONTINUOUS
 10
32.462395584
 20
85.175724638
 11
32.462395584
 21
84.775724638
  0
LINE
  8
1
 62
4
  6
CONTINUOUS
 10
35.662395584
 20
85.175724638
 11
32.462395584
 21
85.175724638
  0
LINE
  8
1
 62
4
  6
CONTINUOUS
 10
32.462395584
 20
84.775724638
 11
35.662395584
 21
84.775724638
  0
LINE
  8
1
 62
4
  6
CONTINUOUS
 10
32.462395584
 20
86.075724638
 11
35.662395584
 21
86.075724638
  0
LINE
  8
1
 62
4
  6
CONTINUOUS
 10
35.662395584
 20
87.875724638
 11
35.662395584
 21
88.075724638
  0
LINE
  8
1
 62
4
  6
CONTINUOUS
 10
32.462395584
 20
87.875724638
 11
32.462395584
 21
88.075724638
  0
LINE
  8
1
 62
4
  6
CONTINUOUS
 10
32.462395584
 20
83.575724638
 11
32.462395584
 21
82.975724638
  0
ARC
  8
1
 62
7
  6
CONTINUOUS
 10
35.937395584
 20
88.600724638
 40
0.500000000
 50
0.000000000
 51
90.000000000
  0
ARC
  8
1
 62
7
  6
CONTINUOUS
 10
32.187395584
 20
88.600724638
 40
0.500000000
 50
90.000000000
 51
180.000000000
  0
ARC
  8
1
 62
4
  6
CONTINUOUS
 10
100.746838306
 20
82.100724638
 40
1.250000000
 50
306.869897646
 51
53.130102354
  0
LINE
  8
1
 62
7
  6
CONTINUOUS
 10
46.712395584
 20
87.750724638
 11
45.712395584
 21
87.750724638
  0
LINE
  8
1
 62
7
  6
CONTINUOUS
 10
36.437395584
 20
78.450724638
 11
44.712395584
 21
78.450724638
  0
LINE
  8
1
 62
4
  6
CONTINUOUS
 10
35.662395584
 20
83.575724638
 11
35.662395584
 21
82.975724638
  0
LINE
  8
1
 62
4
  6
CONTINUOUS
 10
32.462395584
 20
82.975724638
 11
35.662395584
 21
82.975724638
  0
LINE
  8
1
 62
4
  6
CONTINUOUS
 10
35.662395584
 20
88.575724638
 11
32.462395584
 21
88.575724638
  0
LINE
  8
1
 62
4
  6
CONTINUOUS
 10
35.662395584
 20
88.775724638
 11
32.462395584
 21
88.775724638
  0
LINE
  8
1
 62
7
  6
CONTINUOUS
 10
45.712395584
 20
78.450724638
 11
46.712395584
 21
78.450724638
  0
LINE
  8
1
 62
7
  6
CONTINUOUS
 10
44.712395584
 20
87.750724638
 11
36.437395584
 21
87.750724638
  0
ARC
  8
1
 62
7
  6
CONTINUOUS
 10
123.417391304
 20
131.100724638
 40
46.000000000
 50
270.000000000
 51
0.000000000
  0
ARC
  8
1
 62
7
  6
CONTINUOUS
 10
123.417391304
 20
131.100724638
 40
50.000000000
 50
270.000000000
 51
0.000000000
  0
LINE
  8
1
 62
7
  6
CONTINUOUS
 10
45.712395584
 20
79.900724638
 11
44.712395584
 21
79.900724638
  0
LINE
  8
1
 62
7
  6
CONTINUOUS
 10
45.712395584
 20
86.300724638
 11
44.712395584
 21
86.300724638
  0
ARC
  8
1
 62
7
  6
CONTINUOUS
 10
46.712395584
 20
78.950724638
 40
0.500000000
 50
270.000000000
 51
0.000000000
  0
ARC
  8
1
 62
7
  6
CONTINUOUS
 10
46.712395584
 20
87.250724638
 40
0.500000000
 50
0.000000000
 51
90.000000000
  0
ARC
  8
1
 62
7
  6
CONTINUOUS
 10
21.412395584
 20
87.250724638
 40
0.500000000
 50
90.000000000
 51
180.000000000
  0
ARC
  8
1
 62
7
  6
CONTINUOUS
 10
21.412395584
 20
78.950724638
 40
0.500000000
 50
180.000000000
 51
270.000000000
  0
LINE
  8
1
 62
7
  6
CONTINUOUS
 10
22.412395584
 20
86.300724638
 11
23.412395584
 21
86.300724638
  0
LINE
  8
1
 62
7
  6
CONTINUOUS
 10
22.412395584
 20
79.900724638
 11
23.412395584
 21
79.900724638
  0
LINE
  8
1
 62
7
  6
CONTINUOUS
 10
169.081354120
 20
125.550724638
 11
163.957391304
 21
125.550724638
  0
LINE
  8
1
 62
7
  6
CONTINUOUS
 10
23.412395584
 20
87.750724638
 11
31.687395584
 21
87.750724638
  0
LINE
  8
1
 62
7
  6
CONTINUOUS
 10
22.412395584
 20
78.450724638
 11
21.412395584
 21
78.450724638
  0
LINE
  8
1
 62
7
  6
CONTINUOUS
 10
22.412395584
 20
78.450724638
 11
22.412395584
 21
87.750724638
  0
LINE
  8
1
 62
4
  6
CONTINUOUS
 10
32.462395584
 20
77.975724638
 11
32.462395584
 21
77.775724638
  0
LINE
  8
1
 62
4
  6
CONTINUOUS
 10
35.662395584
 20
78.675724638
 11
32.462395584
 21
78.675724638
  0
LINE
  8
1
 62
4
  6
CONTINUOUS
 10
35.662395584
 20
78.475724638
 11
32.462395584
 21
78.475724638
  0
LINE
  8
1
 62
7
  6
CONTINUOUS
 10
31.687395584
 20
78.450724638
 11
23.412395584
 21
78.450724638
  0
LINE
  8
1
 62
7
  6
CONTINUOUS
 10
23.412395584
 20
78.450724638
 11
23.412395584
 21
87.750724638
  0
LINE
  8
1
 62
7
  6
CONTINUOUS
 10
21.412395584
 20
87.750724638
 11
22.412395584
 21
87.750724638
  0
LINE
  8
1
 62
7
  6
CONTINUOUS
 10
20.912395584
 20
78.950724638
 11
20.912395584
 21
87.250724638
  0
LINE
  8
1
 62
7
  6
CONTINUOUS
 10
103.496838306
 20
81.100724638
 11
123.417391304
 21
81.100724638
  0
LINE
  8
1
 62
7
  6
CONTINUOUS
 10
103.496838306
 20
85.100724638
 11
123.417391304
 21
85.100724638
  0
LINE
  8
1
 62
7
  6
CONTINUOUS
 10
47.212395584
 20
81.100724638
 11
101.496838306
 21
81.100724638
  0
ARC
  8
1
 62
7
  6
CONTINUOUS
 10
156.917391304
 20
80.250724638
 40
20.000000000
 50
270.000000000
 51
0.000000000
  0
LINE
  8
1
 62
4
  6
CONTINUOUS
 10
35.662395584
 20
63.075724638
 11
32.462395584
 21
63.075724638
  0
LINE
  8
1
 62
7
  6
CONTINUOUS
 10
142.115080603
 20
60.250724638
 11
156.917391304
 21
60.250724638
  0
LINE
  8
1
 62
7
  6
CONTINUOUS
 10
142.115080603
 20
68.250724638
 11
156.917391304
 21
68.250724638
  0
LINE
  8
1
 62
1
  6
DASHED
 10
254.467391304
 20
214.550724638
 11
261.367391304
 21
214.550724638
  0
LINE
  8
1
 62
7
  6
CONTINUOUS
 10
47.212395584
 20
85.100724638
 11
101.496838306
 21
85.100724638
  0
LINE
  8
1
 62
4
  6
CONTINUOUS
 10
35.662395584
 20
61.075724638
 11
32.462395584
 21
61.075724638
  0
LINE
  8
1
 62
4
  6
CONTINUOUS
 10
32.462395584
 20
63.675724638
 11
35.662395584
 21
63.675724638
  0
LINE
  8
1
 62
4
  6
CONTINUOUS
 10
35.662395584
 20
63.075724638
 11
35.662395584
 21
63.675724638
  0
LINE
  8
1
 62
4
  6
CONTINUOUS
 10
32.462395584
 20
63.075724638
 11
32.462395584
 21
63.675724638
  0
LINE
  8
1
 62
1
  6
DASHED
 10
261.367391304
 20
222.550724638
 11
254.467391304
 21
222.550724638
  0
LINE
  8
1
 62
1
  6
DASHED
 10
261.367391304
 20
222.550724638
 11
262.367391304
 21
223.550724638
  0
LINE
  8
1
 62
4
  6
CONTINUOUS
 10
35.662395584
 20
67.075724638
 11
32.462395584
 21
67.075724638
  0
LINE
  8
1
 62
4
  6
CONTINUOUS
 10
35.662395584
 20
65.075724638
 11
32.462395584
 21
65.075724638
  0
LINE
  8
1
 62
4
  6
CONTINUOUS
 10
35.662395584
 20
67.675724638
 11
32.462395584
 21
67.675724638
  0
LINE
  8
1
 62
4
  6
CONTINUOUS
 10
32.462395584
 20
67.075724638
 11
32.462395584
 21
67.675724638
  0
LINE
  8
1
 62
4
  6
CONTINUOUS
 10
35.662395584
 20
67.075724638
 11
35.662395584
 21
67.675724638
  0
LINE
  8
1
 62
4
  6
CONTINUOUS
 10
32.462395584
 20
65.675724638
 11
35.662395584
 21
65.675724638
  0
LINE
  8
1
 62
4
  6
CONTINUOUS
 10
35.662395584
 20
65.075724638
 11
35.662395584
 21
65.675724638
  0
LINE
  8
1
 62
4
  6
CONTINUOUS
 10
32.462395584
 20
65.075724638
 11
32.462395584
 21
65.675724638
  0
LINE
  8
1
 62
4
  6
CONTINUOUS
 10
32.462395584
 20
68.875724638
 11
35.662395584
 21
68.875724638
  0
LINE
  8
1
 62
4
  6
CONTINUOUS
 10
35.662395584
 20
69.475724638
 11
32.462395584
 21
69.475724638
  0
LINE
  8
1
 62
4
  6
CONTINUOUS
 10
32.462395584
 20
69.475724638
 11
32.462395584
 21
68.875724638
  0
LINE
  8
1
 62
4
  6
CONTINUOUS
 10
35.662395584
 20
69.475724638
 11
35.662395584
 21
68.875724638
  0
LINE
  8
1
 62
4
  6
CONTINUOUS
 10
35.662395584
 20
72.275724638
 11
32.462395584
 21
72.275724638
  0
LINE
  8
1
 62
4
  6
CONTINUOUS
 10
32.462395584
 20
70.475724638
 11
35.662395584
 21
70.475724638
  0
LINE
  8
1
 62
4
  6
CONTINUOUS
 10
35.662395584
 20
70.875724638
 11
32.462395584
 21
70.875724638
  0
LINE
  8
1
 62
4
  6
CONTINUOUS
 10
32.462395584
 20
70.875724638
 11
32.462395584
 21
70.475724638
  0
LINE
  8
1
 62
4
  6
CONTINUOUS
 10
35.662395584
 20
70.875724638
 11
35.662395584
 21
70.475724638
  0
LINE
  8
1
 62
4
  6
CONTINUOUS
 10
35.662395584
 20
72.475724638
 11
32.462395584
 21
72.475724638
  0
LINE
  8
1
 62
4
  6
CONTINUOUS
 10
35.662395584
 20
61.075724638
 11
35.662395584
 21
61.675724638
  0
LINE
  8
1
 62
4
  6
CONTINUOUS
 10
32.462395584
 20
61.075724638
 11
32.462395584
 21
61.675724638
  0
LINE
  8
1
 62
4
  6
CONTINUOUS
 10
32.462395584
 20
71.575724638
 11
35.662395584
 21
71.575724638
  0
LINE
  8
1
 62
4
  6
CONTINUOUS
 10
35.662395584
 20
71.875724638
 11
32.462395584
 21
71.875724638
  0
LINE
  8
1
 62
7
  6
CONTINUOUS
 10
40.062395584
 20
57.250724638
 11
36.437395584
 21
57.250724638
  0
LINE
  8
1
 62
7
  6
CONTINUOUS
 10
31.687395584
 20
54.300724638
 11
30.162395584
 21
54.300724638
  0
ARC
  8
1
 62
7
  6
CONTINUOUS
 10
32.187395584
 20
72.100724638
 40
0.500000000
 50
90.000000000
 51
180.000000000
  0
ARC
  8
1
 62
7
  6
CONTINUOUS
 10
35.937395584
 20
72.100724638
 40
0.500000000
 50
0.000000000
 51
90.000000000
  0
ARC
  8
1
 62
7
  6
CONTINUOUS
 10
32.187395584
 20
53.450724638
 40
0.500000000
 50
180.000000000
 51
270.000000000
  0
ARC
  8
1
 62
7
  6
CONTINUOUS
 10
35.937395584
 20
53.450724638
 40
0.500000000
 50
270.000000000
 51
0.000000000
  0
LINE
  8
1
 62
7
  6
CONTINUOUS
 10
32.187395584
 20
52.950724638
 11
35.937395584
 21
52.950724638
  0
LINE
  8
1
 62
7
  6
CONTINUOUS
 10
31.687395584
 20
72.100724638
 11
31.687395584
 21
53.450724638
  0
LINE
  8
1
 62
7
  6
CONTINUOUS
 10
35.937395584
 20
72.600724638
 11
32.187395584
 21
72.600724638
  0
LINE
  8
1
 62
4
  6
CONTINUOUS
 10
35.662395584
 20
59.075724638
 11
32.462395584
 21
59.075724638
  0
LINE
  8
1
 62
1
  6
DASHED
 10
261.917391304
 20
217.550724638
 11
261.367391304
 21
216.598096693
  0
LINE
  8
1
 62
7
  6
CONTINUOUS
 10
36.437395584
 20
53.450724638
 11
36.437395584
 21
72.100724638
  0
LINE
  8
1
 62
4
  6
CONTINUOUS
 10
32.462395584
 20
71.875724638
 11
32.462395584
 21
71.575724638
  0
LINE
  8
1
 62
4
  6
CONTINUOUS
 10
35.662395584
 20
71.875724638
 11
35.662395584
 21
71.575724638
  0
LINE
  8
1
 62
7
  6
CONTINUOUS
 10
40.062395584
 20
57.250724638
 11
36.437395584
 21
57.250724638
  0
LINE
  8
1
 62
7
  6
CONTINUOUS
 10
30.162395584
 20
50.500724638
 11
37.962395584
 21
50.500724638
  0
LINE
  8
1
 62
7
  6
CONTINUOUS
 10
42.062395584
 20
49.550724638
 11
42.062395584
 21
55.250724638
  0
ARC
  8
1
 62
7
  6
CONTINUOUS
 10
37.962395584
 20
51.500724638
 40
1.000000000
 50
270.000000000
 51
0.000000000
  0
ARC
  8
1
 62
7
  6
CONTINUOUS
 10
28.062395584
 20
49.550724638
 40
2.000000000
 50
180.000000000
 51
270.000000000
  0
LINE
  8
1
 62
7
  6
CONTINUOUS
 10
29.162395584
 20
53.300724638
 11
29.162395584
 21
51.500724638
  0
LINE
  8
1
 62
7
  6
CONTINUOUS
 10
37.962395584
 20
54.300724638
 11
36.437395584
 21
54.300724638
  0
ARC
  8
1
 62
7
  6
CONTINUOUS
 10
28.062395584
 20
55.250724638
 40
2.000000000
 50
90.000000000
 51
180.000000000
  0
LINE
  8
1
 62
4
  6
CONTINUOUS
 10
35.662395584
 20
57.075724638
 11
32.462395584
 21
57.075724638
  0
LINE
  8
1
 62
7
  6
CONTINUOUS
 10
31.687395584
 20
57.250724638
 11
28.062395584
 21
57.250724638
  0
ARC
  8
1
 62
7
  6
CONTINUOUS
 10
40.062395584
 20
55.250724638
 40
2.000000000
 50
0.000000000
 51
90.000000000
  0
LINE
  8
1
 62
7
  6
CONTINUOUS
 10
38.962395584
 20
51.500724638
 11
38.962395584
 21
53.300724638
  0
ARC
  8
1
 62
7
  6
CONTINUOUS
 10
40.062395584
 20
49.550724638
 40
2.000000000
 50
270.000000000
 51
0.000000000
  0
LINE
  8
1
 62
4
  6
CONTINUOUS
 10
32.462395584
 20
59.075724638
 11
32.462395584
 21
59.675724638
  0
LINE
  8
1
 62
4
  6
CONTINUOUS
 10
32.462395584
 20
59.675724638
 11
35.662395584
 21
59.675724638
  0
LINE
  8
1
 62
4
  6
CONTINUOUS
 10
35.662395584
 20
59.075724638
 11
35.662395584
 21
59.675724638
  0
LINE
  8
1
 62
7
  6
CONTINUOUS
 10
38.255909382
 20
71.100724638
 11
37.605909382
 21
71.100724638
  0
LINE
  8
1
 62
7
  6
CONTINUOUS
 10
38.255909382
 20
57.400724638
 11
37.605909382
 21
57.400724638
  0
LINE
  8
1
 62
7
  6
CONTINUOUS
 10
30.305909382
 20
57.400724638
 11
29.655909382
 21
57.400724638
  0
LINE
  8
1
 62
4
  6
CONTINUOUS
 10
32.462395584
 20
61.675724638
 11
35.662395584
 21
61.675724638
  0
ARC
  8
1
 62
4
  6
CONTINUOUS
 10
104.246838306
 20
84.100724638
 40
1.250000000
 50
126.869897646
 51
233.130102354
  0
ARC
  8
1
 62
4
  6
CONTINUOUS
 10
102.246838306
 20
84.100724638
 40
1.250000000
 50
126.869897646
 51
233.130102354
  0
ARC
  8
3
 62
7
  6
CONTINUOUS
 10
232.417391304
 20
210.050724638
 40
5.000000000
 50
270.000000000
 51
0.000000000
  0
ARC
  8
1
 62
7
  6
CONTINUOUS
 10
-28.162148792
 20
93.250724638
 40
25.000000000
 50
90.000000000
 51
270.000000000
  0
ARC
  8
1
 62
7
  6
CONTINUOUS
 10
-28.162148792
 20
93.250724638
 40
33.000000000
 50
90.000000000
 51
270.000000000
  0
ARC
  8
1
 62
4
  6
CONTINUOUS
 10
-26.113070414
 20
82.100724638
 40
1.250000000
 50
306.869897646
 51
53.130102354
  0
ARC
  8
1
 62
4
  6
CONTINUOUS
 10
-24.613070414
 20
82.100724638
 40
1.250000000
 50
126.869897646
 51
233.130102354
  0
ARC
  8
1
 62
4
  6
CONTINUOUS
 10
-24.613070414
 20
84.100724638
 40
1.250000000
 50
126.869897646
 51
233.130102354
  0
LINE
  8
1
 62
7
  6
CONTINUOUS
 10
-25.363070414
 20
85.100724638
 11
20.912395584
 21
85.100724638
  0
LINE
  8
3
 62
7
  6
CONTINUOUS
 10
232.417391304
 20
205.050724638
 11
186.917391304
 21
205.050724638
  0
LINE
  8
1
 62
7
  6
CONTINUOUS
 10
-25.363070414
 20
81.100724638
 11
20.912395584
 21
81.100724638
  0
LINE
  8
3
 62
7
  6
CONTINUOUS
 10
186.417391304
 20
204.550724638
 11
186.917391304
 21
205.050724638
  0
LINE
  8
1
 62
7
  6
CONTINUOUS
 10
173.417391304
 20
142.011494153
 11
181.917391304
 21
142.011494153
  0
LINE
  8
1
 62
7
  6
CONTINUOUS
 10
164.417391304
 20
131.550724638
 11
169.417391304
 21
131.550724638
  0
LINE
  8
1
 62
7
  6
CONTINUOUS
 10
182.917391304
 20
132.550724638
 11
173.417391304
 21
132.550724638
  0
LINE
  8
1
 62
7
  6
CONTINUOUS
 10
173.417391304
 20
143.050724638
 11
182.917391304
 21
143.050724638
  0
ARC
  8
1
 62
4
  6
CONTINUOUS
 10
143.615080603
 20
62.250724638
 40
2.500000000
 50
126.869897646
 51
233.130102354
  0
ARC
  8
1
 62
4
  6
CONTINUOUS
 10
136.965080603
 20
62.250724638
 40
2.500000000
 50
306.869897646
 51
53.130102354
  0
ARC
  8
1
 62
4
  6
CONTINUOUS
 10
139.965080603
 20
62.250724638
 40
2.500000000
 50
126.869897646
 51
233.130102354
  0
ARC
  8
1
 62
4
  6
CONTINUOUS
 10
136.965080603
 20
66.250724638
 40
2.500000000
 50
306.869897646
 51
53.130102354
  0
LINE
  8
1
 62
4
  6
CONTINUOUS
 10
167.867391304
 20
140.550724638
 11
167.867391304
 21
132.550724638
  0
LINE
  8
1
 62
7
  6
CONTINUOUS
 10
-28.162148792
 20
60.250724638
 11
9.955909382
 21
60.250724638
  0
LINE
  8
1
 62
7
  6
CONTINUOUS
 10
9.955909382
 20
68.250724638
 11
-28.162148792
 21
68.250724638
  0
LINE
  8
1
 62
7
  6
CONTINUOUS
 10
163.977391304
 20
99.250724638
 11
181.857391304
 21
99.250724638
  0
LINE
  8
1
 62
7
  6
CONTINUOUS
 10
173.417391304
 20
144.550724638
 11
186.217391304
 21
144.550724638
  0
LINE
  8
3
 62
7
  6
CONTINUOUS
 10
186.417391304
 20
142.550724638
 11
186.917391304
 21
142.050724638
  0
LINE
  8
3
 62
7
  6
CONTINUOUS
 10
186.417391304
 20
204.550724638
 11
186.417391304
 21
142.550724638
  0
ARC
  8
3
 62
7
  6
CONTINUOUS
 10
232.417391304
 20
137.050724638
 40
5.000000000
 50
0.000000000
 51
90.000000000
  0
LINE
  8
3
 62
7
  6
CONTINUOUS
 10
232.417391304
 20
142.050724638
 11
186.917391304
 21
142.050724638
  0
ARC
  8
3
 62
7
  6
CONTINUOUS
 10
267.317391304
 20
134.868787138
 40
1.000000000
 50
90.000000000
 51
154.158067237
  0
ARC
  8
3
 62
7
  6
CONTINUOUS
 10
268.039328645
 20
134.868787138
 40
1.000000000
 50
75.000000000
 51
90.000000000
  0
LINE
  8
3
 62
7
  6
CONTINUOUS
 10
268.917391304
 20
135.668787138
 11
268.298147690
 21
135.834712964
  0
LINE
  8
3
 62
7
  6
CONTINUOUS
 10
268.039328645
 20
135.868787138
 11
267.317391304
 21
135.868787138
  0
ARC
  8
3
 62
7
  6
CONTINUOUS
 10
268.039328645
 20
212.232662138
 40
1.000000000
 50
270.000000000
 51
285.000000000
  0
ARC
  8
3
 62
7
  6
CONTINUOUS
 10
267.317391304
 20
212.232662138
 40
1.000000000
 50
205.841932763
 51
270.000000000
  0
LINE
  8
1
 62
1
  6
DASHED
 10
261.367391304
 20
222.550724638
 11
261.367391304
 21
214.550724638
  0
LINE
  8
3
 62
7
  6
CONTINUOUS
 10
268.917391304
 20
211.432662138
 11
314.517515601
 21
209.146955907
  0
LINE
  8
1
 62
1
  6
DASHED
 10
261.367391304
 20
214.550724638
 11
257.917391304
 21
212.558866209
  0
LINE
  8
3
 62
7
  6
CONTINUOUS
 10
268.917391304
 20
211.432662138
 11
268.298147690
 21
211.266736311
  0
LINE
  8
3
 62
7
  6
CONTINUOUS
 10
268.039328645
 20
211.232662138
 11
267.317391304
 21
211.232662138
  0
LINE
  8
1
 62
1
  6
DASHED
 10
254.467391304
 20
214.550724638
 11
257.917391304
 21
212.558866209
  0
ARC
  8
3
 62
7
  6
CONTINUOUS
 10
314.417391304
 20
207.149463698
 40
2.000000000
 50
0.000000000
 51
87.130450706
  0
ARC
  8
3
 62
7
  6
CONTINUOUS
 10
314.417391304
 20
139.951985577
 40
2.000000000
 50
272.869549294
 51
0.000000000
  0
LINE
  8
3
 62
7
  6
CONTINUOUS
 10
268.917391304
 20
135.668787138
 11
314.517515601
 21
137.954493368
  0
LINE
  8
1
 62
1
  6
DASHED
 10
261.917391304
 20
223.100724638
 11
261.917391304
 21
217.550724638
  0
LINE
  8
1
 62
1
  6
DASHED
 10
253.917391304
 20
223.100724638
 11
253.917391304
 21
217.550724638
  0
LINE
  8
3
 62
7
  6
CONTINUOUS
 10
249.664986569
 20
184.479745914
 11
249.664986569
 21
223.550724638
  0
LINE
  8
3
 62
7
  6
CONTINUOUS
 10
248.292391304
 20
162.550724638
 11
248.292391304
 21
125.928129373
  0
LINE
  8
3
 62
7
  6
CONTINUOUS
 10
244.542391304
 20
162.550724638
 11
244.542391304
 21
125.928129373
  0
LINE
  8
3
 62
7
  6
CONTINUOUS
 10
243.169796040
 20
184.550724638
 11
243.169796040
 21
223.550724638
  0
ARC
  8
1
 62
7
  6
CONTINUOUS
 10
248.417391304
 20
173.550724638
 40
11.000000000
 50
270.000000000
 51
90.000000000
  0
LINE
  8
3
 62
7
  6
CONTINUOUS
 10
244.542391304
 20
221.173319902
 11
243.169796040
 21
223.550724638
  0
LINE
  8
3
 62
7
  6
CONTINUOUS
 10
248.292391304
 20
221.173319902
 11
249.664986569
 21
223.550724638
  0
LINE
  8
3
 62
7
  6
CONTINUOUS
 10
244.542391304
 20
125.928129373
 11
243.169796040
 21
123.550724638
  0
LINE
  8
1
 62
1
  6
DASHED
 10
254.467391304
 20
222.550724638
 11
254.467391304
 21
214.550724638
  0
LINE
  8
1
 62
1
  6
DASHED
 10
253.467391304
 20
223.550724638
 11
254.467391304
 21
222.550724638
  0
LINE
  8
1
 62
1
  6
DASHED
 10
261.917391304
 20
217.550724638
 11
253.917391304
 21
217.550724638
  0
LINE
  8
1
 62
1
  6
DASHED
 10
253.917391304
 20
217.550724638
 11
254.467391304
 21
216.598096693
  0
LINE
  8
1
 62
1
  6
CENTER
 10
257.917391304
 20
225.550724638
 11
257.917391304
 21
210.558866209
  0
LINE
  8
3
 62
7
  6
CONTINUOUS
 10
248.292391304
 20
219.550724638
 11
244.542391304
 21
219.550724638
  0
LINE
  8
3
 62
7
  6
CONTINUOUS
 10
237.917391304
 20
223.550724638
 11
237.417391304
 21
223.050724638
  0
LINE
  8
3
 62
7
  6
CONTINUOUS
 10
243.169796040
 20
223.550724638
 11
237.917391304
 21
223.550724638
  0
LINE
  8
3
 62
7
  6
CONTINUOUS
 10
249.664986569
 20
223.550724638
 11
265.917391304
 21
223.550724638
  0
LINE
  8
3
 62
7
  6
CONTINUOUS
 10
266.417391304
 20
223.050724638
 11
265.917391304
 21
223.550724638
  0
LINE
  8
3
 62
7
  6
CONTINUOUS
 10
243.169796040
 20
123.550724638
 11
243.169796040
 21
162.550724638
  0
LINE
  8
1
 62
7
  6
CONTINUOUS
 10
237.417391304
 20
162.550724638
 11
248.417391304
 21
162.550724638
  0
LINE
  8
3
 62
7
  6
CONTINUOUS
 10
249.664986569
 20
123.550724638
 11
249.664986569
 21
162.621703361
  0
LINE
  8
1
 62
7
  6
CONTINUOUS
 10
237.417391304
 20
184.550724638
 11
248.417391304
 21
184.550724638
  0
LINE
  8
3
 62
7
  6
CONTINUOUS
 10
268.917391304
 20
135.668787138
 11
268.917391304
 21
211.432662138
  0
TEXT
  8
1
 62
4
  6
CONTINUOUS
 72
5
 10
280.782573211
 20
240.070724638
 40
3.200000000
  1
ＨＳＫ Ａ１００
 41
0.855823697
 11
304.182573211
 21
240.070724638
  0
LINE
  8
1
 62
4
  6
CONTINUOUS
 10
91.146875065
 20
126.657423377
 11
96.196875101
 21
125.304279945
  0
LINE
  8
3
 62
7
  6
CONTINUOUS
 10
244.542391304
 20
221.173319902
 11
244.542391304
 21
184.550724638
  0
LINE
  8
1
 62
4
  6
CONTINUOUS
 10
96.196875101
 20
130.657423367
 11
91.146875065
 21
129.304279936
  0
LINE
  8
3
 62
7
  6
CONTINUOUS
 10
248.292391304
 20
125.928129373
 11
249.664986569
 21
123.550724638
  0
LINE
  8
1
 62
7
  6
CONTINUOUS
 10
96.196875101
 20
113.650724637
 11
91.446875195
 21
113.650724637
  0
LINE
  8
1
 62
4
  6
CONTINUOUS
 10
96.196875101
 20
116.657423367
 11
91.146875065
 21
115.304279936
  0
POLYLINE
  8
1
 62
4
  6
CONTINUOUS
 66
1
  0
VERTEX
  8
1
 10
288.531799316
 20
210.449493408
  0
VERTEX
  8
1
 10
289.047821045
 20
211.343276978
  0
VERTEX
  8
1
 10
289.563842773
 20
212.237060547
  0
VERTEX
  8
1
 10
290.079895020
 20
213.130859375
  0
VERTEX
  8
1
 10
290.595916748
 20
214.024642944
  0
VERTEX
  8
1
 10
291.111938477
 20
214.918426514
  0
VERTEX
  8
1
 10
291.627960205
 20
215.812225342
  0
VERTEX
  8
1
 10
292.144012451
 20
216.706008911
  0
VERTEX
  8
1
 10
292.660034180
 20
217.599792480
  0
VERTEX
  8
1
 10
293.176055908
 20
218.493591309
  0
VERTEX
  8
1
 10
293.692077637
 20
219.387374878
  0
VERTEX
  8
1
 10
294.208129883
 20
220.281158447
  0
VERTEX
  8
1
 10
294.724151611
 20
221.174957275
  0
VERTEX
  8
1
 10
295.240173340
 20
222.068740845
  0
VERTEX
  8
1
 10
295.756195068
 20
222.962524414
  0
VERTEX
  8
1
 10
296.272247314
 20
223.856323242
  0
VERTEX
  8
1
 10
296.788269043
 20
224.750106812
  0
VERTEX
  8
1
 10
297.304290771
 20
225.643890381
  0
VERTEX
  8
1
 10
297.820312500
 20
226.537689209
  0
VERTEX
  8
1
 10
298.336364746
 20
227.431472778
  0
VERTEX
  8
1
 10
298.852386475
 20
228.325256348
  0
VERTEX
  8
1
 10
299.368408203
 20
229.219055176
  0
VERTEX
  8
1
 10
299.884429932
 20
230.112838745
  0
VERTEX
  8
1
 10
300.400482178
 20
231.006622314
  0
VERTEX
  8
1
 10
300.916503906
 20
231.900421143
  0
VERTEX
  8
1
 10
301.432525635
 20
232.794204712
  0
VERTEX
  8
1
 10
301.948547363
 20
233.687988281
  0
VERTEX
  8
1
 10
302.464569092
 20
234.581787109
  0
VERTEX
  8
1
 10
302.980621338
 20
235.475570679
  0
VERTEX
  8
1
 10
303.496643066
 20
236.369354248
  0
VERTEX
  8
1
 10
304.012664795
 20
237.263153076
  0
VERTEX
  8
1
 10
304.528686523
 20
238.156936646
  0
VERTEX
  8
1
 10
305.044738770
 20
239.050720215
  0
VERTEX
  8
1
 10
304.293762207
 20
239.050720215
  0
VERTEX
  8
1
 10
303.542785645
 20
239.050720215
  0
VERTEX
  8
1
 10
302.791809082
 20
239.050720215
  0
VERTEX
  8
1
 10
302.040863037
 20
239.050720215
  0
VERTEX
  8
1
 10
301.289886475
 20
239.050720215
  0
VERTEX
  8
1
 10
300.538909912
 20
239.050720215
  0
VERTEX
  8
1
 10
299.787933350
 20
239.050720215
  0
VERTEX
  8
1
 10
299.036987305
 20
239.050720215
  0
VERTEX
  8
1
 10
298.286010742
 20
239.050720215
  0
VERTEX
  8
1
 10
297.535034180
 20
239.050720215
  0
VERTEX
  8
1
 10
296.784057617
 20
239.050720215
  0
VERTEX
  8
1
 10
296.033111572
 20
239.050720215
  0
VERTEX
  8
1
 10
295.282135010
 20
239.050720215
  0
VERTEX
  8
1
 10
294.531158447
 20
239.050720215
  0
VERTEX
  8
1
 10
293.780181885
 20
239.050720215
  0
VERTEX
  8
1
 10
293.029235840
 20
239.050720215
  0
VERTEX
  8
1
 10
292.278259277
 20
239.050720215
  0
VERTEX
  8
1
 10
291.527282715
 20
239.050720215
  0
VERTEX
  8
1
 10
290.776306152
 20
239.050720215
  0
VERTEX
  8
1
 10
290.025329590
 20
239.050720215
  0
VERTEX
  8
1
 10
289.274383545
 20
239.050720215
  0
VERTEX
  8
1
 10
288.523406982
 20
239.050720215
  0
VERTEX
  8
1
 10
287.772430420
 20
239.050720215
  0
VERTEX
  8
1
 10
287.021453857
 20
239.050720215
  0
VERTEX
  8
1
 10
286.270507813
 20
239.050720215
  0
VERTEX
  8
1
 10
285.519531250
 20
239.050720215
  0
VERTEX
  8
1
 10
284.768554688
 20
239.050720215
  0
VERTEX
  8
1
 10
284.017578125
 20
239.050720215
  0
VERTEX
  8
1
 10
283.266632080
 20
239.050720215
  0
VERTEX
  8
1
 10
282.515655518
 20
239.050720215
  0
VERTEX
  8
1
 10
281.764678955
 20
239.050720215
  0
VERTEX
  8
1
 10
281.013702393
 20
239.050720215
  0
SEQEND
  8
1
  0
POLYLINE
  8
1
 62
4
  6
CONTINUOUS
 66
1
  0
VERTEX
  8
1
 10
289.271992359
 20
212.331543955
  0
VERTEX
  8
1
 10
288.531799316
 20
210.449493408
  0
VERTEX
  8
1
 10
289.791607496
 20
212.031543771
  0
SEQEND
  8
1
  0
LINE
  8
1
 62
4
  6
CONTINUOUS
 10
96.196875101
 20
120.657423367
 11
91.146875065
 21
119.304279936
  0
LINE
  8
3
 62
7
  6
CONTINUOUS
 10
248.292391304
 20
221.173319902
 11
248.292391304
 21
184.550724638
  0
LINE
  8
1
 62
4
  6
CONTINUOUS
 10
91.146875065
 20
123.304279936
 11
96.196875101
 21
124.657423367
  0
LINE
  8
3
 62
7
  6
CONTINUOUS
 10
248.292391304
 20
127.550724638
 11
244.542391304
 21
127.550724638
  0
LINE
  8
1
 62
4
  6
CONTINUOUS
 10
96.196875101
 20
122.657423367
 11
91.146875065
 21
121.304279936
  0
LINE
  8
3
 62
7
  6
CONTINUOUS
 10
237.417391304
 20
223.050724638
 11
237.417391304
 21
124.050724638
  0
LINE
  8
1
 62
4
  6
CONTINUOUS
 10
91.146875065
 20
128.657423377
 11
96.196875101
 21
127.304279945
  0
LINE
  8
3
 62
7
  6
CONTINUOUS
 10
237.917391304
 20
123.550724638
 11
237.417391304
 21
124.050724638
  0
LINE
  8
1
 62
4
  6
CONTINUOUS
 10
91.231025810
 20
130.634875253
 11
96.196875101
 21
129.304279945
  0
LINE
  8
3
 62
7
  6
CONTINUOUS
 10
243.169796040
 20
123.550724638
 11
237.917391304
 21
123.550724638
  0
LINE
  8
1
 62
4
  6
CONTINUOUS
 10
96.196875101
 20
128.657423367
 11
91.146875065
 21
127.304279936
  0
LINE
  8
3
 62
7
  6
CONTINUOUS
 10
249.664986569
 20
123.550724638
 11
265.917391304
 21
123.550724638
  0
LINE
  8
1
 62
4
  6
CONTINUOUS
 10
91.146875065
 20
114.657423377
 11
94.903925909
 21
113.650724637
  0
LINE
  8
3
 62
7
  6
CONTINUOUS
 10
316.417391304
 20
139.951985577
 11
316.417391304
 21
207.149463698
  0
LINE
  8
1
 62
4
  6
CONTINUOUS
 10
91.146875065
 20
120.657423377
 11
96.196875101
 21
119.304279945
  0
LINE
  8
3
 62
7
  6
CONTINUOUS
 10
266.417391304
 20
124.050724638
 11
265.917391304
 21
123.550724638
  0
LINE
  8
1
 62
4
  6
CONTINUOUS
 10
91.146875065
 20
116.657423377
 11
96.196875101
 21
115.304279945
  0
LINE
  8
3
 62
7
  6
CONTINUOUS
 10
266.417391304
 20
223.050724638
 11
266.417391304
 21
124.050724638
  0
LINE
  8
1
 62
4
  6
CONTINUOUS
 10
96.196875101
 20
114.657423367
 11
92.439824294
 21
113.650724637
  0
LINE
  8
1
 62
4
  6
CONTINUOUS
 10
91.146875065
 20
122.657423377
 11
96.196875101
 21
121.304279945
  0
LINE
  8
1
 62
4
  6
CONTINUOUS
 10
91.146875065
 20
118.657423377
 11
96.196875101
 21
117.304279945
  0
DIMENSION
  8
1
 62
4
  6
CONTINUOUS
  2
*D610
 70
0
 10
266.417391304
 20
247.050724638
 11
291.417391304
 21
247.050724638
 14
266.417391304
 24
223.050724638
 13
316.417391304
 23
207.149463698
 50
0.000000000
  0
LINE
  8
1
 62
4
  6
CONTINUOUS
 10
91.146875065
 20
124.657423377
 11
96.196875101
 21
123.304279945
  0
DIMENSION
  8
1
 62
4
  6
CONTINUOUS
  2
*D612
 70
0
 10
266.417391304
 20
239.050724638
 11
262.167391304
 21
239.050724638
 14
266.417391304
 24
223.050724638
 13
257.917391304
 23
225.550724638
 50
0.000000000
  0
LINE
  8
1
 62
4
  6
CONTINUOUS
 10
91.146875065
 20
117.304279936
 11
96.196875101
 21
118.657423367
  0
DIMENSION
  8
1
 62
4
  6
CONTINUOUS
  2
*D614
 70
0
 10
51.945888689
 20
255.050724638
 11
60.631639997
 21
255.050724638
 14
51.945888689
 24
179.173374368
 13
69.317391304
 23
188.050724638
 50
0.000000000
  0
LINE
  8
1
 62
4
  6
CONTINUOUS
 10
96.196875101
 20
126.657423367
 11
91.146875065
 21
125.304279936
  0
DIMENSION
  8
1
 62
4
  6
CONTINUOUS
  2
*D616
 70
0
 10
316.417391304
 20
255.050724638
 11
192.867391304
 21
255.050724638
 14
316.417391304
 24
207.149463698
 13
69.317391304
 23
188.050724638
 50
0.000000000
  0
DIMENSION
  8
1
 62
4
  6
CONTINUOUS
  2
*D617
 70
0
 10
139.498807017
 20
247.050724638
 11
104.408099161
 21
247.050724638
 14
139.498807017
 24
193.550724638
 13
69.317391304
 23
188.050724638
 50
0.000000000
  0
DIMENSION
  8
1
 62
4
  6
CONTINUOUS
  2
*D618
 70
0
 10
266.417391304
 20
247.050724638
 11
202.958099161
 21
247.050724638
 14
266.417391304
 24
223.050724638
 13
139.498807017
 23
193.550724638
 50
0.000000000
  0
LINE
  8
1
 62
4
  6
CONTINUOUS
 10
83.896875041
 20
128.657423367
 11
88.946875077
 21
127.304279936
  0
POLYLINE
  8
1
 62
4
  6
CONTINUOUS
 66
1
  0
VERTEX
  8
1
 10
257.917388916
 20
223.550720215
  0
VERTEX
  8
1
 10
257.637725830
 20
224.035095215
  0
VERTEX
  8
1
 10
257.358093262
 20
224.519470215
  0
VERTEX
  8
1
 10
257.078430176
 20
225.003845215
  0
VERTEX
  8
1
 10
256.798767090
 20
225.488220215
  0
VERTEX
  8
1
 10
256.519134521
 20
225.972595215
  0
VERTEX
  8
1
 10
256.239471436
 20
226.456970215
  0
VERTEX
  8
1
 10
255.959808350
 20
226.941345215
  0
VERTEX
  8
1
 10
255.680160522
 20
227.425720215
  0
VERTEX
  8
1
 10
255.400497437
 20
227.910095215
  0
VERTEX
  8
1
 10
255.120849609
 20
228.394470215
  0
VERTEX
  8
1
 10
254.841201782
 20
228.878845215
  0
VERTEX
  8
1
 10
254.561538696
 20
229.363220215
  0
VERTEX
  8
1
 10
254.281890869
 20
229.847595215
  0
VERTEX
  8
1
 10
254.002227783
 20
230.331970215
  0
VERTEX
  8
1
 10
253.722579956
 20
230.816345215
  0
VERTEX
  8
1
 10
253.442932129
 20
231.300720215
  0
VERTEX
  8
1
 10
253.163269043
 20
231.785095215
  0
VERTEX
  8
1
 10
252.883621216
 20
232.269470215
  0
VERTEX
  8
1
 10
252.603958130
 20
232.753845215
  0
VERTEX
  8
1
 10
252.324310303
 20
233.238220215
  0
VERTEX
  8
1
 10
252.044662476
 20
233.722595215
  0
VERTEX
  8
1
 10
251.764999390
 20
234.206970215
  0
VERTEX
  8
1
 10
251.485351563
 20
234.691345215
  0
VERTEX
  8
1
 10
251.205688477
 20
235.175720215
  0
VERTEX
  8
1
 10
250.926040649
 20
235.660095215
  0
VERTEX
  8
1
 10
250.646392822
 20
236.144470215
  0
VERTEX
  8
1
 10
250.366729736
 20
236.628845215
  0
VERTEX
  8
1
 10
250.087081909
 20
237.113220215
  0
VERTEX
  8
1
 10
249.807418823
 20
237.597595215
  0
VERTEX
  8
1
 10
249.527770996
 20
238.081970215
  0
VERTEX
  8
1
 10
249.248123169
 20
238.566345215
  0
VERTEX
  8
1
 10
248.968460083
 20
239.050720215
  0
VERTEX
  8
1
 10
248.267608643
 20
239.050720215
  0
VERTEX
  8
1
 10
247.566741943
 20
239.050720215
  0
VERTEX
  8
1
 10
246.865890503
 20
239.050720215
  0
VERTEX
  8
1
 10
246.165023804
 20
239.050720215
  0
VERTEX
  8
1
 10
245.464157104
 20
239.050720215
  0
VERTEX
  8
1
 10
244.763305664
 20
239.050720215
  0
VERTEX
  8
1
 10
244.062438965
 20
239.050720215
  0
VERTEX
  8
1
 10
243.361587524
 20
239.050720215
  0
VERTEX
  8
1
 10
242.660720825
 20
239.050720215
  0
VERTEX
  8
1
 10
241.959869385
 20
239.050720215
  0
VERTEX
  8
1
 10
241.259002686
 20
239.050720215
  0
VERTEX
  8
1
 10
240.558151245
 20
239.050720215
  0
VERTEX
  8
1
 10
239.857284546
 20
239.050720215
  0
VERTEX
  8
1
 10
239.156433105
 20
239.050720215
  0
VERTEX
  8
1
 10
238.455566406
 20
239.050720215
  0
VERTEX
  8
1
 10
237.754699707
 20
239.050720215
  0
VERTEX
  8
1
 10
237.053848267
 20
239.050720215
  0
VERTEX
  8
1
 10
236.352981567
 20
239.050720215
  0
VERTEX
  8
1
 10
235.652130127
 20
239.050720215
  0
VERTEX
  8
1
 10
234.951263428
 20
239.050720215
  0
VERTEX
  8
1
 10
234.250411987
 20
239.050720215
  0
VERTEX
  8
1
 10
233.549545288
 20
239.050720215
  0
VERTEX
  8
1
 10
232.848693848
 20
239.050720215
  0
VERTEX
  8
1
 10
232.147827148
 20
239.050720215
  0
VERTEX
  8
1
 10
231.446975708
 20
239.050720215
  0
VERTEX
  8
1
 10
230.746109009
 20
239.050720215
  0
VERTEX
  8
1
 10
230.045242310
 20
239.050720215
  0
VERTEX
  8
1
 10
229.344390869
 20
239.050720215
  0
VERTEX
  8
1
 10
228.643524170
 20
239.050720215
  0
VERTEX
  8
1
 10
227.942672729
 20
239.050720215
  0
VERTEX
  8
1
 10
227.241806030
 20
239.050720215
  0
VERTEX
  8
1
 10
226.540954590
 20
239.050720215
  0
SEQEND
  8
1
  0
POLYLINE
  8
1
 62
4
  6
CONTINUOUS
 66
1
  0
VERTEX
  8
1
 10
256.657581321
 20
225.132771043
  0
VERTEX
  8
1
 10
257.917388916
 20
223.550720215
  0
VERTEX
  8
1
 10
257.177196568
 20
225.432771035
  0
SEQEND
  8
1
  0
LINE
  8
1
 62
4
  6
CONTINUOUS
 10
83.896875041
 20
130.657423367
 11
88.946875077
 21
129.304279936
  0
LINE
  8
1
 62
4
  6
CONTINUOUS
 10
88.946875077
 20
128.657423377
 11
83.896875041
 21
127.304279945
  0
DIMENSION
  8
1
 62
4
  6
CONTINUOUS
  2
*D623
 70
5
 10
139.498807017
 20
231.050724638
 11
158.248807017
 21
226.026677280
 13
143.336639430
 23
195.766498214
 14
139.498807017
 24
199.034825736
 15
139.498807017
 25
193.550724638
  0
LINE
  8
1
 62
4
  6
CONTINUOUS
 10
88.946875077
 20
126.657423377
 11
83.896875041
 21
125.304279945
  0
LINE
  8
1
 62
4
  6
CONTINUOUS
 10
88.946875077
 20
123.304279936
 11
83.896875041
 21
124.657423367
  0
LINE
  8
1
 62
4
  6
CONTINUOUS
 10
83.896875041
 20
126.657423367
 11
88.946875077
 21
125.304279936
  0
TEXT
  8
1
 62
4
  6
CONTINUOUS
 72
5
 10
226.885431695
 20
240.070724638
 40
3.200000000
  1
Ｍ８Ｘ１．２５
 41
0.836464319
 11
248.685431695
 21
240.070724638
  0
TEXT
  8
1
 62
4
  6
CONTINUOUS
 72
5
 10
226.885431695
 20
234.970724638
 40
3.200000000
  1
深さ６
 41
0.840958019
 11
235.885431695
 21
234.970724638
  0
LINE
  8
1
 62
4
  6
CONTINUOUS
 10
83.896875041
 20
122.657423367
 11
88.946875077
 21
121.304279936
  0
DIMENSION
  8
1
 62
4
  6
CONTINUOUS
  2
*D629
 70
1
 10
336.417391304
 20
123.550724638
 11
336.417391304
 21
173.550724638
 14
265.917391304
 24
123.550724638
 13
265.917391304
 23
223.550724638
 50
90.000000000
  0
LINE
  8
1
 62
4
  6
CONTINUOUS
 10
88.946875077
 20
117.304279936
 11
83.896875041
 21
118.657423367
  0
POLYLINE
  8
1
 62
4
  6
CONTINUOUS
 66
1
  0
VERTEX
  8
1
 10
81.857704163
 20
85.100723267
  0
VERTEX
  8
1
 10
81.641197205
 20
85.475723267
  0
VERTEX
  8
1
 10
81.424690247
 20
85.850723267
  0
VERTEX
  8
1
 10
81.208183289
 20
86.225723267
  0
VERTEX
  8
1
 10
80.991676331
 20
86.600723267
  0
VERTEX
  8
1
 10
80.775169373
 20
86.975723267
  0
VERTEX
  8
1
 10
80.558670044
 20
87.350723267
  0
VERTEX
  8
1
 10
80.342163086
 20
87.725723267
  0
VERTEX
  8
1
 10
80.125656128
 20
88.100723267
  0
VERTEX
  8
1
 10
79.909149170
 20
88.475723267
  0
VERTEX
  8
1
 10
79.692642212
 20
88.850723267
  0
VERTEX
  8
1
 10
79.476135254
 20
89.225723267
  0
VERTEX
  8
1
 10
79.259628296
 20
89.600723267
  0
VERTEX
  8
1
 10
79.043121338
 20
89.975723267
  0
VERTEX
  8
1
 10
78.826614380
 20
90.350723267
  0
VERTEX
  8
1
 10
78.610107422
 20
90.725723267
  0
VERTEX
  8
1
 10
78.393600464
 20
91.100723267
  0
VERTEX
  8
1
 10
78.177093506
 20
91.475723267
  0
VERTEX
  8
1
 10
77.960586548
 20
91.850723267
  0
VERTEX
  8
1
 10
77.744087219
 20
92.225723267
  0
VERTEX
  8
1
 10
77.527580261
 20
92.600723267
  0
VERTEX
  8
1
 10
77.311073303
 20
92.975723267
  0
VERTEX
  8
1
 10
77.094566345
 20
93.350723267
  0
VERTEX
  8
1
 10
76.878059387
 20
93.725723267
  0
VERTEX
  8
1
 10
76.661552429
 20
94.100723267
  0
VERTEX
  8
1
 10
76.445045471
 20
94.475723267
  0
VERTEX
  8
1
 10
76.228538513
 20
94.850723267
  0
VERTEX
  8
1
 10
76.012031555
 20
95.225723267
  0
VERTEX
  8
1
 10
75.795524597
 20
95.600723267
  0
VERTEX
  8
1
 10
75.579017639
 20
95.975723267
  0
VERTEX
  8
1
 10
75.362510681
 20
96.350723267
  0
VERTEX
  8
1
 10
75.146003723
 20
96.725723267
  0
VERTEX
  8
1
 10
74.929504395
 20
97.100723267
  0
VERTEX
  8
1
 10
74.138999939
 20
97.100723267
  0
VERTEX
  8
1
 10
73.348503113
 20
97.100723267
  0
VERTEX
  8
1
 10
72.557998657
 20
97.100723267
  0
VERTEX
  8
1
 10
71.767501831
 20
97.100723267
  0
VERTEX
  8
1
 10
70.976997375
 20
97.100723267
  0
VERTEX
  8
1
 10
70.186500549
 20
97.100723267
  0
VERTEX
  8
1
 10
69.396003723
 20
97.100723267
  0
VERTEX
  8
1
 10
68.605499268
 20
97.100723267
  0
VERTEX
  8
1
 10
67.815002441
 20
97.100723267
  0
VERTEX
  8
1
 10
67.024497986
 20
97.100723267
  0
VERTEX
  8
1
 10
66.234001160
 20
97.100723267
  0
VERTEX
  8
1
 10
65.443504333
 20
97.100723267
  0
VERTEX
  8
1
 10
64.652999878
 20
97.100723267
  0
VERTEX
  8
1
 10
63.862503052
 20
97.100723267
  0
VERTEX
  8
1
 10
63.072002411
 20
97.100723267
  0
VERTEX
  8
1
 10
62.281501770
 20
97.100723267
  0
VERTEX
  8
1
 10
61.491001129
 20
97.100723267
  0
VERTEX
  8
1
 10
60.700500488
 20
97.100723267
  0
VERTEX
  8
1
 10
59.909999847
 20
97.100723267
  0
VERTEX
  8
1
 10
59.119503021
 20
97.100723267
  0
VERTEX
  8
1
 10
58.329002380
 20
97.100723267
  0
VERTEX
  8
1
 10
57.538501740
 20
97.100723267
  0
VERTEX
  8
1
 10
56.748001099
 20
97.100723267
  0
VERTEX
  8
1
 10
55.957500458
 20
97.100723267
  0
VERTEX
  8
1
 10
55.166999817
 20
97.100723267
  0
VERTEX
  8
1
 10
54.376502991
 20
97.100723267
  0
VERTEX
  8
1
 10
53.586002350
 20
97.100723267
  0
VERTEX
  8
1
 10
52.795501709
 20
97.100723267
  0
VERTEX
  8
1
 10
52.005001068
 20
97.100723267
  0
VERTEX
  8
1
 10
51.214500427
 20
97.100723267
  0
VERTEX
  8
1
 10
50.423999786
 20
97.100723267
  0
VERTEX
  8
1
 10
49.633502960
 20
97.100723267
  0
SEQEND
  8
1
  0
POLYLINE
  8
1
 62
4
  6
CONTINUOUS
 66
1
  0
VERTEX
  8
1
 10
80.597896884
 20
86.682774347
  0
VERTEX
  8
1
 10
81.857704163
 20
85.100723267
  0
VERTEX
  8
1
 10
81.117512191
 20
86.982774234
  0
SEQEND
  8
1
  0
LINE
  8
1
 62
4
  6
CONTINUOUS
 10
83.896875041
 20
120.657423367
 11
88.946875077
 21
119.304279936
  0
TEXT
  8
1
 62
4
  6
CONTINUOUS
 72
5
 10
49.633501176
 20
98.120724638
 40
3.200000000
  1
φ４エア－ホース
 41
0.836062240
 11
74.633501176
 21
98.120724638
  0
LINE
  8
1
 62
4
  6
CONTINUOUS
 10
83.896875041
 20
116.657423367
 11
88.946875077
 21
115.304279936
  0
TEXT
  8
1
 62
3
  6
CONTINUOUS
 72
5
 10
188.152513482
 20
58.266724638
 40
4.000000000
  1
ＨＥＳ５１０－ＨＳＫ Ａ１００
 41
0.843936640
 11
245.352513482
 21
58.266724638
  0
LINE
  8
1
 62
4
  6
CONTINUOUS
 10
83.896875041
 20
114.657423367
 11
87.653925848
 21
113.650724637
  0
POLYLINE
  8
1
 62
4
  6
CONTINUOUS
 66
1
  0
VERTEX
  8
1
 10
61.573749542
 20
56.250724792
  0
VERTEX
  8
1
 10
61.844379425
 20
55.781974792
  0
VERTEX
  8
1
 10
62.115013123
 20
55.313224792
  0
VERTEX
  8
1
 10
62.385646820
 20
54.844474792
  0
VERTEX
  8
1
 10
62.656280518
 20
54.375724792
  0
VERTEX
  8
1
 10
62.926914215
 20
53.906974792
  0
VERTEX
  8
1
 10
63.197544098
 20
53.438224792
  0
VERTEX
  8
1
 10
63.468177795
 20
52.969474792
  0
VERTEX
  8
1
 10
63.738811493
 20
52.500724792
  0
VERTEX
  8
1
 10
64.009445190
 20
52.031974792
  0
VERTEX
  8
1
 10
64.280075073
 20
51.563224792
  0
VERTEX
  8
1
 10
64.550712585
 20
51.094474792
  0
VERTEX
  8
1
 10
64.821342468
 20
50.625724792
  0
VERTEX
  8
1
 10
65.091979980
 20
50.156974792
  0
VERTEX
  8
1
 10
65.362609863
 20
49.688224792
  0
VERTEX
  8
1
 10
65.633239746
 20
49.219474792
  0
VERTEX
  8
1
 10
65.903877258
 20
48.750724792
  0
VERTEX
  8
1
 10
66.174507141
 20
48.281974792
  0
VERTEX
  8
1
 10
66.445144653
 20
47.813224792
  0
VERTEX
  8
1
 10
66.715774536
 20
47.344474792
  0
VERTEX
  8
1
 10
66.986404419
 20
46.875724792
  0
VERTEX
  8
1
 10
67.257041931
 20
46.406974792
  0
VERTEX
  8
1
 10
67.527671814
 20
45.938224792
  0
VERTEX
  8
1
 10
67.798309326
 20
45.469474792
  0
VERTEX
  8
1
 10
68.068939209
 20
45.000724792
  0
VERTEX
  8
1
 10
68.339569092
 20
44.531974792
  0
VERTEX
  8
1
 10
68.610206604
 20
44.063224792
  0
VERTEX
  8
1
 10
68.880836487
 20
43.594474792
  0
VERTEX
  8
1
 10
69.151473999
 20
43.125724792
  0
VERTEX
  8
1
 10
69.422103882
 20
42.656974792
  0
VERTEX
  8
1
 10
69.692733765
 20
42.188224792
  0
VERTEX
  8
1
 10
69.963371277
 20
41.719474792
  0
VERTEX
  8
1
 10
70.234001160
 20
41.250724792
  0
VERTEX
  8
1
 10
71.024505615
 20
41.250724792
  0
VERTEX
  8
1
 10
71.815002441
 20
41.250724792
  0
VERTEX
  8
1
 10
72.605499268
 20
41.250724792
  0
VERTEX
  8
1
 10
73.396003723
 20
41.250724792
  0
VERTEX
  8
1
 10
74.186500549
 20
41.250724792
  0
VERTEX
  8
1
 10
74.977005005
 20
41.250724792
  0
VERTEX
  8
1
 10
75.767501831
 20
41.250724792
  0
VERTEX
  8
1
 10
76.557998657
 20
41.250724792
  0
VERTEX
  8
1
 10
77.348503113
 20
41.250724792
  0
VERTEX
  8
1
 10
78.138999939
 20
41.250724792
  0
VERTEX
  8
1
 10
78.929504395
 20
41.250724792
  0
VERTEX
  8
1
 10
79.720001221
 20
41.250724792
  0
VERTEX
  8
1
 10
80.510505676
 20
41.250724792
  0
VERTEX
  8
1
 10
81.301002502
 20
41.250724792
  0
VERTEX
  8
1
 10
82.091499329
 20
41.250724792
  0
VERTEX
  8
1
 10
82.882003784
 20
41.250724792
  0
VERTEX
  8
1
 10
83.672500610
 20
41.250724792
  0
VERTEX
  8
1
 10
84.463005066
 20
41.250724792
  0
VERTEX
  8
1
 10
85.253501892
 20
41.250724792
  0
VERTEX
  8
1
 10
86.043998718
 20
41.250724792
  0
VERTEX
  8
1
 10
86.834503174
 20
41.250724792
  0
VERTEX
  8
1
 10
87.625000000
 20
41.250724792
  0
VERTEX
  8
1
 10
88.415504456
 20
41.250724792
  0
VERTEX
  8
1
 10
89.206001282
 20
41.250724792
  0
VERTEX
  8
1
 10
89.996505737
 20
41.250724792
  0
VERTEX
  8
1
 10
90.787002563
 20
41.250724792
  0
VERTEX
  8
1
 10
91.577499390
 20
41.250724792
  0
VERTEX
  8
1
 10
92.368003845
 20
41.250724792
  0
VERTEX
  8
1
 10
93.158500671
 20
41.250724792
  0
VERTEX
  8
1
 10
93.949005127
 20
41.250724792
  0
VERTEX
  8
1
 10
94.739501953
 20
41.250724792
  0
VERTEX
  8
1
 10
95.529998779
 20
41.250724792
  0
SEQEND
  8
1
  0
POLYLINE
  8
1
 62
4
  6
CONTINUOUS
 66
1
  0
VERTEX
  8
1
 10
62.833556972
 20
54.668673832
  0
VERTEX
  8
1
 10
61.573749542
 20
56.250724792
  0
VERTEX
  8
1
 10
62.313941693
 20
54.368673895
  0
SEQEND
  8
1
  0
LINE
  8
1
 62
4
  6
CONTINUOUS
 10
88.946875077
 20
124.657423377
 11
83.896875041
 21
123.304279945
  0
TEXT
  8
1
 62
4
  6
CONTINUOUS
 72
5
 10
70.234002407
 20
42.270724638
 40
3.200000000
  1
非常用コネクター
 41
0.836062240
 11
95.234002407
 21
42.270724638
  0
LINE
  8
1
 62
4
  6
CONTINUOUS
 10
88.946875077
 20
122.657423377
 11
83.896875041
 21
121.304279945
  0
DIMENSION
  8
1
 62
4
  6
CONTINUOUS
  2
*D641
 70
1
 10
33.945888689
 20
158.750724638
 11
33.945888689
 21
173.550724638
 14
69.617391304
 24
158.750724638
 13
69.617391304
 23
188.350724638
 50
90.000000000
  0
ENDSEC
  0
EOF
