  0
SECTION
  2
HEADER
  9
$ACADVER
  1
AC1009
  9
$INSBASE
 10
0.000000000
 20
0.000000000
  9
$EXTMIN
 10
-102.415102802
 20
-25.380072464
  9
$EXTMAX
 10
392.620345314
 20
279.180797101
  9
$LIMMIN
 10
-102.415102802
 20
-25.380072464
  9
$LIMMAX
 10
392.620345314
 20
279.180797101
  9
$SNAPBASE
 10
0.000000000
 20
0.000000000
  9
$SNAPANG
 50
0.000000000
  9
$SNAPSTYLE
 70
0
  9
$GRIDMODE
 70
0
  9
$GRIDUNIT
 10
0.000000000
 20
0.000000000
  9
$DIMEXO
 40
0.000000000
  9
$DIMDLI
 40
8.000000000
  9
$DIMDLE
 40
0.000000000
  9
$DIMEXE
 40
1.000000000
  9
$DIMTIH
 70
1
  9
$DIMTOH
 70
1
  9
$DIMTAD
 70
2
  9
$DIMZIN
 70
0
  9
$FILLETRAD
 40
1.000000000
  9
$CHAMFERA
 40
1.000000000
  9
$CHAMFERB
 40
1.000000000
  9
$TDCREATE
 40
2454176.622962963
  9
$TDUPDATE
 40
2454176.622962963
  9
$ANGBASE
 50
0.000000000
  9
$ANGDIR
 70
0
  0
ENDSEC
  0
SECTION
  2
TABLES
  0
TABLE
  2
LTYPE
 70
4
  0
LTYPE
  2
CENTER
 70
64
  3
___ _ ___ _ __
 72
65
 73
4
 40
13.000000000
 49
8.500000000
 49
-1.500000000
 49
1.500000000
 49
-1.500000000
  0
LTYPE
  2
CONTINUOUS
 70
64
  3
______________
 72
65
 73
0
 40
0.000000000
  0
LTYPE
  2
DASHED
 70
64
  3
___ ___ ___ __
 72
65
 73
2
 40
5.000000119
 49
3.400000095
 49
-1.600000024
  0
LTYPE
  2
DIVIDE
 70
64
  3
___ . . ___ . 
 72
65
 73
6
 40
12.999999523
 49
5.199999809
 49
-2.599999905
 49
0.000000000
 49
-2.599999905
 49
0.000000000
 49
-2.599999905
  0
ENDTAB
  0
TABLE
  2
LAYER
 70
1
  0
LAYER
  2
1
 70
0
 62
7
  6
CONTINUOUS
999
Comment001
  0
LAYER
  2
_CONSTR
 70
0
 62
5
  6
CONTINUOUS
  0
ENDTAB
  0
TABLE
  2
STYLE
 70
1
  0
STYLE
  2
STANDARD
 70
64
 40
0.000000000
 41
1.000000000
 50
0.000000000
 71
0
 42
3.200000000
  3
TXT
  4
EXTFONT
  0
ENDTAB
  0
TABLE
  2
VIEW
 70
0
  0
ENDTAB
  0
ENDSEC
  0
SECTION
  2
BLOCKS
  0
BLOCK
  8
0
  2
blk7
 70
64
 10
0.000000000
 20
0.000000000
  3
blk7
  0
CIRCLE
  8
1
 62
7
  6
CONTINUOUS
 10
0.000000000
 20
0.000000000
 40
1.000000000
  0
ENDBLK
  8
0
  0
BLOCK
  8
0
  2
blk8
 70
64
 10
0.000000000
 20
0.000000000
  3
blk8
  0
CIRCLE
  8
1
 62
7
  6
CONTINUOUS
 10
0.000000000
 20
0.000000000
 40
1.000000000
  0
ENDBLK
  8
0
  0
BLOCK
  8
0
  2
*D79
 70
65
 10
0.000000000
 20
0.000000000
  3
*D
  0
TEXT
  8
1
 62
4
  6
CONTINUOUS
 72
5
 10
39.740888689
 20
166.419124638
 40
2.800000000
  1
φ
 41
1.270648030
 50
90.000000000
 11
39.740888689
 21
169.779124638
  0
TEXT
  8
1
 62
4
  6
CONTINUOUS
 72
5
 10
39.740888689
 20
171.459124638
 40
2.800000000
  1
16.9
 41
1.237498917
 50
90.000000000
 11
39.740888689
 21
180.699124638
  0
LINE
  8
1
 62
4
  6
CONTINUOUS
 10
56.110952199
 20
182.000724638
 11
39.945888689
 21
182.000724638
  0
POLYLINE
  8
1
 62
4
  6
CONTINUOUS
 66
1
  0
VERTEX
  8
1
 10
42.245888689
 20
180.000724638
  0
VERTEX
  8
1
 10
41.945888689
 20
182.000724638
  0
VERTEX
  8
1
 10
41.645888689
 20
180.000724638
  0
SEQEND
  8
1
  0
LINE
  8
1
 62
4
  6
CONTINUOUS
 10
41.945888689
 20
182.000724638
 11
41.945888689
 21
165.100724638
  0
POLYLINE
  8
1
 62
4
  6
CONTINUOUS
 66
1
  0
VERTEX
  8
1
 10
41.645888689
 20
167.100724638
  0
VERTEX
  8
1
 10
41.945888689
 20
165.100724638
  0
VERTEX
  8
1
 10
42.245888689
 20
167.100724638
  0
SEQEND
  8
1
  0
LINE
  8
1
 62
4
  6
CONTINUOUS
 10
56.110952199
 20
165.100724638
 11
39.945888689
 21
165.100724638
  0
ENDBLK
  8
0
  0
BLOCK
  8
0
  2
blk150
 70
64
 10
0.000000000
 20
0.000000000
  3
blk150
  0
CIRCLE
  8
1
 62
7
  6
CONTINUOUS
 10
0.000000000
 20
0.000000000
 40
1.000000000
  0
ENDBLK
  8
0
  0
BLOCK
  8
0
  2
blk151
 70
64
 10
0.000000000
 20
0.000000000
  3
blk151
  0
CIRCLE
  8
1
 62
7
  6
CONTINUOUS
 10
0.000000000
 20
0.000000000
 40
1.000000000
  0
ENDBLK
  8
0
  0
BLOCK
  8
0
  2
blk171
 70
64
 10
0.000000000
 20
0.000000000
  3
blk171
  0
CIRCLE
  8
1
 62
7
  6
CONTINUOUS
 10
0.000000000
 20
0.000000000
 40
1.000000000
  0
ENDBLK
  8
0
  0
BLOCK
  8
0
  2
blk255
 70
64
 10
0.000000000
 20
0.000000000
  3
blk255
  0
CIRCLE
  8
1
 62
7
  6
CONTINUOUS
 10
0.000000000
 20
0.000000000
 40
1.000000000
  0
ENDBLK
  8
0
  0
BLOCK
  8
0
  2
*D380
 70
65
 10
0.000000000
 20
0.000000000
  3
*D
  0
TEXT
  8
1
 62
4
  6
CONTINUOUS
 72
5
 10
23.740888689
 20
168.939124638
 40
2.800000000
  1
φ
 41
1.270648030
 50
90.000000000
 11
23.740888689
 21
172.299124638
  0
TEXT
  8
1
 62
4
  6
CONTINUOUS
 72
5
 10
23.740888689
 20
173.979124638
 40
2.800000000
  1
40
 41
1.000000667
 50
90.000000000
 11
23.740888689
 21
178.179124638
  0
LINE
  8
1
 62
4
  6
CONTINUOUS
 10
93.377645342
 20
193.550724638
 11
23.945888689
 21
193.550724638
  0
POLYLINE
  8
1
 62
4
  6
CONTINUOUS
 66
1
  0
VERTEX
  8
1
 10
26.245888689
 20
191.550724638
  0
VERTEX
  8
1
 10
25.945888689
 20
193.550724638
  0
VERTEX
  8
1
 10
25.645888689
 20
191.550724638
  0
SEQEND
  8
1
  0
LINE
  8
1
 62
4
  6
CONTINUOUS
 10
25.945888689
 20
193.550724638
 11
25.945888689
 21
153.550724638
  0
POLYLINE
  8
1
 62
4
  6
CONTINUOUS
 66
1
  0
VERTEX
  8
1
 10
25.645888689
 20
155.550724638
  0
VERTEX
  8
1
 10
25.945888689
 20
153.550724638
  0
VERTEX
  8
1
 10
26.245888689
 20
155.550724638
  0
SEQEND
  8
1
  0
LINE
  8
1
 62
4
  6
CONTINUOUS
 10
93.377645342
 20
153.550724638
 11
23.945888689
 21
153.550724638
  0
ENDBLK
  8
0
  0
BLOCK
  8
0
  2
*D642
 70
65
 10
0.000000000
 20
0.000000000
  3
*D
  0
TEXT
  8
1
 62
4
  6
CONTINUOUS
 72
5
 10
273.360791304
 20
248.005724638
 40
2.800000000
  1
101.75
 41
1.223999315
 11
287.640791304
 21
248.005724638
  0
LINE
  8
1
 62
4
  6
CONTINUOUS
 10
331.367391304
 20
191.907694111
 11
331.367391304
 21
247.800724638
  0
POLYLINE
  8
1
 62
4
  6
CONTINUOUS
 66
1
  0
VERTEX
  8
1
 10
329.367391304
 20
245.500724638
  0
VERTEX
  8
1
 10
331.367391304
 20
245.800724638
  0
VERTEX
  8
1
 10
329.367391304
 20
246.100724638
  0
SEQEND
  8
1
  0
LINE
  8
1
 62
4
  6
CONTINUOUS
 10
331.367391304
 20
245.800724638
 11
229.617391304
 21
245.800724638
  0
POLYLINE
  8
1
 62
4
  6
CONTINUOUS
 66
1
  0
VERTEX
  8
1
 10
231.617391304
 20
246.100724638
  0
VERTEX
  8
1
 10
229.617391304
 20
245.800724638
  0
VERTEX
  8
1
 10
231.617391304
 20
245.500724638
  0
SEQEND
  8
1
  0
LINE
  8
1
 62
4
  6
CONTINUOUS
 10
229.617391304
 20
208.475724638
 11
229.617391304
 21
247.800724638
  0
ENDBLK
  8
0
  0
BLOCK
  8
0
  2
*D644
 70
65
 10
0.000000000
 20
0.000000000
  3
*D
  0
TEXT
  8
1
 62
4
  6
CONTINUOUS
 72
5
 10
206.405791304
 20
240.005724638
 40
2.800000000
  1
37.2
 41
1.099999267
 11
215.645791304
 21
240.005724638
  0
LINE
  8
1
 62
4
  6
CONTINUOUS
 10
192.417391304
 20
210.600724638
 11
192.417391304
 21
239.800724638
  0
POLYLINE
  8
1
 62
4
  6
CONTINUOUS
 66
1
  0
VERTEX
  8
1
 10
194.417391304
 20
238.100724638
  0
VERTEX
  8
1
 10
192.417391304
 20
237.800724638
  0
VERTEX
  8
1
 10
194.417391304
 20
237.500724638
  0
SEQEND
  8
1
  0
LINE
  8
1
 62
4
  6
CONTINUOUS
 10
192.417391304
 20
237.800724638
 11
229.617391304
 21
237.800724638
  0
POLYLINE
  8
1
 62
4
  6
CONTINUOUS
 66
1
  0
VERTEX
  8
1
 10
227.617391304
 20
237.500724638
  0
VERTEX
  8
1
 10
229.617391304
 20
237.800724638
  0
VERTEX
  8
1
 10
227.617391304
 20
238.100724638
  0
SEQEND
  8
1
  0
LINE
  8
1
 62
4
  6
CONTINUOUS
 10
229.617391304
 20
208.475724638
 11
229.617391304
 21
239.800724638
  0
ENDBLK
  8
0
  0
BLOCK
  8
0
  2
*D646
 70
65
 10
0.000000000
 20
0.000000000
  3
*D
  0
TEXT
  8
1
 62
4
  6
CONTINUOUS
 72
5
 10
53.500039997
 20
256.005724638
 40
2.800000000
  1
(
 41
1.800001800
 11
55.180039997
 21
256.005724638
  0
TEXT
  8
1
 62
4
  6
CONTINUOUS
 72
5
 10
56.020039997
 20
256.005724638
 40
2.800000000
  1
17.4
 41
1.237498917
 11
65.260039997
 21
256.005724638
  0
TEXT
  8
1
 62
4
  6
CONTINUOUS
 72
5
 10
66.100039997
 20
256.005724638
 40
2.800000000
  1
)
 41
1.800001800
 11
67.780039997
 21
256.005724638
  0
POLYLINE
  8
1
 62
4
  6
CONTINUOUS
 66
1
  0
VERTEX
  8
1
 10
67.317391304
 20
253.500724638
  0
VERTEX
  8
1
 10
69.317391304
 20
253.800724638
  0
VERTEX
  8
1
 10
67.317391304
 20
254.100724638
  0
SEQEND
  8
1
  0
LINE
  8
1
 62
4
  6
CONTINUOUS
 10
69.317391304
 20
253.800724638
 11
51.945888689
 21
253.800724638
  0
POLYLINE
  8
1
 62
4
  6
CONTINUOUS
 66
1
  0
VERTEX
  8
1
 10
53.945888689
 20
254.100724638
  0
VERTEX
  8
1
 10
51.945888689
 20
253.800724638
  0
VERTEX
  8
1
 10
53.945888689
 20
253.500724638
  0
SEQEND
  8
1
  0
LINE
  8
1
 62
4
  6
CONTINUOUS
 10
51.945888689
 20
179.173374368
 11
51.945888689
 21
255.800724638
  0
ENDBLK
  8
0
  0
BLOCK
  8
0
  2
*D648
 70
65
 10
0.000000000
 20
0.000000000
  3
*D
  0
TEXT
  8
1
 62
4
  6
CONTINUOUS
 72
5
 10
190.690791304
 20
256.005724638
 40
2.800000000
  1
(
 41
1.800001800
 11
192.370791304
 21
256.005724638
  0
TEXT
  8
1
 62
4
  6
CONTINUOUS
 72
5
 10
193.210791304
 20
256.005724638
 40
2.800000000
  1
262.05
 41
1.055172050
 11
207.490791304
 21
256.005724638
  0
TEXT
  8
1
 62
4
  6
CONTINUOUS
 72
5
 10
208.330791304
 20
256.005724638
 40
2.800000000
  1
)
 41
1.800001800
 11
210.010791304
 21
256.005724638
  0
LINE
  8
1
 62
4
  6
CONTINUOUS
 10
69.317391304
 20
188.050724638
 11
69.317391304
 21
255.800724638
  0
POLYLINE
  8
1
 62
4
  6
CONTINUOUS
 66
1
  0
VERTEX
  8
1
 10
71.317391304
 20
254.100724638
  0
VERTEX
  8
1
 10
69.317391304
 20
253.800724638
  0
VERTEX
  8
1
 10
71.317391304
 20
253.500724638
  0
SEQEND
  8
1
  0
LINE
  8
1
 62
4
  6
CONTINUOUS
 10
69.317391304
 20
253.800724638
 11
331.367391304
 21
253.800724638
  0
POLYLINE
  8
1
 62
4
  6
CONTINUOUS
 66
1
  0
VERTEX
  8
1
 10
329.367391304
 20
253.500724638
  0
VERTEX
  8
1
 10
331.367391304
 20
253.800724638
  0
VERTEX
  8
1
 10
329.367391304
 20
254.100724638
  0
SEQEND
  8
1
  0
LINE
  8
1
 62
4
  6
CONTINUOUS
 10
331.367391304
 20
191.907694111
 11
331.367391304
 21
255.800724638
  0
ENDBLK
  8
0
  0
BLOCK
  8
0
  2
*D649
 70
65
 10
0.000000000
 20
0.000000000
  3
*D
  0
TEXT
  8
1
 62
4
  6
CONTINUOUS
 72
5
 10
97.276499161
 20
248.005724638
 40
2.800000000
  1
(
 41
1.800001800
 11
98.956499161
 21
248.005724638
  0
TEXT
  8
1
 62
4
  6
CONTINUOUS
 72
5
 10
99.796499161
 20
248.005724638
 40
2.800000000
  1
70.2
 41
1.164705197
 11
109.036499161
 21
248.005724638
  0
TEXT
  8
1
 62
4
  6
CONTINUOUS
 72
5
 10
109.876499161
 20
248.005724638
 40
2.800000000
  1
)
 41
1.800001800
 11
111.556499161
 21
248.005724638
  0
LINE
  8
1
 62
4
  6
CONTINUOUS
 10
69.317391304
 20
188.050724638
 11
69.317391304
 21
247.800724638
  0
POLYLINE
  8
1
 62
4
  6
CONTINUOUS
 66
1
  0
VERTEX
  8
1
 10
71.317391304
 20
246.100724638
  0
VERTEX
  8
1
 10
69.317391304
 20
245.800724638
  0
VERTEX
  8
1
 10
71.317391304
 20
245.500724638
  0
SEQEND
  8
1
  0
LINE
  8
1
 62
4
  6
CONTINUOUS
 10
69.317391304
 20
245.800724638
 11
139.498807017
 21
245.800724638
  0
POLYLINE
  8
1
 62
4
  6
CONTINUOUS
 66
1
  0
VERTEX
  8
1
 10
137.498807017
 20
245.500724638
  0
VERTEX
  8
1
 10
139.498807017
 20
245.800724638
  0
VERTEX
  8
1
 10
137.498807017
 20
246.100724638
  0
SEQEND
  8
1
  0
LINE
  8
1
 62
4
  6
CONTINUOUS
 10
139.498807017
 20
193.550724638
 11
139.498807017
 21
247.800724638
  0
ENDBLK
  8
0
  0
BLOCK
  8
0
  2
*D650
 70
65
 10
0.000000000
 20
0.000000000
  3
*D
  0
TEXT
  8
1
 62
4
  6
CONTINUOUS
 72
5
 10
177.426499161
 20
248.005724638
 40
2.800000000
  1
(
 41
1.800001800
 11
179.106499161
 21
248.005724638
  0
TEXT
  8
1
 62
4
  6
CONTINUOUS
 72
5
 10
179.946499161
 20
248.005724638
 40
2.800000000
  1
90.1
 41
1.320000528
 11
189.186499161
 21
248.005724638
  0
TEXT
  8
1
 62
4
  6
CONTINUOUS
 72
5
 10
190.026499161
 20
248.005724638
 40
2.800000000
  1
)
 41
1.800001800
 11
191.706499161
 21
248.005724638
  0
POLYLINE
  8
1
 62
4
  6
CONTINUOUS
 66
1
  0
VERTEX
  8
1
 10
141.498807017
 20
246.100724638
  0
VERTEX
  8
1
 10
139.498807017
 20
245.800724638
  0
VERTEX
  8
1
 10
141.498807017
 20
245.500724638
  0
SEQEND
  8
1
  0
LINE
  8
1
 62
4
  6
CONTINUOUS
 10
139.498807017
 20
245.800724638
 11
229.617391304
 21
245.800724638
  0
POLYLINE
  8
1
 62
4
  6
CONTINUOUS
 66
1
  0
VERTEX
  8
1
 10
227.617391304
 20
245.500724638
  0
VERTEX
  8
1
 10
229.617391304
 20
245.800724638
  0
VERTEX
  8
1
 10
227.617391304
 20
246.100724638
  0
SEQEND
  8
1
  0
LINE
  8
1
 62
4
  6
CONTINUOUS
 10
229.617391304
 20
208.475724638
 11
229.617391304
 21
247.800724638
  0
ENDBLK
  8
0
  0
BLOCK
  8
0
  2
*D655
 70
65
 10
0.000000000
 20
0.000000000
  3
*D
  0
TEXT
  8
1
 62
4
  6
CONTINUOUS
 72
5
 10
148.448736274
 20
215.755656834
 40
2.800000000
  1
60
 41
1.000000667
 50
330.000000000
 11
152.086042970
 21
213.655656834
  0
TEXT
  8
1
 62
4
  6
CONTINUOUS
 72
5
 10
152.813504309
 20
213.235656834
 40
2.800000000
  1
°
 41
1.270648030
 50
330.000000000
 11
155.723349666
 21
211.555656834
  0
LINE
  8
1
 62
4
  6
CONTINUOUS
 10
139.498807017
 20
193.550724638
 11
159.850404006
 21
205.300724638
  0
POLYLINE
  8
1
 62
4
  6
CONTINUOUS
 66
1
  0
VERTEX
  8
1
 10
156.858545578
 20
205.882775445
  0
VERTEX
  8
1
 10
158.118353199
 20
204.300724638
  0
VERTEX
  8
1
 10
157.378160820
 20
206.182775445
  0
SEQEND
  8
1
  0
ARC
  8
1
 62
4
  6
CONTINUOUS
 10
139.498807017
 20
193.550724638
 40
21.500000000
 50
30.000000000
 51
90.000000000
  0
POLYLINE
  8
1
 62
4
  6
CONTINUOUS
 66
1
  0
VERTEX
  8
1
 10
141.498807017
 20
215.350724638
  0
VERTEX
  8
1
 10
139.498807017
 20
215.050724638
  0
VERTEX
  8
1
 10
141.498807017
 20
214.750724638
  0
SEQEND
  8
1
  0
LINE
  8
1
 62
4
  6
CONTINUOUS
 10
139.498807017
 20
199.034825736
 11
139.498807017
 21
217.050724638
  0
ENDBLK
  8
0
  0
BLOCK
  8
0
  2
*D661
 70
65
 10
0.000000000
 20
0.000000000
  3
*D
  0
TEXT
  8
1
 62
4
  6
CONTINUOUS
 72
5
 10
349.162391304
 20
166.419124638
 40
2.800000000
  1
φ
 41
1.270648030
 50
90.000000000
 11
349.162391304
 21
169.779124638
  0
TEXT
  8
1
 62
4
  6
CONTINUOUS
 72
5
 10
349.162391304
 20
171.459124638
 40
2.800000000
  1
97.5
 41
1.099999267
 50
90.000000000
 11
349.162391304
 21
180.699124638
  0
LINE
  8
1
 62
4
  6
CONTINUOUS
 10
225.417391304
 20
222.300724638
 11
353.367391304
 21
222.300724638
  0
POLYLINE
  8
1
 62
4
  6
CONTINUOUS
 66
1
  0
VERTEX
  8
1
 10
351.667391304
 20
220.300724638
  0
VERTEX
  8
1
 10
351.367391304
 20
222.300724638
  0
VERTEX
  8
1
 10
351.067391304
 20
220.300724638
  0
SEQEND
  8
1
  0
LINE
  8
1
 62
4
  6
CONTINUOUS
 10
351.367391304
 20
222.300724638
 11
351.367391304
 21
124.800724638
  0
POLYLINE
  8
1
 62
4
  6
CONTINUOUS
 66
1
  0
VERTEX
  8
1
 10
351.067391304
 20
126.800724638
  0
VERTEX
  8
1
 10
351.367391304
 20
124.800724638
  0
VERTEX
  8
1
 10
351.667391304
 20
126.800724638
  0
SEQEND
  8
1
  0
LINE
  8
1
 62
4
  6
CONTINUOUS
 10
225.417391304
 20
124.800724638
 11
353.367391304
 21
124.800724638
  0
ENDBLK
  8
0
  0
BLOCK
  8
0
  2
*D673
 70
65
 10
0.000000000
 20
0.000000000
  3
*D
  0
TEXT
  8
1
 62
4
  6
CONTINUOUS
 72
5
 10
31.740888689
 20
166.419124638
 40
2.800000000
  1
φ
 41
1.270648030
 50
90.000000000
 11
31.740888689
 21
169.779124638
  0
TEXT
  8
1
 62
4
  6
CONTINUOUS
 72
5
 10
31.740888689
 20
171.459124638
 40
2.800000000
  1
29.6
 41
1.099999267
 50
90.000000000
 11
31.740888689
 21
180.699124638
  0
LINE
  8
1
 62
4
  6
CONTINUOUS
 10
69.617391304
 20
188.350724638
 11
31.945888689
 21
188.350724638
  0
POLYLINE
  8
1
 62
4
  6
CONTINUOUS
 66
1
  0
VERTEX
  8
1
 10
34.245888689
 20
186.350724638
  0
VERTEX
  8
1
 10
33.945888689
 20
188.350724638
  0
VERTEX
  8
1
 10
33.645888689
 20
186.350724638
  0
SEQEND
  8
1
  0
LINE
  8
1
 62
4
  6
CONTINUOUS
 10
33.945888689
 20
188.350724638
 11
33.945888689
 21
158.750724638
  0
POLYLINE
  8
1
 62
4
  6
CONTINUOUS
 66
1
  0
VERTEX
  8
1
 10
33.645888689
 20
160.750724638
  0
VERTEX
  8
1
 10
33.945888689
 20
158.750724638
  0
VERTEX
  8
1
 10
34.245888689
 20
160.750724638
  0
SEQEND
  8
1
  0
LINE
  8
1
 62
4
  6
CONTINUOUS
 10
69.617391304
 20
158.750724638
 11
31.945888689
 21
158.750724638
  0
ENDBLK
  8
0
  0
ENDSEC
  0
SECTION
  2
ENTITIES
  0
LINE
  8
1
 62
7
  6
CONTINUOUS
 10
84.305909382
 20
57.250724638
 11
84.305909382
 21
71.250724638
  0
LINE
  8
1
 62
7
  6
CONTINUOUS
 10
84.305909382
 20
57.250724638
 11
82.305909382
 21
57.250724638
  0
LINE
  8
1
 62
7
  6
CONTINUOUS
 10
81.655909382
 20
71.100724638
 11
82.305909382
 21
71.100724638
  0
LINE
  8
1
 62
1
  6
CENTER
 10
48.945888689
 20
173.550724638
 11
334.367391304
 21
173.550724638
  0
LINE
  8
1
 62
7
  6
CONTINUOUS
 10
81.655909382
 20
57.400724638
 11
82.305909382
 21
57.400724638
  0
LINE
  8
1
 62
7
  6
CONTINUOUS
 10
82.305909382
 20
57.250724638
 11
82.305909382
 21
71.250724638
  0
INSERT
  8
1
 62
7
  6
CONTINUOUS
  2
blk7
 10
97.055909382
 20
70.049543471
 41
5.694116184
 42
0.802327900
 50
358.000000000
  0
INSERT
  8
1
 62
7
  6
CONTINUOUS
  2
blk8
 10
97.055909382
 20
64.250724638
 41
5.690647482
 42
1.134662997
 50
0.000000000
  0
LINE
  8
1
 62
7
  6
CONTINUOUS
 10
74.317391304
 20
159.850724638
 11
74.717391304
 21
159.850724638
  0
LINE
  8
1
 62
7
  6
CONTINUOUS
 10
74.813983887
 20
188.576606542
 11
74.717391304
 21
188.450724638
  0
LINE
  8
1
 62
7
  6
CONTINUOUS
 10
93.377645342
 20
193.550724638
 11
139.498807017
 21
193.550724638
  0
LINE
  8
1
 62
7
  6
CONTINUOUS
 10
186.417391304
 20
204.550724638
 11
185.917391304
 21
205.050724638
  0
LINE
  8
1
 62
7
  6
CONTINUOUS
 10
74.717391304
 20
188.450724638
 11
74.717391304
 21
158.650724638
  0
LINE
  8
1
 62
7
  6
CONTINUOUS
 10
74.813983887
 20
188.576606542
 11
93.377645342
 21
193.550724638
  0
LINE
  8
1
 62
7
  6
CONTINUOUS
 10
64.299442080
 20
180.647171247
 11
64.299442080
 21
166.454278028
  0
LINE
  8
1
 62
7
  6
CONTINUOUS
 10
56.645888689
 20
178.033852567
 11
56.895888689
 21
178.283852567
  0
LINE
  8
1
 62
7
  6
CONTINUOUS
 10
74.813983887
 20
158.524842733
 11
93.377645342
 21
153.550724638
  0
LINE
  8
1
 62
7
  6
CONTINUOUS
 10
93.377645342
 20
153.550724638
 11
139.498807017
 21
153.550724638
  0
LINE
  8
1
 62
7
  6
CONTINUOUS
 10
64.445888689
 20
166.850724638
 11
68.817391304
 21
166.850724638
  0
LINE
  8
1
 62
7
  6
CONTINUOUS
 10
56.895888689
 20
178.283852567
 11
59.395888689
 21
178.283852567
  0
LINE
  8
1
 62
7
  6
CONTINUOUS
 10
59.395888689
 20
178.283852567
 11
59.645888689
 21
178.033852567
  0
LINE
  8
1
 62
7
  6
CONTINUOUS
 10
59.395888689
 20
168.817596708
 11
59.645888689
 21
169.067596708
  0
LINE
  8
1
 62
7
  6
CONTINUOUS
 10
56.645888689
 20
169.067596708
 11
56.895888689
 21
168.817596708
  0
LINE
  8
1
 62
7
  6
CONTINUOUS
 10
56.395888689
 20
182.000724638
 11
56.395888689
 21
165.100724638
  0
LINE
  8
1
 62
7
  6
CONTINUOUS
 10
93.377645342
 20
193.550724638
 11
93.377645342
 21
153.550724638
  0
LINE
  8
1
 62
7
  6
CONTINUOUS
 10
56.895888689
 20
168.817596708
 11
59.395888689
 21
168.817596708
  0
LINE
  8
1
 62
7
  6
CONTINUOUS
 10
74.317391304
 20
187.250724638
 11
74.717391304
 21
187.250724638
  0
LINE
  8
1
 62
7
  6
CONTINUOUS
 10
139.498807017
 20
193.550724638
 11
139.498807017
 21
153.550724638
  0
LINE
  8
1
 62
7
  6
CONTINUOUS
 10
186.417391304
 20
145.263945435
 11
186.417391304
 21
204.550724638
  0
LINE
  8
1
 62
7
  6
CONTINUOUS
 10
159.417391304
 20
205.050724638
 11
185.917391304
 21
205.050724638
  0
LINE
  8
1
 62
7
  6
CONTINUOUS
 10
159.417391304
 20
205.050724638
 11
139.498807017
 21
193.550724638
  0
LINE
  8
1
 62
7
  6
CONTINUOUS
 10
56.895888689
 20
168.817596708
 11
56.895888689
 21
166.550724638
  0
LINE
  8
1
 62
7
  6
CONTINUOUS
 10
59.895888689
 20
182.000724638
 11
59.895888689
 21
165.100724638
  0
LINE
  8
1
 62
7
  6
CONTINUOUS
 10
59.395888689
 20
168.817596708
 11
59.395888689
 21
166.550724638
  0
LINE
  8
1
 62
7
  6
CONTINUOUS
 10
56.895888689
 20
180.550724638
 11
56.895888689
 21
178.283852567
  0
LINE
  8
1
 62
7
  6
CONTINUOUS
 10
56.645888689
 20
166.550724638
 11
59.645888689
 21
166.550724638
  0
LINE
  8
1
 62
7
  6
CONTINUOUS
 10
56.645888689
 20
181.750724638
 11
56.645888689
 21
165.350724638
  0
LINE
  8
1
 62
7
  6
CONTINUOUS
 10
64.299442080
 20
181.147171247
 11
63.592335299
 21
181.854278028
  0
LINE
  8
1
 62
7
  6
CONTINUOUS
 10
63.592335299
 20
165.247171247
 11
64.299442080
 21
165.954278028
  0
LINE
  8
1
 62
7
  6
CONTINUOUS
 10
64.445888689
 20
166.307831419
 11
64.445888689
 21
180.793617856
  0
LINE
  8
1
 62
7
  6
CONTINUOUS
 10
63.238781908
 20
182.000724638
 11
59.895888689
 21
182.000724638
  0
LINE
  8
1
 62
7
  6
CONTINUOUS
 10
56.645888689
 20
180.550724638
 11
59.645888689
 21
180.550724638
  0
LINE
  8
1
 62
7
  6
CONTINUOUS
 10
52.445888689
 20
167.062049503
 11
55.610952199
 21
165.234699234
  0
LINE
  8
1
 62
7
  6
CONTINUOUS
 10
59.895888689
 20
165.100724638
 11
63.238781908
 21
165.100724638
  0
LINE
  8
1
 62
7
  6
CONTINUOUS
 10
56.395888689
 20
182.000724638
 11
56.645888689
 21
181.750724638
  0
LINE
  8
1
 62
7
  6
CONTINUOUS
 10
56.110952199
 20
165.100724638
 11
56.395888689
 21
165.100724638
  0
LINE
  8
1
 62
7
  6
CONTINUOUS
 10
56.395888689
 20
165.100724638
 11
56.645888689
 21
165.350724638
  0
LINE
  8
1
 62
7
  6
CONTINUOUS
 10
56.110952199
 20
182.000724638
 11
56.395888689
 21
182.000724638
  0
LINE
  8
1
 62
7
  6
CONTINUOUS
 10
59.645888689
 20
181.750724638
 11
59.645888689
 21
165.350724638
  0
LINE
  8
1
 62
7
  6
CONTINUOUS
 10
59.645888689
 20
165.350724638
 11
59.895888689
 21
165.100724638
  0
LINE
  8
1
 62
7
  6
CONTINUOUS
 10
52.445888689
 20
180.039399772
 11
55.610952199
 21
181.866750041
  0
ARC
  8
1
 62
7
  6
CONTINUOUS
 10
56.110952199
 20
181.000724638
 40
1.000000000
 50
90.000000000
 51
120.000000000
  0
LINE
  8
1
 62
7
  6
CONTINUOUS
 10
59.645888689
 20
181.750724638
 11
59.895888689
 21
182.000724638
  0
LINE
  8
1
 62
7
  6
CONTINUOUS
 10
51.945888689
 20
179.173374368
 11
51.945888689
 21
167.928074907
  0
ARC
  8
1
 62
7
  6
CONTINUOUS
 10
63.945888689
 20
180.793617856
 40
0.500000000
 50
0.000000000
 51
45.000000000
  0
ARC
  8
1
 62
7
  6
CONTINUOUS
 10
63.945888689
 20
166.307831419
 40
0.500000000
 50
315.000000000
 51
0.000000000
  0
LINE
  8
1
 62
7
  6
CONTINUOUS
 10
182.917391304
 20
144.550724638
 11
182.917391304
 21
143.050724638
  0
LINE
  8
1
 62
1
  6
CONTINUOUS
 10
181.317391304
 20
142.011494153
 11
181.917391304
 21
143.050724638
  0
ARC
  8
1
 62
7
  6
CONTINUOUS
 10
63.238781908
 20
165.600724638
 40
0.500000000
 50
270.000000000
 51
315.000000000
  0
ARC
  8
1
 62
7
  6
CONTINUOUS
 10
56.110952199
 20
166.100724638
 40
1.000000000
 50
240.000000000
 51
270.000000000
  0
LINE
  8
1
 62
1
  6
CONTINUOUS
 10
181.317391304
 20
140.550724638
 11
181.317391304
 21
142.011494153
  0
ARC
  8
1
 62
7
  6
CONTINUOUS
 10
52.945888689
 20
167.928074907
 40
1.000000000
 50
180.000000000
 51
240.000000000
  0
LINE
  8
1
 62
7
  6
CONTINUOUS
 10
59.395888689
 20
180.550724638
 11
59.395888689
 21
178.283852567
  0
LINE
  8
1
 62
7
  6
CONTINUOUS
 10
74.317391304
 20
188.350724638
 11
69.617391304
 21
188.350724638
  0
LINE
  8
1
 62
7
  6
CONTINUOUS
 10
69.617391304
 20
158.750724638
 11
74.317391304
 21
158.750724638
  0
ARC
  8
1
 62
7
  6
CONTINUOUS
 10
52.945888689
 20
179.173374368
 40
1.000000000
 50
120.000000000
 51
180.000000000
  0
ARC
  8
1
 62
7
  6
CONTINUOUS
 10
63.238781908
 20
181.500724638
 40
0.500000000
 50
45.000000000
 51
90.000000000
  0
LINE
  8
1
 62
7
  6
CONTINUOUS
 10
181.917391304
 20
143.050724638
 11
181.917391304
 21
140.550724638
  0
LINE
  8
1
 62
7
  6
CONTINUOUS
 10
186.417391304
 20
148.350724638
 11
186.417391304
 21
144.750724638
  0
LINE
  8
1
 62
7
  6
CONTINUOUS
 10
186.217391304
 20
144.550724638
 11
186.417391304
 21
144.750724638
  0
LINE
  8
1
 62
7
  6
CONTINUOUS
 10
56.110952199
 20
182.000724638
 11
56.110952199
 21
165.100724638
  0
LINE
  8
1
 62
7
  6
CONTINUOUS
 10
159.617391304
 20
144.550724638
 11
159.417391304
 21
144.750724638
  0
LINE
  8
1
 62
7
  6
CONTINUOUS
 10
82.305909382
 20
71.250724638
 11
84.305909382
 21
71.250724638
  0
LINE
  8
1
 62
7
  6
CONTINUOUS
 10
159.417391304
 20
145.263945435
 11
159.417391304
 21
144.750724638
  0
LINE
  8
1
 62
4
  6
CONTINUOUS
 10
56.645888689
 20
178.033852567
 11
59.645888689
 21
169.067596708
  0
LINE
  8
1
 62
7
  6
CONTINUOUS
 10
52.445888689
 20
179.539399772
 11
52.445888689
 21
167.562049503
  0
LINE
  8
1
 62
4
  6
CONTINUOUS
 10
59.645888689
 20
178.033852567
 11
56.645888689
 21
169.067596708
  0
LINE
  8
1
 62
7
  6
CONTINUOUS
 10
63.238781908
 20
182.000724638
 11
63.238781908
 21
165.100724638
  0
DIMENSION
  8
1
 62
4
  6
CONTINUOUS
  2
*D79
 70
1
 10
41.945888689
 20
165.100724638
 11
41.945888689
 21
173.550724638
 14
56.110952199
 24
165.100724638
 13
56.110952199
 23
182.000724638
 50
90.000000000
  0
LINE
  8
1
 62
7
  6
CONTINUOUS
 10
65.517391304
 20
176.532334941
 11
65.517391304
 21
170.569114335
  0
LINE
  8
1
 62
4
  6
CONTINUOUS
 10
65.517391304
 20
176.532334941
 11
68.517391304
 21
170.569114335
  0
LINE
  8
1
 62
4
  6
CONTINUOUS
 10
68.517391304
 20
176.532334941
 11
65.517391304
 21
170.569114335
  0
LINE
  8
1
 62
7
  6
CONTINUOUS
 10
65.517391304
 20
176.532334941
 11
68.517391304
 21
176.532334941
  0
LINE
  8
1
 62
7
  6
CONTINUOUS
 10
68.517391304
 20
170.569114335
 11
68.517391304
 21
176.532334941
  0
LINE
  8
1
 62
7
  6
CONTINUOUS
 10
68.817391304
 20
166.950724638
 11
69.317391304
 21
166.950724638
  0
LINE
  8
1
 62
7
  6
CONTINUOUS
 10
68.817391304
 20
180.150724638
 11
69.317391304
 21
180.150724638
  0
LINE
  8
1
 62
7
  6
CONTINUOUS
 10
68.817391304
 20
180.250724638
 11
68.817391304
 21
166.850724638
  0
LINE
  8
1
 62
7
  6
CONTINUOUS
 10
64.445888689
 20
180.250724638
 11
68.817391304
 21
180.250724638
  0
LINE
  8
1
 62
7
  6
CONTINUOUS
 10
55.610952199
 20
181.366750041
 11
55.610952199
 21
165.734699234
  0
LINE
  8
1
 62
7
  6
CONTINUOUS
 10
65.517391304
 20
170.569114335
 11
68.517391304
 21
170.569114335
  0
LINE
  8
1
 62
7
  6
CONTINUOUS
 10
69.317391304
 20
188.050724638
 11
69.317391304
 21
159.050724638
  0
LINE
  8
1
 62
7
  6
CONTINUOUS
 10
81.655909382
 20
57.400724638
 11
81.655909382
 21
71.100724638
  0
LINE
  8
1
 62
7
  6
CONTINUOUS
 10
63.592335299
 20
181.354278028
 11
63.592335299
 21
165.747171247
  0
LINE
  8
1
 62
7
  6
CONTINUOUS
 10
74.317391304
 20
158.750724638
 11
74.317391304
 21
188.350724638
  0
LINE
  8
1
 62
7
  6
CONTINUOUS
 10
69.317391304
 20
188.050724638
 11
69.617391304
 21
188.350724638
  0
LINE
  8
1
 62
7
  6
CONTINUOUS
 10
69.617391304
 20
158.750724638
 11
69.317391304
 21
159.050724638
  0
LINE
  8
1
 62
7
  6
CONTINUOUS
 10
166.767391304
 20
148.550724638
 11
159.617391304
 21
148.550724638
  0
LINE
  8
1
 62
7
  6
CONTINUOUS
 10
169.417391304
 20
145.263945435
 11
153.851929627
 21
145.263945435
  0
LINE
  8
1
 62
7
  6
CONTINUOUS
 10
173.817391304
 20
160.161196518
 11
169.017391304
 21
160.161196518
  0
LINE
  8
1
 62
7
  6
CONTINUOUS
 10
162.917391304
 20
143.050724638
 11
169.417391304
 21
143.050724638
  0
LINE
  8
1
 62
7
  6
CONTINUOUS
 10
174.617391304
 20
159.699196518
 11
168.217391304
 21
159.699196518
  0
LINE
  8
1
 62
7
  6
CONTINUOUS
 10
174.617391304
 20
157.606196518
 11
168.217391304
 21
157.606196518
  0
LINE
  8
1
 62
7
  6
CONTINUOUS
 10
175.867391304
 20
156.884196518
 11
166.967391304
 21
156.884196518
  0
LINE
  8
1
 62
7
  6
CONTINUOUS
 10
175.867391304
 20
153.342196518
 11
166.967391304
 21
153.342196518
  0
LINE
  8
1
 62
7
  6
CONTINUOUS
 10
176.067391304
 20
152.996196518
 11
166.767391304
 21
152.996196518
  0
LINE
  8
1
 62
7
  6
CONTINUOUS
 10
176.067391304
 20
152.996196518
 11
176.067391304
 21
147.996196518
  0
LINE
  8
1
 62
7
  6
CONTINUOUS
 10
174.617391304
 20
157.606196518
 11
175.867391304
 21
156.884196518
  0
LINE
  8
1
 62
7
  6
CONTINUOUS
 10
175.867391304
 20
156.884196518
 11
175.867391304
 21
153.342196518
  0
LINE
  8
1
 62
7
  6
CONTINUOUS
 10
176.067391304
 20
152.996196518
 11
175.867391304
 21
153.342196518
  0
LINE
  8
1
 62
7
  6
CONTINUOUS
 10
74.813983887
 20
158.524842733
 11
74.717391304
 21
158.650724638
  0
LINE
  8
1
 62
7
  6
CONTINUOUS
 10
173.610391304
 20
147.996196518
 11
173.610391304
 21
147.396196518
  0
LINE
  8
1
 62
7
  6
CONTINUOUS
 10
175.967391304
 20
147.396196518
 11
175.967391304
 21
145.896196518
  0
LINE
  8
1
 62
7
  6
CONTINUOUS
 10
166.767391304
 20
152.996196518
 11
166.767391304
 21
147.996196518
  0
LINE
  8
1
 62
7
  6
CONTINUOUS
 10
168.217391304
 20
157.606196518
 11
166.967391304
 21
156.884196518
  0
LINE
  8
1
 62
7
  6
CONTINUOUS
 10
166.967391304
 20
156.884196518
 11
166.967391304
 21
153.342196518
  0
LINE
  8
1
 62
7
  6
CONTINUOUS
 10
166.767391304
 20
152.996196518
 11
166.967391304
 21
153.342196518
  0
LINE
  8
1
 62
7
  6
CONTINUOUS
 10
176.067391304
 20
147.996196518
 11
166.767391304
 21
147.996196518
  0
LINE
  8
1
 62
7
  6
CONTINUOUS
 10
166.867391304
 20
147.396196518
 11
175.967391304
 21
147.396196518
  0
LINE
  8
1
 62
7
  6
CONTINUOUS
 10
163.917391304
 20
143.050724638
 11
163.917391304
 21
140.550724638
  0
LINE
  8
1
 62
7
  6
CONTINUOUS
 10
153.851929627
 20
145.263945435
 11
139.498807017
 21
153.550724638
  0
LINE
  8
1
 62
7
  6
CONTINUOUS
 10
186.217391304
 20
148.550724638
 11
176.067391304
 21
148.550724638
  0
LINE
  8
1
 62
7
  6
CONTINUOUS
 10
159.417391304
 20
148.550724638
 11
159.417391304
 21
145.263945435
  0
LINE
  8
1
 62
7
  6
CONTINUOUS
 10
186.417391304
 20
145.263945435
 11
173.417391304
 21
145.263945435
  0
LINE
  8
1
 62
1
  6
CONTINUOUS
 10
164.517391304
 20
140.550724638
 11
164.517391304
 21
142.011494153
  0
LINE
  8
1
 62
7
  6
CONTINUOUS
 10
169.224391304
 20
147.996196518
 11
169.224391304
 21
147.396196518
  0
LINE
  8
1
 62
7
  6
CONTINUOUS
 10
166.867391304
 20
147.396196518
 11
166.867391304
 21
145.896196518
  0
LINE
  8
1
 62
7
  6
CONTINUOUS
 10
166.867391304
 20
145.896196518
 11
175.967391304
 21
145.896196518
  0
LINE
  8
1
 62
7
  6
CONTINUOUS
 10
167.917391304
 20
163.516196518
 11
167.917391304
 21
159.475196518
  0
LINE
  8
1
 62
7
  6
CONTINUOUS
 10
167.917391304
 20
163.516196518
 11
171.417391304
 21
165.537196518
  0
LINE
  8
1
 62
7
  6
CONTINUOUS
 10
174.917391304
 20
159.475196518
 11
174.617391304
 21
159.302196518
  0
LINE
  8
1
 62
7
  6
CONTINUOUS
 10
174.917391304
 20
163.516196518
 11
174.917391304
 21
159.475196518
  0
LINE
  8
1
 62
7
  6
CONTINUOUS
 10
174.917391304
 20
163.516196518
 11
171.417391304
 21
165.537196518
  0
LINE
  8
1
 62
7
  6
CONTINUOUS
 10
174.617391304
 20
159.699196518
 11
173.817391304
 21
160.161196518
  0
LINE
  8
1
 62
7
  6
CONTINUOUS
 10
173.817391304
 20
160.161196518
 11
173.817391304
 21
161.496196518
  0
LINE
  8
1
 62
7
  6
CONTINUOUS
 10
167.917391304
 20
159.475196518
 11
168.217391304
 21
159.302196518
  0
LINE
  8
1
 62
1
  6
CONTINUOUS
 10
164.517391304
 20
142.011494153
 11
163.917391304
 21
143.050724638
  0
LINE
  8
1
 62
7
  6
CONTINUOUS
 10
163.917391304
 20
142.011494153
 11
169.417391304
 21
142.011494153
  0
LINE
  8
1
 62
7
  6
CONTINUOUS
 10
159.617391304
 20
144.550724638
 11
169.417391304
 21
144.550724638
  0
LINE
  8
1
 62
7
  6
CONTINUOUS
 10
162.917391304
 20
144.550724638
 11
162.917391304
 21
143.050724638
  0
LINE
  8
1
 62
7
  6
CONTINUOUS
 10
168.217391304
 20
159.699196518
 11
169.017391304
 21
160.161196518
  0
LINE
  8
1
 62
7
  6
CONTINUOUS
 10
169.017391304
 20
160.161196518
 11
169.017391304
 21
161.496196518
  0
ARC
  8
1
 62
7
  6
CONTINUOUS
 10
171.417391304
 20
161.496196518
 40
2.400000000
 50
0.000000000
 51
180.000000000
  0
LINE
  8
1
 62
7
  6
CONTINUOUS
 10
174.617391304
 20
157.606196518
 11
174.617391304
 21
159.700196518
  0
LINE
  8
1
 62
7
  6
CONTINUOUS
 10
168.217391304
 20
157.606196518
 11
168.217391304
 21
159.700196518
  0
ARC
  8
1
 62
7
  6
CONTINUOUS
 10
171.417391304
 20
161.496196518
 40
3.500000000
 50
330.725200000
 51
209.275000000
  0
LINE
  8
1
 62
7
  6
CONTINUOUS
 10
41.637479243
 20
65.625724638
 11
41.637479243
 21
64.800724638
  0
ARC
  8
1
 62
7
  6
CONTINUOUS
 10
10.455909382
 20
70.669705633
 40
0.500000000
 50
112.704232352
 51
180.000000000
  0
LINE
  8
1
 62
7
  6
CONTINUOUS
 10
38.255909382
 20
57.400724638
 11
38.255909382
 21
71.100724638
  0
LINE
  8
1
 62
7
  6
CONTINUOUS
 10
37.605909382
 20
71.250724638
 11
36.437395584
 21
71.250724638
  0
INSERT
  8
1
 62
7
  6
CONTINUOUS
  2
blk150
 10
22.855909382
 20
64.250724638
 41
5.690647482
 42
1.134662997
 50
180.000000000
  0
INSERT
  8
1
 62
7
  6
CONTINUOUS
  2
blk151
 10
22.855909382
 20
70.049543471
 41
5.694116184
 42
0.802327900
 50
182.000000000
  0
LINE
  8
1
 62
7
  6
CONTINUOUS
 10
37.605909382
 20
57.250724638
 11
37.605909382
 21
71.250724638
  0
LINE
  8
1
 62
7
  6
CONTINUOUS
 10
38.255909382
 20
57.400724638
 11
37.605909382
 21
57.400724638
  0
LINE
  8
1
 62
7
  6
CONTINUOUS
 10
38.255909382
 20
71.100724638
 11
37.605909382
 21
71.100724638
  0
LINE
  8
1
 62
7
  6
CONTINUOUS
 10
36.437395584
 20
57.250724638
 11
37.605909382
 21
57.250724638
  0
LINE
  8
1
 62
7
  6
CONTINUOUS
 10
30.305909382
 20
57.250724638
 11
31.687395584
 21
57.250724638
  0
LINE
  8
1
 62
7
  6
CONTINUOUS
 10
173.417391304
 20
145.896196518
 11
173.417391304
 21
131.100724638
  0
LINE
  8
1
 62
7
  6
CONTINUOUS
 10
30.305909382
 20
57.400724638
 11
29.655909382
 21
57.400724638
  0
LINE
  8
1
 62
7
  6
CONTINUOUS
 10
30.305909382
 20
71.100724638
 11
29.655909382
 21
71.100724638
  0
LINE
  8
1
 62
7
  6
CONTINUOUS
 10
30.305909382
 20
57.250724638
 11
30.305909382
 21
71.250724638
  0
ARC
  8
1
 62
4
  6
CONTINUOUS
 10
104.246838306
 20
82.100724638
 40
1.250000000
 50
126.869897646
 51
233.130102354
  0
LINE
  8
1
 62
7
  6
CONTINUOUS
 10
169.417391304
 20
140.550724638
 11
162.917391304
 21
140.550724638
  0
ARC
  8
1
 62
7
  6
CONTINUOUS
 10
45.913018704
 20
70.250724638
 40
2.000000000
 50
90.000000000
 51
99.373202633
  0
LINE
  8
1
 62
7
  6
CONTINUOUS
 10
52.955909382
 20
56.250724638
 11
52.955909382
 21
72.250724638
  0
POLYLINE
  8
1
 62
7
  6
CONTINUOUS
 66
1
  0
VERTEX
  8
1
 10
45.587289655
 20
56.277427755
  0
VERTEX
  8
1
 10
45.325452646
 20
56.323209416
 42
-0.004649752
  0
VERTEX
  8
1
 10
44.804516611
 20
56.427659871
 42
-0.003401432
  0
VERTEX
  8
1
 10
44.286345772
 20
56.544939053
 42
-0.002143715
  0
VERTEX
  8
1
 10
43.769739774
 20
56.669269907
 42
-0.000401379
  0
VERTEX
  8
1
 10
43.253124496
 20
56.793378049
 42
0.001410244
  0
VERTEX
  8
1
 10
42.734863377
 20
56.909739063
 42
0.003218665
  0
VERTEX
  8
1
 10
42.213831830
 20
57.013065505
 42
0.002929824
  0
VERTEX
  8
1
 10
41.690470758
 20
57.104910017
 42
0.002235974
  0
VERTEX
  8
1
 10
41.165519245
 20
57.188128093
 42
0.001544364
  0
VERTEX
  8
1
 10
40.639607863
 20
57.264840873
 42
0.002056093
  0
VERTEX
  8
1
 10
40.112473454
 20
57.331121172
 42
0.003694314
  0
VERTEX
  8
1
 10
39.583444946
 20
57.380142629
 42
0.005092700
  0
VERTEX
  8
1
 10
39.052722662
 20
57.407141871
 42
0.005624902
  0
VERTEX
  8
1
 10
38.521452426
 20
57.409610351
 42
0.006276090
  0
VERTEX
  8
1
 10
38.255909382
 20
57.400724638
  0
VERTEX
  8
1
 10
38.255909382
 20
57.400724638
  0
VERTEX
  8
1
 10
38.255909382
 20
57.400724638
  0
VERTEX
  8
1
 10
38.255909382
 20
57.400724638
  0
VERTEX
  8
1
 10
38.255909382
 20
57.400724638
  0
VERTEX
  8
1
 10
38.255909382
 20
57.400724638
  0
VERTEX
  8
1
 10
38.255909382
 20
57.400724638
  0
VERTEX
  8
1
 10
38.255909382
 20
57.400724638
  0
VERTEX
  8
1
 10
38.255909382
 20
57.400724638
  0
VERTEX
  8
1
 10
38.255909382
 20
57.400724638
  0
VERTEX
  8
1
 10
38.255909382
 20
57.400724638
  0
VERTEX
  8
1
 10
38.255909382
 20
57.400724638
  0
VERTEX
  8
1
 10
38.255909382
 20
57.400724638
  0
VERTEX
  8
1
 10
38.255909382
 20
57.400724638
  0
VERTEX
  8
1
 10
38.255909382
 20
57.400724638
  0
VERTEX
  8
1
 10
38.255909382
 20
57.400724638
  0
VERTEX
  8
1
 10
38.255909382
 20
57.400724638
  0
VERTEX
  8
1
 10
38.255909382
 20
57.400724638
  0
VERTEX
  8
1
 10
38.255909382
 20
57.400724638
  0
VERTEX
  8
1
 10
38.255909382
 20
57.400724638
  0
VERTEX
  8
1
 10
38.255909382
 20
57.400724638
  0
VERTEX
  8
1
 10
38.255909382
 20
57.400724638
  0
VERTEX
  8
1
 10
38.255909382
 20
57.400724638
  0
VERTEX
  8
1
 10
38.255909382
 20
57.400724638
  0
VERTEX
  8
1
 10
38.255909382
 20
57.400724638
  0
VERTEX
  8
1
 10
38.255909382
 20
57.400724638
  0
VERTEX
  8
1
 10
38.255909382
 20
57.400724638
  0
VERTEX
  8
1
 10
38.255909382
 20
57.400724638
  0
VERTEX
  8
1
 10
38.255909382
 20
57.400724638
  0
VERTEX
  8
1
 10
38.255909382
 20
57.400724638
  0
VERTEX
  8
1
 10
38.255909382
 20
57.400724638
  0
VERTEX
  8
1
 10
38.255909382
 20
57.400724638
  0
SEQEND
  8
1
  0
LINE
  8
1
 62
7
  6
CONTINUOUS
 10
31.687395584
 20
71.250724638
 11
30.305909382
 21
71.250724638
  0
LINE
  8
1
 62
7
  6
CONTINUOUS
 10
54.955909382
 20
56.250724638
 11
45.913018704
 21
56.250724638
  0
ARC
  8
1
 62
7
  6
CONTINUOUS
 10
45.913018704
 20
58.250724638
 40
2.000000000
 50
260.626797261
 51
270.000000000
  0
LINE
  8
1
 62
7
  6
CONTINUOUS
 10
54.955909382
 20
72.250724638
 11
45.913018704
 21
72.250724638
  0
LINE
  8
1
 62
7
  6
CONTINUOUS
 10
29.655909382
 20
72.734573101
 11
29.655909382
 21
57.250724638
  0
INSERT
  8
1
 62
7
  6
CONTINUOUS
  2
blk171
 10
22.855909382
 20
58.451905804
 41
5.694116184
 42
0.802327900
 50
178.000000000
  0
ARC
  8
1
 62
7
  6
CONTINUOUS
 10
29.155909382
 20
72.734573101
 40
0.500000000
 50
0.000000000
 51
79.897997052
  0
LINE
  8
1
 62
7
  6
CONTINUOUS
 10
9.955909382
 20
70.669705633
 11
9.955909382
 21
57.831743642
  0
ARC
  8
1
 62
7
  6
CONTINUOUS
 10
23.313113689
 20
88.561503635
 40
33.811046993
 50
247.295767648
 51
274.664048196
  0
POLYLINE
  8
1
 62
7
  6
CONTINUOUS
 66
1
  0
VERTEX
  8
1
 10
45.587289659
 20
72.224021521
  0
VERTEX
  8
1
 10
45.325452650
 20
72.178239860
 42
0.004649752
  0
VERTEX
  8
1
 10
44.804516614
 20
72.073789405
 42
0.003401432
  0
VERTEX
  8
1
 10
44.286345775
 20
71.956510223
 42
0.002143715
  0
VERTEX
  8
1
 10
43.769739777
 20
71.832179369
 42
0.000401379
  0
VERTEX
  8
1
 10
43.253124498
 20
71.708071227
 42
-0.001410244
  0
VERTEX
  8
1
 10
42.734863379
 20
71.591710213
 42
-0.003218665
  0
VERTEX
  8
1
 10
42.213831832
 20
71.488383771
 42
-0.002929824
  0
VERTEX
  8
1
 10
41.690470760
 20
71.396539258
 42
-0.002235974
  0
VERTEX
  8
1
 10
41.165519247
 20
71.313321183
 42
-0.001544364
  0
VERTEX
  8
1
 10
40.639607865
 20
71.236608402
 42
-0.002056093
  0
VERTEX
  8
1
 10
40.112473455
 20
71.170328103
 42
-0.003694314
  0
VERTEX
  8
1
 10
39.583444946
 20
71.121306646
 42
-0.005092700
  0
VERTEX
  8
1
 10
39.052722662
 20
71.094307405
 42
-0.005624902
  0
VERTEX
  8
1
 10
38.521452426
 20
71.091838925
 42
-0.006276090
  0
VERTEX
  8
1
 10
38.255909382
 20
71.100724638
  0
VERTEX
  8
1
 10
38.255909382
 20
71.100724638
  0
VERTEX
  8
1
 10
38.255909382
 20
71.100724638
  0
VERTEX
  8
1
 10
38.255909382
 20
71.100724638
  0
VERTEX
  8
1
 10
38.255909382
 20
71.100724638
  0
VERTEX
  8
1
 10
38.255909382
 20
71.100724638
  0
VERTEX
  8
1
 10
38.255909382
 20
71.100724638
  0
VERTEX
  8
1
 10
38.255909382
 20
71.100724638
  0
VERTEX
  8
1
 10
38.255909382
 20
71.100724638
  0
VERTEX
  8
1
 10
38.255909382
 20
71.100724638
  0
VERTEX
  8
1
 10
38.255909382
 20
71.100724638
  0
VERTEX
  8
1
 10
38.255909382
 20
71.100724638
  0
VERTEX
  8
1
 10
38.255909382
 20
71.100724638
  0
VERTEX
  8
1
 10
38.255909382
 20
71.100724638
  0
VERTEX
  8
1
 10
38.255909382
 20
71.100724638
  0
VERTEX
  8
1
 10
38.255909382
 20
71.100724638
  0
VERTEX
  8
1
 10
38.255909382
 20
71.100724638
  0
VERTEX
  8
1
 10
38.255909382
 20
71.100724638
  0
VERTEX
  8
1
 10
38.255909382
 20
71.100724638
  0
VERTEX
  8
1
 10
38.255909382
 20
71.100724638
  0
VERTEX
  8
1
 10
38.255909382
 20
71.100724638
  0
VERTEX
  8
1
 10
38.255909382
 20
71.100724638
  0
VERTEX
  8
1
 10
38.255909382
 20
71.100724638
  0
VERTEX
  8
1
 10
38.255909382
 20
71.100724638
  0
VERTEX
  8
1
 10
38.255909382
 20
71.100724638
  0
VERTEX
  8
1
 10
38.255909382
 20
71.100724638
  0
VERTEX
  8
1
 10
38.255909382
 20
71.100724638
  0
VERTEX
  8
1
 10
38.255909382
 20
71.100724638
  0
VERTEX
  8
1
 10
38.255909382
 20
71.100724638
  0
VERTEX
  8
1
 10
38.255909382
 20
71.100724638
  0
VERTEX
  8
1
 10
38.255909382
 20
71.100724638
  0
VERTEX
  8
1
 10
38.255909382
 20
71.100724638
  0
SEQEND
  8
1
  0
LINE
  8
1
 62
7
  6
CONTINUOUS
 10
181.877391304
 20
125.550724638
 11
182.837391304
 21
126.510724638
  0
LINE
  8
1
 62
7
  6
CONTINUOUS
 10
176.917391304
 20
80.250724638
 11
176.917391304
 21
99.250724638
  0
LINE
  8
1
 62
7
  6
CONTINUOUS
 10
43.874339522
 20
63.700724638
 11
41.637479243
 21
63.700724638
  0
LINE
  8
1
 62
7
  6
CONTINUOUS
 10
182.917391304
 20
140.550724638
 11
173.417391304
 21
140.550724638
  0
ARC
  8
1
 62
7
  6
CONTINUOUS
 10
23.313113689
 20
39.939945641
 40
33.811046993
 50
79.897997052
 51
112.704232352
  0
ARC
  8
1
 62
7
  6
CONTINUOUS
 10
10.455909382
 20
57.831743642
 40
0.500000000
 50
180.000000000
 51
247.295767648
  0
LINE
  8
1
 62
7
  6
CONTINUOUS
 10
41.637479243
 20
64.800724638
 11
43.874339522
 21
64.800724638
  0
LINE
  8
1
 62
7
  6
CONTINUOUS
 10
41.637479243
 20
62.875724638
 11
39.255909382
 21
64.250724638
  0
LINE
  8
1
 62
7
  6
CONTINUOUS
 10
39.255909382
 20
64.250724638
 11
41.637479243
 21
65.625724638
  0
LINE
  8
1
 62
7
  6
CONTINUOUS
 10
62.755909382
 20
61.450724638
 11
56.955909382
 21
61.450724638
  0
LINE
  8
1
 62
7
  6
CONTINUOUS
 10
56.955909382
 20
61.450724638
 11
56.955909382
 21
67.050724638
  0
LINE
  8
1
 62
7
  6
CONTINUOUS
 10
56.955909382
 20
67.050724638
 11
62.755909382
 21
67.050724638
  0
LINE
  8
1
 62
7
  6
CONTINUOUS
 10
46.255909382
 20
64.250724638
 11
43.874339522
 21
65.625724638
  0
LINE
  8
1
 62
7
  6
CONTINUOUS
 10
43.874339522
 20
62.875724638
 11
46.255909382
 21
64.250724638
  0
LINE
  8
1
 62
7
  6
CONTINUOUS
 10
62.755909382
 20
61.450724638
 11
62.755909382
 21
62.250724638
  0
LINE
  8
1
 62
7
  6
CONTINUOUS
 10
62.755909382
 20
62.250724638
 11
57.755909382
 21
62.250724638
  0
LINE
  8
1
 62
7
  6
CONTINUOUS
 10
57.755909382
 20
62.250724638
 11
57.755909382
 21
66.250724638
  0
LINE
  8
1
 62
7
  6
CONTINUOUS
 10
174.374271533
 20
130.130724638
 11
174.374271533
 21
126.510724638
  0
LINE
  8
1
 62
7
  6
CONTINUOUS
 10
57.755909382
 20
66.250724638
 11
62.755909382
 21
66.250724638
  0
LINE
  8
1
 62
4
  6
CONTINUOUS
 10
180.967391304
 20
140.550724638
 11
180.967391304
 21
132.550724638
  0
LINE
  8
1
 62
7
  6
CONTINUOUS
 10
62.755909382
 20
66.250724638
 11
62.755909382
 21
67.050724638
  0
LINE
  8
1
 62
7
  6
CONTINUOUS
 10
182.837391304
 20
130.130724638
 11
181.417391304
 21
131.550724638
  0
LINE
  8
1
 62
7
  6
CONTINUOUS
 10
169.825062085
 20
99.250724638
 11
169.825062085
 21
101.750724638
  0
LINE
  8
1
 62
7
  6
CONTINUOUS
 10
164.417391304
 20
131.550724638
 11
162.997391304
 21
130.130724638
  0
LINE
  8
1
 62
4
  6
CONTINUOUS
 10
177.967391304
 20
140.550724638
 11
177.967391304
 21
132.550724638
  0
LINE
  8
1
 62
7
  6
CONTINUOUS
 10
163.977391304
 20
101.750724638
 11
163.977391304
 21
99.250724638
  0
LINE
  8
1
 62
7
  6
CONTINUOUS
 10
181.877391304
 20
125.550724638
 11
181.877391304
 21
103.750724638
  0
LINE
  8
1
 62
7
  6
CONTINUOUS
 10
182.917391304
 20
132.550724638
 11
182.917391304
 21
140.550724638
  0
LINE
  8
1
 62
7
  6
CONTINUOUS
 10
174.374271533
 20
126.510724638
 11
182.837391304
 21
126.510724638
  0
LINE
  8
1
 62
7
  6
CONTINUOUS
 10
181.857391304
 20
101.750724638
 11
163.977391304
 21
101.750724638
  0
LINE
  8
1
 62
7
  6
CONTINUOUS
 10
174.374271533
 20
130.130724638
 11
182.837391304
 21
130.130724638
  0
LINE
  8
1
 62
4
  6
CONTINUOUS
 10
176.167391304
 20
140.550724638
 11
176.167391304
 21
132.550724638
  0
LINE
  8
1
 62
7
  6
CONTINUOUS
 10
168.917391304
 20
80.250724638
 11
168.917391304
 21
99.250724638
  0
LINE
  8
1
 62
7
  6
CONTINUOUS
 10
181.877391304
 20
103.750724638
 11
165.274021604
 21
103.750724638
  0
LINE
  8
1
 62
7
  6
CONTINUOUS
 10
179.917391304
 20
131.550724638
 11
179.917391304
 21
132.550724638
  0
LINE
  8
1
 62
7
  6
CONTINUOUS
 10
165.917391304
 20
131.550724638
 11
165.917391304
 21
132.550724638
  0
LINE
  8
1
 62
7
  6
CONTINUOUS
 10
159.417391304
 20
205.050724638
 11
159.417391304
 21
145.263945435
  0
LINE
  8
1
 62
7
  6
CONTINUOUS
 10
84.955909382
 20
57.250724638
 11
84.955909382
 21
71.250724638
  0
LINE
  8
1
 62
7
  6
CONTINUOUS
 10
89.605909382
 20
57.250724638
 11
87.605909382
 21
57.250724638
  0
LINE
  8
1
 62
7
  6
CONTINUOUS
 10
84.305909382
 20
57.400724638
 11
84.955909382
 21
57.400724638
  0
LINE
  8
1
 62
7
  6
CONTINUOUS
 10
89.605909382
 20
57.400724638
 11
90.255909382
 21
57.400724638
  0
LINE
  8
1
 62
7
  6
CONTINUOUS
 10
89.605909382
 20
71.100724638
 11
90.255909382
 21
71.100724638
  0
LINE
  8
1
 62
7
  6
CONTINUOUS
 10
89.605909382
 20
57.250724638
 11
89.605909382
 21
71.250724638
  0
LINE
  8
1
 62
7
  6
CONTINUOUS
 10
86.955909382
 20
71.100724638
 11
87.605909382
 21
71.100724638
  0
LINE
  8
1
 62
7
  6
CONTINUOUS
 10
86.955909382
 20
57.400724638
 11
87.605909382
 21
57.400724638
  0
ARC
  8
1
 62
7
  6
CONTINUOUS
 10
73.998800061
 20
70.250724638
 40
2.000000000
 50
80.626797367
 51
90.000000000
  0
LINE
  8
1
 62
7
  6
CONTINUOUS
 10
67.655909382
 20
56.250724638
 11
67.655909382
 21
72.250724638
  0
POLYLINE
  8
1
 62
7
  6
CONTINUOUS
 66
1
  0
VERTEX
  8
1
 10
74.324529109
 20
56.277427755
  0
VERTEX
  8
1
 10
74.586366118
 20
56.323209416
 42
0.004649752
  0
VERTEX
  8
1
 10
75.107302154
 20
56.427659871
 42
0.003401432
  0
VERTEX
  8
1
 10
75.625472993
 20
56.544939053
 42
0.002143715
  0
VERTEX
  8
1
 10
76.142078990
 20
56.669269907
 42
0.000401379
  0
VERTEX
  8
1
 10
76.658694269
 20
56.793378049
 42
-0.001410244
  0
VERTEX
  8
1
 10
77.176955388
 20
56.909739063
 42
-0.003218665
  0
VERTEX
  8
1
 10
77.697986934
 20
57.013065505
 42
-0.002929824
  0
VERTEX
  8
1
 10
78.221348006
 20
57.104910017
 42
-0.002235974
  0
VERTEX
  8
1
 10
78.746299519
 20
57.188128093
 42
-0.001544364
  0
VERTEX
  8
1
 10
79.272210901
 20
57.264840873
 42
-0.002056093
  0
VERTEX
  8
1
 10
79.799345310
 20
57.331121172
 42
-0.003694314
  0
VERTEX
  8
1
 10
80.328373819
 20
57.380142629
 42
-0.005092700
  0
VERTEX
  8
1
 10
80.859096103
 20
57.407141871
 42
-0.005624902
  0
VERTEX
  8
1
 10
81.390366339
 20
57.409610351
 42
-0.006276090
  0
VERTEX
  8
1
 10
81.655909382
 20
57.400724638
  0
VERTEX
  8
1
 10
81.655909382
 20
57.400724638
  0
VERTEX
  8
1
 10
81.655909382
 20
57.400724638
  0
VERTEX
  8
1
 10
81.655909382
 20
57.400724638
  0
VERTEX
  8
1
 10
81.655909382
 20
57.400724638
  0
VERTEX
  8
1
 10
81.655909382
 20
57.400724638
  0
VERTEX
  8
1
 10
81.655909382
 20
57.400724638
  0
VERTEX
  8
1
 10
81.655909382
 20
57.400724638
  0
VERTEX
  8
1
 10
81.655909382
 20
57.400724638
  0
VERTEX
  8
1
 10
81.655909382
 20
57.400724638
  0
VERTEX
  8
1
 10
81.655909382
 20
57.400724638
  0
VERTEX
  8
1
 10
81.655909382
 20
57.400724638
  0
VERTEX
  8
1
 10
81.655909382
 20
57.400724638
  0
VERTEX
  8
1
 10
81.655909382
 20
57.400724638
  0
VERTEX
  8
1
 10
81.655909382
 20
57.400724638
  0
VERTEX
  8
1
 10
81.655909382
 20
57.400724638
  0
VERTEX
  8
1
 10
81.655909382
 20
57.400724638
  0
VERTEX
  8
1
 10
81.655909382
 20
57.400724638
  0
VERTEX
  8
1
 10
81.655909382
 20
57.400724638
  0
VERTEX
  8
1
 10
81.655909382
 20
57.400724638
  0
VERTEX
  8
1
 10
81.655909382
 20
57.400724638
  0
VERTEX
  8
1
 10
81.655909382
 20
57.400724638
  0
VERTEX
  8
1
 10
81.655909382
 20
57.400724638
  0
VERTEX
  8
1
 10
81.655909382
 20
57.400724638
  0
VERTEX
  8
1
 10
81.655909382
 20
57.400724638
  0
VERTEX
  8
1
 10
81.655909382
 20
57.400724638
  0
VERTEX
  8
1
 10
81.655909382
 20
57.400724638
  0
VERTEX
  8
1
 10
81.655909382
 20
57.400724638
  0
VERTEX
  8
1
 10
81.655909382
 20
57.400724638
  0
VERTEX
  8
1
 10
81.655909382
 20
57.400724638
  0
VERTEX
  8
1
 10
81.655909382
 20
57.400724638
  0
VERTEX
  8
1
 10
81.655909382
 20
57.400724638
  0
SEQEND
  8
1
  0
LINE
  8
1
 62
7
  6
CONTINUOUS
 10
87.605909382
 20
57.250724638
 11
87.605909382
 21
71.250724638
  0
LINE
  8
1
 62
7
  6
CONTINUOUS
 10
84.305909382
 20
71.100724638
 11
84.955909382
 21
71.100724638
  0
LINE
  8
1
 62
7
  6
CONTINUOUS
 10
86.955909382
 20
57.250724638
 11
84.955909382
 21
57.250724638
  0
LINE
  8
1
 62
7
  6
CONTINUOUS
 10
87.605909382
 20
71.250724638
 11
89.605909382
 21
71.250724638
  0
LINE
  8
1
 62
7
  6
CONTINUOUS
 10
86.955909382
 20
57.250724638
 11
86.955909382
 21
71.250724638
  0
LINE
  8
1
 62
7
  6
CONTINUOUS
 10
163.957391304
 20
125.550724638
 11
162.997391304
 21
126.510724638
  0
ARC
  8
1
 62
4
  6
CONTINUOUS
 10
143.615080603
 20
66.250724638
 40
2.500000000
 50
126.869897646
 51
233.130102354
  0
LINE
  8
1
 62
7
  6
CONTINUOUS
 10
84.955909382
 20
71.250724638
 11
86.955909382
 21
71.250724638
  0
ARC
  8
1
 62
4
  6
CONTINUOUS
 10
140.615080603
 20
66.250724638
 40
2.500000000
 50
306.869897646
 51
53.130102354
  0
LINE
  8
1
 62
7
  6
CONTINUOUS
 10
109.955909382
 20
60.250724638
 11
138.465080603
 21
60.250724638
  0
LINE
  8
1
 62
7
  6
CONTINUOUS
 10
181.857391304
 20
99.250724638
 11
181.857391304
 21
101.750724638
  0
LINE
  8
1
 62
4
  6
CONTINUOUS
 10
174.467391304
 20
140.550724638
 11
174.467391304
 21
132.550724638
  0
LINE
  8
1
 62
7
  6
CONTINUOUS
 10
169.417391304
 20
132.550724638
 11
162.917391304
 21
132.550724638
  0
LINE
  8
1
 62
4
  6
CONTINUOUS
 10
182.167391304
 20
140.550724638
 11
182.167391304
 21
132.550724638
  0
LINE
  8
1
 62
4
  6
CONTINUOUS
 10
179.567391304
 20
140.550724638
 11
179.567391304
 21
132.550724638
  0
LINE
  8
1
 62
7
  6
CONTINUOUS
 10
182.837391304
 20
130.130724638
 11
182.837391304
 21
126.510724638
  0
LINE
  8
1
 62
7
  6
CONTINUOUS
 10
54.955909382
 20
56.250724638
 11
74.162759139
 21
56.250724638
  0
ARC
  8
1
 62
7
  6
CONTINUOUS
 10
172.917391305
 20
127.893042837
 40
2.670153523
 50
56.933186383
 51
79.281881903
  0
ARC
  8
1
 62
7
  6
CONTINUOUS
 10
73.998800061
 20
58.250724638
 40
2.000000000
 50
270.000000000
 51
279.373202739
  0
LINE
  8
1
 62
7
  6
CONTINUOUS
 10
109.955909382
 20
68.250724638
 11
138.465080603
 21
68.250724638
  0
LINE
  8
1
 62
7
  6
CONTINUOUS
 10
163.957391304
 20
125.550724638
 11
163.957391304
 21
109.363466301
  0
LINE
  8
1
 62
7
  6
CONTINUOUS
 10
162.917391304
 20
140.550724638
 11
162.917391304
 21
132.550724638
  0
LINE
  8
1
 62
7
  6
CONTINUOUS
 10
173.417391304
 20
131.550724638
 11
181.417391304
 21
131.550724638
  0
LINE
  8
1
 62
7
  6
CONTINUOUS
 10
162.997391304
 20
130.130724638
 11
162.997391304
 21
126.510724638
  0
ARC
  8
1
 62
7
  6
CONTINUOUS
 10
172.917391305
 20
128.748406435
 40
2.670153523
 50
275.335150874
 51
303.066813617
  0
LINE
  8
1
 62
7
  6
CONTINUOUS
 10
54.955909382
 20
72.250724638
 11
73.998800061
 21
72.250724638
  0
LINE
  8
1
 62
7
  6
CONTINUOUS
 10
178.567391305
 20
103.750724638
 11
178.567391305
 21
101.750724638
  0
LINE
  8
1
 62
7
  6
CONTINUOUS
 10
162.997391304
 20
130.130724638
 11
169.407162993
 21
130.130724638
  0
LINE
  8
1
 62
7
  6
CONTINUOUS
 10
181.877391304
 20
125.550724638
 11
173.108411620
 21
125.550724638
  0
LINE
  8
1
 62
7
  6
CONTINUOUS
 10
167.267391305
 20
103.750724638
 11
167.267391305
 21
101.750724638
  0
LINE
  8
1
 62
7
  6
CONTINUOUS
 10
90.255909382
 20
72.734573101
 11
90.255909382
 21
55.766876174
  0
INSERT
  8
1
 62
7
  6
CONTINUOUS
  2
blk255
 10
97.055909382
 20
58.451905804
 41
5.694116184
 42
0.802327900
 50
2.000000000
  0
LINE
  8
1
 62
7
  6
CONTINUOUS
 10
176.009720524
 20
99.250724638
 11
176.009720524
 21
101.750724638
  0
ARC
  8
1
 62
7
  6
CONTINUOUS
 10
156.917391304
 20
80.250724638
 40
12.000000000
 50
270.000000000
 51
0.000000000
  0
ARC
  8
1
 62
7
  6
CONTINUOUS
 10
90.755909382
 20
72.734573101
 40
0.500000000
 50
100.102002948
 51
180.000000000
  0
LINE
  8
1
 62
7
  6
CONTINUOUS
 10
109.955909382
 20
70.669705633
 11
109.955909382
 21
57.831743642
  0
ARC
  8
1
 62
7
  6
CONTINUOUS
 10
96.598705076
 20
88.561503635
 40
33.811046993
 50
259.897997052
 51
292.704232352
  0
LINE
  8
1
 62
4
  6
CONTINUOUS
 10
163.667391304
 20
140.550724638
 11
163.667391304
 21
132.550724638
  0
LINE
  8
1
 62
7
  6
CONTINUOUS
 10
162.997391304
 20
126.510724638
 11
169.187817346
 21
126.510724638
  0
LINE
  8
1
 62
4
  6
CONTINUOUS
 10
164.867391304
 20
140.550724638
 11
164.867391304
 21
132.550724638
  0
LINE
  8
1
 62
4
  6
CONTINUOUS
 10
166.267391304
 20
140.550724638
 11
166.267391304
 21
132.550724638
  0
LINE
  8
1
 62
4
  6
CONTINUOUS
 10
88.946875077
 20
120.657423377
 11
83.896875041
 21
119.304279945
  0
LINE
  8
1
 62
4
  6
CONTINUOUS
 10
88.946875077
 20
118.657423377
 11
83.896875041
 21
117.304279945
  0
LINE
  8
1
 62
4
  6
CONTINUOUS
 10
88.946875077
 20
116.657423377
 11
83.896875041
 21
115.304279945
  0
LINE
  8
1
 62
4
  6
CONTINUOUS
 10
88.946875077
 20
114.657423377
 11
85.189824233
 21
113.650724637
  0
LINE
  8
1
 62
4
  6
CONTINUOUS
 10
88.862724332
 20
130.634875253
 11
83.896875041
 21
129.304279945
  0
LINE
  8
1
 62
7
  6
CONTINUOUS
 10
76.696875079
 20
120.573673602
 11
76.696875079
 21
123.927775673
  0
LINE
  8
1
 62
7
  6
CONTINUOUS
 10
75.696875079
 20
123.927775673
 11
75.696875079
 21
120.573673602
  0
LINE
  8
1
 62
7
  6
CONTINUOUS
 10
66.696874690
 20
129.250724853
 11
66.696874690
 21
115.250724421
  0
LINE
  8
1
 62
7
  6
CONTINUOUS
 10
82.796875079
 20
130.735724637
 11
82.796875079
 21
113.765724637
  0
LINE
  8
1
 62
7
  6
CONTINUOUS
 10
82.796875079
 20
114.350725019
 11
81.696875053
 21
114.350725019
  0
LINE
  8
1
 62
7
  6
CONTINUOUS
 10
81.696875053
 20
114.350725019
 11
66.696874690
 21
115.250724421
  0
LINE
  8
1
 62
7
  6
CONTINUOUS
 10
66.696874690
 20
129.250724853
 11
64.696875293
 21
128.200724774
  0
LINE
  8
1
 62
7
  6
CONTINUOUS
 10
81.696875053
 20
130.150724256
 11
66.696874690
 21
129.250724853
  0
LINE
  8
1
 62
7
  6
CONTINUOUS
 10
82.796875079
 20
130.150724256
 11
81.696875053
 21
130.150724256
  0
LINE
  8
1
 62
7
  6
CONTINUOUS
 10
64.696875293
 20
127.699955382
 11
52.796875950
 21
127.150724695
  0
LINE
  8
1
 62
7
  6
CONTINUOUS
 10
52.796875950
 20
127.150724695
 11
52.296874937
 21
126.800724824
  0
LINE
  8
1
 62
7
  6
CONTINUOUS
 10
52.296874937
 20
126.800724824
 11
52.296874937
 21
117.700724450
  0
LINE
  8
1
 62
7
  6
CONTINUOUS
 10
99.196875360
 20
130.150724637
 11
96.896875360
 21
130.150724637
  0
LINE
  8
1
 62
7
  6
CONTINUOUS
 10
88.946875077
 20
130.550724508
 11
91.146875065
 21
130.550724508
  0
LINE
  8
1
 62
7
  6
CONTINUOUS
 10
83.896875041
 20
113.650724637
 11
88.646874947
 21
113.650724637
  0
LINE
  8
1
 62
7
  6
CONTINUOUS
 10
99.196875360
 20
114.350724637
 11
96.896875360
 21
114.350724637
  0
LINE
  8
1
 62
7
  6
CONTINUOUS
 10
82.796875079
 20
113.765724637
 11
83.896875041
 21
113.765724637
  0
LINE
  8
1
 62
1
  6
CONTINUOUS
 10
99.196875360
 20
114.850724637
 11
96.896875360
 21
114.850724637
  0
LINE
  8
1
 62
7
  6
CONTINUOUS
 10
96.896875360
 20
114.350724637
 11
96.896875360
 21
130.150724637
  0
LINE
  8
1
 62
1
  6
CONTINUOUS
 10
99.196875360
 20
129.650724637
 11
96.896875360
 21
129.650724637
  0
LINE
  8
1
 62
7
  6
CONTINUOUS
 10
96.896875360
 20
114.850724637
 11
96.196875360
 21
114.850724637
  0
LINE
  8
1
 62
7
  6
CONTINUOUS
 10
96.896875360
 20
129.650724637
 11
96.196875360
 21
129.650724637
  0
LINE
  8
1
 62
7
  6
CONTINUOUS
 10
83.896875041
 20
130.735724637
 11
82.796875079
 21
130.735724637
  0
LINE
  8
1
 62
7
  6
CONTINUOUS
 10
83.896875041
 20
130.850724637
 11
83.896875041
 21
113.650724637
  0
LINE
  8
1
 62
7
  6
CONTINUOUS
 10
96.196875360
 20
130.850724637
 11
91.446875487
 21
130.850724637
  0
LINE
  8
1
 62
7
  6
CONTINUOUS
 10
96.196875360
 20
113.650724637
 11
96.196875360
 21
130.850724637
  0
LINE
  8
1
 62
7
  6
CONTINUOUS
 10
88.946875077
 20
130.550724508
 11
88.946875077
 21
113.950724767
  0
LINE
  8
1
 62
7
  6
CONTINUOUS
 10
91.146875065
 20
113.950724767
 11
91.146875065
 21
130.550724508
  0
LINE
  8
1
 62
7
  6
CONTINUOUS
 10
99.196875360
 20
115.250724637
 11
105.296875079
 21
115.250724637
  0
LINE
  8
1
 62
7
  6
CONTINUOUS
 10
99.196875360
 20
130.150724637
 11
99.196875360
 21
114.350724637
  0
LINE
  8
1
 62
7
  6
CONTINUOUS
 10
105.296875079
 20
115.250724637
 11
105.296875079
 21
129.250724637
  0
LINE
  8
1
 62
7
  6
CONTINUOUS
 10
105.296875079
 20
129.250724637
 11
99.196875360
 21
129.250724637
  0
LINE
  8
1
 62
7
  6
CONTINUOUS
 10
91.146875065
 20
113.950724767
 11
88.946875077
 21
113.950724767
  0
LINE
  8
1
 62
7
  6
CONTINUOUS
 10
91.146875065
 20
130.550724508
 11
91.446875487
 21
130.850724929
  0
LINE
  8
1
 62
7
  6
CONTINUOUS
 10
91.446875487
 20
113.650724345
 11
91.146875065
 21
113.950724767
  0
LINE
  8
1
 62
7
  6
CONTINUOUS
 10
88.946875077
 20
113.950724767
 11
88.646874655
 21
113.650724345
  0
LINE
  8
1
 62
7
  6
CONTINUOUS
 10
88.646874655
 20
130.850724929
 11
88.946875077
 21
130.550724508
  0
LINE
  8
1
 62
7
  6
CONTINUOUS
 10
91.446875487
 20
113.650724637
 11
96.196875360
 21
113.650724637
  0
LINE
  8
1
 62
7
  6
CONTINUOUS
 10
88.646874655
 20
130.850724637
 11
83.896875041
 21
130.850724637
  0
LINE
  8
1
 62
7
  6
CONTINUOUS
 10
43.874339522
 20
65.625724638
 11
43.874339522
 21
64.800724638
  0
LINE
  8
1
 62
7
  6
CONTINUOUS
 10
43.874339522
 20
63.700724638
 11
43.874339522
 21
62.875724638
  0
ARC
  8
1
 62
7
  6
CONTINUOUS
 10
109.455909382
 20
70.669705633
 40
0.500000000
 50
0.000000000
 51
67.295767648
  0
LINE
  8
1
 62
7
  6
CONTINUOUS
 10
52.796875950
 20
117.350724579
 11
52.823958880
 21
127.169682701
  0
LINE
  8
1
 62
7
  6
CONTINUOUS
 10
52.796875950
 20
117.350724579
 11
52.296874937
 21
117.700724450
  0
CIRCLE
  8
1
 62
7
  6
CONTINUOUS
 10
76.196875079
 20
122.250724637
 40
1.750000050
  0
LINE
  8
1
 62
7
  6
CONTINUOUS
 10
64.696875293
 20
116.801493893
 11
52.796875950
 21
117.350724579
  0
LINE
  8
1
 62
7
  6
CONTINUOUS
 10
64.696875293
 20
116.300724500
 11
64.696875293
 21
128.200724774
  0
LINE
  8
1
 62
7
  6
CONTINUOUS
 10
66.696874690
 20
115.250724421
 11
64.696875293
 21
116.300724500
  0
LINE
  8
1
 62
7
  6
CONTINUOUS
 10
4.554523372
 20
126.250724638
 11
52.296874937
 21
126.250724638
  0
LINE
  8
1
 62
7
  6
CONTINUOUS
 10
4.554523372
 20
118.250724638
 11
52.296874937
 21
118.250724638
  0
ARC
  8
1
 62
4
  6
CONTINUOUS
 10
-0.544610581
 20
124.250724638
 40
2.500000000
 50
306.869897646
 51
53.130102354
  0
ARC
  8
1
 62
4
  6
CONTINUOUS
 10
2.455389419
 20
120.250724638
 40
2.500000000
 50
126.869897646
 51
233.130102354
  0
ARC
  8
1
 62
4
  6
CONTINUOUS
 10
-0.544610581
 20
120.250724638
 40
2.500000000
 50
306.869897646
 51
53.130102354
  0
ARC
  8
1
 62
4
  6
CONTINUOUS
 10
6.105389419
 20
120.250724638
 40
2.500000000
 50
126.869897646
 51
233.130102354
  0
LINE
  8
1
 62
7
  6
CONTINUOUS
 10
-28.162148792
 20
126.250724638
 11
0.955389419
 21
126.250724638
  0
LINE
  8
1
 62
7
  6
CONTINUOUS
 10
-28.162148792
 20
118.250724638
 11
0.955389419
 21
118.250724638
  0
ARC
  8
1
 62
4
  6
CONTINUOUS
 10
3.105389419
 20
124.250724638
 40
2.500000000
 50
306.869897646
 51
53.130102354
  0
ARC
  8
1
 62
4
  6
CONTINUOUS
 10
6.105389419
 20
124.250724638
 40
2.500000000
 50
126.869897646
 51
233.130102354
  0
POLYLINE
  8
1
 62
7
  6
CONTINUOUS
 66
1
  0
VERTEX
  8
1
 10
74.324529106
 20
72.224021521
  0
VERTEX
  8
1
 10
74.586366115
 20
72.178239860
 42
-0.004649752
  0
VERTEX
  8
1
 10
75.107302151
 20
72.073789405
 42
-0.003401432
  0
VERTEX
  8
1
 10
75.625472990
 20
71.956510223
 42
-0.002143715
  0
VERTEX
  8
1
 10
76.142078988
 20
71.832179369
 42
-0.000401379
  0
VERTEX
  8
1
 10
76.658694266
 20
71.708071227
 42
0.001410244
  0
VERTEX
  8
1
 10
77.176955386
 20
71.591710213
 42
0.003218665
  0
VERTEX
  8
1
 10
77.697986932
 20
71.488383771
 42
0.002929824
  0
VERTEX
  8
1
 10
78.221348004
 20
71.396539258
 42
0.002235974
  0
VERTEX
  8
1
 10
78.746299518
 20
71.313321183
 42
0.001544364
  0
VERTEX
  8
1
 10
79.272210900
 20
71.236608402
 42
0.002056093
  0
VERTEX
  8
1
 10
79.799345309
 20
71.170328103
 42
0.003694314
  0
VERTEX
  8
1
 10
80.328373818
 20
71.121306646
 42
0.005092700
  0
VERTEX
  8
1
 10
80.859096102
 20
71.094307405
 42
0.005624902
  0
VERTEX
  8
1
 10
81.390366339
 20
71.091838925
 42
0.006276090
  0
VERTEX
  8
1
 10
81.655909382
 20
71.100724638
  0
VERTEX
  8
1
 10
81.655909382
 20
71.100724638
  0
VERTEX
  8
1
 10
81.655909382
 20
71.100724638
  0
VERTEX
  8
1
 10
81.655909382
 20
71.100724638
  0
VERTEX
  8
1
 10
81.655909382
 20
71.100724638
  0
VERTEX
  8
1
 10
81.655909382
 20
71.100724638
  0
VERTEX
  8
1
 10
81.655909382
 20
71.100724638
  0
VERTEX
  8
1
 10
81.655909382
 20
71.100724638
  0
VERTEX
  8
1
 10
81.655909382
 20
71.100724638
  0
VERTEX
  8
1
 10
81.655909382
 20
71.100724638
  0
VERTEX
  8
1
 10
81.655909382
 20
71.100724638
  0
VERTEX
  8
1
 10
81.655909382
 20
71.100724638
  0
VERTEX
  8
1
 10
81.655909382
 20
71.100724638
  0
VERTEX
  8
1
 10
81.655909382
 20
71.100724638
  0
VERTEX
  8
1
 10
81.655909382
 20
71.100724638
  0
VERTEX
  8
1
 10
81.655909382
 20
71.100724638
  0
VERTEX
  8
1
 10
81.655909382
 20
71.100724638
  0
VERTEX
  8
1
 10
81.655909382
 20
71.100724638
  0
VERTEX
  8
1
 10
81.655909382
 20
71.100724638
  0
VERTEX
  8
1
 10
81.655909382
 20
71.100724638
  0
VERTEX
  8
1
 10
81.655909382
 20
71.100724638
  0
VERTEX
  8
1
 10
81.655909382
 20
71.100724638
  0
VERTEX
  8
1
 10
81.655909382
 20
71.100724638
  0
VERTEX
  8
1
 10
81.655909382
 20
71.100724638
  0
VERTEX
  8
1
 10
81.655909382
 20
71.100724638
  0
VERTEX
  8
1
 10
81.655909382
 20
71.100724638
  0
VERTEX
  8
1
 10
81.655909382
 20
71.100724638
  0
VERTEX
  8
1
 10
81.655909382
 20
71.100724638
  0
VERTEX
  8
1
 10
81.655909382
 20
71.100724638
  0
VERTEX
  8
1
 10
81.655909382
 20
71.100724638
  0
VERTEX
  8
1
 10
81.655909382
 20
71.100724638
  0
VERTEX
  8
1
 10
81.655909382
 20
71.100724638
  0
SEQEND
  8
1
  0
LINE
  8
1
 62
7
  6
CONTINUOUS
 10
54.955909382
 20
56.250724638
 11
54.955909382
 21
72.250724638
  0
LINE
  8
1
 62
7
  6
CONTINUOUS
 10
41.637479243
 20
63.700724638
 11
41.637479243
 21
62.875724638
  0
ARC
  8
1
 62
7
  6
CONTINUOUS
 10
96.598705076
 20
39.939945641
 40
33.811046993
 50
67.295767648
 51
100.102002948
  0
ARC
  8
1
 62
7
  6
CONTINUOUS
 10
90.755909382
 20
55.766876174
 40
0.500000000
 50
180.000000000
 51
259.897997052
  0
ARC
  8
1
 62
4
  6
CONTINUOUS
 10
102.746838306
 20
82.100724638
 40
1.250000000
 50
306.869897646
 51
53.130102354
  0
ARC
  8
1
 62
7
  6
CONTINUOUS
 10
109.455909382
 20
57.831743642
 40
0.500000000
 50
292.704232352
 51
0.000000000
  0
ARC
  8
1
 62
4
  6
CONTINUOUS
 10
100.746838306
 20
84.100724638
 40
1.250000000
 50
306.869897646
 51
53.130102354
  0
LINE
  8
1
 62
7
  6
CONTINUOUS
 10
169.417391304
 20
131.100724638
 11
169.417391304
 21
145.896196518
  0
LINE
  8
1
 62
4
  6
CONTINUOUS
 10
35.662395584
 20
55.375724638
 11
35.662395584
 21
55.775724638
  0
LINE
  8
1
 62
4
  6
CONTINUOUS
 10
35.662395584
 20
53.275724638
 11
35.662395584
 21
53.075724638
  0
LINE
  8
1
 62
4
  6
CONTINUOUS
 10
32.462395584
 20
53.275724638
 11
32.462395584
 21
53.075724638
  0
LINE
  8
1
 62
4
  6
CONTINUOUS
 10
35.662395584
 20
54.175724638
 11
32.462395584
 21
54.175724638
  0
LINE
  8
1
 62
4
  6
CONTINUOUS
 10
32.462395584
 20
57.075724638
 11
32.462395584
 21
57.675724638
  0
LINE
  8
1
 62
4
  6
CONTINUOUS
 10
35.662395584
 20
57.075724638
 11
35.662395584
 21
57.675724638
  0
LINE
  8
1
 62
4
  6
CONTINUOUS
 10
32.462395584
 20
55.775724638
 11
35.662395584
 21
55.775724638
  0
LINE
  8
1
 62
4
  6
CONTINUOUS
 10
35.662395584
 20
55.375724638
 11
32.462395584
 21
55.375724638
  0
LINE
  8
1
 62
4
  6
CONTINUOUS
 10
32.462395584
 20
54.475724638
 11
35.662395584
 21
54.475724638
  0
LINE
  8
1
 62
4
  6
CONTINUOUS
 10
35.662395584
 20
72.475724638
 11
35.662395584
 21
72.275724638
  0
LINE
  8
1
 62
4
  6
CONTINUOUS
 10
35.662395584
 20
53.075724638
 11
32.462395584
 21
53.075724638
  0
LINE
  8
1
 62
4
  6
CONTINUOUS
 10
32.462395584
 20
54.175724638
 11
32.462395584
 21
54.475724638
  0
LINE
  8
1
 62
4
  6
CONTINUOUS
 10
35.662395584
 20
54.175724638
 11
35.662395584
 21
54.475724638
  0
LINE
  8
1
 62
4
  6
CONTINUOUS
 10
35.662395584
 20
53.275724638
 11
32.462395584
 21
53.275724638
  0
LINE
  8
1
 62
4
  6
CONTINUOUS
 10
32.462395584
 20
80.475724638
 11
35.662395584
 21
80.475724638
  0
LINE
  8
1
 62
4
  6
CONTINUOUS
 10
32.462395584
 20
55.375724638
 11
32.462395584
 21
55.775724638
  0
LINE
  8
1
 62
7
  6
CONTINUOUS
 10
28.062395584
 20
47.550724638
 11
40.062395584
 21
47.550724638
  0
ARC
  8
1
 62
7
  6
CONTINUOUS
 10
37.962395584
 20
53.300724638
 40
1.000000000
 50
0.000000000
 51
90.000000000
  0
LINE
  8
1
 62
4
  6
CONTINUOUS
 10
32.462395584
 20
72.475724638
 11
32.462395584
 21
72.275724638
  0
LINE
  8
1
 62
4
  6
CONTINUOUS
 10
32.462395584
 20
57.675724638
 11
35.662395584
 21
57.675724638
  0
ARC
  8
1
 62
7
  6
CONTINUOUS
 10
30.162395584
 20
53.300724638
 40
1.000000000
 50
90.000000000
 51
180.000000000
  0
ARC
  8
1
 62
7
  6
CONTINUOUS
 10
30.162395584
 20
51.500724638
 40
1.000000000
 50
180.000000000
 51
270.000000000
  0
LINE
  8
1
 62
7
  6
CONTINUOUS
 10
37.520449729
 20
71.250724638
 11
36.437395584
 21
71.250724638
  0
LINE
  8
1
 62
7
  6
CONTINUOUS
 10
31.687395584
 20
71.250724638
 11
30.604341441
 21
71.250724638
  0
LINE
  8
1
 62
7
  6
CONTINUOUS
 10
30.105959463
 20
71.790916733
 11
30.525314302
 21
76.990916733
  0
ARC
  8
1
 62
7
  6
CONTINUOUS
 10
37.101094890
 20
76.950724638
 40
0.500000000
 50
4.610649319
 51
90.000000000
  0
ARC
  8
1
 62
7
  6
CONTINUOUS
 10
31.023696280
 20
76.950724638
 40
0.500000000
 50
90.000000000
 51
175.389350681
  0
LINE
  8
1
 62
7
  6
CONTINUOUS
 10
26.062395584
 20
55.250724638
 11
26.062395584
 21
49.550724638
  0
ARC
  8
1
 62
7
  6
CONTINUOUS
 10
37.520449729
 20
71.750724638
 40
0.500000000
 50
270.000000000
 51
4.610649319
  0
ARC
  8
1
 62
7
  6
CONTINUOUS
 10
30.604341441
 20
71.750724638
 40
0.500000000
 50
175.389350681
 51
270.000000000
  0
LINE
  8
1
 62
7
  6
CONTINUOUS
 10
37.599476867
 20
76.990916733
 11
38.018831706
 21
71.790916733
  0
LINE
  8
1
 62
7
  6
CONTINUOUS
 10
31.023696280
 20
77.450724638
 11
37.101094890
 21
77.450724638
  0
LINE
  8
1
 62
7
  6
CONTINUOUS
 10
45.712395584
 20
78.450724638
 11
45.712395584
 21
87.750724638
  0
LINE
  8
1
 62
7
  6
CONTINUOUS
 10
44.712395584
 20
78.450724638
 11
44.712395584
 21
87.750724638
  0
LINE
  8
1
 62
7
  6
CONTINUOUS
 10
47.212395584
 20
78.950724638
 11
47.212395584
 21
87.250724638
  0
LINE
  8
1
 62
7
  6
CONTINUOUS
 10
36.437395584
 20
77.450724638
 11
36.437395584
 21
88.600724638
  0
LINE
  8
1
 62
7
  6
CONTINUOUS
 10
31.687395584
 20
77.450724638
 11
31.687395584
 21
88.600724638
  0
LINE
  8
1
 62
7
  6
CONTINUOUS
 10
35.937395584
 20
89.100724638
 11
32.187395584
 21
89.100724638
  0
POLYLINE
  8
1
 62
4
  6
CONTINUOUS
 66
1
  0
VERTEX
  8
1
 10
277.999206543
 20
201.420043945
  0
VERTEX
  8
1
 10
278.193084717
 20
201.755828857
  0
VERTEX
  8
1
 10
278.386932373
 20
202.091629028
  0
VERTEX
  8
1
 10
278.580810547
 20
202.427413940
  0
VERTEX
  8
1
 10
278.774688721
 20
202.763198853
  0
VERTEX
  8
1
 10
278.968536377
 20
203.098999023
  0
VERTEX
  8
1
 10
279.162414551
 20
203.434783936
  0
VERTEX
  8
1
 10
279.356292725
 20
203.770568848
  0
VERTEX
  8
1
 10
279.550140381
 20
204.106369019
  0
VERTEX
  8
1
 10
279.744018555
 20
204.442153931
  0
VERTEX
  8
1
 10
279.937896729
 20
204.777938843
  0
VERTEX
  8
1
 10
280.131744385
 20
205.113739014
  0
VERTEX
  8
1
 10
280.325622559
 20
205.449523926
  0
VERTEX
  8
1
 10
280.519500732
 20
205.785308838
  0
VERTEX
  8
1
 10
280.713348389
 20
206.121109009
  0
VERTEX
  8
1
 10
280.907226563
 20
206.456893921
  0
VERTEX
  8
1
 10
281.101104736
 20
206.792678833
  0
VERTEX
  8
1
 10
281.294982910
 20
207.128479004
  0
VERTEX
  8
1
 10
281.488830566
 20
207.464263916
  0
VERTEX
  8
1
 10
281.682708740
 20
207.800048828
  0
VERTEX
  8
1
 10
281.876586914
 20
208.135848999
  0
VERTEX
  8
1
 10
282.070434570
 20
208.471633911
  0
VERTEX
  8
1
 10
282.264312744
 20
208.807418823
  0
VERTEX
  8
1
 10
282.458190918
 20
209.143218994
  0
VERTEX
  8
1
 10
282.652038574
 20
209.479003906
  0
VERTEX
  8
1
 10
282.845916748
 20
209.814788818
  0
VERTEX
  8
1
 10
283.039794922
 20
210.150588989
  0
VERTEX
  8
1
 10
283.233642578
 20
210.486373901
  0
VERTEX
  8
1
 10
283.427520752
 20
210.822158813
  0
VERTEX
  8
1
 10
283.621398926
 20
211.157958984
  0
VERTEX
  8
1
 10
283.815246582
 20
211.493743896
  0
VERTEX
  8
1
 10
284.009124756
 20
211.829528809
  0
VERTEX
  8
1
 10
284.203002930
 20
212.165328979
  0
VERTEX
  8
1
 10
284.593505859
 20
212.165328979
  0
VERTEX
  8
1
 10
284.984008789
 20
212.165328979
  0
VERTEX
  8
1
 10
285.374481201
 20
212.165328979
  0
VERTEX
  8
1
 10
285.764984131
 20
212.165328979
  0
VERTEX
  8
1
 10
286.155487061
 20
212.165328979
  0
VERTEX
  8
1
 10
286.545989990
 20
212.165328979
  0
VERTEX
  8
1
 10
286.936492920
 20
212.165328979
  0
VERTEX
  8
1
 10
287.326995850
 20
212.165328979
  0
VERTEX
  8
1
 10
287.717498779
 20
212.165328979
  0
VERTEX
  8
1
 10
288.108001709
 20
212.165328979
  0
VERTEX
  8
1
 10
288.498504639
 20
212.165328979
  0
VERTEX
  8
1
 10
288.889007568
 20
212.165328979
  0
VERTEX
  8
1
 10
289.279479980
 20
212.165328979
  0
VERTEX
  8
1
 10
289.669982910
 20
212.165328979
  0
VERTEX
  8
1
 10
290.060485840
 20
212.165328979
  0
VERTEX
  8
1
 10
290.450988770
 20
212.165328979
  0
VERTEX
  8
1
 10
290.841491699
 20
212.165328979
  0
VERTEX
  8
1
 10
291.231994629
 20
212.165328979
  0
VERTEX
  8
1
 10
291.622497559
 20
212.165328979
  0
VERTEX
  8
1
 10
292.013000488
 20
212.165328979
  0
VERTEX
  8
1
 10
292.403503418
 20
212.165328979
  0
VERTEX
  8
1
 10
292.794006348
 20
212.165328979
  0
VERTEX
  8
1
 10
293.184509277
 20
212.165328979
  0
VERTEX
  8
1
 10
293.574981689
 20
212.165328979
  0
VERTEX
  8
1
 10
293.965484619
 20
212.165328979
  0
VERTEX
  8
1
 10
294.355987549
 20
212.165328979
  0
VERTEX
  8
1
 10
294.746490479
 20
212.165328979
  0
VERTEX
  8
1
 10
295.136993408
 20
212.165328979
  0
VERTEX
  8
1
 10
295.527496338
 20
212.165328979
  0
VERTEX
  8
1
 10
295.917999268
 20
212.165328979
  0
VERTEX
  8
1
 10
296.308502197
 20
212.165328979
  0
VERTEX
  8
1
 10
296.699005127
 20
212.165328979
  0
SEQEND
  8
1
  0
POLYLINE
  8
1
 62
4
  6
CONTINUOUS
 66
1
  0
VERTEX
  8
1
 10
278.739399340
 20
203.302094589
  0
VERTEX
  8
1
 10
277.999206543
 20
201.420043945
  0
VERTEX
  8
1
 10
279.259014515
 20
203.002094473
  0
SEQEND
  8
1
  0
LINE
  8
1
 62
1
  6
DASHED
 10
187.417391304
 20
204.050724638
 11
187.417391304
 21
205.050724638
  0
LINE
  8
1
 62
1
  6
DASHED
 10
197.417391304
 20
204.050724638
 11
197.417391304
 21
208.600724638
  0
LINE
  8
1
 62
7
  6
CONTINUOUS
 10
225.417391304
 20
222.300724638
 11
225.417391304
 21
212.039290010
  0
LINE
  8
1
 62
7
  6
CONTINUOUS
 10
211.517391304
 20
222.300724638
 11
211.517391304
 21
212.039290010
  0
DIMENSION
  8
1
 62
4
  6
CONTINUOUS
  2
*D380
 70
1
 10
25.945888689
 20
153.550724638
 11
25.945888689
 21
173.550724638
 14
93.377645342
 24
153.550724638
 13
93.377645342
 23
193.550724638
 50
90.000000000
  0
LINE
  8
1
 62
4
  6
CONTINUOUS
 10
35.662395584
 20
77.775724638
 11
32.462395584
 21
77.775724638
  0
LINE
  8
1
 62
4
  6
CONTINUOUS
 10
35.662395584
 20
77.975724638
 11
32.462395584
 21
77.975724638
  0
LINE
  8
1
 62
4
  6
CONTINUOUS
 10
32.462395584
 20
78.675724638
 11
32.462395584
 21
78.475724638
  0
LINE
  8
1
 62
4
  6
CONTINUOUS
 10
32.462395584
 20
81.775724638
 11
35.662395584
 21
81.775724638
  0
LINE
  8
1
 62
4
  6
CONTINUOUS
 10
35.662395584
 20
81.375724638
 11
32.462395584
 21
81.375724638
  0
LINE
  8
1
 62
7
  6
CONTINUOUS
 10
208.817391304
 20
208.300724638
 11
208.817391304
 21
138.800724638
  0
LINE
  8
1
 62
4
  6
CONTINUOUS
 10
35.662395584
 20
88.075724638
 11
32.462395584
 21
88.075724638
  0
LINE
  8
1
 62
4
  6
CONTINUOUS
 10
35.662395584
 20
87.875724638
 11
32.462395584
 21
87.875724638
  0
LINE
  8
1
 62
7
  6
CONTINUOUS
 10
208.517391304
 20
208.600724638
 11
208.517391304
 21
138.500724638
  0
LINE
  8
1
 62
4
  6
CONTINUOUS
 10
32.462395584
 20
81.375724638
 11
32.462395584
 21
81.775724638
  0
LINE
  8
1
 62
4
  6
CONTINUOUS
 10
35.662395584
 20
78.675724638
 11
35.662395584
 21
78.475724638
  0
LINE
  8
1
 62
4
  6
CONTINUOUS
 10
35.662395584
 20
81.375724638
 11
35.662395584
 21
81.775724638
  0
LINE
  8
1
 62
4
  6
CONTINUOUS
 10
35.662395584
 20
80.175724638
 11
32.462395584
 21
80.175724638
  0
LINE
  8
1
 62
4
  6
CONTINUOUS
 10
32.462395584
 20
80.175724638
 11
32.462395584
 21
80.475724638
  0
LINE
  8
1
 62
4
  6
CONTINUOUS
 10
35.662395584
 20
80.175724638
 11
35.662395584
 21
80.475724638
  0
LINE
  8
1
 62
4
  6
CONTINUOUS
 10
35.662395584
 20
79.275724638
 11
32.462395584
 21
79.275724638
  0
LINE
  8
1
 62
4
  6
CONTINUOUS
 10
35.662395584
 20
79.475724638
 11
32.462395584
 21
79.475724638
  0
LINE
  8
1
 62
4
  6
CONTINUOUS
 10
35.662395584
 20
79.475724638
 11
35.662395584
 21
79.275724638
  0
LINE
  8
1
 62
4
  6
CONTINUOUS
 10
32.462395584
 20
79.475724638
 11
32.462395584
 21
79.275724638
  0
LINE
  8
1
 62
4
  6
CONTINUOUS
 10
35.662395584
 20
77.975724638
 11
35.662395584
 21
77.775724638
  0
LINE
  8
1
 62
4
  6
CONTINUOUS
 10
32.462395584
 20
88.575724638
 11
32.462395584
 21
88.775724638
  0
LINE
  8
1
 62
4
  6
CONTINUOUS
 10
35.662395584
 20
88.575724638
 11
35.662395584
 21
88.775724638
  0
LINE
  8
1
 62
4
  6
CONTINUOUS
 10
35.662395584
 20
83.575724638
 11
32.462395584
 21
83.575724638
  0
LINE
  8
1
 62
7
  6
CONTINUOUS
 10
215.269796040
 20
203.613224638
 11
215.269796040
 21
186.400724638
  0
LINE
  8
1
 62
7
  6
CONTINUOUS
 10
215.269796040
 20
222.300724638
 11
215.269796040
 21
212.039290010
  0
LINE
  8
1
 62
7
  6
CONTINUOUS
 10
216.642391304
 20
207.988224638
 11
216.642391304
 21
219.923319902
  0
LINE
  8
1
 62
7
  6
CONTINUOUS
 10
216.642391304
 20
186.400724638
 11
216.642391304
 21
203.613224638
  0
LINE
  8
1
 62
4
  6
CONTINUOUS
 10
32.462395584
 20
87.075724638
 11
32.462395584
 21
87.275724638
  0
LINE
  8
1
 62
4
  6
CONTINUOUS
 10
35.662395584
 20
87.075724638
 11
35.662395584
 21
87.275724638
  0
LINE
  8
1
 62
4
  6
CONTINUOUS
 10
35.662395584
 20
87.075724638
 11
32.462395584
 21
87.075724638
  0
LINE
  8
1
 62
4
  6
CONTINUOUS
 10
35.662395584
 20
87.275724638
 11
32.462395584
 21
87.275724638
  0
LINE
  8
1
 62
4
  6
CONTINUOUS
 10
35.662395584
 20
86.375724638
 11
35.662395584
 21
86.075724638
  0
LINE
  8
1
 62
4
  6
CONTINUOUS
 10
32.462395584
 20
86.375724638
 11
32.462395584
 21
86.075724638
  0
LINE
  8
1
 62
4
  6
CONTINUOUS
 10
35.662395584
 20
86.375724638
 11
32.462395584
 21
86.375724638
  0
LINE
  8
1
 62
7
  6
CONTINUOUS
 10
220.392391304
 20
207.988224638
 11
220.392391304
 21
219.875724638
  0
LINE
  8
1
 62
7
  6
CONTINUOUS
 10
220.392391304
 20
186.400724638
 11
220.392391304
 21
203.613224638
  0
LINE
  8
1
 62
7
  6
CONTINUOUS
 10
221.764986569
 20
203.613224638
 11
221.764986569
 21
186.400724638
  0
LINE
  8
1
 62
7
  6
CONTINUOUS
 10
221.764986569
 20
222.300724638
 11
221.764986569
 21
212.039290010
  0
LINE
  8
1
 62
7
  6
CONTINUOUS
 10
216.642391304
 20
207.988224638
 11
215.269796040
 21
212.039290010
  0
LINE
  8
1
 62
7
  6
CONTINUOUS
 10
221.764986569
 20
212.039290010
 11
220.392391304
 21
207.988224638
  0
LINE
  8
1
 62
4
  6
CONTINUOUS
 10
35.662395584
 20
85.175724638
 11
35.662395584
 21
84.775724638
  0
LINE
  8
1
 62
4
  6
CONTINUOUS
 10
32.462395584
 20
85.175724638
 11
32.462395584
 21
84.775724638
  0
LINE
  8
1
 62
4
  6
CONTINUOUS
 10
35.662395584
 20
85.175724638
 11
32.462395584
 21
85.175724638
  0
LINE
  8
1
 62
4
  6
CONTINUOUS
 10
32.462395584
 20
84.775724638
 11
35.662395584
 21
84.775724638
  0
LINE
  8
1
 62
4
  6
CONTINUOUS
 10
32.462395584
 20
86.075724638
 11
35.662395584
 21
86.075724638
  0
LINE
  8
1
 62
4
  6
CONTINUOUS
 10
35.662395584
 20
87.875724638
 11
35.662395584
 21
88.075724638
  0
LINE
  8
1
 62
4
  6
CONTINUOUS
 10
32.462395584
 20
87.875724638
 11
32.462395584
 21
88.075724638
  0
LINE
  8
1
 62
7
  6
CONTINUOUS
 10
221.764986569
 20
212.039290010
 11
226.417391304
 21
212.039290010
  0
LINE
  8
1
 62
7
  6
CONTINUOUS
 10
210.517391304
 20
212.039290010
 11
215.269796040
 21
212.039290010
  0
LINE
  8
1
 62
7
  6
CONTINUOUS
 10
220.392391304
 20
207.988224638
 11
216.642391304
 21
207.988224638
  0
LINE
  8
1
 62
4
  6
CONTINUOUS
 10
32.462395584
 20
83.575724638
 11
32.462395584
 21
82.975724638
  0
ARC
  8
1
 62
7
  6
CONTINUOUS
 10
35.937395584
 20
88.600724638
 40
0.500000000
 50
0.000000000
 51
90.000000000
  0
ARC
  8
1
 62
7
  6
CONTINUOUS
 10
32.187395584
 20
88.600724638
 40
0.500000000
 50
90.000000000
 51
180.000000000
  0
ARC
  8
1
 62
4
  6
CONTINUOUS
 10
100.746838306
 20
82.100724638
 40
1.250000000
 50
306.869897646
 51
53.130102354
  0
LINE
  8
1
 62
7
  6
CONTINUOUS
 10
46.712395584
 20
87.750724638
 11
45.712395584
 21
87.750724638
  0
LINE
  8
1
 62
7
  6
CONTINUOUS
 10
36.437395584
 20
78.450724638
 11
44.712395584
 21
78.450724638
  0
LINE
  8
1
 62
4
  6
CONTINUOUS
 10
35.662395584
 20
83.575724638
 11
35.662395584
 21
82.975724638
  0
LINE
  8
1
 62
4
  6
CONTINUOUS
 10
32.462395584
 20
82.975724638
 11
35.662395584
 21
82.975724638
  0
LINE
  8
1
 62
4
  6
CONTINUOUS
 10
35.662395584
 20
88.575724638
 11
32.462395584
 21
88.575724638
  0
LINE
  8
1
 62
4
  6
CONTINUOUS
 10
35.662395584
 20
88.775724638
 11
32.462395584
 21
88.775724638
  0
LINE
  8
1
 62
7
  6
CONTINUOUS
 10
45.712395584
 20
78.450724638
 11
46.712395584
 21
78.450724638
  0
LINE
  8
1
 62
7
  6
CONTINUOUS
 10
44.712395584
 20
87.750724638
 11
36.437395584
 21
87.750724638
  0
ARC
  8
1
 62
7
  6
CONTINUOUS
 10
123.417391304
 20
131.100724638
 40
46.000000000
 50
270.000000000
 51
0.000000000
  0
ARC
  8
1
 62
7
  6
CONTINUOUS
 10
123.417391304
 20
131.100724638
 40
50.000000000
 50
270.000000000
 51
0.000000000
  0
LINE
  8
1
 62
7
  6
CONTINUOUS
 10
45.712395584
 20
79.900724638
 11
44.712395584
 21
79.900724638
  0
LINE
  8
1
 62
7
  6
CONTINUOUS
 10
45.712395584
 20
86.300724638
 11
44.712395584
 21
86.300724638
  0
ARC
  8
1
 62
7
  6
CONTINUOUS
 10
46.712395584
 20
78.950724638
 40
0.500000000
 50
270.000000000
 51
0.000000000
  0
ARC
  8
1
 62
7
  6
CONTINUOUS
 10
46.712395584
 20
87.250724638
 40
0.500000000
 50
0.000000000
 51
90.000000000
  0
ARC
  8
1
 62
7
  6
CONTINUOUS
 10
21.412395584
 20
87.250724638
 40
0.500000000
 50
90.000000000
 51
180.000000000
  0
ARC
  8
1
 62
7
  6
CONTINUOUS
 10
21.412395584
 20
78.950724638
 40
0.500000000
 50
180.000000000
 51
270.000000000
  0
LINE
  8
1
 62
7
  6
CONTINUOUS
 10
22.412395584
 20
86.300724638
 11
23.412395584
 21
86.300724638
  0
LINE
  8
1
 62
7
  6
CONTINUOUS
 10
22.412395584
 20
79.900724638
 11
23.412395584
 21
79.900724638
  0
LINE
  8
1
 62
7
  6
CONTINUOUS
 10
226.417391304
 20
203.613224638
 11
210.517190887
 21
203.613224638
  0
LINE
  8
1
 62
7
  6
CONTINUOUS
 10
169.081354120
 20
125.550724638
 11
163.957391304
 21
125.550724638
  0
LINE
  8
1
 62
7
  6
CONTINUOUS
 10
23.412395584
 20
87.750724638
 11
31.687395584
 21
87.750724638
  0
LINE
  8
1
 62
7
  6
CONTINUOUS
 10
22.412395584
 20
78.450724638
 11
21.412395584
 21
78.450724638
  0
LINE
  8
1
 62
7
  6
CONTINUOUS
 10
22.412395584
 20
78.450724638
 11
22.412395584
 21
87.750724638
  0
LINE
  8
1
 62
4
  6
CONTINUOUS
 10
32.462395584
 20
77.975724638
 11
32.462395584
 21
77.775724638
  0
LINE
  8
1
 62
4
  6
CONTINUOUS
 10
35.662395584
 20
78.675724638
 11
32.462395584
 21
78.675724638
  0
LINE
  8
1
 62
4
  6
CONTINUOUS
 10
35.662395584
 20
78.475724638
 11
32.462395584
 21
78.475724638
  0
LINE
  8
1
 62
7
  6
CONTINUOUS
 10
31.687395584
 20
78.450724638
 11
23.412395584
 21
78.450724638
  0
LINE
  8
1
 62
7
  6
CONTINUOUS
 10
23.412395584
 20
78.450724638
 11
23.412395584
 21
87.750724638
  0
LINE
  8
1
 62
7
  6
CONTINUOUS
 10
21.412395584
 20
87.750724638
 11
22.412395584
 21
87.750724638
  0
LINE
  8
1
 62
7
  6
CONTINUOUS
 10
20.912395584
 20
78.950724638
 11
20.912395584
 21
87.250724638
  0
LINE
  8
1
 62
7
  6
CONTINUOUS
 10
229.317391304
 20
208.175724638
 11
229.317391304
 21
138.925724638
  0
LINE
  8
1
 62
7
  6
CONTINUOUS
 10
103.496838306
 20
81.100724638
 11
123.417391304
 21
81.100724638
  0
LINE
  8
1
 62
7
  6
CONTINUOUS
 10
103.496838306
 20
85.100724638
 11
123.417391304
 21
85.100724638
  0
LINE
  8
1
 62
7
  6
CONTINUOUS
 10
47.212395584
 20
81.100724638
 11
101.496838306
 21
81.100724638
  0
LINE
  8
1
 62
7
  6
CONTINUOUS
 10
229.617391304
 20
208.475724638
 11
229.617391304
 21
138.625724638
  0
ARC
  8
1
 62
7
  6
CONTINUOUS
 10
156.917391304
 20
80.250724638
 40
20.000000000
 50
270.000000000
 51
0.000000000
  0
LINE
  8
1
 62
4
  6
CONTINUOUS
 10
35.662395584
 20
63.075724638
 11
32.462395584
 21
63.075724638
  0
LINE
  8
1
 62
7
  6
CONTINUOUS
 10
142.115080603
 20
60.250724638
 11
156.917391304
 21
60.250724638
  0
LINE
  8
1
 62
7
  6
CONTINUOUS
 10
142.115080603
 20
68.250724638
 11
156.917391304
 21
68.250724638
  0
LINE
  8
1
 62
7
  6
CONTINUOUS
 10
186.917391304
 20
142.050724638
 11
186.417391304
 21
142.550724638
  0
LINE
  8
1
 62
7
  6
CONTINUOUS
 10
47.212395584
 20
85.100724638
 11
101.496838306
 21
85.100724638
  0
LINE
  8
1
 62
4
  6
CONTINUOUS
 10
35.662395584
 20
61.075724638
 11
32.462395584
 21
61.075724638
  0
LINE
  8
1
 62
4
  6
CONTINUOUS
 10
32.462395584
 20
63.675724638
 11
35.662395584
 21
63.675724638
  0
LINE
  8
1
 62
4
  6
CONTINUOUS
 10
35.662395584
 20
63.075724638
 11
35.662395584
 21
63.675724638
  0
LINE
  8
1
 62
4
  6
CONTINUOUS
 10
32.462395584
 20
63.075724638
 11
32.462395584
 21
63.675724638
  0
LINE
  8
1
 62
7
  6
CONTINUOUS
 10
186.917391304
 20
205.050724638
 11
186.417391304
 21
204.550724638
  0
LINE
  8
1
 62
7
  6
CONTINUOUS
 10
208.517391304
 20
138.500724638
 11
208.817391304
 21
138.800724638
  0
LINE
  8
1
 62
4
  6
CONTINUOUS
 10
35.662395584
 20
67.075724638
 11
32.462395584
 21
67.075724638
  0
LINE
  8
1
 62
4
  6
CONTINUOUS
 10
35.662395584
 20
65.075724638
 11
32.462395584
 21
65.075724638
  0
LINE
  8
1
 62
4
  6
CONTINUOUS
 10
35.662395584
 20
67.675724638
 11
32.462395584
 21
67.675724638
  0
LINE
  8
1
 62
4
  6
CONTINUOUS
 10
32.462395584
 20
67.075724638
 11
32.462395584
 21
67.675724638
  0
LINE
  8
1
 62
4
  6
CONTINUOUS
 10
35.662395584
 20
67.075724638
 11
35.662395584
 21
67.675724638
  0
LINE
  8
1
 62
7
  6
CONTINUOUS
 10
210.517391304
 20
138.800724638
 11
208.817391304
 21
138.800724638
  0
LINE
  8
1
 62
4
  6
CONTINUOUS
 10
32.462395584
 20
65.675724638
 11
35.662395584
 21
65.675724638
  0
LINE
  8
1
 62
7
  6
CONTINUOUS
 10
208.517391304
 20
208.600724638
 11
208.817391304
 21
208.300724638
  0
LINE
  8
1
 62
4
  6
CONTINUOUS
 10
35.662395584
 20
65.075724638
 11
35.662395584
 21
65.675724638
  0
LINE
  8
1
 62
4
  6
CONTINUOUS
 10
32.462395584
 20
65.075724638
 11
32.462395584
 21
65.675724638
  0
LINE
  8
1
 62
7
  6
CONTINUOUS
 10
210.517391304
 20
208.300724638
 11
208.817391304
 21
208.300724638
  0
LINE
  8
1
 62
4
  6
CONTINUOUS
 10
32.462395584
 20
68.875724638
 11
35.662395584
 21
68.875724638
  0
LINE
  8
1
 62
4
  6
CONTINUOUS
 10
35.662395584
 20
69.475724638
 11
32.462395584
 21
69.475724638
  0
LINE
  8
1
 62
4
  6
CONTINUOUS
 10
32.462395584
 20
69.475724638
 11
32.462395584
 21
68.875724638
  0
LINE
  8
1
 62
4
  6
CONTINUOUS
 10
35.662395584
 20
69.475724638
 11
35.662395584
 21
68.875724638
  0
LINE
  8
1
 62
4
  6
CONTINUOUS
 10
35.662395584
 20
72.275724638
 11
32.462395584
 21
72.275724638
  0
LINE
  8
1
 62
4
  6
CONTINUOUS
 10
32.462395584
 20
70.475724638
 11
35.662395584
 21
70.475724638
  0
LINE
  8
1
 62
4
  6
CONTINUOUS
 10
35.662395584
 20
70.875724638
 11
32.462395584
 21
70.875724638
  0
LINE
  8
1
 62
4
  6
CONTINUOUS
 10
32.462395584
 20
70.875724638
 11
32.462395584
 21
70.475724638
  0
LINE
  8
1
 62
4
  6
CONTINUOUS
 10
35.662395584
 20
70.875724638
 11
35.662395584
 21
70.475724638
  0
LINE
  8
1
 62
4
  6
CONTINUOUS
 10
35.662395584
 20
72.475724638
 11
32.462395584
 21
72.475724638
  0
LINE
  8
1
 62
4
  6
CONTINUOUS
 10
35.662395584
 20
61.075724638
 11
35.662395584
 21
61.675724638
  0
LINE
  8
1
 62
4
  6
CONTINUOUS
 10
32.462395584
 20
61.075724638
 11
32.462395584
 21
61.675724638
  0
LINE
  8
1
 62
4
  6
CONTINUOUS
 10
32.462395584
 20
71.575724638
 11
35.662395584
 21
71.575724638
  0
LINE
  8
1
 62
4
  6
CONTINUOUS
 10
35.662395584
 20
71.875724638
 11
32.462395584
 21
71.875724638
  0
LINE
  8
1
 62
7
  6
CONTINUOUS
 10
40.062395584
 20
57.250724638
 11
36.437395584
 21
57.250724638
  0
LINE
  8
1
 62
7
  6
CONTINUOUS
 10
31.687395584
 20
54.300724638
 11
30.162395584
 21
54.300724638
  0
ARC
  8
1
 62
7
  6
CONTINUOUS
 10
32.187395584
 20
72.100724638
 40
0.500000000
 50
90.000000000
 51
180.000000000
  0
ARC
  8
1
 62
7
  6
CONTINUOUS
 10
35.937395584
 20
72.100724638
 40
0.500000000
 50
0.000000000
 51
90.000000000
  0
ARC
  8
1
 62
7
  6
CONTINUOUS
 10
32.187395584
 20
53.450724638
 40
0.500000000
 50
180.000000000
 51
270.000000000
  0
ARC
  8
1
 62
7
  6
CONTINUOUS
 10
35.937395584
 20
53.450724638
 40
0.500000000
 50
270.000000000
 51
0.000000000
  0
LINE
  8
1
 62
7
  6
CONTINUOUS
 10
32.187395584
 20
52.950724638
 11
35.937395584
 21
52.950724638
  0
LINE
  8
1
 62
7
  6
CONTINUOUS
 10
31.687395584
 20
72.100724638
 11
31.687395584
 21
53.450724638
  0
LINE
  8
1
 62
7
  6
CONTINUOUS
 10
35.937395584
 20
72.600724638
 11
32.187395584
 21
72.600724638
  0
LINE
  8
1
 62
4
  6
CONTINUOUS
 10
35.662395584
 20
59.075724638
 11
32.462395584
 21
59.075724638
  0
LINE
  8
1
 62
7
  6
CONTINUOUS
 10
36.437395584
 20
53.450724638
 11
36.437395584
 21
72.100724638
  0
LINE
  8
1
 62
4
  6
CONTINUOUS
 10
32.462395584
 20
71.875724638
 11
32.462395584
 21
71.575724638
  0
LINE
  8
1
 62
4
  6
CONTINUOUS
 10
35.662395584
 20
71.875724638
 11
35.662395584
 21
71.575724638
  0
LINE
  8
1
 62
7
  6
CONTINUOUS
 10
40.062395584
 20
57.250724638
 11
36.437395584
 21
57.250724638
  0
LINE
  8
1
 62
7
  6
CONTINUOUS
 10
30.162395584
 20
50.500724638
 11
37.962395584
 21
50.500724638
  0
LINE
  8
1
 62
7
  6
CONTINUOUS
 10
42.062395584
 20
49.550724638
 11
42.062395584
 21
55.250724638
  0
ARC
  8
1
 62
7
  6
CONTINUOUS
 10
37.962395584
 20
51.500724638
 40
1.000000000
 50
270.000000000
 51
0.000000000
  0
ARC
  8
1
 62
7
  6
CONTINUOUS
 10
28.062395584
 20
49.550724638
 40
2.000000000
 50
180.000000000
 51
270.000000000
  0
LINE
  8
1
 62
7
  6
CONTINUOUS
 10
29.162395584
 20
53.300724638
 11
29.162395584
 21
51.500724638
  0
LINE
  8
1
 62
7
  6
CONTINUOUS
 10
37.962395584
 20
54.300724638
 11
36.437395584
 21
54.300724638
  0
ARC
  8
1
 62
7
  6
CONTINUOUS
 10
28.062395584
 20
55.250724638
 40
2.000000000
 50
90.000000000
 51
180.000000000
  0
LINE
  8
1
 62
4
  6
CONTINUOUS
 10
35.662395584
 20
57.075724638
 11
32.462395584
 21
57.075724638
  0
LINE
  8
1
 62
7
  6
CONTINUOUS
 10
31.687395584
 20
57.250724638
 11
28.062395584
 21
57.250724638
  0
ARC
  8
1
 62
7
  6
CONTINUOUS
 10
40.062395584
 20
55.250724638
 40
2.000000000
 50
0.000000000
 51
90.000000000
  0
LINE
  8
1
 62
7
  6
CONTINUOUS
 10
38.962395584
 20
51.500724638
 11
38.962395584
 21
53.300724638
  0
ARC
  8
1
 62
7
  6
CONTINUOUS
 10
40.062395584
 20
49.550724638
 40
2.000000000
 50
270.000000000
 51
0.000000000
  0
LINE
  8
1
 62
4
  6
CONTINUOUS
 10
32.462395584
 20
59.075724638
 11
32.462395584
 21
59.675724638
  0
LINE
  8
1
 62
4
  6
CONTINUOUS
 10
32.462395584
 20
59.675724638
 11
35.662395584
 21
59.675724638
  0
LINE
  8
1
 62
4
  6
CONTINUOUS
 10
35.662395584
 20
59.075724638
 11
35.662395584
 21
59.675724638
  0
LINE
  8
1
 62
7
  6
CONTINUOUS
 10
38.255909382
 20
71.100724638
 11
37.605909382
 21
71.100724638
  0
LINE
  8
1
 62
7
  6
CONTINUOUS
 10
38.255909382
 20
57.400724638
 11
37.605909382
 21
57.400724638
  0
LINE
  8
1
 62
7
  6
CONTINUOUS
 10
30.305909382
 20
57.400724638
 11
29.655909382
 21
57.400724638
  0
LINE
  8
1
 62
4
  6
CONTINUOUS
 10
32.462395584
 20
61.675724638
 11
35.662395584
 21
61.675724638
  0
TEXT
  8
1
 62
4
  6
CONTINUOUS
 72
5
 10
284.202994373
 20
213.185321504
 40
3.200000000
  1
ＩＴ５０
 41
0.838944635
 11
296.402994373
 21
213.185321504
  0
ARC
  8
1
 62
4
  6
CONTINUOUS
 10
104.246838306
 20
84.100724638
 40
1.250000000
 50
126.869897646
 51
233.130102354
  0
ARC
  8
1
 62
4
  6
CONTINUOUS
 10
102.246838306
 20
84.100724638
 40
1.250000000
 50
126.869897646
 51
233.130102354
  0
LINE
  8
1
 62
7
  6
CONTINUOUS
 10
208.517391304
 20
138.500724638
 11
194.617391304
 21
138.500724638
  0
ARC
  8
1
 62
7
  6
CONTINUOUS
 10
-28.162148792
 20
93.250724638
 40
25.000000000
 50
90.000000000
 51
270.000000000
  0
ARC
  8
1
 62
7
  6
CONTINUOUS
 10
-28.162148792
 20
93.250724638
 40
33.000000000
 50
90.000000000
 51
270.000000000
  0
ARC
  8
1
 62
4
  6
CONTINUOUS
 10
-26.113070414
 20
82.100724638
 40
1.250000000
 50
306.869897646
 51
53.130102354
  0
ARC
  8
1
 62
4
  6
CONTINUOUS
 10
-24.613070414
 20
82.100724638
 40
1.250000000
 50
126.869897646
 51
233.130102354
  0
LINE
  8
1
 62
7
  6
CONTINUOUS
 10
194.617391304
 20
138.500724638
 11
192.567797849
 21
142.050724638
  0
LINE
  8
1
 62
7
  6
CONTINUOUS
 10
208.517391304
 20
208.600724638
 11
194.617391304
 21
208.600724638
  0
ARC
  8
1
 62
4
  6
CONTINUOUS
 10
-24.613070414
 20
84.100724638
 40
1.250000000
 50
126.869897646
 51
233.130102354
  0
LINE
  8
1
 62
7
  6
CONTINUOUS
 10
-25.363070414
 20
85.100724638
 11
20.912395584
 21
85.100724638
  0
LINE
  8
1
 62
1
  6
DASHED
 10
197.417391304
 20
204.050724638
 11
187.417391304
 21
204.050724638
  0
LINE
  8
1
 62
7
  6
CONTINUOUS
 10
-25.363070414
 20
81.100724638
 11
20.912395584
 21
81.100724638
  0
LINE
  8
1
 62
7
  6
CONTINUOUS
 10
173.417391304
 20
142.011494153
 11
181.917391304
 21
142.011494153
  0
LINE
  8
1
 62
7
  6
CONTINUOUS
 10
164.417391304
 20
131.550724638
 11
169.417391304
 21
131.550724638
  0
LINE
  8
1
 62
7
  6
CONTINUOUS
 10
182.917391304
 20
132.550724638
 11
173.417391304
 21
132.550724638
  0
LINE
  8
1
 62
7
  6
CONTINUOUS
 10
173.417391304
 20
143.050724638
 11
182.917391304
 21
143.050724638
  0
ARC
  8
1
 62
4
  6
CONTINUOUS
 10
143.615080603
 20
62.250724638
 40
2.500000000
 50
126.869897646
 51
233.130102354
  0
ARC
  8
1
 62
4
  6
CONTINUOUS
 10
136.965080603
 20
62.250724638
 40
2.500000000
 50
306.869897646
 51
53.130102354
  0
ARC
  8
1
 62
4
  6
CONTINUOUS
 10
139.965080603
 20
62.250724638
 40
2.500000000
 50
126.869897646
 51
233.130102354
  0
ARC
  8
1
 62
4
  6
CONTINUOUS
 10
136.965080603
 20
66.250724638
 40
2.500000000
 50
306.869897646
 51
53.130102354
  0
LINE
  8
1
 62
4
  6
CONTINUOUS
 10
167.867391304
 20
140.550724638
 11
167.867391304
 21
132.550724638
  0
LINE
  8
1
 62
7
  6
CONTINUOUS
 10
-28.162148792
 20
60.250724638
 11
9.955909382
 21
60.250724638
  0
LINE
  8
1
 62
7
  6
CONTINUOUS
 10
9.955909382
 20
68.250724638
 11
-28.162148792
 21
68.250724638
  0
LINE
  8
1
 62
7
  6
CONTINUOUS
 10
163.977391304
 20
99.250724638
 11
181.857391304
 21
99.250724638
  0
LINE
  8
1
 62
7
  6
CONTINUOUS
 10
173.417391304
 20
144.550724638
 11
186.217391304
 21
144.550724638
  0
LINE
  8
1
 62
1
  6
DASHED
 10
195.867391304
 20
203.050724638
 11
188.967391304
 21
203.050724638
  0
LINE
  8
1
 62
1
  6
DASHED
 10
196.417391304
 20
198.050724638
 11
188.417391304
 21
198.050724638
  0
LINE
  8
1
 62
1
  6
DASHED
 10
188.967391304
 20
203.050724638
 11
188.967391304
 21
195.050724638
  0
LINE
  8
1
 62
1
  6
DASHED
 10
188.967391304
 20
195.050724638
 11
192.417391304
 21
193.058866209
  0
LINE
  8
1
 62
1
  6
DASHED
 10
195.867391304
 20
203.050724638
 11
195.867391304
 21
195.050724638
  0
LINE
  8
1
 62
1
  6
DASHED
 10
195.867391304
 20
195.050724638
 11
192.417391304
 21
193.058866209
  0
LINE
  8
1
 62
1
  6
DASHED
 10
188.967391304
 20
195.050724638
 11
195.867391304
 21
195.050724638
  0
LINE
  8
1
 62
7
  6
CONTINUOUS
 10
194.617391304
 20
138.500724638
 11
194.617391304
 21
208.600724638
  0
LINE
  8
1
 62
7
  6
CONTINUOUS
 10
192.639966632
 20
205.175724638
 11
192.567797849
 21
142.050724638
  0
LINE
  8
1
 62
1
  6
DASHED
 10
195.867391304
 20
203.050724638
 11
196.867391304
 21
204.050724638
  0
LINE
  8
1
 62
1
  6
DASHED
 10
187.967391304
 20
204.050724638
 11
188.967391304
 21
203.050724638
  0
LINE
  8
1
 62
1
  6
CENTER
 10
192.417391304
 20
191.058866209
 11
192.417391304
 21
210.600724638
  0
LINE
  8
1
 62
1
  6
DASHED
 10
188.417391304
 20
203.600724638
 11
188.417391304
 21
198.050724638
  0
LINE
  8
1
 62
1
  6
DASHED
 10
188.417391304
 20
198.050724638
 11
188.967391304
 21
197.098096694
  0
LINE
  8
1
 62
7
  6
CONTINUOUS
 10
225.417391304
 20
160.700724638
 11
225.417391304
 21
124.800724638
  0
LINE
  8
1
 62
7
  6
CONTINUOUS
 10
221.764986569
 20
160.700724638
 11
221.764986569
 21
124.800724638
  0
LINE
  8
1
 62
7
  6
CONTINUOUS
 10
215.269796040
 20
160.700724638
 11
215.269796040
 21
124.800724638
  0
LINE
  8
1
 62
7
  6
CONTINUOUS
 10
226.417591722
 20
160.700724638
 11
210.517391304
 21
160.700724638
  0
LINE
  8
1
 62
7
  6
CONTINUOUS
 10
226.417591722
 20
186.400724638
 11
210.517391304
 21
186.400724638
  0
LINE
  8
1
 62
7
  6
CONTINUOUS
 10
211.517391304
 20
160.700724638
 11
211.517391304
 21
124.800724638
  0
LINE
  8
1
 62
1
  6
DASHED
 10
196.417391304
 20
203.600724638
 11
196.417391304
 21
198.050724638
  0
LINE
  8
1
 62
7
  6
CONTINUOUS
 10
216.642391304
 20
160.700724638
 11
216.642391304
 21
127.178129374
  0
LINE
  8
1
 62
1
  6
DASHED
 10
196.417391304
 20
198.050724638
 11
195.867391304
 21
197.098096694
  0
LINE
  8
1
 62
7
  6
CONTINUOUS
 10
194.617391304
 20
208.600724638
 11
192.639966632
 21
205.175724638
  0
LINE
  8
1
 62
7
  6
CONTINUOUS
 10
192.567797849
 20
142.050724638
 11
186.917391304
 21
142.050724638
  0
LINE
  8
1
 62
7
  6
CONTINUOUS
 10
192.639966632
 20
205.050724638
 11
186.917391304
 21
205.050724638
  0
LINE
  8
1
 62
7
  6
CONTINUOUS
 10
186.417391304
 20
142.550724638
 11
186.417391304
 21
204.550724638
  0
LINE
  8
1
 62
7
  6
CONTINUOUS
 10
226.417391304
 20
221.300724638
 11
226.417391304
 21
125.800724638
  0
LINE
  8
1
 62
7
  6
CONTINUOUS
 10
229.617391304
 20
138.625724638
 11
329.656005092
 21
153.214689202
  0
LINE
  8
1
 62
7
  6
CONTINUOUS
 10
229.317391304
 20
138.925724638
 11
226.417391304
 21
138.925724638
  0
LINE
  8
1
 62
7
  6
CONTINUOUS
 10
229.617391304
 20
138.625724638
 11
229.317391304
 21
138.925724638
  0
ARC
  8
1
 62
7
  6
CONTINUOUS
 10
329.367391304
 20
155.193755164
 40
2.000000000
 50
278.297145000
 51
0.000000000
  0
LINE
  8
1
 62
7
  6
CONTINUOUS
 10
331.367391304
 20
191.907694111
 11
331.367391304
 21
155.193755164
  0
ARC
  8
1
 62
7
  6
CONTINUOUS
 10
329.367391304
 20
191.907694111
 40
2.000000000
 50
0.000000000
 51
81.702855000
  0
LINE
  8
1
 62
7
  6
CONTINUOUS
 10
229.617391304
 20
208.475724638
 11
329.656005092
 21
193.886760073
  0
ARC
  8
1
 62
7
  6
CONTINUOUS
 10
217.342391304
 20
127.225724638
 40
0.700000000
 50
90.000000000
 51
180.000000000
  0
LINE
  8
1
 62
7
  6
CONTINUOUS
 10
216.642391304
 20
127.178129374
 11
216.642391304
 21
127.225724638
  0
ARC
  8
1
 62
7
  6
CONTINUOUS
 10
219.692391304
 20
127.225724638
 40
0.700000000
 50
0.000000000
 51
90.000000000
  0
LINE
  8
1
 62
7
  6
CONTINUOUS
 10
220.392391304
 20
127.178129374
 11
220.392391304
 21
127.225724638
  0
LINE
  8
1
 62
7
  6
CONTINUOUS
 10
217.342391304
 20
127.925724638
 11
219.692391304
 21
127.925724638
  0
LINE
  8
1
 62
7
  6
CONTINUOUS
 10
221.764986569
 20
124.800724638
 11
220.392391304
 21
127.178129374
  0
LINE
  8
1
 62
7
  6
CONTINUOUS
 10
215.269796040
 20
124.800724638
 11
216.642391304
 21
127.178129374
  0
LINE
  8
1
 62
7
  6
CONTINUOUS
 10
211.517391304
 20
124.800724638
 11
215.269796040
 21
124.800724638
  0
LINE
  8
1
 62
7
  6
CONTINUOUS
 10
225.417391304
 20
124.800724638
 11
221.764986569
 21
124.800724638
  0
LINE
  8
1
 62
7
  6
CONTINUOUS
 10
226.417391304
 20
125.800724638
 11
225.417391304
 21
124.800724638
  0
LINE
  8
1
 62
7
  6
CONTINUOUS
 10
210.517391304
 20
125.800724638
 11
211.517391304
 21
124.800724638
  0
ARC
  8
1
 62
7
  6
CONTINUOUS
 10
219.692391304
 20
219.875724638
 40
0.700000000
 50
270.000000000
 51
0.000000000
  0
ARC
  8
1
 62
7
  6
CONTINUOUS
 10
217.342391304
 20
219.875724638
 40
0.700000000
 50
180.000000000
 51
270.000000000
  0
LINE
  8
1
 62
4
  6
CONTINUOUS
 10
91.146875065
 20
126.657423377
 11
96.196875101
 21
125.304279945
  0
LINE
  8
1
 62
7
  6
CONTINUOUS
 10
217.342391304
 20
219.175724638
 11
219.692391304
 21
219.175724638
  0
LINE
  8
1
 62
4
  6
CONTINUOUS
 10
96.196875101
 20
130.657423367
 11
91.146875065
 21
129.304279936
  0
LINE
  8
1
 62
7
  6
CONTINUOUS
 10
221.764986569
 20
222.300724638
 11
220.392391304
 21
219.923319902
  0
LINE
  8
1
 62
7
  6
CONTINUOUS
 10
96.196875101
 20
113.650724637
 11
91.446875195
 21
113.650724637
  0
LINE
  8
1
 62
4
  6
CONTINUOUS
 10
96.196875101
 20
116.657423367
 11
91.146875065
 21
115.304279936
  0
LINE
  8
1
 62
7
  6
CONTINUOUS
 10
215.269796040
 20
222.300724638
 11
216.642391304
 21
219.923319902
  0
LINE
  8
1
 62
4
  6
CONTINUOUS
 10
96.196875101
 20
120.657423367
 11
91.146875065
 21
119.304279936
  0
LINE
  8
1
 62
7
  6
CONTINUOUS
 10
229.317391304
 20
208.175724638
 11
226.417391304
 21
208.175724638
  0
LINE
  8
1
 62
4
  6
CONTINUOUS
 10
91.146875065
 20
123.304279936
 11
96.196875101
 21
124.657423367
  0
LINE
  8
1
 62
7
  6
CONTINUOUS
 10
229.617391304
 20
208.475724638
 11
229.317391304
 21
208.175724638
  0
LINE
  8
1
 62
4
  6
CONTINUOUS
 10
96.196875101
 20
122.657423367
 11
91.146875065
 21
121.304279936
  0
LINE
  8
1
 62
7
  6
CONTINUOUS
 10
211.517391304
 20
222.300724638
 11
215.269796040
 21
222.300724638
  0
LINE
  8
1
 62
4
  6
CONTINUOUS
 10
91.146875065
 20
128.657423377
 11
96.196875101
 21
127.304279945
  0
LINE
  8
1
 62
7
  6
CONTINUOUS
 10
225.417391304
 20
222.300724638
 11
226.417391304
 21
221.300724638
  0
LINE
  8
1
 62
4
  6
CONTINUOUS
 10
91.231025810
 20
130.634875253
 11
96.196875101
 21
129.304279945
  0
LINE
  8
1
 62
7
  6
CONTINUOUS
 10
221.764986569
 20
222.300724638
 11
225.417391304
 21
222.300724638
  0
LINE
  8
1
 62
4
  6
CONTINUOUS
 10
96.196875101
 20
128.657423367
 11
91.146875065
 21
127.304279936
  0
LINE
  8
1
 62
4
  6
CONTINUOUS
 10
91.146875065
 20
114.657423377
 11
94.903925909
 21
113.650724637
  0
LINE
  8
1
 62
7
  6
CONTINUOUS
 10
210.517391304
 20
221.300724638
 11
210.517391304
 21
125.800724638
  0
LINE
  8
1
 62
4
  6
CONTINUOUS
 10
91.146875065
 20
120.657423377
 11
96.196875101
 21
119.304279945
  0
LINE
  8
1
 62
7
  6
CONTINUOUS
 10
210.517391304
 20
221.300724638
 11
211.517391304
 21
222.300724638
  0
LINE
  8
1
 62
4
  6
CONTINUOUS
 10
91.146875065
 20
116.657423377
 11
96.196875101
 21
115.304279945
  0
LINE
  8
1
 62
4
  6
CONTINUOUS
 10
96.196875101
 20
114.657423367
 11
92.439824294
 21
113.650724637
  0
LINE
  8
1
 62
4
  6
CONTINUOUS
 10
91.146875065
 20
122.657423377
 11
96.196875101
 21
121.304279945
  0
LINE
  8
1
 62
7
  6
CONTINUOUS
 10
220.392391304
 20
160.700724638
 11
220.392391304
 21
127.178129374
  0
LINE
  8
1
 62
4
  6
CONTINUOUS
 10
91.146875065
 20
118.657423377
 11
96.196875101
 21
117.304279945
  0
DIMENSION
  8
1
 62
4
  6
CONTINUOUS
  2
*D642
 70
0
 10
229.617391304
 20
245.800724638
 11
280.492391304
 21
245.800724638
 14
229.617391304
 24
208.475724638
 13
331.367391304
 23
191.907694111
 50
0.000000000
  0
LINE
  8
1
 62
4
  6
CONTINUOUS
 10
91.146875065
 20
124.657423377
 11
96.196875101
 21
123.304279945
  0
DIMENSION
  8
1
 62
4
  6
CONTINUOUS
  2
*D644
 70
0
 10
229.617391304
 20
237.800724638
 11
211.017391304
 21
237.800724638
 14
229.617391304
 24
208.475724638
 13
192.417391304
 23
210.600724638
 50
0.000000000
  0
LINE
  8
1
 62
4
  6
CONTINUOUS
 10
91.146875065
 20
117.304279936
 11
96.196875101
 21
118.657423367
  0
DIMENSION
  8
1
 62
4
  6
CONTINUOUS
  2
*D646
 70
0
 10
51.945888689
 20
253.800724638
 11
60.631639997
 21
253.800724638
 14
51.945888689
 24
179.173374368
 13
69.317391304
 23
188.050724638
 50
0.000000000
  0
LINE
  8
1
 62
4
  6
CONTINUOUS
 10
96.196875101
 20
126.657423367
 11
91.146875065
 21
125.304279936
  0
DIMENSION
  8
1
 62
4
  6
CONTINUOUS
  2
*D648
 70
0
 10
331.367391304
 20
253.800724638
 11
200.342391304
 21
253.800724638
 14
331.367391304
 24
191.907694111
 13
69.317391304
 23
188.050724638
 50
0.000000000
  0
DIMENSION
  8
1
 62
4
  6
CONTINUOUS
  2
*D649
 70
0
 10
139.498807017
 20
245.800724638
 11
104.408099161
 21
245.800724638
 14
139.498807017
 24
193.550724638
 13
69.317391304
 23
188.050724638
 50
0.000000000
  0
DIMENSION
  8
1
 62
4
  6
CONTINUOUS
  2
*D650
 70
0
 10
229.617391304
 20
245.800724638
 11
184.558099161
 21
245.800724638
 14
229.617391304
 24
208.475724638
 13
139.498807017
 23
193.550724638
 50
0.000000000
  0
LINE
  8
1
 62
4
  6
CONTINUOUS
 10
83.896875041
 20
128.657423367
 11
88.946875077
 21
127.304279936
  0
POLYLINE
  8
1
 62
4
  6
CONTINUOUS
 66
1
  0
VERTEX
  8
1
 10
192.417388916
 20
205.050720215
  0
VERTEX
  8
1
 10
192.044891357
 20
206.074157715
  0
VERTEX
  8
1
 10
191.672393799
 20
207.097595215
  0
VERTEX
  8
1
 10
191.299896240
 20
208.121032715
  0
VERTEX
  8
1
 10
190.927383423
 20
209.144470215
  0
VERTEX
  8
1
 10
190.554885864
 20
210.167907715
  0
VERTEX
  8
1
 10
190.182388306
 20
211.191345215
  0
VERTEX
  8
1
 10
189.809890747
 20
212.214782715
  0
VERTEX
  8
1
 10
189.437377930
 20
213.238220215
  0
VERTEX
  8
1
 10
189.064880371
 20
214.261657715
  0
VERTEX
  8
1
 10
188.692382813
 20
215.285095215
  0
VERTEX
  8
1
 10
188.319885254
 20
216.308532715
  0
VERTEX
  8
1
 10
187.947387695
 20
217.331970215
  0
VERTEX
  8
1
 10
187.574874878
 20
218.355407715
  0
VERTEX
  8
1
 10
187.202377319
 20
219.378845215
  0
VERTEX
  8
1
 10
186.829879761
 20
220.402282715
  0
VERTEX
  8
1
 10
186.457382202
 20
221.425720215
  0
VERTEX
  8
1
 10
186.084884644
 20
222.449157715
  0
VERTEX
  8
1
 10
185.712371826
 20
223.472595215
  0
VERTEX
  8
1
 10
185.339874268
 20
224.496032715
  0
VERTEX
  8
1
 10
184.967376709
 20
225.519470215
  0
VERTEX
  8
1
 10
184.594879150
 20
226.542907715
  0
VERTEX
  8
1
 10
184.222381592
 20
227.566345215
  0
VERTEX
  8
1
 10
183.849868774
 20
228.589782715
  0
VERTEX
  8
1
 10
183.477371216
 20
229.613220215
  0
VERTEX
  8
1
 10
183.104873657
 20
230.636657715
  0
VERTEX
  8
1
 10
182.732376099
 20
231.660095215
  0
VERTEX
  8
1
 10
182.359863281
 20
232.683532715
  0
VERTEX
  8
1
 10
181.987365723
 20
233.706970215
  0
VERTEX
  8
1
 10
181.614868164
 20
234.730407715
  0
VERTEX
  8
1
 10
181.242370605
 20
235.753845215
  0
VERTEX
  8
1
 10
180.869873047
 20
236.777282715
  0
VERTEX
  8
1
 10
180.497360229
 20
237.800720215
  0
VERTEX
  8
1
 10
179.332275391
 20
237.800720215
  0
VERTEX
  8
1
 10
178.167205811
 20
237.800720215
  0
VERTEX
  8
1
 10
177.002120972
 20
237.800720215
  0
VERTEX
  8
1
 10
175.837036133
 20
237.800720215
  0
VERTEX
  8
1
 10
174.671951294
 20
237.800720215
  0
VERTEX
  8
1
 10
173.506866455
 20
237.800720215
  0
VERTEX
  8
1
 10
172.341781616
 20
237.800720215
  0
VERTEX
  8
1
 10
171.176696777
 20
237.800720215
  0
VERTEX
  8
1
 10
170.011611938
 20
237.800720215
  0
VERTEX
  8
1
 10
168.846527100
 20
237.800720215
  0
VERTEX
  8
1
 10
167.681442261
 20
237.800720215
  0
VERTEX
  8
1
 10
166.516357422
 20
237.800720215
  0
VERTEX
  8
1
 10
165.351272583
 20
237.800720215
  0
VERTEX
  8
1
 10
164.186187744
 20
237.800720215
  0
VERTEX
  8
1
 10
163.021102905
 20
237.800720215
  0
VERTEX
  8
1
 10
161.856018066
 20
237.800720215
  0
VERTEX
  8
1
 10
160.690948486
 20
237.800720215
  0
VERTEX
  8
1
 10
159.525863647
 20
237.800720215
  0
VERTEX
  8
1
 10
158.360778809
 20
237.800720215
  0
VERTEX
  8
1
 10
157.195693970
 20
237.800720215
  0
VERTEX
  8
1
 10
156.030609131
 20
237.800720215
  0
VERTEX
  8
1
 10
154.865524292
 20
237.800720215
  0
VERTEX
  8
1
 10
153.700439453
 20
237.800720215
  0
VERTEX
  8
1
 10
152.535354614
 20
237.800720215
  0
VERTEX
  8
1
 10
151.370269775
 20
237.800720215
  0
VERTEX
  8
1
 10
150.205184937
 20
237.800720215
  0
VERTEX
  8
1
 10
149.040100098
 20
237.800720215
  0
VERTEX
  8
1
 10
147.875015259
 20
237.800720215
  0
VERTEX
  8
1
 10
146.709930420
 20
237.800720215
  0
VERTEX
  8
1
 10
145.544845581
 20
237.800720215
  0
VERTEX
  8
1
 10
144.379760742
 20
237.800720215
  0
VERTEX
  8
1
 10
143.214691162
 20
237.800720215
  0
SEQEND
  8
1
  0
POLYLINE
  8
1
 62
4
  6
CONTINUOUS
 66
1
  0
VERTEX
  8
1
 10
191.451440675
 20
206.827499322
  0
VERTEX
  8
1
 10
192.417388916
 20
205.050720215
  0
VERTEX
  8
1
 10
192.015256228
 20
207.032711461
  0
SEQEND
  8
1
  0
LINE
  8
1
 62
4
  6
CONTINUOUS
 10
83.896875041
 20
130.657423367
 11
88.946875077
 21
129.304279936
  0
LINE
  8
1
 62
4
  6
CONTINUOUS
 10
88.946875077
 20
128.657423377
 11
83.896875041
 21
127.304279945
  0
DIMENSION
  8
1
 62
4
  6
CONTINUOUS
  2
*D655
 70
5
 10
139.498807017
 20
215.050724638
 11
150.248807017
 21
212.170270819
 13
143.336639430
 23
195.766498214
 14
139.498807017
 24
199.034825736
 15
139.498807017
 25
193.550724638
  0
LINE
  8
1
 62
4
  6
CONTINUOUS
 10
88.946875077
 20
126.657423377
 11
83.896875041
 21
125.304279945
  0
LINE
  8
1
 62
4
  6
CONTINUOUS
 10
88.946875077
 20
123.304279936
 11
83.896875041
 21
124.657423367
  0
LINE
  8
1
 62
4
  6
CONTINUOUS
 10
83.896875041
 20
126.657423367
 11
88.946875077
 21
125.304279936
  0
TEXT
  8
1
 62
4
  6
CONTINUOUS
 72
5
 10
142.894042705
 20
238.820724638
 40
3.200000000
  1
Ｍ８Ｘ１．２５　深さ１０．５
 41
0.719276613
 11
180.974042705
 21
238.820724638
  0
TEXT
  8
1
 62
4
  6
CONTINUOUS
 72
5
 10
142.894042705
 20
233.720724638
 40
3.200000000
  1
φ１０座グリ　４．５
 41
0.719819331
 11
169.946350397
 21
233.720724638
  0
LINE
  8
1
 62
4
  6
CONTINUOUS
 10
83.896875041
 20
122.657423367
 11
88.946875077
 21
121.304279936
  0
DIMENSION
  8
1
 62
4
  6
CONTINUOUS
  2
*D661
 70
1
 10
351.367391304
 20
124.800724638
 11
351.367391304
 21
173.550724638
 14
225.417391304
 24
124.800724638
 13
225.417391304
 23
222.300724638
 50
90.000000000
  0
LINE
  8
1
 62
4
  6
CONTINUOUS
 10
88.946875077
 20
117.304279936
 11
83.896875041
 21
118.657423367
  0
POLYLINE
  8
1
 62
4
  6
CONTINUOUS
 66
1
  0
VERTEX
  8
1
 10
81.857704163
 20
85.100723267
  0
VERTEX
  8
1
 10
81.641197205
 20
85.475723267
  0
VERTEX
  8
1
 10
81.424690247
 20
85.850723267
  0
VERTEX
  8
1
 10
81.208183289
 20
86.225723267
  0
VERTEX
  8
1
 10
80.991676331
 20
86.600723267
  0
VERTEX
  8
1
 10
80.775169373
 20
86.975723267
  0
VERTEX
  8
1
 10
80.558670044
 20
87.350723267
  0
VERTEX
  8
1
 10
80.342163086
 20
87.725723267
  0
VERTEX
  8
1
 10
80.125656128
 20
88.100723267
  0
VERTEX
  8
1
 10
79.909149170
 20
88.475723267
  0
VERTEX
  8
1
 10
79.692642212
 20
88.850723267
  0
VERTEX
  8
1
 10
79.476135254
 20
89.225723267
  0
VERTEX
  8
1
 10
79.259628296
 20
89.600723267
  0
VERTEX
  8
1
 10
79.043121338
 20
89.975723267
  0
VERTEX
  8
1
 10
78.826614380
 20
90.350723267
  0
VERTEX
  8
1
 10
78.610107422
 20
90.725723267
  0
VERTEX
  8
1
 10
78.393600464
 20
91.100723267
  0
VERTEX
  8
1
 10
78.177093506
 20
91.475723267
  0
VERTEX
  8
1
 10
77.960586548
 20
91.850723267
  0
VERTEX
  8
1
 10
77.744087219
 20
92.225723267
  0
VERTEX
  8
1
 10
77.527580261
 20
92.600723267
  0
VERTEX
  8
1
 10
77.311073303
 20
92.975723267
  0
VERTEX
  8
1
 10
77.094566345
 20
93.350723267
  0
VERTEX
  8
1
 10
76.878059387
 20
93.725723267
  0
VERTEX
  8
1
 10
76.661552429
 20
94.100723267
  0
VERTEX
  8
1
 10
76.445045471
 20
94.475723267
  0
VERTEX
  8
1
 10
76.228538513
 20
94.850723267
  0
VERTEX
  8
1
 10
76.012031555
 20
95.225723267
  0
VERTEX
  8
1
 10
75.795524597
 20
95.600723267
  0
VERTEX
  8
1
 10
75.579017639
 20
95.975723267
  0
VERTEX
  8
1
 10
75.362510681
 20
96.350723267
  0
VERTEX
  8
1
 10
75.146003723
 20
96.725723267
  0
VERTEX
  8
1
 10
74.929504395
 20
97.100723267
  0
VERTEX
  8
1
 10
74.138999939
 20
97.100723267
  0
VERTEX
  8
1
 10
73.348503113
 20
97.100723267
  0
VERTEX
  8
1
 10
72.557998657
 20
97.100723267
  0
VERTEX
  8
1
 10
71.767501831
 20
97.100723267
  0
VERTEX
  8
1
 10
70.976997375
 20
97.100723267
  0
VERTEX
  8
1
 10
70.186500549
 20
97.100723267
  0
VERTEX
  8
1
 10
69.396003723
 20
97.100723267
  0
VERTEX
  8
1
 10
68.605499268
 20
97.100723267
  0
VERTEX
  8
1
 10
67.815002441
 20
97.100723267
  0
VERTEX
  8
1
 10
67.024497986
 20
97.100723267
  0
VERTEX
  8
1
 10
66.234001160
 20
97.100723267
  0
VERTEX
  8
1
 10
65.443504333
 20
97.100723267
  0
VERTEX
  8
1
 10
64.652999878
 20
97.100723267
  0
VERTEX
  8
1
 10
63.862503052
 20
97.100723267
  0
VERTEX
  8
1
 10
63.072002411
 20
97.100723267
  0
VERTEX
  8
1
 10
62.281501770
 20
97.100723267
  0
VERTEX
  8
1
 10
61.491001129
 20
97.100723267
  0
VERTEX
  8
1
 10
60.700500488
 20
97.100723267
  0
VERTEX
  8
1
 10
59.909999847
 20
97.100723267
  0
VERTEX
  8
1
 10
59.119503021
 20
97.100723267
  0
VERTEX
  8
1
 10
58.329002380
 20
97.100723267
  0
VERTEX
  8
1
 10
57.538501740
 20
97.100723267
  0
VERTEX
  8
1
 10
56.748001099
 20
97.100723267
  0
VERTEX
  8
1
 10
55.957500458
 20
97.100723267
  0
VERTEX
  8
1
 10
55.166999817
 20
97.100723267
  0
VERTEX
  8
1
 10
54.376502991
 20
97.100723267
  0
VERTEX
  8
1
 10
53.586002350
 20
97.100723267
  0
VERTEX
  8
1
 10
52.795501709
 20
97.100723267
  0
VERTEX
  8
1
 10
52.005001068
 20
97.100723267
  0
VERTEX
  8
1
 10
51.214500427
 20
97.100723267
  0
VERTEX
  8
1
 10
50.423999786
 20
97.100723267
  0
VERTEX
  8
1
 10
49.633502960
 20
97.100723267
  0
SEQEND
  8
1
  0
POLYLINE
  8
1
 62
4
  6
CONTINUOUS
 66
1
  0
VERTEX
  8
1
 10
80.597896884
 20
86.682774347
  0
VERTEX
  8
1
 10
81.857704163
 20
85.100723267
  0
VERTEX
  8
1
 10
81.117512191
 20
86.982774234
  0
SEQEND
  8
1
  0
LINE
  8
1
 62
4
  6
CONTINUOUS
 10
83.896875041
 20
120.657423367
 11
88.946875077
 21
119.304279936
  0
TEXT
  8
1
 62
4
  6
CONTINUOUS
 72
5
 10
49.633501176
 20
98.120724638
 40
3.200000000
  1
φ４エア－ホース
 41
0.836062240
 11
74.633501176
 21
98.120724638
  0
LINE
  8
1
 62
4
  6
CONTINUOUS
 10
83.896875041
 20
116.657423367
 11
88.946875077
 21
115.304279936
  0
TEXT
  8
1
 62
3
  6
CONTINUOUS
 72
5
 10
195.152513482
 20
58.266724638
 40
4.000000000
  1
ＨＥＳ５１０－ＩＴ５０
 41
0.834337629
 11
238.352513482
 21
58.266724638
  0
LINE
  8
1
 62
4
  6
CONTINUOUS
 10
83.896875041
 20
114.657423367
 11
87.653925848
 21
113.650724637
  0
POLYLINE
  8
1
 62
4
  6
CONTINUOUS
 66
1
  0
VERTEX
  8
1
 10
61.573749542
 20
56.250724792
  0
VERTEX
  8
1
 10
61.844379425
 20
55.781974792
  0
VERTEX
  8
1
 10
62.115013123
 20
55.313224792
  0
VERTEX
  8
1
 10
62.385646820
 20
54.844474792
  0
VERTEX
  8
1
 10
62.656280518
 20
54.375724792
  0
VERTEX
  8
1
 10
62.926914215
 20
53.906974792
  0
VERTEX
  8
1
 10
63.197544098
 20
53.438224792
  0
VERTEX
  8
1
 10
63.468177795
 20
52.969474792
  0
VERTEX
  8
1
 10
63.738811493
 20
52.500724792
  0
VERTEX
  8
1
 10
64.009445190
 20
52.031974792
  0
VERTEX
  8
1
 10
64.280075073
 20
51.563224792
  0
VERTEX
  8
1
 10
64.550712585
 20
51.094474792
  0
VERTEX
  8
1
 10
64.821342468
 20
50.625724792
  0
VERTEX
  8
1
 10
65.091979980
 20
50.156974792
  0
VERTEX
  8
1
 10
65.362609863
 20
49.688224792
  0
VERTEX
  8
1
 10
65.633239746
 20
49.219474792
  0
VERTEX
  8
1
 10
65.903877258
 20
48.750724792
  0
VERTEX
  8
1
 10
66.174507141
 20
48.281974792
  0
VERTEX
  8
1
 10
66.445144653
 20
47.813224792
  0
VERTEX
  8
1
 10
66.715774536
 20
47.344474792
  0
VERTEX
  8
1
 10
66.986404419
 20
46.875724792
  0
VERTEX
  8
1
 10
67.257041931
 20
46.406974792
  0
VERTEX
  8
1
 10
67.527671814
 20
45.938224792
  0
VERTEX
  8
1
 10
67.798309326
 20
45.469474792
  0
VERTEX
  8
1
 10
68.068939209
 20
45.000724792
  0
VERTEX
  8
1
 10
68.339569092
 20
44.531974792
  0
VERTEX
  8
1
 10
68.610206604
 20
44.063224792
  0
VERTEX
  8
1
 10
68.880836487
 20
43.594474792
  0
VERTEX
  8
1
 10
69.151473999
 20
43.125724792
  0
VERTEX
  8
1
 10
69.422103882
 20
42.656974792
  0
VERTEX
  8
1
 10
69.692733765
 20
42.188224792
  0
VERTEX
  8
1
 10
69.963371277
 20
41.719474792
  0
VERTEX
  8
1
 10
70.234001160
 20
41.250724792
  0
VERTEX
  8
1
 10
71.024505615
 20
41.250724792
  0
VERTEX
  8
1
 10
71.815002441
 20
41.250724792
  0
VERTEX
  8
1
 10
72.605499268
 20
41.250724792
  0
VERTEX
  8
1
 10
73.396003723
 20
41.250724792
  0
VERTEX
  8
1
 10
74.186500549
 20
41.250724792
  0
VERTEX
  8
1
 10
74.977005005
 20
41.250724792
  0
VERTEX
  8
1
 10
75.767501831
 20
41.250724792
  0
VERTEX
  8
1
 10
76.557998657
 20
41.250724792
  0
VERTEX
  8
1
 10
77.348503113
 20
41.250724792
  0
VERTEX
  8
1
 10
78.138999939
 20
41.250724792
  0
VERTEX
  8
1
 10
78.929504395
 20
41.250724792
  0
VERTEX
  8
1
 10
79.720001221
 20
41.250724792
  0
VERTEX
  8
1
 10
80.510505676
 20
41.250724792
  0
VERTEX
  8
1
 10
81.301002502
 20
41.250724792
  0
VERTEX
  8
1
 10
82.091499329
 20
41.250724792
  0
VERTEX
  8
1
 10
82.882003784
 20
41.250724792
  0
VERTEX
  8
1
 10
83.672500610
 20
41.250724792
  0
VERTEX
  8
1
 10
84.463005066
 20
41.250724792
  0
VERTEX
  8
1
 10
85.253501892
 20
41.250724792
  0
VERTEX
  8
1
 10
86.043998718
 20
41.250724792
  0
VERTEX
  8
1
 10
86.834503174
 20
41.250724792
  0
VERTEX
  8
1
 10
87.625000000
 20
41.250724792
  0
VERTEX
  8
1
 10
88.415504456
 20
41.250724792
  0
VERTEX
  8
1
 10
89.206001282
 20
41.250724792
  0
VERTEX
  8
1
 10
89.996505737
 20
41.250724792
  0
VERTEX
  8
1
 10
90.787002563
 20
41.250724792
  0
VERTEX
  8
1
 10
91.577499390
 20
41.250724792
  0
VERTEX
  8
1
 10
92.368003845
 20
41.250724792
  0
VERTEX
  8
1
 10
93.158500671
 20
41.250724792
  0
VERTEX
  8
1
 10
93.949005127
 20
41.250724792
  0
VERTEX
  8
1
 10
94.739501953
 20
41.250724792
  0
VERTEX
  8
1
 10
95.529998779
 20
41.250724792
  0
SEQEND
  8
1
  0
POLYLINE
  8
1
 62
4
  6
CONTINUOUS
 66
1
  0
VERTEX
  8
1
 10
62.833556972
 20
54.668673832
  0
VERTEX
  8
1
 10
61.573749542
 20
56.250724792
  0
VERTEX
  8
1
 10
62.313941693
 20
54.368673895
  0
SEQEND
  8
1
  0
LINE
  8
1
 62
4
  6
CONTINUOUS
 10
88.946875077
 20
124.657423377
 11
83.896875041
 21
123.304279945
  0
TEXT
  8
1
 62
4
  6
CONTINUOUS
 72
5
 10
70.234002407
 20
42.270724638
 40
3.200000000
  1
非常用コネクター
 41
0.836062240
 11
95.234002407
 21
42.270724638
  0
LINE
  8
1
 62
4
  6
CONTINUOUS
 10
88.946875077
 20
122.657423377
 11
83.896875041
 21
121.304279945
  0
DIMENSION
  8
1
 62
4
  6
CONTINUOUS
  2
*D673
 70
1
 10
33.945888689
 20
158.750724638
 11
33.945888689
 21
173.550724638
 14
69.617391304
 24
158.750724638
 13
69.617391304
 23
188.350724638
 50
90.000000000
  0
ENDSEC
  0
EOF
