  0
SECTION
  2
HEADER
  9
$ACADVER
  1
AC1009
  9
$INSBASE
 10
0.000000000
 20
0.000000000
  9
$EXTMIN
 10
-33.786521739
 20
-28.027536232
  9
$EXTMAX
 10
371.651739130
 20
308.302898551
  9
$LIMMIN
 10
-33.786521739
 20
-28.027536232
  9
$LIMMAX
 10
371.651739130
 20
308.302898551
  9
$SNAPBASE
 10
0.000000000
 20
0.000000000
  9
$SNAPANG
 50
0.000000000
  9
$SNAPSTYLE
 70
0
  9
$GRIDMODE
 70
0
  9
$GRIDUNIT
 10
0.000000000
 20
0.000000000
  9
$DIMEXO
 40
0.000000000
  9
$DIMDLI
 40
8.000000000
  9
$DIMDLE
 40
0.000000000
  9
$DIMEXE
 40
1.000000000
  9
$DIMTIH
 70
1
  9
$DIMTOH
 70
1
  9
$DIMTAD
 70
2
  9
$DIMZIN
 70
0
  9
$FILLETRAD
 40
1.000000000
  9
$CHAMFERA
 40
1.000000000
  9
$CHAMFERB
 40
1.000000000
  9
$TDCREATE
 40
2454182.600150463
  9
$TDUPDATE
 40
2454182.600150463
  9
$ANGBASE
 50
0.000000000
  9
$ANGDIR
 70
0
  0
ENDSEC
  0
SECTION
  2
TABLES
  0
TABLE
  2
LTYPE
 70
4
  0
LTYPE
  2
CENTER
 70
64
  3
___ _ ___ _ __
 72
65
 73
4
 40
13.000000000
 49
8.500000000
 49
-1.500000000
 49
1.500000000
 49
-1.500000000
  0
LTYPE
  2
CONTINUOUS
 70
64
  3
______________
 72
65
 73
0
 40
0.000000000
  0
LTYPE
  2
DASHED
 70
64
  3
___ ___ ___ __
 72
65
 73
2
 40
5.000000119
 49
3.400000095
 49
-1.600000024
  0
LTYPE
  2
DIVIDE
 70
64
  3
___ . . ___ . 
 72
65
 73
6
 40
12.999999523
 49
5.199999809
 49
-2.599999905
 49
0.000000000
 49
-2.599999905
 49
0.000000000
 49
-2.599999905
  0
ENDTAB
  0
TABLE
  2
LAYER
 70
2
  0
LAYER
  2
1
 70
0
 62
7
  6
CONTINUOUS
  0
LAYER
  2
15
 70
0
 62
5
  6
CONTINUOUS
999
ﾁｬｯｸ
  0
LAYER
  2
_CONSTR
 70
0
 62
5
  6
CONTINUOUS
  0
ENDTAB
  0
TABLE
  2
STYLE
 70
1
  0
STYLE
  2
STANDARD
 70
64
 40
0.000000000
 41
1.000000000
 50
0.000000000
 71
0
 42
3.200000000
  3
TXT
  4
EXTFONT
  0
ENDTAB
  0
TABLE
  2
VIEW
 70
0
  0
ENDTAB
  0
ENDSEC
  0
SECTION
  2
BLOCKS
  0
BLOCK
  8
0
  2
*D108
 70
65
 10
0.000000000
 20
0.000000000
  3
*D
  0
TEXT
  8
1
 62
4
  6
CONTINUOUS
 72
5
 10
74.688714776
 20
192.143762319
 40
2.800000000
  1
φ
 41
1.270648030
 50
90.000000000
 11
74.688714776
 21
195.503762319
  0
TEXT
  8
1
 62
4
  6
CONTINUOUS
 72
5
 10
74.688714776
 20
197.183762319
 40
2.800000000
  1
44.5
 41
1.099999267
 50
90.000000000
 11
74.688714776
 21
206.423762319
  0
LINE
  8
1
 62
4
  6
CONTINUOUS
 10
127.415217391
 20
221.525362308
 11
74.893714776
 21
221.525362308
  0
POLYLINE
  8
1
 62
4
  6
CONTINUOUS
 66
1
  0
VERTEX
  8
1
 10
77.193714776
 20
219.525362308
  0
VERTEX
  8
1
 10
76.893714776
 20
221.525362308
  0
VERTEX
  8
1
 10
76.593714776
 20
219.525362308
  0
SEQEND
  8
1
  0
LINE
  8
1
 62
4
  6
CONTINUOUS
 10
76.893714776
 20
221.525362308
 11
76.893714776
 21
177.025362329
  0
POLYLINE
  8
1
 62
4
  6
CONTINUOUS
 66
1
  0
VERTEX
  8
1
 10
76.593714776
 20
179.025362329
  0
VERTEX
  8
1
 10
76.893714776
 20
177.025362329
  0
VERTEX
  8
1
 10
77.193714776
 20
179.025362329
  0
SEQEND
  8
1
  0
LINE
  8
1
 62
4
  6
CONTINUOUS
 10
127.415217391
 20
177.025362329
 11
74.893714776
 21
177.025362329
  0
ENDBLK
  8
0
  0
BLOCK
  8
0
  2
*D109
 70
65
 10
0.000000000
 20
0.000000000
  3
*D
  0
TEXT
  8
1
 62
4
  6
CONTINUOUS
 72
5
 10
82.688714776
 20
192.143762319
 40
2.800000000
  1
φ
 41
1.270648030
 50
90.000000000
 11
82.688714776
 21
195.503762319
  0
TEXT
  8
1
 62
4
  6
CONTINUOUS
 72
5
 10
82.688714776
 20
197.183762319
 40
2.800000000
  1
11.8
 41
1.414284098
 50
90.000000000
 11
82.688714776
 21
206.423762319
  0
LINE
  8
1
 62
4
  6
CONTINUOUS
 10
106.452560503
 20
205.175362319
 11
82.893714776
 21
205.175362319
  0
POLYLINE
  8
1
 62
4
  6
CONTINUOUS
 66
1
  0
VERTEX
  8
1
 10
85.193714776
 20
203.175362319
  0
VERTEX
  8
1
 10
84.893714776
 20
205.175362319
  0
VERTEX
  8
1
 10
84.593714776
 20
203.175362319
  0
SEQEND
  8
1
  0
LINE
  8
1
 62
4
  6
CONTINUOUS
 10
84.893714776
 20
205.175362319
 11
84.893714776
 21
193.375362319
  0
POLYLINE
  8
1
 62
4
  6
CONTINUOUS
 66
1
  0
VERTEX
  8
1
 10
84.593714776
 20
195.375362319
  0
VERTEX
  8
1
 10
84.893714776
 20
193.375362319
  0
VERTEX
  8
1
 10
85.193714776
 20
195.375362319
  0
SEQEND
  8
1
  0
LINE
  8
1
 62
4
  6
CONTINUOUS
 10
106.452560503
 20
193.375362319
 11
82.893714776
 21
193.375362319
  0
ENDBLK
  8
0
  0
BLOCK
  8
0
  2
*D118
 70
65
 10
0.000000000
 20
0.000000000
  3
*D
  0
TEXT
  8
1
 62
4
  6
CONTINUOUS
 72
5
 10
117.992696242
 20
258.480362319
 40
2.800000000
  1
(
 41
1.800001800
 11
119.672696242
 21
258.480362319
  0
TEXT
  8
1
 62
4
  6
CONTINUOUS
 72
5
 10
120.512696242
 20
258.480362319
 40
2.800000000
  1
9.9
 41
1.199998800
 11
127.232696242
 21
258.480362319
  0
TEXT
  8
1
 62
4
  6
CONTINUOUS
 72
5
 10
128.072696242
 20
258.480362319
 40
2.800000000
  1
)
 41
1.800001800
 11
129.752696242
 21
258.480362319
  0
LINE
  8
1
 62
4
  6
CONTINUOUS
 10
117.565217391
 20
211.775362319
 11
117.565217391
 21
258.275362319
  0
POLYLINE
  8
1
 62
4
  6
CONTINUOUS
 66
1
  0
VERTEX
  8
1
 10
115.565217391
 20
256.575362319
  0
VERTEX
  8
1
 10
117.565217391
 20
256.275362319
  0
SEQEND
  8
1
  0
POLYLINE
  8
1
 62
4
  6
CONTINUOUS
 66
1
  0
VERTEX
  8
1
 10
114.565217391
 20
256.275362319
  0
VERTEX
  8
1
 10
117.565217391
 20
256.275362319
  0
VERTEX
  8
1
 10
115.565217391
 20
255.975362319
  0
SEQEND
  8
1
  0
LINE
  8
1
 62
4
  6
CONTINUOUS
 10
117.565217391
 20
256.275362319
 11
127.415217391
 21
256.275362319
  0
POLYLINE
  8
1
 62
4
  6
CONTINUOUS
 66
1
  0
VERTEX
  8
1
 10
129.415217391
 20
255.975362319
  0
VERTEX
  8
1
 10
127.415217391
 20
256.275362319
  0
SEQEND
  8
1
  0
POLYLINE
  8
1
 62
4
  6
CONTINUOUS
 66
1
  0
VERTEX
  8
1
 10
130.415217391
 20
256.275362319
  0
VERTEX
  8
1
 10
127.415217391
 20
256.275362319
  0
VERTEX
  8
1
 10
129.415217391
 20
256.575362319
  0
SEQEND
  8
1
  0
LINE
  8
1
 62
4
  6
CONTINUOUS
 10
127.415217391
 20
221.525362308
 11
127.415217391
 21
258.275362319
  0
ENDBLK
  8
0
  0
BLOCK
  8
0
  2
*D160
 70
65
 10
0.000000000
 20
0.000000000
  3
*D
  0
TEXT
  8
1
 62
4
  6
CONTINUOUS
 72
5
 10
159.683617391
 20
274.480362319
 40
2.800000000
  1
(
 41
1.800001800
 11
161.363617391
 21
274.480362319
  0
TEXT
  8
1
 62
4
  6
CONTINUOUS
 72
5
 10
162.203617391
 20
274.480362319
 40
2.800000000
  1
98.5
 41
1.099999267
 11
171.443617391
 21
274.480362319
  0
TEXT
  8
1
 62
4
  6
CONTINUOUS
 72
5
 10
172.283617391
 20
274.480362319
 40
2.800000000
  1
)
 41
1.800001800
 11
173.963617391
 21
274.480362319
  0
LINE
  8
1
 62
4
  6
CONTINUOUS
 10
117.565217391
 20
211.775362319
 11
117.565217391
 21
274.275362319
  0
POLYLINE
  8
1
 62
4
  6
CONTINUOUS
 66
1
  0
VERTEX
  8
1
 10
119.565217391
 20
272.575362319
  0
VERTEX
  8
1
 10
117.565217391
 20
272.275362319
  0
VERTEX
  8
1
 10
119.565217391
 20
271.975362319
  0
SEQEND
  8
1
  0
LINE
  8
1
 62
4
  6
CONTINUOUS
 10
117.565217391
 20
272.275362319
 11
216.065217391
 21
272.275362319
  0
POLYLINE
  8
1
 62
4
  6
CONTINUOUS
 66
1
  0
VERTEX
  8
1
 10
214.065217391
 20
271.975362319
  0
VERTEX
  8
1
 10
216.065217391
 20
272.275362319
  0
VERTEX
  8
1
 10
214.065217391
 20
272.575362319
  0
SEQEND
  8
1
  0
LINE
  8
1
 62
4
  6
CONTINUOUS
 10
216.065217391
 20
234.200362319
 11
216.065217391
 21
274.275362319
  0
ENDBLK
  8
0
  0
BLOCK
  8
0
  2
*D167
 70
65
 10
0.000000000
 20
0.000000000
  3
*D
  0
TEXT
  8
1
 62
4
  6
CONTINUOUS
 72
5
 10
155.703617391
 20
266.480362319
 40
2.800000000
  1
17.5
 41
1.237498917
 11
164.943617391
 21
266.480362319
  0
POLYLINE
  8
1
 62
4
  6
CONTINUOUS
 66
1
  0
VERTEX
  8
1
 10
153.565217391
 20
264.575362319
  0
VERTEX
  8
1
 10
151.565217391
 20
264.275362319
  0
VERTEX
  8
1
 10
153.565217391
 20
263.975362319
  0
SEQEND
  8
1
  0
LINE
  8
1
 62
4
  6
CONTINUOUS
 10
151.565217391
 20
264.275362319
 11
169.065217391
 21
264.275362319
  0
POLYLINE
  8
1
 62
4
  6
CONTINUOUS
 66
1
  0
VERTEX
  8
1
 10
167.065217391
 20
263.975362319
  0
VERTEX
  8
1
 10
169.065217391
 20
264.275362319
  0
VERTEX
  8
1
 10
167.065217391
 20
264.575362319
  0
SEQEND
  8
1
  0
LINE
  8
1
 62
4
  6
CONTINUOUS
 10
169.065217391
 20
223.525362319
 11
169.065217391
 21
266.275362319
  0
ENDBLK
  8
0
  0
BLOCK
  8
0
  2
*D168
 70
65
 10
0.000000000
 20
0.000000000
  3
*D
  0
TEXT
  8
1
 62
4
  6
CONTINUOUS
 72
5
 10
129.953617391
 20
266.480362319
 40
2.800000000
  1
(
 41
1.800001800
 11
131.633617391
 21
266.480362319
  0
TEXT
  8
1
 62
4
  6
CONTINUOUS
 72
5
 10
132.473617391
 20
266.480362319
 40
2.800000000
  1
34
 41
0.899998740
 11
136.673617391
 21
266.480362319
  0
TEXT
  8
1
 62
4
  6
CONTINUOUS
 72
5
 10
137.513617391
 20
266.480362319
 40
2.800000000
  1
)
 41
1.800001800
 11
139.193617391
 21
266.480362319
  0
LINE
  8
1
 62
4
  6
CONTINUOUS
 10
117.565217391
 20
211.775362319
 11
117.565217391
 21
266.275362319
  0
POLYLINE
  8
1
 62
4
  6
CONTINUOUS
 66
1
  0
VERTEX
  8
1
 10
119.565217391
 20
264.575362319
  0
VERTEX
  8
1
 10
117.565217391
 20
264.275362319
  0
VERTEX
  8
1
 10
119.565217391
 20
263.975362319
  0
SEQEND
  8
1
  0
LINE
  8
1
 62
4
  6
CONTINUOUS
 10
117.565217391
 20
264.275362319
 11
151.565217391
 21
264.275362319
  0
POLYLINE
  8
1
 62
4
  6
CONTINUOUS
 66
1
  0
VERTEX
  8
1
 10
149.565217391
 20
263.975362319
  0
VERTEX
  8
1
 10
151.565217391
 20
264.275362319
  0
VERTEX
  8
1
 10
149.565217391
 20
264.575362319
  0
SEQEND
  8
1
  0
LINE
  8
1
 62
4
  6
CONTINUOUS
 10
151.565217391
 20
221.525362319
 11
151.565217391
 21
266.275362319
  0
ENDBLK
  8
0
  0
BLOCK
  8
0
  2
*D169
 70
65
 10
0.000000000
 20
0.000000000
  3
*D
  0
TEXT
  8
1
 62
4
  6
CONTINUOUS
 72
5
 10
261.093617391
 20
274.480362319
 40
2.800000000
  1
101.8
 41
1.326314812
 11
272.853617391
 21
274.480362319
  0
POLYLINE
  8
1
 62
4
  6
CONTINUOUS
 66
1
  0
VERTEX
  8
1
 10
218.065217391
 20
272.575362319
  0
VERTEX
  8
1
 10
216.065217391
 20
272.275362319
  0
VERTEX
  8
1
 10
218.065217391
 20
271.975362319
  0
SEQEND
  8
1
  0
LINE
  8
1
 62
4
  6
CONTINUOUS
 10
216.065217391
 20
272.275362319
 11
317.865217391
 21
272.275362319
  0
POLYLINE
  8
1
 62
4
  6
CONTINUOUS
 66
1
  0
VERTEX
  8
1
 10
315.865217391
 20
271.975362319
  0
VERTEX
  8
1
 10
317.865217391
 20
272.275362319
  0
VERTEX
  8
1
 10
315.865217391
 20
272.575362319
  0
SEQEND
  8
1
  0
LINE
  8
1
 62
4
  6
CONTINUOUS
 10
317.865217391
 20
218.460863040
 11
317.865217391
 21
274.275362319
  0
ENDBLK
  8
0
  0
BLOCK
  8
0
  2
*D170
 70
65
 10
0.000000000
 20
0.000000000
  3
*D
  0
TEXT
  8
1
 62
4
  6
CONTINUOUS
 72
5
 10
209.323617391
 20
282.480362319
 40
2.800000000
  1
(
 41
1.800001800
 11
211.003617391
 21
282.480362319
  0
TEXT
  8
1
 62
4
  6
CONTINUOUS
 72
5
 10
211.843617391
 20
282.480362319
 40
2.800000000
  1
200.3
 41
1.145454129
 11
223.603617391
 21
282.480362319
  0
TEXT
  8
1
 62
4
  6
CONTINUOUS
 72
5
 10
224.443617391
 20
282.480362319
 40
2.800000000
  1
)
 41
1.800001800
 11
226.123617391
 21
282.480362319
  0
POLYLINE
  8
1
 62
4
  6
CONTINUOUS
 66
1
  0
VERTEX
  8
1
 10
119.565217391
 20
280.575362319
  0
VERTEX
  8
1
 10
117.565217391
 20
280.275362319
  0
VERTEX
  8
1
 10
119.565217391
 20
279.975362319
  0
SEQEND
  8
1
  0
LINE
  8
1
 62
4
  6
CONTINUOUS
 10
117.565217391
 20
280.275362319
 11
317.865217391
 21
280.275362319
  0
POLYLINE
  8
1
 62
4
  6
CONTINUOUS
 66
1
  0
VERTEX
  8
1
 10
315.865217391
 20
279.975362319
  0
VERTEX
  8
1
 10
317.865217391
 20
280.275362319
  0
VERTEX
  8
1
 10
315.865217391
 20
280.575362319
  0
SEQEND
  8
1
  0
LINE
  8
1
 62
4
  6
CONTINUOUS
 10
317.865217391
 20
218.460863040
 11
317.865217391
 21
282.275362319
  0
ENDBLK
  8
0
  0
BLOCK
  8
0
  2
*D171
 70
65
 10
0.000000000
 20
0.000000000
  3
*D
  0
TEXT
  8
1
 62
4
  6
CONTINUOUS
 72
5
 10
103.097866084
 20
282.480362319
 40
2.800000000
  1
(
 41
1.800001800
 11
104.777866084
 21
282.480362319
  0
TEXT
  8
1
 62
4
  6
CONTINUOUS
 72
5
 10
105.617866084
 20
282.480362319
 40
2.800000000
  1
14.7
 41
1.237498917
 11
114.857866084
 21
282.480362319
  0
TEXT
  8
1
 62
4
  6
CONTINUOUS
 72
5
 10
115.697866084
 20
282.480362319
 40
2.800000000
  1
)
 41
1.800001800
 11
117.377866084
 21
282.480362319
  0
LINE
  8
1
 62
4
  6
CONTINUOUS
 10
102.893714776
 20
202.698012050
 11
102.893714776
 21
282.275362319
  0
POLYLINE
  8
1
 62
4
  6
CONTINUOUS
 66
1
  0
VERTEX
  8
1
 10
104.893714776
 20
280.575362319
  0
VERTEX
  8
1
 10
102.893714776
 20
280.275362319
  0
VERTEX
  8
1
 10
104.893714776
 20
279.975362319
  0
SEQEND
  8
1
  0
LINE
  8
1
 62
4
  6
CONTINUOUS
 10
102.893714776
 20
280.275362319
 11
117.565217391
 21
280.275362319
  0
POLYLINE
  8
1
 62
4
  6
CONTINUOUS
 66
1
  0
VERTEX
  8
1
 10
115.565217391
 20
279.975362319
  0
VERTEX
  8
1
 10
117.565217391
 20
280.275362319
  0
VERTEX
  8
1
 10
115.565217391
 20
280.575362319
  0
SEQEND
  8
1
  0
LINE
  8
1
 62
4
  6
CONTINUOUS
 10
117.565217391
 20
211.775362319
 11
117.565217391
 21
282.275362319
  0
ENDBLK
  8
0
  0
BLOCK
  8
0
  2
*D172
 70
65
 10
0.000000000
 20
0.000000000
  3
*D
  0
TEXT
  8
1
 62
4
  6
CONTINUOUS
 72
5
 10
335.660217391
 20
193.403762319
 40
2.800000000
  1
φ
 41
1.270648030
 50
90.000000000
 11
335.660217391
 21
196.763762319
  0
TEXT
  8
1
 62
4
  6
CONTINUOUS
 72
5
 10
335.660217391
 20
198.443762319
 40
2.800000000
  1
100
 41
1.200000600
 50
90.000000000
 11
335.660217391
 21
205.163762319
  0
LINE
  8
1
 62
4
  6
CONTINUOUS
 10
212.065217391
 20
249.275362319
 11
339.865217391
 21
249.275362319
  0
POLYLINE
  8
1
 62
4
  6
CONTINUOUS
 66
1
  0
VERTEX
  8
1
 10
338.165217391
 20
247.275362319
  0
VERTEX
  8
1
 10
337.865217391
 20
249.275362319
  0
VERTEX
  8
1
 10
337.565217391
 20
247.275362319
  0
SEQEND
  8
1
  0
LINE
  8
1
 62
4
  6
CONTINUOUS
 10
337.865217391
 20
249.275362319
 11
337.865217391
 21
149.275362319
  0
POLYLINE
  8
1
 62
4
  6
CONTINUOUS
 66
1
  0
VERTEX
  8
1
 10
337.565217391
 20
151.275362319
  0
VERTEX
  8
1
 10
337.865217391
 20
149.275362319
  0
VERTEX
  8
1
 10
338.165217391
 20
151.275362319
  0
SEQEND
  8
1
  0
LINE
  8
1
 62
4
  6
CONTINUOUS
 10
212.065217391
 20
149.275362319
 11
339.865217391
 21
149.275362319
  0
ENDBLK
  8
0
  0
BLOCK
  8
0
  2
*D176
 70
65
 10
0.000000000
 20
0.000000000
  3
*D
  0
TEXT
  8
1
 62
4
  6
CONTINUOUS
 72
5
 10
66.688714776
 20
192.143762319
 40
2.800000000
  1
φ
 41
1.270648030
 50
90.000000000
 11
66.688714776
 21
195.503762319
  0
TEXT
  8
1
 62
4
  6
CONTINUOUS
 72
5
 10
66.688714776
 20
197.183762319
 40
2.800000000
  1
49.5
 41
1.099999267
 50
90.000000000
 11
66.688714776
 21
206.423762319
  0
LINE
  8
1
 62
4
  6
CONTINUOUS
 10
153.008593064
 20
224.025362319
 11
66.893714776
 21
224.025362319
  0
POLYLINE
  8
1
 62
4
  6
CONTINUOUS
 66
1
  0
VERTEX
  8
1
 10
69.193714776
 20
222.025362319
  0
VERTEX
  8
1
 10
68.893714776
 20
224.025362319
  0
VERTEX
  8
1
 10
68.593714776
 20
222.025362319
  0
SEQEND
  8
1
  0
LINE
  8
1
 62
4
  6
CONTINUOUS
 10
68.893714776
 20
224.025362319
 11
68.893714776
 21
174.525362319
  0
POLYLINE
  8
1
 62
4
  6
CONTINUOUS
 66
1
  0
VERTEX
  8
1
 10
68.593714776
 20
176.525362319
  0
VERTEX
  8
1
 10
68.893714776
 20
174.525362319
  0
VERTEX
  8
1
 10
69.193714776
 20
176.525362319
  0
SEQEND
  8
1
  0
LINE
  8
1
 62
4
  6
CONTINUOUS
 10
153.008593064
 20
174.525362319
 11
66.893714776
 21
174.525362319
  0
ENDBLK
  8
0
  0
BLOCK
  8
0
  2
*D177
 70
65
 10
0.000000000
 20
0.000000000
  3
*D
  0
TEXT
  8
1
 62
4
  6
CONTINUOUS
 72
5
 10
207.963617391
 20
266.480362319
 40
2.800000000
  1
9.5
 41
1.199998800
 11
214.683617391
 21
266.480362319
  0
LINE
  8
1
 62
4
  6
CONTINUOUS
 10
216.065217391
 20
234.200362319
 11
216.065217391
 21
266.275362319
  0
POLYLINE
  8
1
 62
4
  6
CONTINUOUS
 66
1
  0
VERTEX
  8
1
 10
218.065217391
 20
263.975362319
  0
VERTEX
  8
1
 10
216.065217391
 20
264.275362319
  0
SEQEND
  8
1
  0
POLYLINE
  8
1
 62
4
  6
CONTINUOUS
 66
1
  0
VERTEX
  8
1
 10
219.065217391
 20
264.275362319
  0
VERTEX
  8
1
 10
216.065217391
 20
264.275362319
  0
VERTEX
  8
1
 10
218.065217391
 20
264.575362319
  0
SEQEND
  8
1
  0
LINE
  8
1
 62
4
  6
CONTINUOUS
 10
216.065217391
 20
264.275362319
 11
206.565217391
 21
264.275362319
  0
POLYLINE
  8
1
 62
4
  6
CONTINUOUS
 66
1
  0
VERTEX
  8
1
 10
204.565217391
 20
264.575362319
  0
VERTEX
  8
1
 10
206.565217391
 20
264.275362319
  0
SEQEND
  8
1
  0
POLYLINE
  8
1
 62
4
  6
CONTINUOUS
 66
1
  0
VERTEX
  8
1
 10
203.565217391
 20
264.275362319
  0
VERTEX
  8
1
 10
206.565217391
 20
264.275362319
  0
VERTEX
  8
1
 10
204.565217391
 20
263.975362319
  0
SEQEND
  8
1
  0
LINE
  8
1
 62
4
  6
CONTINUOUS
 10
206.565217391
 20
251.275362319
 11
206.565217391
 21
266.275362319
  0
ENDBLK
  8
0
  0
ENDSEC
  0
SECTION
  2
ENTITIES
  0
LINE
  8
1
 62
1
  6
CENTER
 10
90.893714776
 20
199.275362319
 11
320.865217391
 21
199.275362319
  0
LINE
  8
1
 62
7
  6
CONTINUOUS
 10
125.865217391
 20
178.475362319
 11
126.065217391
 21
178.475362319
  0
LINE
  8
1
 62
7
  6
CONTINUOUS
 10
127.415217391
 20
221.525362308
 11
147.065217391
 21
221.525362308
  0
LINE
  8
1
 62
7
  6
CONTINUOUS
 10
126.165217391
 20
220.275362308
 11
127.415217391
 21
221.525362308
  0
ARC
  8
1
 62
7
  6
CONTINUOUS
 10
106.452560503
 20
194.375362319
 40
1.000000000
 50
240.000000000
 51
270.000000000
  0
LINE
  8
1
 62
4
  6
CONTINUOUS
 10
115.065217391
 20
201.336915132
 11
117.565217391
 21
197.213809506
  0
LINE
  8
1
 62
7
  6
CONTINUOUS
 10
117.565217391
 20
186.775362319
 11
125.865217391
 21
178.475362319
  0
LINE
  8
1
 62
4
  6
CONTINUOUS
 10
117.565217391
 20
201.336915132
 11
115.065217391
 21
197.213809506
  0
LINE
  8
1
 62
7
  6
CONTINUOUS
 10
115.065217391
 20
194.775362319
 11
115.065217391
 21
203.775362319
  0
LINE
  8
1
 62
7
  6
CONTINUOUS
 10
115.065217391
 20
201.336915132
 11
117.565217391
 21
201.336915132
  0
LINE
  8
1
 62
7
  6
CONTINUOUS
 10
114.393714776
 20
194.575362319
 11
114.865217391
 21
194.575362319
  0
LINE
  8
1
 62
7
  6
CONTINUOUS
 10
126.065217391
 20
220.075362319
 11
126.065217391
 21
178.475362319
  0
LINE
  8
1
 62
7
  6
CONTINUOUS
 10
106.743714776
 20
193.375362319
 11
106.452560503
 21
193.375362319
  0
LINE
  8
1
 62
7
  6
CONTINUOUS
 10
117.565217391
 20
186.775362319
 11
117.565217391
 21
211.775362319
  0
LINE
  8
1
 62
7
  6
CONTINUOUS
 10
117.565217391
 20
211.775362319
 11
125.865217391
 21
220.075362319
  0
LINE
  8
1
 62
7
  6
CONTINUOUS
 10
125.865217391
 20
220.075362319
 11
125.865217391
 21
178.475362319
  0
LINE
  8
1
 62
7
  6
CONTINUOUS
 10
125.865217391
 20
220.075362319
 11
126.065217391
 21
220.075362319
  0
LINE
  8
1
 62
7
  6
CONTINUOUS
 10
117.565217391
 20
194.775362319
 11
115.065217391
 21
194.775362319
  0
LINE
  8
1
 62
7
  6
CONTINUOUS
 10
106.743714776
 20
205.175362319
 11
106.893714776
 21
205.025362319
  0
LINE
  8
1
 62
7
  6
CONTINUOUS
 10
106.893714776
 20
204.775362319
 11
109.893714776
 21
204.775362319
  0
LINE
  8
1
 62
7
  6
CONTINUOUS
 10
114.865217391
 20
194.575362319
 11
114.865217391
 21
203.975362319
  0
LINE
  8
1
 62
7
  6
CONTINUOUS
 10
114.393714776
 20
204.375362319
 11
114.393714776
 21
194.175362319
  0
LINE
  8
1
 62
7
  6
CONTINUOUS
 10
115.065217391
 20
203.775362319
 11
114.865217391
 21
203.975362319
  0
LINE
  8
1
 62
7
  6
CONTINUOUS
 10
117.565217391
 20
203.775362319
 11
115.065217391
 21
203.775362319
  0
LINE
  8
1
 62
7
  6
CONTINUOUS
 10
115.065217391
 20
194.775362319
 11
114.865217391
 21
194.575362319
  0
LINE
  8
1
 62
7
  6
CONTINUOUS
 10
114.393714776
 20
203.975362319
 11
114.865217391
 21
203.975362319
  0
LINE
  8
1
 62
7
  6
CONTINUOUS
 10
113.593714776
 20
205.175362319
 11
110.043714776
 21
205.175362319
  0
LINE
  8
1
 62
7
  6
CONTINUOUS
 10
115.065217391
 20
197.213809506
 11
117.565217391
 21
197.213809506
  0
LINE
  8
1
 62
7
  6
CONTINUOUS
 10
103.393714776
 20
194.986687184
 11
105.952560503
 21
193.509336915
  0
LINE
  8
1
 62
7
  6
CONTINUOUS
 10
106.893714776
 20
193.525362319
 11
106.893714776
 21
205.025362319
  0
ARC
  8
1
 62
7
  6
CONTINUOUS
 10
113.593714776
 20
194.175362319
 40
0.800000000
 50
270.000000000
 51
0.000000000
  0
ARC
  8
1
 62
7
  6
CONTINUOUS
 10
103.893714776
 20
195.852712588
 40
1.000000000
 50
180.000000000
 51
240.000000000
  0
ARC
  8
1
 62
7
  6
CONTINUOUS
 10
103.893714776
 20
202.698012050
 40
1.000000000
 50
120.000000000
 51
180.000000000
  0
ARC
  8
1
 62
7
  6
CONTINUOUS
 10
113.593714776
 20
204.375362319
 40
0.800000000
 50
0.000000000
 51
90.000000000
  0
LINE
  8
1
 62
7
  6
CONTINUOUS
 10
106.743714776
 20
193.375362319
 11
106.893714776
 21
193.525362319
  0
LINE
  8
1
 62
7
  6
CONTINUOUS
 10
107.043714776
 20
201.410777969
 11
106.893714776
 21
201.260777969
  0
LINE
  8
1
 62
7
  6
CONTINUOUS
 10
103.393714776
 20
203.564037453
 11
105.952560503
 21
205.041387723
  0
LINE
  8
1
 62
7
  6
CONTINUOUS
 10
106.893714776
 20
193.775362319
 11
109.893714776
 21
193.775362319
  0
LINE
  8
1
 62
7
  6
CONTINUOUS
 10
113.593714776
 20
193.375362319
 11
110.043714776
 21
193.375362319
  0
ARC
  8
15
 62
7
  6
CONTINUOUS
 10
93.093714776
 20
201.075362319
 40
0.200000000
 50
90.000000000
 51
180.000000000
  0
LINE
  8
1
 62
7
  6
CONTINUOUS
 10
109.893714776
 20
205.025362319
 11
110.043714776
 21
205.175362319
  0
ARC
  8
15
 62
7
  6
CONTINUOUS
 10
93.093714776
 20
197.475362319
 40
0.200000000
 50
180.000000000
 51
270.000000000
  0
ARC
  8
1
 62
7
  6
CONTINUOUS
 10
106.452560503
 20
204.175362319
 40
1.000000000
 50
90.000000000
 51
120.000000000
  0
LINE
  8
1
 62
7
  6
CONTINUOUS
 10
106.743714776
 20
205.175362319
 11
106.452560503
 21
205.175362319
  0
LINE
  8
1
 62
7
  6
CONTINUOUS
 10
106.893714776
 20
197.289946668
 11
107.043714776
 21
197.139946668
  0
LINE
  8
15
 62
7
  6
CONTINUOUS
 10
102.893714776
 20
197.275362319
 11
93.093714776
 21
197.275362319
  0
LINE
  8
15
 62
7
  6
CONTINUOUS
 10
93.093714776
 20
201.275362319
 11
102.893714776
 21
201.275362319
  0
LINE
  8
1
 62
4
  6
CONTINUOUS
 10
109.893714776
 20
201.260777969
 11
106.893714776
 21
197.289946668
  0
LINE
  8
15
 62
7
  6
CONTINUOUS
 10
92.893714776
 20
201.075362319
 11
92.893714776
 21
197.475362319
  0
LINE
  8
1
 62
7
  6
CONTINUOUS
 10
109.893714776
 20
205.025362319
 11
109.893714776
 21
193.525362319
  0
LINE
  8
1
 62
7
  6
CONTINUOUS
 10
103.393714776
 20
203.064037453
 11
103.393714776
 21
195.486687184
  0
LINE
  8
1
 62
7
  6
CONTINUOUS
 10
109.893714776
 20
193.525362319
 11
110.043714776
 21
193.375362319
  0
LINE
  8
1
 62
7
  6
CONTINUOUS
 10
106.452560503
 20
205.175362319
 11
106.452560503
 21
193.375362319
  0
LINE
  8
1
 62
7
  6
CONTINUOUS
 10
102.893714776
 20
195.852712588
 11
102.893714776
 21
202.698012050
  0
LINE
  8
1
 62
7
  6
CONTINUOUS
 10
113.593714776
 20
205.175362319
 11
113.593714776
 21
193.375362319
  0
LINE
  8
1
 62
7
  6
CONTINUOUS
 10
109.743714776
 20
201.410777969
 11
109.743714776
 21
204.775362319
  0
LINE
  8
1
 62
7
  6
CONTINUOUS
 10
107.043714776
 20
201.410777969
 11
107.043714776
 21
204.775362319
  0
LINE
  8
1
 62
4
  6
CONTINUOUS
 10
106.893714776
 20
201.260777969
 11
109.893714776
 21
197.289946668
  0
LINE
  8
1
 62
7
  6
CONTINUOUS
 10
107.043714776
 20
197.139946668
 11
109.743714776
 21
197.139946668
  0
LINE
  8
1
 62
7
  6
CONTINUOUS
 10
107.043714776
 20
201.410777969
 11
109.743714776
 21
201.410777969
  0
LINE
  8
1
 62
7
  6
CONTINUOUS
 10
109.743714776
 20
193.775362319
 11
109.743714776
 21
197.139946668
  0
LINE
  8
1
 62
7
  6
CONTINUOUS
 10
107.043714776
 20
193.775362319
 11
107.043714776
 21
197.139946668
  0
LINE
  8
1
 62
7
  6
CONTINUOUS
 10
109.893714776
 20
201.260777969
 11
109.743714776
 21
201.410777969
  0
LINE
  8
1
 62
7
  6
CONTINUOUS
 10
109.743714776
 20
197.139946668
 11
109.893714776
 21
197.289946668
  0
LINE
  8
1
 62
7
  6
CONTINUOUS
 10
106.743714776
 20
193.375362319
 11
106.743714776
 21
205.175362319
  0
LINE
  8
1
 62
7
  6
CONTINUOUS
 10
110.043714776
 20
193.375362319
 11
110.043714776
 21
205.175362319
  0
LINE
  8
1
 62
7
  6
CONTINUOUS
 10
105.952560503
 20
204.541387723
 11
105.952560503
 21
194.009336915
  0
LINE
  8
1
 62
7
  6
CONTINUOUS
 10
126.065217391
 20
216.525362319
 11
126.165217391
 21
216.525362319
  0
LINE
  8
1
 62
7
  6
CONTINUOUS
 10
147.065217391
 20
221.525362308
 11
151.065217391
 21
221.525362308
  0
LINE
  8
1
 62
7
  6
CONTINUOUS
 10
215.765217391
 20
233.900362319
 11
213.065217391
 21
233.900362319
  0
LINE
  8
1
 62
7
  6
CONTINUOUS
 10
126.165217391
 20
220.275362308
 11
126.165217391
 21
178.275362329
  0
LINE
  8
1
 62
7
  6
CONTINUOUS
 10
147.065217391
 20
177.025362329
 11
147.065217391
 21
221.525362308
  0
LINE
  8
1
 62
7
  6
CONTINUOUS
 10
126.065217391
 20
182.025362319
 11
126.165217391
 21
182.025362319
  0
LINE
  8
1
 62
7
  6
CONTINUOUS
 10
126.065217391
 20
216.525362319
 11
126.065217391
 21
182.025362319
  0
LINE
  8
1
 62
7
  6
CONTINUOUS
 10
147.065217391
 20
177.025362329
 11
151.065217391
 21
177.025362329
  0
LINE
  8
1
 62
7
  6
CONTINUOUS
 10
151.065217391
 20
177.025362329
 11
151.065217391
 21
221.525362308
  0
LINE
  8
1
 62
7
  6
CONTINUOUS
 10
147.065217391
 20
221.525362308
 11
147.065217391
 21
177.025362329
  0
LINE
  8
1
 62
7
  6
CONTINUOUS
 10
127.415217391
 20
177.025362329
 11
147.065217391
 21
177.025362329
  0
LINE
  8
1
 62
7
  6
CONTINUOUS
 10
126.165217391
 20
178.275362329
 11
127.415217391
 21
177.025362329
  0
LINE
  8
1
 62
7
  6
CONTINUOUS
 10
127.415217391
 20
221.525362308
 11
127.415217391
 21
177.025362329
  0
LINE
  8
1
 62
7
  6
CONTINUOUS
 10
169.115217391
 20
177.275362319
 11
169.515217391
 21
177.275362319
  0
LINE
  8
1
 62
7
  6
CONTINUOUS
 10
169.115217391
 20
221.275362319
 11
169.115217391
 21
177.275362319
  0
LINE
  8
1
 62
7
  6
CONTINUOUS
 10
151.515217391
 20
221.275362319
 11
151.115217391
 21
221.275362319
  0
LINE
  8
1
 62
7
  6
CONTINUOUS
 10
151.515217391
 20
177.275362319
 11
151.515217391
 21
221.275362319
  0
LINE
  8
1
 62
7
  6
CONTINUOUS
 10
151.115217391
 20
177.275362319
 11
151.515217391
 21
177.275362319
  0
LINE
  8
1
 62
7
  6
CONTINUOUS
 10
151.115217391
 20
221.275362319
 11
151.115217391
 21
177.275362319
  0
LINE
  8
1
 62
7
  6
CONTINUOUS
 10
177.865217391
 20
151.275362319
 11
178.065217391
 21
151.475362319
  0
LINE
  8
1
 62
7
  6
CONTINUOUS
 10
177.865217391
 20
247.275362319
 11
177.070770891
 21
247.275362319
  0
LINE
  8
1
 62
7
  6
CONTINUOUS
 10
177.070770891
 20
151.275362319
 11
169.565217391
 21
164.275362319
  0
LINE
  8
1
 62
7
  6
CONTINUOUS
 10
177.070770891
 20
247.275362319
 11
169.565217391
 21
234.275362319
  0
LINE
  8
1
 62
7
  6
CONTINUOUS
 10
177.070770891
 20
247.275362319
 11
177.070770891
 21
151.275362319
  0
LINE
  8
1
 62
7
  6
CONTINUOUS
 10
178.065217391
 20
247.075362319
 11
178.065217391
 21
151.475362319
  0
LINE
  8
1
 62
7
  6
CONTINUOUS
 10
177.865217391
 20
247.275362319
 11
178.065217391
 21
247.075362319
  0
LINE
  8
1
 62
7
  6
CONTINUOUS
 10
177.865217391
 20
151.275362319
 11
177.070770891
 21
151.275362319
  0
LINE
  8
1
 62
7
  6
CONTINUOUS
 10
153.008593064
 20
174.525362319
 11
153.008593064
 21
224.025362319
  0
LINE
  8
1
 62
7
  6
CONTINUOUS
 10
151.565217391
 20
221.525362319
 11
153.008593064
 21
224.025362319
  0
LINE
  8
1
 62
7
  6
CONTINUOUS
 10
153.008593064
 20
174.525362319
 11
168.565217391
 21
174.525362319
  0
LINE
  8
1
 62
7
  6
CONTINUOUS
 10
153.008593064
 20
224.025362319
 11
168.565217391
 21
224.025362319
  0
LINE
  8
1
 62
7
  6
CONTINUOUS
 10
151.565217391
 20
177.025362319
 11
153.008593064
 21
174.525362319
  0
LINE
  8
1
 62
7
  6
CONTINUOUS
 10
168.565217391
 20
174.525362319
 11
169.065217391
 21
175.025362319
  0
LINE
  8
1
 62
7
  6
CONTINUOUS
 10
168.565217391
 20
224.025362319
 11
169.065217391
 21
223.525362319
  0
LINE
  8
1
 62
7
  6
CONTINUOUS
 10
169.065217391
 20
223.525362319
 11
169.065217391
 21
175.025362319
  0
LINE
  8
1
 62
7
  6
CONTINUOUS
 10
151.565217391
 20
177.025362319
 11
151.565217391
 21
221.525362319
  0
LINE
  8
1
 62
7
  6
CONTINUOUS
 10
216.065217391
 20
234.200362319
 11
215.765217391
 21
233.900362319
  0
LINE
  8
1
 62
7
  6
CONTINUOUS
 10
216.065217391
 20
164.350362319
 11
216.065217391
 21
234.200362319
  0
LINE
  8
1
 62
7
  6
CONTINUOUS
 10
215.765217391
 20
164.650362319
 11
213.065217391
 21
164.650362319
  0
LINE
  8
1
 62
7
  6
CONTINUOUS
 10
185.365217391
 20
190.677688215
 11
185.365217391
 21
149.275362319
  0
DIMENSION
  8
1
 62
4
  6
CONTINUOUS
  2
*D108
 70
1
 10
76.893714776
 20
177.025362329
 11
76.893714776
 21
199.275362319
 14
127.415217391
 24
177.025362329
 13
127.415217391
 23
221.525362308
 50
90.000000000
  0
DIMENSION
  8
1
 62
4
  6
CONTINUOUS
  2
*D109
 70
1
 10
84.893714776
 20
193.375362319
 11
84.893714776
 21
199.275362319
 14
106.452560503
 24
193.375362319
 13
106.452560503
 23
205.175362319
 50
90.000000000
  0
TEXT
  8
1
 62
3
  6
CONTINUOUS
 72
5
 10
169.765217391
 20
117.291362319
 40
4.000000000
  1
ＨＴＳ１５０１Ｓ－ＢＴ５０
 41
0.834180548
 11
220.965217391
 21
117.291362319
  0
LINE
  8
1
 62
7
  6
CONTINUOUS
 10
216.065217391
 20
164.350362319
 11
215.765217391
 21
164.650362319
  0
LINE
  8
1
 62
7
  6
CONTINUOUS
 10
169.515217391
 20
177.275362319
 11
169.515217391
 21
221.275362319
  0
LINE
  8
1
 62
7
  6
CONTINUOUS
 10
169.515217391
 20
221.275362319
 11
169.115217391
 21
221.275362319
  0
POLYLINE
  8
1
 62
4
  6
CONTINUOUS
 66
1
  0
VERTEX
  8
1
 10
270.613189697
 20
226.229827881
  0
VERTEX
  8
1
 10
270.813476563
 20
226.576736450
  0
VERTEX
  8
1
 10
271.013763428
 20
226.923660278
  0
VERTEX
  8
1
 10
271.214050293
 20
227.270584106
  0
VERTEX
  8
1
 10
271.414367676
 20
227.617492676
  0
VERTEX
  8
1
 10
271.614654541
 20
227.964416504
  0
VERTEX
  8
1
 10
271.814941406
 20
228.311340332
  0
VERTEX
  8
1
 10
272.015228271
 20
228.658248901
  0
VERTEX
  8
1
 10
272.215515137
 20
229.005172729
  0
VERTEX
  8
1
 10
272.415832520
 20
229.352096558
  0
VERTEX
  8
1
 10
272.616119385
 20
229.699005127
  0
VERTEX
  8
1
 10
272.816406250
 20
230.045928955
  0
VERTEX
  8
1
 10
273.016693115
 20
230.392852783
  0
VERTEX
  8
1
 10
273.217010498
 20
230.739761353
  0
VERTEX
  8
1
 10
273.417297363
 20
231.086685181
  0
VERTEX
  8
1
 10
273.617584229
 20
231.433609009
  0
VERTEX
  8
1
 10
273.817871094
 20
231.780517578
  0
VERTEX
  8
1
 10
274.018157959
 20
232.127441406
  0
VERTEX
  8
1
 10
274.218475342
 20
232.474365234
  0
VERTEX
  8
1
 10
274.418762207
 20
232.821273804
  0
VERTEX
  8
1
 10
274.619049072
 20
233.168197632
  0
VERTEX
  8
1
 10
274.819335938
 20
233.515121460
  0
VERTEX
  8
1
 10
275.019653320
 20
233.862030029
  0
VERTEX
  8
1
 10
275.219940186
 20
234.208953857
  0
VERTEX
  8
1
 10
275.420227051
 20
234.555877686
  0
VERTEX
  8
1
 10
275.620513916
 20
234.902786255
  0
VERTEX
  8
1
 10
275.820800781
 20
235.249710083
  0
VERTEX
  8
1
 10
276.021118164
 20
235.596633911
  0
VERTEX
  8
1
 10
276.221405029
 20
235.943542480
  0
VERTEX
  8
1
 10
276.421691895
 20
236.290466309
  0
VERTEX
  8
1
 10
276.621978760
 20
236.637390137
  0
VERTEX
  8
1
 10
276.822296143
 20
236.984298706
  0
VERTEX
  8
1
 10
277.022583008
 20
237.331222534
  0
VERTEX
  8
1
 10
277.413085938
 20
237.331222534
  0
VERTEX
  8
1
 10
277.803588867
 20
237.331222534
  0
VERTEX
  8
1
 10
278.194061279
 20
237.331222534
  0
VERTEX
  8
1
 10
278.584564209
 20
237.331222534
  0
VERTEX
  8
1
 10
278.975067139
 20
237.331222534
  0
VERTEX
  8
1
 10
279.365570068
 20
237.331222534
  0
VERTEX
  8
1
 10
279.756072998
 20
237.331222534
  0
VERTEX
  8
1
 10
280.146575928
 20
237.331222534
  0
VERTEX
  8
1
 10
280.537078857
 20
237.331222534
  0
VERTEX
  8
1
 10
280.927581787
 20
237.331222534
  0
VERTEX
  8
1
 10
281.318084717
 20
237.331222534
  0
VERTEX
  8
1
 10
281.708587646
 20
237.331222534
  0
VERTEX
  8
1
 10
282.099060059
 20
237.331222534
  0
VERTEX
  8
1
 10
282.489562988
 20
237.331222534
  0
VERTEX
  8
1
 10
282.880065918
 20
237.331222534
  0
VERTEX
  8
1
 10
283.270568848
 20
237.331222534
  0
VERTEX
  8
1
 10
283.661071777
 20
237.331222534
  0
VERTEX
  8
1
 10
284.051574707
 20
237.331222534
  0
VERTEX
  8
1
 10
284.442077637
 20
237.331222534
  0
VERTEX
  8
1
 10
284.832580566
 20
237.331222534
  0
VERTEX
  8
1
 10
285.223083496
 20
237.331222534
  0
VERTEX
  8
1
 10
285.613586426
 20
237.331222534
  0
VERTEX
  8
1
 10
286.004089355
 20
237.331222534
  0
VERTEX
  8
1
 10
286.394561768
 20
237.331222534
  0
VERTEX
  8
1
 10
286.785064697
 20
237.331222534
  0
VERTEX
  8
1
 10
287.175567627
 20
237.331222534
  0
VERTEX
  8
1
 10
287.566070557
 20
237.331222534
  0
VERTEX
  8
1
 10
287.956573486
 20
237.331222534
  0
VERTEX
  8
1
 10
288.347076416
 20
237.331222534
  0
VERTEX
  8
1
 10
288.737579346
 20
237.331222534
  0
VERTEX
  8
1
 10
289.128082275
 20
237.331222534
  0
VERTEX
  8
1
 10
289.518585205
 20
237.331222534
  0
SEQEND
  8
1
  0
POLYLINE
  8
1
 62
4
  6
CONTINUOUS
 66
1
  0
VERTEX
  8
1
 10
271.353382091
 20
228.111878682
  0
VERTEX
  8
1
 10
270.613189697
 20
226.229827881
  0
VERTEX
  8
1
 10
271.872997331
 20
227.811878678
  0
SEQEND
  8
1
  0
TEXT
  8
1
 62
4
  6
CONTINUOUS
 72
5
 10
277.022574593
 20
238.351220050
 40
3.200000000
  1
ＢＴ５０
 41
0.838944635
 11
289.222574593
 21
238.351220050
  0
TEXT
  8
1
 62
4
  6
CONTINUOUS
 72
5
 10
185.408963353
 20
265.295362319
 40
3.200000000
  1
Ｍ６Ｘ１
 41
0.838944635
 11
197.608963353
 21
265.295362319
  0
TEXT
  8
1
 62
4
  6
CONTINUOUS
 72
5
 10
185.408963353
 20
260.195362319
 40
3.200000000
  1
深さ６
 41
0.840958019
 11
194.408963353
 21
260.195362319
  0
POLYLINE
  8
1
 62
4
  6
CONTINUOUS
 66
1
  0
VERTEX
  8
1
 10
206.565216064
 20
249.275360107
  0
VERTEX
  8
1
 10
206.294586182
 20
249.744110107
  0
VERTEX
  8
1
 10
206.023956299
 20
250.212860107
  0
VERTEX
  8
1
 10
205.753311157
 20
250.681610107
  0
VERTEX
  8
1
 10
205.482681274
 20
251.150360107
  0
VERTEX
  8
1
 10
205.212051392
 20
251.619110107
  0
VERTEX
  8
1
 10
204.941421509
 20
252.087860107
  0
VERTEX
  8
1
 10
204.670791626
 20
252.556610107
  0
VERTEX
  8
1
 10
204.400146484
 20
253.025360107
  0
VERTEX
  8
1
 10
204.129516602
 20
253.494110107
  0
VERTEX
  8
1
 10
203.858886719
 20
253.962860107
  0
VERTEX
  8
1
 10
203.588256836
 20
254.431610107
  0
VERTEX
  8
1
 10
203.317626953
 20
254.900360107
  0
VERTEX
  8
1
 10
203.046981812
 20
255.369110107
  0
VERTEX
  8
1
 10
202.776351929
 20
255.837860107
  0
VERTEX
  8
1
 10
202.505722046
 20
256.306610107
  0
VERTEX
  8
1
 10
202.235092163
 20
256.775360107
  0
VERTEX
  8
1
 10
201.964462280
 20
257.244110107
  0
VERTEX
  8
1
 10
201.693817139
 20
257.712860107
  0
VERTEX
  8
1
 10
201.423187256
 20
258.181610107
  0
VERTEX
  8
1
 10
201.152557373
 20
258.650360107
  0
VERTEX
  8
1
 10
200.881927490
 20
259.119110107
  0
VERTEX
  8
1
 10
200.611297607
 20
259.587860107
  0
VERTEX
  8
1
 10
200.340652466
 20
260.056610107
  0
VERTEX
  8
1
 10
200.070022583
 20
260.525360107
  0
VERTEX
  8
1
 10
199.799392700
 20
260.994110107
  0
VERTEX
  8
1
 10
199.528762817
 20
261.462860107
  0
VERTEX
  8
1
 10
199.258132935
 20
261.931610107
  0
VERTEX
  8
1
 10
198.987487793
 20
262.400360107
  0
VERTEX
  8
1
 10
198.716857910
 20
262.869110107
  0
VERTEX
  8
1
 10
198.446228027
 20
263.337860107
  0
VERTEX
  8
1
 10
198.175598145
 20
263.806610107
  0
VERTEX
  8
1
 10
197.904968262
 20
264.275360107
  0
VERTEX
  8
1
 10
197.514465332
 20
264.275360107
  0
VERTEX
  8
1
 10
197.123962402
 20
264.275360107
  0
VERTEX
  8
1
 10
196.733459473
 20
264.275360107
  0
VERTEX
  8
1
 10
196.342956543
 20
264.275360107
  0
VERTEX
  8
1
 10
195.952468872
 20
264.275360107
  0
VERTEX
  8
1
 10
195.561965942
 20
264.275360107
  0
VERTEX
  8
1
 10
195.171463013
 20
264.275360107
  0
VERTEX
  8
1
 10
194.780960083
 20
264.275360107
  0
VERTEX
  8
1
 10
194.390457153
 20
264.275360107
  0
VERTEX
  8
1
 10
193.999969482
 20
264.275360107
  0
VERTEX
  8
1
 10
193.609466553
 20
264.275360107
  0
VERTEX
  8
1
 10
193.218963623
 20
264.275360107
  0
VERTEX
  8
1
 10
192.828460693
 20
264.275360107
  0
VERTEX
  8
1
 10
192.437957764
 20
264.275360107
  0
VERTEX
  8
1
 10
192.047470093
 20
264.275360107
  0
VERTEX
  8
1
 10
191.656967163
 20
264.275360107
  0
VERTEX
  8
1
 10
191.266464233
 20
264.275360107
  0
VERTEX
  8
1
 10
190.875961304
 20
264.275360107
  0
VERTEX
  8
1
 10
190.485458374
 20
264.275360107
  0
VERTEX
  8
1
 10
190.094970703
 20
264.275360107
  0
VERTEX
  8
1
 10
189.704467773
 20
264.275360107
  0
VERTEX
  8
1
 10
189.313964844
 20
264.275360107
  0
VERTEX
  8
1
 10
188.923461914
 20
264.275360107
  0
VERTEX
  8
1
 10
188.532958984
 20
264.275360107
  0
VERTEX
  8
1
 10
188.142456055
 20
264.275360107
  0
VERTEX
  8
1
 10
187.751968384
 20
264.275360107
  0
VERTEX
  8
1
 10
187.361465454
 20
264.275360107
  0
VERTEX
  8
1
 10
186.970962524
 20
264.275360107
  0
VERTEX
  8
1
 10
186.580459595
 20
264.275360107
  0
VERTEX
  8
1
 10
186.189956665
 20
264.275360107
  0
VERTEX
  8
1
 10
185.799468994
 20
264.275360107
  0
VERTEX
  8
1
 10
185.408966064
 20
264.275360107
  0
SEQEND
  8
1
  0
POLYLINE
  8
1
 62
4
  6
CONTINUOUS
 66
1
  0
VERTEX
  8
1
 10
205.305408937
 20
250.857411308
  0
VERTEX
  8
1
 10
206.565216064
 20
249.275360107
  0
VERTEX
  8
1
 10
205.825024272
 20
251.157411146
  0
SEQEND
  8
1
  0
DIMENSION
  8
1
 62
4
  6
CONTINUOUS
  2
*D118
 70
0
 10
127.415217391
 20
256.275362319
 11
123.864296242
 21
256.275362319
 14
127.415217391
 24
221.525362308
 13
117.565217391
 23
211.775362319
 50
0.000000000
  0
LINE
  8
1
 62
7
  6
CONTINUOUS
 10
169.565217391
 20
234.275362319
 11
169.565217391
 21
164.275362319
  0
LINE
  8
1
 62
7
  6
CONTINUOUS
 10
213.065217391
 20
150.275362319
 11
212.065217391
 21
149.275362319
  0
LINE
  8
1
 62
7
  6
CONTINUOUS
 10
213.065217391
 20
248.275362319
 11
212.065217391
 21
249.275362319
  0
LINE
  8
1
 62
7
  6
CONTINUOUS
 10
213.065217391
 20
248.275362319
 11
213.065217391
 21
150.275362319
  0
LINE
  8
1
 62
7
  6
CONTINUOUS
 10
215.765217391
 20
164.650362319
 11
215.765217391
 21
233.900362319
  0
LINE
  8
1
 62
7
  6
CONTINUOUS
 10
178.065217391
 20
150.275362319
 11
178.065217391
 21
248.275362319
  0
LINE
  8
1
 62
7
  6
CONTINUOUS
 10
317.865217391
 20
180.089861597
 11
317.865217391
 21
218.460863040
  0
LINE
  8
1
 62
7
  6
CONTINUOUS
 10
213.065217391
 20
186.425362319
 11
194.915217391
 21
186.425362319
  0
LINE
  8
1
 62
7
  6
CONTINUOUS
 10
194.915217391
 20
212.125362319
 11
213.065217391
 21
212.125362319
  0
ARC
  8
1
 62
7
  6
CONTINUOUS
 10
194.915217391
 20
199.275362319
 40
12.850000000
 50
90.000000000
 51
270.000000000
  0
LINE
  8
1
 62
7
  6
CONTINUOUS
 10
189.695344410
 20
211.017399027
 11
189.695344410
 21
241.775362319
  0
LINE
  8
1
 62
7
  6
CONTINUOUS
 10
196.035090372
 20
212.125362319
 11
196.035090372
 21
241.775362319
  0
LINE
  8
1
 62
7
  6
CONTINUOUS
 10
317.009801874
 20
179.100369138
 11
216.065217391
 21
164.350362319
  0
LINE
  8
1
 62
7
  6
CONTINUOUS
 10
317.009801874
 20
219.450355500
 11
216.065217391
 21
234.200362319
  0
LINE
  8
1
 62
7
  6
CONTINUOUS
 10
200.365217391
 20
149.275362319
 11
196.035090372
 21
156.775362319
  0
LINE
  8
1
 62
7
  6
CONTINUOUS
 10
200.365217391
 20
149.275362319
 11
200.365217391
 21
186.425362319
  0
LINE
  8
1
 62
7
  6
CONTINUOUS
 10
196.035090372
 20
156.775362319
 11
196.035090372
 21
186.425362319
  0
LINE
  8
1
 62
7
  6
CONTINUOUS
 10
189.695344410
 20
156.775362319
 11
189.695344410
 21
187.533325610
  0
LINE
  8
1
 62
7
  6
CONTINUOUS
 10
189.695344410
 20
156.775362319
 11
196.035090372
 21
156.775362319
  0
LINE
  8
1
 62
7
  6
CONTINUOUS
 10
185.365217391
 20
149.275362319
 11
189.695344410
 21
156.775362319
  0
LINE
  8
1
 62
7
  6
CONTINUOUS
 10
212.065217391
 20
149.275362319
 11
200.365217391
 21
149.275362319
  0
LINE
  8
1
 62
7
  6
CONTINUOUS
 10
185.365217391
 20
149.275362319
 11
179.065217391
 21
149.275362319
  0
LINE
  8
1
 62
7
  6
CONTINUOUS
 10
200.365217391
 20
249.275362319
 11
196.035090372
 21
241.775362319
  0
LINE
  8
1
 62
7
  6
CONTINUOUS
 10
189.695344410
 20
241.775362319
 11
196.035090372
 21
241.775362319
  0
LINE
  8
1
 62
7
  6
CONTINUOUS
 10
185.365217391
 20
249.275362319
 11
189.695344410
 21
241.775362319
  0
LINE
  8
1
 62
7
  6
CONTINUOUS
 10
212.065217391
 20
249.275362319
 11
200.365217391
 21
249.275362319
  0
LINE
  8
1
 62
7
  6
CONTINUOUS
 10
185.365217391
 20
249.275362319
 11
179.065217391
 21
249.275362319
  0
LINE
  8
1
 62
7
  6
CONTINUOUS
 10
185.365217391
 20
249.275362319
 11
185.365217391
 21
207.873036423
  0
ARC
  8
1
 62
7
  6
CONTINUOUS
 10
316.865217391
 20
180.089861597
 40
1.000000000
 50
278.313218247
 51
0.000000000
  0
ARC
  8
1
 62
7
  6
CONTINUOUS
 10
316.865217391
 20
218.460863040
 40
1.000000000
 50
0.000000000
 51
81.686781753
  0
LINE
  8
1
 62
7
  6
CONTINUOUS
 10
179.065217391
 20
149.275362319
 11
178.065217391
 21
150.275362319
  0
LINE
  8
1
 62
7
  6
CONTINUOUS
 10
179.065217391
 20
249.275362319
 11
178.065217391
 21
248.275362319
  0
LINE
  8
1
 62
1
  6
DASHED
 10
204.015217391
 20
248.475362319
 11
203.215217391
 21
249.275362319
  0
LINE
  8
1
 62
1
  6
DASHED
 10
209.115217391
 20
248.475362319
 11
204.015217391
 21
248.475362319
  0
LINE
  8
1
 62
1
  6
DASHED
 10
209.115217391
 20
248.475362319
 11
209.915217391
 21
249.275362319
  0
LINE
  8
1
 62
1
  6
DASHED
 10
203.565217391
 20
243.275362319
 11
209.565217391
 21
243.275362319
  0
LINE
  8
1
 62
1
  6
DASHED
 10
203.565217391
 20
243.275362319
 11
204.015217391
 21
242.495939455
  0
LINE
  8
1
 62
1
  6
DASHED
 10
203.565217391
 20
248.925362319
 11
203.565217391
 21
243.275362319
  0
LINE
  8
1
 62
1
  6
DASHED
 10
209.565217391
 20
243.275362319
 11
209.115217391
 21
242.495939455
  0
LINE
  8
1
 62
1
  6
DASHED
 10
209.565217391
 20
248.925362319
 11
209.565217391
 21
243.275362319
  0
LINE
  8
1
 62
1
  6
DASHED
 10
209.115217391
 20
240.275362319
 11
204.015217391
 21
240.275362319
  0
DIMENSION
  8
1
 62
4
  6
CONTINUOUS
  2
*D160
 70
0
 10
216.065217391
 20
272.275362319
 11
166.815217391
 21
272.275362319
 14
216.065217391
 24
234.200362319
 13
117.565217391
 23
211.775362319
 50
0.000000000
  0
LINE
  8
1
 62
1
  6
DASHED
 10
204.015217391
 20
240.275362319
 11
206.565217391
 21
238.803119132
  0
LINE
  8
1
 62
1
  6
DASHED
 10
209.115217391
 20
240.275362319
 11
206.565217391
 21
238.803119132
  0
LINE
  8
1
 62
1
  6
DASHED
 10
204.015217391
 20
248.475362319
 11
204.015217391
 21
240.275362319
  0
LINE
  8
1
 62
1
  6
DASHED
 10
209.115217391
 20
248.475362319
 11
209.115217391
 21
240.275362319
  0
LINE
  8
1
 62
1
  6
CENTER
 10
206.565217391
 20
236.803119132
 11
206.565217391
 21
251.275362319
  0
LINE
  8
1
 62
7
  6
CONTINUOUS
 10
200.365217391
 20
212.125362319
 11
200.365217391
 21
249.275362319
  0
DIMENSION
  8
1
 62
4
  6
CONTINUOUS
  2
*D167
 70
0
 10
169.065217391
 20
264.275362319
 11
160.315217391
 21
264.275362319
 14
169.065217391
 24
223.525362319
 13
151.565217391
 23
221.525362319
 50
0.000000000
  0
DIMENSION
  8
1
 62
4
  6
CONTINUOUS
  2
*D168
 70
0
 10
151.565217391
 20
264.275362319
 11
134.565217391
 21
264.275362319
 14
151.565217391
 24
221.525362319
 13
117.565217391
 23
211.775362319
 50
0.000000000
  0
DIMENSION
  8
1
 62
4
  6
CONTINUOUS
  2
*D169
 70
0
 10
317.865217391
 20
272.275362319
 11
266.965217391
 21
272.275362319
 14
317.865217391
 24
218.460863040
 13
216.065217391
 23
234.200362319
 50
0.000000000
  0
DIMENSION
  8
1
 62
4
  6
CONTINUOUS
  2
*D170
 70
0
 10
317.865217391
 20
280.275362319
 11
217.715217391
 21
280.275362319
 14
317.865217391
 24
218.460863040
 13
117.565217391
 23
211.775362319
 50
0.000000000
  0
DIMENSION
  8
1
 62
4
  6
CONTINUOUS
  2
*D171
 70
0
 10
117.565217391
 20
280.275362319
 11
110.229466084
 21
280.275362319
 14
117.565217391
 24
211.775362319
 13
102.893714776
 23
202.698012050
 50
0.000000000
  0
DIMENSION
  8
1
 62
4
  6
CONTINUOUS
  2
*D172
 70
1
 10
337.865217391
 20
149.275362319
 11
337.865217391
 21
199.275362319
 14
212.065217391
 24
149.275362319
 13
212.065217391
 23
249.275362319
 50
90.000000000
  0
LINE
  8
1
 62
7
  6
CONTINUOUS
 10
212.065217391
 20
186.425362319
 11
212.065217391
 21
149.275362319
  0
LINE
  8
1
 62
7
  6
CONTINUOUS
 10
212.065217391
 20
249.275362319
 11
212.065217391
 21
212.125362319
  0
LINE
  8
1
 62
7
  6
CONTINUOUS
 10
179.065217391
 20
249.275362319
 11
179.065217391
 21
149.275362319
  0
DIMENSION
  8
1
 62
4
  6
CONTINUOUS
  2
*D176
 70
1
 10
68.893714776
 20
174.525362319
 11
68.893714776
 21
199.275362319
 14
153.008593064
 24
174.525362319
 13
153.008593064
 23
224.025362319
 50
90.000000000
  0
DIMENSION
  8
1
 62
4
  6
CONTINUOUS
  2
*D177
 70
0
 10
206.565217391
 20
264.275362319
 11
211.315217391
 21
264.275362319
 14
206.565217391
 24
251.275362319
 13
216.065217391
 23
234.200362319
 50
0.000000000
  0
LINE
  8
1
 62
7
  6
CONTINUOUS
 10
163.555217391
 20
170.525362319
 11
163.430217391
 21
174.525362319
  0
LINE
  8
1
 62
7
  6
CONTINUOUS
 10
163.498217391
 20
172.357362319
 11
153.632217391
 21
172.357362319
  0
LINE
  8
1
 62
7
  6
CONTINUOUS
 10
153.575217391
 20
170.525362319
 11
153.700217391
 21
174.525362319
  0
LINE
  8
1
 62
7
  6
CONTINUOUS
 10
152.565217391
 20
159.325362319
 11
164.565217391
 21
159.325362319
  0
LINE
  8
1
 62
7
  6
CONTINUOUS
 10
152.565217391
 20
159.325362319
 11
152.565217391
 21
161.225362319
  0
LINE
  8
1
 62
7
  6
CONTINUOUS
 10
164.565217391
 20
159.325362319
 11
164.565217391
 21
161.225362319
  0
LINE
  8
1
 62
7
  6
CONTINUOUS
 10
155.065217391
 20
157.525362319
 11
155.065217391
 21
159.325362319
  0
LINE
  8
1
 62
7
  6
CONTINUOUS
 10
162.065217391
 20
157.525362319
 11
162.065217391
 21
159.325362319
  0
LINE
  8
1
 62
7
  6
CONTINUOUS
 10
152.815217391
 20
157.525362319
 11
164.315217391
 21
157.525362319
  0
LINE
  8
1
 62
7
  6
CONTINUOUS
 10
152.815217391
 20
156.025362319
 11
152.815217391
 21
157.525362319
  0
LINE
  8
1
 62
7
  6
CONTINUOUS
 10
164.315217391
 20
156.025362319
 11
164.315217391
 21
157.525362319
  0
LINE
  8
1
 62
7
  6
CONTINUOUS
 10
152.665217391
 20
163.725362319
 11
152.665217391
 21
161.225362319
  0
LINE
  8
1
 62
7
  6
CONTINUOUS
 10
164.465217391
 20
163.725362319
 11
164.465217391
 21
161.225362319
  0
LINE
  8
1
 62
7
  6
CONTINUOUS
 10
165.493217391
 20
170.525362319
 11
165.493217391
 21
163.725362319
  0
LINE
  8
1
 62
7
  6
CONTINUOUS
 10
151.637217391
 20
170.525362319
 11
151.637217391
 21
163.725362319
  0
LINE
  8
1
 62
1
  6
CONTINUOUS
 10
162.917217391
 20
172.357362319
 11
162.849379518
 21
174.525362319
  0
LINE
  8
1
 62
7
  6
CONTINUOUS
 10
151.637217391
 20
163.725362319
 11
165.493217391
 21
163.725362319
  0
LINE
  8
1
 62
7
  6
CONTINUOUS
 10
152.565217391
 20
161.225362319
 11
164.565217391
 21
161.225362319
  0
LINE
  8
1
 62
7
  6
CONTINUOUS
 10
151.637217391
 20
170.525362319
 11
165.493217391
 21
170.525362319
  0
LINE
  8
1
 62
7
  6
CONTINUOUS
 10
152.815217391
 20
156.025362319
 11
164.315217391
 21
156.025362319
  0
LINE
  8
1
 62
1
  6
CONTINUOUS
 10
154.213217391
 20
172.357362319
 11
154.281055264
 21
174.525362319
  0
LINE
  8
1
 62
7
  6
CONTINUOUS
 10
155.101217391
 20
170.525362319
 11
155.101217391
 21
163.725362319
  0
LINE
  8
1
 62
1
  6
CENTER
 10
158.565217391
 20
176.525362319
 11
158.565217391
 21
154.025362319
  0
LINE
  8
1
 62
7
  6
CONTINUOUS
 10
162.029217391
 20
170.525362319
 11
162.029217391
 21
163.725362319
  0
ENDSEC
  0
EOF
