  0
SECTION
  2
HEADER
  9
$ACADVER
  1
AC1009
  9
$INSBASE
 10
0.000000000
 20
0.000000000
  9
$EXTMIN
 10
-26.156521739
 20
-26.177536232
  9
$EXTMAX
 10
287.721739130
 20
287.952898551
  9
$LIMMIN
 10
-26.156521739
 20
-26.177536232
  9
$LIMMAX
 10
287.721739130
 20
287.952898551
  9
$SNAPBASE
 10
0.000000000
 20
0.000000000
  9
$SNAPANG
 50
0.000000000
  9
$SNAPSTYLE
 70
0
  9
$GRIDMODE
 70
0
  9
$GRIDUNIT
 10
0.000000000
 20
0.000000000
  9
$DIMEXO
 40
0.000000000
  9
$DIMDLI
 40
8.000000000
  9
$DIMDLE
 40
0.000000000
  9
$DIMEXE
 40
1.000000000
  9
$DIMTIH
 70
1
  9
$DIMTOH
 70
1
  9
$DIMTAD
 70
2
  9
$DIMZIN
 70
0
  9
$FILLETRAD
 40
1.000000000
  9
$CHAMFERA
 40
1.000000000
  9
$CHAMFERB
 40
1.000000000
  9
$TDCREATE
 40
2454182.600150463
  9
$TDUPDATE
 40
2454182.600150463
  9
$ANGBASE
 50
0.000000000
  9
$ANGDIR
 70
0
  0
ENDSEC
  0
SECTION
  2
TABLES
  0
TABLE
  2
LTYPE
 70
4
  0
LTYPE
  2
CENTER
 70
64
  3
___ _ ___ _ __
 72
65
 73
4
 40
13.000000000
 49
8.500000000
 49
-1.500000000
 49
1.500000000
 49
-1.500000000
  0
LTYPE
  2
CONTINUOUS
 70
64
  3
______________
 72
65
 73
0
 40
0.000000000
  0
LTYPE
  2
DASHED
 70
64
  3
___ ___ ___ __
 72
65
 73
2
 40
5.000000119
 49
3.400000095
 49
-1.600000024
  0
LTYPE
  2
DIVIDE
 70
64
  3
___ . . ___ . 
 72
65
 73
6
 40
12.999999523
 49
5.199999809
 49
-2.599999905
 49
0.000000000
 49
-2.599999905
 49
0.000000000
 49
-2.599999905
  0
ENDTAB
  0
TABLE
  2
LAYER
 70
3
  0
LAYER
  2
1
 70
0
 62
7
  6
CONTINUOUS
  0
LAYER
  2
3
 70
0
 62
7
  6
CONTINUOUS
999
LAYER0016
  0
LAYER
  2
15
 70
0
 62
5
  6
CONTINUOUS
999
ﾁｬｯｸ
  0
LAYER
  2
_CONSTR
 70
0
 62
5
  6
CONTINUOUS
  0
ENDTAB
  0
TABLE
  2
STYLE
 70
1
  0
STYLE
  2
STANDARD
 70
64
 40
0.000000000
 41
1.000000000
 50
0.000000000
 71
0
 42
3.200000000
  3
TXT
  4
EXTFONT
  0
ENDTAB
  0
TABLE
  2
VIEW
 70
0
  0
ENDTAB
  0
ENDSEC
  0
SECTION
  2
BLOCKS
  0
BLOCK
  8
0
  2
*D108
 70
65
 10
0.000000000
 20
0.000000000
  3
*D
  0
TEXT
  8
1
 62
4
  6
CONTINUOUS
 72
5
 10
74.688714776
 20
192.143762319
 40
2.800000000
  1
φ
 41
1.270648030
 50
90.000000000
 11
74.688714776
 21
195.503762319
  0
TEXT
  8
1
 62
4
  6
CONTINUOUS
 72
5
 10
74.688714776
 20
197.183762319
 40
2.800000000
  1
44.5
 41
1.099999267
 50
90.000000000
 11
74.688714776
 21
206.423762319
  0
LINE
  8
1
 62
4
  6
CONTINUOUS
 10
127.415217391
 20
221.525362308
 11
74.893714776
 21
221.525362308
  0
POLYLINE
  8
1
 62
4
  6
CONTINUOUS
 66
1
  0
VERTEX
  8
1
 10
77.193714776
 20
219.525362308
  0
VERTEX
  8
1
 10
76.893714776
 20
221.525362308
  0
VERTEX
  8
1
 10
76.593714776
 20
219.525362308
  0
SEQEND
  8
1
  0
LINE
  8
1
 62
4
  6
CONTINUOUS
 10
76.893714776
 20
221.525362308
 11
76.893714776
 21
177.025362329
  0
POLYLINE
  8
1
 62
4
  6
CONTINUOUS
 66
1
  0
VERTEX
  8
1
 10
76.593714776
 20
179.025362329
  0
VERTEX
  8
1
 10
76.893714776
 20
177.025362329
  0
VERTEX
  8
1
 10
77.193714776
 20
179.025362329
  0
SEQEND
  8
1
  0
LINE
  8
1
 62
4
  6
CONTINUOUS
 10
127.415217391
 20
177.025362329
 11
74.893714776
 21
177.025362329
  0
ENDBLK
  8
0
  0
BLOCK
  8
0
  2
*D109
 70
65
 10
0.000000000
 20
0.000000000
  3
*D
  0
TEXT
  8
1
 62
4
  6
CONTINUOUS
 72
5
 10
82.688714776
 20
192.143762319
 40
2.800000000
  1
φ
 41
1.270648030
 50
90.000000000
 11
82.688714776
 21
195.503762319
  0
TEXT
  8
1
 62
4
  6
CONTINUOUS
 72
5
 10
82.688714776
 20
197.183762319
 40
2.800000000
  1
11.8
 41
1.414284098
 50
90.000000000
 11
82.688714776
 21
206.423762319
  0
LINE
  8
1
 62
4
  6
CONTINUOUS
 10
106.452560503
 20
205.175362319
 11
82.893714776
 21
205.175362319
  0
POLYLINE
  8
1
 62
4
  6
CONTINUOUS
 66
1
  0
VERTEX
  8
1
 10
85.193714776
 20
203.175362319
  0
VERTEX
  8
1
 10
84.893714776
 20
205.175362319
  0
VERTEX
  8
1
 10
84.593714776
 20
203.175362319
  0
SEQEND
  8
1
  0
LINE
  8
1
 62
4
  6
CONTINUOUS
 10
84.893714776
 20
205.175362319
 11
84.893714776
 21
193.375362319
  0
POLYLINE
  8
1
 62
4
  6
CONTINUOUS
 66
1
  0
VERTEX
  8
1
 10
84.593714776
 20
195.375362319
  0
VERTEX
  8
1
 10
84.893714776
 20
193.375362319
  0
VERTEX
  8
1
 10
85.193714776
 20
195.375362319
  0
SEQEND
  8
1
  0
LINE
  8
1
 62
4
  6
CONTINUOUS
 10
106.452560503
 20
193.375362319
 11
82.893714776
 21
193.375362319
  0
ENDBLK
  8
0
  0
BLOCK
  8
0
  2
*D208
 70
65
 10
0.000000000
 20
0.000000000
  3
*D
  0
TEXT
  8
1
 62
4
  6
CONTINUOUS
 72
5
 10
66.688714776
 20
192.143762319
 40
2.800000000
  1
φ
 41
1.270648030
 50
90.000000000
 11
66.688714776
 21
195.503762319
  0
TEXT
  8
1
 62
4
  6
CONTINUOUS
 72
5
 10
66.688714776
 20
197.183762319
 40
2.800000000
  1
49.5
 41
1.099999267
 50
90.000000000
 11
66.688714776
 21
206.423762319
  0
LINE
  8
1
 62
4
  6
CONTINUOUS
 10
153.008593064
 20
174.525362319
 11
66.893714776
 21
174.525362319
  0
POLYLINE
  8
1
 62
4
  6
CONTINUOUS
 66
1
  0
VERTEX
  8
1
 10
68.593714776
 20
176.525362319
  0
VERTEX
  8
1
 10
68.893714776
 20
174.525362319
  0
VERTEX
  8
1
 10
69.193714776
 20
176.525362319
  0
SEQEND
  8
1
  0
LINE
  8
1
 62
4
  6
CONTINUOUS
 10
68.893714776
 20
174.525362319
 11
68.893714776
 21
224.025362319
  0
POLYLINE
  8
1
 62
4
  6
CONTINUOUS
 66
1
  0
VERTEX
  8
1
 10
69.193714776
 20
222.025362319
  0
VERTEX
  8
1
 10
68.893714776
 20
224.025362319
  0
VERTEX
  8
1
 10
68.593714776
 20
222.025362319
  0
SEQEND
  8
1
  0
LINE
  8
1
 62
4
  6
CONTINUOUS
 10
153.008593064
 20
224.025362319
 11
66.893714776
 21
224.025362319
  0
ENDBLK
  8
0
  0
BLOCK
  8
0
  2
*D209
 70
65
 10
0.000000000
 20
0.000000000
  3
*D
  0
TEXT
  8
1
 62
4
  6
CONTINUOUS
 72
5
 10
202.031410819
 20
247.980362319
 40
2.800000000
  1
7.5
 41
1.199998800
 11
208.751410819
 21
247.980362319
  0
LINE
  8
1
 62
4
  6
CONTINUOUS
 10
209.565217391
 20
230.275362319
 11
209.565217391
 21
247.775362319
  0
POLYLINE
  8
1
 62
4
  6
CONTINUOUS
 66
1
  0
VERTEX
  8
1
 10
211.565217391
 20
245.475362319
  0
VERTEX
  8
1
 10
209.565217391
 20
245.775362319
  0
SEQEND
  8
1
  0
POLYLINE
  8
1
 62
4
  6
CONTINUOUS
 66
1
  0
VERTEX
  8
1
 10
212.565217391
 20
245.775362319
  0
VERTEX
  8
1
 10
209.565217391
 20
245.775362319
  0
VERTEX
  8
1
 10
211.565217391
 20
246.075362319
  0
SEQEND
  8
1
  0
LINE
  8
1
 62
4
  6
CONTINUOUS
 10
209.565217391
 20
245.775362319
 11
202.065217391
 21
245.775362319
  0
POLYLINE
  8
1
 62
4
  6
CONTINUOUS
 66
1
  0
VERTEX
  8
1
 10
200.065217391
 20
246.075362319
  0
VERTEX
  8
1
 10
202.065217391
 20
245.775362319
  0
SEQEND
  8
1
  0
POLYLINE
  8
1
 62
4
  6
CONTINUOUS
 66
1
  0
VERTEX
  8
1
 10
199.065217391
 20
245.775362319
  0
VERTEX
  8
1
 10
202.065217391
 20
245.775362319
  0
VERTEX
  8
1
 10
200.065217391
 20
245.475362319
  0
SEQEND
  8
1
  0
LINE
  8
1
 62
4
  6
CONTINUOUS
 10
202.065217391
 20
232.775362319
 11
202.065217391
 21
247.775362319
  0
ENDBLK
  8
0
  0
BLOCK
  8
0
  2
*D210
 70
65
 10
0.000000000
 20
0.000000000
  3
*D
  0
TEXT
  8
1
 62
4
  6
CONTINUOUS
 72
5
 10
259.360217391
 20
194.663762319
 40
2.800000000
  1
φ
 41
1.270648030
 50
90.000000000
 11
259.360217391
 21
198.023762319
  0
TEXT
  8
1
 62
4
  6
CONTINUOUS
 72
5
 10
259.360217391
 20
199.703762319
 40
2.800000000
  1
63
 41
0.899998740
 50
90.000000000
 11
259.360217391
 21
203.903762319
  0
LINE
  8
1
 62
4
  6
CONTINUOUS
 10
209.065217391
 20
230.775362319
 11
263.565217391
 21
230.775362319
  0
POLYLINE
  8
1
 62
4
  6
CONTINUOUS
 66
1
  0
VERTEX
  8
1
 10
261.865217391
 20
228.775362319
  0
VERTEX
  8
1
 10
261.565217391
 20
230.775362319
  0
VERTEX
  8
1
 10
261.265217391
 20
228.775362319
  0
SEQEND
  8
1
  0
LINE
  8
1
 62
4
  6
CONTINUOUS
 10
261.565217391
 20
230.775362319
 11
261.565217391
 21
167.775362319
  0
POLYLINE
  8
1
 62
4
  6
CONTINUOUS
 66
1
  0
VERTEX
  8
1
 10
261.265217391
 20
169.775362319
  0
VERTEX
  8
1
 10
261.565217391
 20
167.775362319
  0
VERTEX
  8
1
 10
261.865217391
 20
169.775362319
  0
SEQEND
  8
1
  0
LINE
  8
1
 62
4
  6
CONTINUOUS
 10
209.065217391
 20
167.775362319
 11
263.565217391
 21
167.775362319
  0
ENDBLK
  8
0
  0
BLOCK
  8
0
  2
*D211
 70
65
 10
0.000000000
 20
0.000000000
  3
*D
  0
TEXT
  8
1
 62
4
  6
CONTINUOUS
 72
5
 10
117.963457478
 20
239.980362319
 40
2.800000000
  1
(
 41
1.800001800
 11
119.643457478
 21
239.980362319
  0
TEXT
  8
1
 62
4
  6
CONTINUOUS
 72
5
 10
120.483457478
 20
239.980362319
 40
2.800000000
  1
9.9
 41
1.199998800
 11
127.203457478
 21
239.980362319
  0
TEXT
  8
1
 62
4
  6
CONTINUOUS
 72
5
 10
128.043457478
 20
239.980362319
 40
2.800000000
  1
)
 41
1.800001800
 11
129.723457478
 21
239.980362319
  0
LINE
  8
1
 62
4
  6
CONTINUOUS
 10
117.565217391
 20
211.775362319
 11
117.565217391
 21
239.775362319
  0
POLYLINE
  8
1
 62
4
  6
CONTINUOUS
 66
1
  0
VERTEX
  8
1
 10
115.565217391
 20
238.075362319
  0
VERTEX
  8
1
 10
117.565217391
 20
237.775362319
  0
SEQEND
  8
1
  0
POLYLINE
  8
1
 62
4
  6
CONTINUOUS
 66
1
  0
VERTEX
  8
1
 10
114.565217391
 20
237.775362319
  0
VERTEX
  8
1
 10
117.565217391
 20
237.775362319
  0
VERTEX
  8
1
 10
115.565217391
 20
237.475362319
  0
SEQEND
  8
1
  0
LINE
  8
1
 62
4
  6
CONTINUOUS
 10
117.565217391
 20
237.775362319
 11
127.415217391
 21
237.775362319
  0
POLYLINE
  8
1
 62
4
  6
CONTINUOUS
 66
1
  0
VERTEX
  8
1
 10
129.415217391
 20
237.475362319
  0
VERTEX
  8
1
 10
127.415217391
 20
237.775362319
  0
SEQEND
  8
1
  0
POLYLINE
  8
1
 62
4
  6
CONTINUOUS
 66
1
  0
VERTEX
  8
1
 10
130.415217391
 20
237.775362319
  0
VERTEX
  8
1
 10
127.415217391
 20
237.775362319
  0
VERTEX
  8
1
 10
129.415217391
 20
238.075362319
  0
SEQEND
  8
1
  0
LINE
  8
1
 62
4
  6
CONTINUOUS
 10
127.415217391
 20
221.525362308
 11
127.415217391
 21
239.775362319
  0
ENDBLK
  8
0
  0
BLOCK
  8
0
  2
*D212
 70
65
 10
0.000000000
 20
0.000000000
  3
*D
  0
TEXT
  8
1
 62
4
  6
CONTINUOUS
 72
5
 10
155.703617391
 20
247.980362319
 40
2.800000000
  1
17.5
 41
1.237498917
 11
164.943617391
 21
247.980362319
  0
POLYLINE
  8
1
 62
4
  6
CONTINUOUS
 66
1
  0
VERTEX
  8
1
 10
153.565217391
 20
246.075362319
  0
VERTEX
  8
1
 10
151.565217391
 20
245.775362319
  0
VERTEX
  8
1
 10
153.565217391
 20
245.475362319
  0
SEQEND
  8
1
  0
LINE
  8
1
 62
4
  6
CONTINUOUS
 10
151.565217391
 20
245.775362319
 11
169.065217391
 21
245.775362319
  0
POLYLINE
  8
1
 62
4
  6
CONTINUOUS
 66
1
  0
VERTEX
  8
1
 10
167.065217391
 20
245.475362319
  0
VERTEX
  8
1
 10
169.065217391
 20
245.775362319
  0
VERTEX
  8
1
 10
167.065217391
 20
246.075362319
  0
SEQEND
  8
1
  0
LINE
  8
1
 62
4
  6
CONTINUOUS
 10
169.065217391
 20
223.525362319
 11
169.065217391
 21
247.775362319
  0
ENDBLK
  8
0
  0
BLOCK
  8
0
  2
*D213
 70
65
 10
0.000000000
 20
0.000000000
  3
*D
  0
TEXT
  8
1
 62
4
  6
CONTINUOUS
 72
5
 10
129.953617391
 20
247.980362319
 40
2.800000000
  1
(
 41
1.800001800
 11
131.633617391
 21
247.980362319
  0
TEXT
  8
1
 62
4
  6
CONTINUOUS
 72
5
 10
132.473617391
 20
247.980362319
 40
2.800000000
  1
34
 41
0.899998740
 11
136.673617391
 21
247.980362319
  0
TEXT
  8
1
 62
4
  6
CONTINUOUS
 72
5
 10
137.513617391
 20
247.980362319
 40
2.800000000
  1
)
 41
1.800001800
 11
139.193617391
 21
247.980362319
  0
LINE
  8
1
 62
4
  6
CONTINUOUS
 10
117.565217391
 20
211.775362319
 11
117.565217391
 21
247.775362319
  0
POLYLINE
  8
1
 62
4
  6
CONTINUOUS
 66
1
  0
VERTEX
  8
1
 10
119.565217391
 20
246.075362319
  0
VERTEX
  8
1
 10
117.565217391
 20
245.775362319
  0
VERTEX
  8
1
 10
119.565217391
 20
245.475362319
  0
SEQEND
  8
1
  0
LINE
  8
1
 62
4
  6
CONTINUOUS
 10
117.565217391
 20
245.775362319
 11
151.565217391
 21
245.775362319
  0
POLYLINE
  8
1
 62
4
  6
CONTINUOUS
 66
1
  0
VERTEX
  8
1
 10
149.565217391
 20
245.475362319
  0
VERTEX
  8
1
 10
151.565217391
 20
245.775362319
  0
VERTEX
  8
1
 10
149.565217391
 20
246.075362319
  0
SEQEND
  8
1
  0
LINE
  8
1
 62
4
  6
CONTINUOUS
 10
151.565217391
 20
221.525362319
 11
151.565217391
 21
247.775362319
  0
ENDBLK
  8
0
  0
BLOCK
  8
0
  2
*D214
 70
65
 10
0.000000000
 20
0.000000000
  3
*D
  0
TEXT
  8
1
 62
4
  6
CONTINUOUS
 72
5
 10
158.953617391
 20
255.980362319
 40
2.800000000
  1
(
 41
1.800001800
 11
160.633617391
 21
255.980362319
  0
TEXT
  8
1
 62
4
  6
CONTINUOUS
 72
5
 10
161.473617391
 20
255.980362319
 40
2.800000000
  1
92
 41
0.899998740
 11
165.673617391
 21
255.980362319
  0
TEXT
  8
1
 62
4
  6
CONTINUOUS
 72
5
 10
166.513617391
 20
255.980362319
 40
2.800000000
  1
)
 41
1.800001800
 11
168.193617391
 21
255.980362319
  0
POLYLINE
  8
1
 62
4
  6
CONTINUOUS
 66
1
  0
VERTEX
  8
1
 10
207.565217391
 20
253.475362319
  0
VERTEX
  8
1
 10
209.565217391
 20
253.775362319
  0
VERTEX
  8
1
 10
207.565217391
 20
254.075362319
  0
SEQEND
  8
1
  0
LINE
  8
1
 62
4
  6
CONTINUOUS
 10
209.565217391
 20
253.775362319
 11
117.565217391
 21
253.775362319
  0
POLYLINE
  8
1
 62
4
  6
CONTINUOUS
 66
1
  0
VERTEX
  8
1
 10
119.565217391
 20
254.075362319
  0
VERTEX
  8
1
 10
117.565217391
 20
253.775362319
  0
VERTEX
  8
1
 10
119.565217391
 20
253.475362319
  0
SEQEND
  8
1
  0
LINE
  8
1
 62
4
  6
CONTINUOUS
 10
117.565217391
 20
211.775362319
 11
117.565217391
 21
255.775362319
  0
ENDBLK
  8
0
  0
BLOCK
  8
0
  2
*D225
 70
65
 10
0.000000000
 20
0.000000000
  3
*D
  0
TEXT
  8
1
 62
4
  6
CONTINUOUS
 72
5
 10
223.473617391
 20
255.980362319
 40
2.800000000
  1
32
 41
0.899998740
 11
227.673617391
 21
255.980362319
  0
LINE
  8
1
 62
4
  6
CONTINUOUS
 10
241.565217391
 20
220.848863255
 11
241.565217391
 21
255.775362319
  0
POLYLINE
  8
1
 62
4
  6
CONTINUOUS
 66
1
  0
VERTEX
  8
1
 10
239.565217391
 20
253.475362319
  0
VERTEX
  8
1
 10
241.565217391
 20
253.775362319
  0
VERTEX
  8
1
 10
239.565217391
 20
254.075362319
  0
SEQEND
  8
1
  0
LINE
  8
1
 62
4
  6
CONTINUOUS
 10
241.565217391
 20
253.775362319
 11
209.565217391
 21
253.775362319
  0
POLYLINE
  8
1
 62
4
  6
CONTINUOUS
 66
1
  0
VERTEX
  8
1
 10
211.565217391
 20
254.075362319
  0
VERTEX
  8
1
 10
209.565217391
 20
253.775362319
  0
VERTEX
  8
1
 10
211.565217391
 20
253.475362319
  0
SEQEND
  8
1
  0
LINE
  8
1
 62
4
  6
CONTINUOUS
 10
209.565217391
 20
230.275362319
 11
209.565217391
 21
255.775362319
  0
ENDBLK
  8
0
  0
BLOCK
  8
0
  2
*D226
 70
65
 10
0.000000000
 20
0.000000000
  3
*D
  0
TEXT
  8
1
 62
4
  6
CONTINUOUS
 72
5
 10
103.097866084
 20
263.980362319
 40
2.800000000
  1
(
 41
1.800001800
 11
104.777866084
 21
263.980362319
  0
TEXT
  8
1
 62
4
  6
CONTINUOUS
 72
5
 10
105.617866084
 20
263.980362319
 40
2.800000000
  1
14.7
 41
1.237498917
 11
114.857866084
 21
263.980362319
  0
TEXT
  8
1
 62
4
  6
CONTINUOUS
 72
5
 10
115.697866084
 20
263.980362319
 40
2.800000000
  1
)
 41
1.800001800
 11
117.377866084
 21
263.980362319
  0
POLYLINE
  8
1
 62
4
  6
CONTINUOUS
 66
1
  0
VERTEX
  8
1
 10
115.565217391
 20
261.475362319
  0
VERTEX
  8
1
 10
117.565217391
 20
261.775362319
  0
VERTEX
  8
1
 10
115.565217391
 20
262.075362319
  0
SEQEND
  8
1
  0
LINE
  8
1
 62
4
  6
CONTINUOUS
 10
117.565217391
 20
261.775362319
 11
102.893714776
 21
261.775362319
  0
POLYLINE
  8
1
 62
4
  6
CONTINUOUS
 66
1
  0
VERTEX
  8
1
 10
104.893714776
 20
262.075362319
  0
VERTEX
  8
1
 10
102.893714776
 20
261.775362319
  0
VERTEX
  8
1
 10
104.893714776
 20
261.475362319
  0
SEQEND
  8
1
  0
LINE
  8
1
 62
4
  6
CONTINUOUS
 10
102.893714776
 20
202.698012050
 11
102.893714776
 21
263.775362319
  0
ENDBLK
  8
0
  0
BLOCK
  8
0
  2
*D227
 70
65
 10
0.000000000
 20
0.000000000
  3
*D
  0
TEXT
  8
1
 62
4
  6
CONTINUOUS
 72
5
 10
173.693617391
 20
263.980362319
 40
2.800000000
  1
(
 41
1.800001800
 11
175.373617391
 21
263.980362319
  0
TEXT
  8
1
 62
4
  6
CONTINUOUS
 72
5
 10
176.213617391
 20
263.980362319
 40
2.800000000
  1
124
 41
1.028570253
 11
182.933617391
 21
263.980362319
  0
TEXT
  8
1
 62
4
  6
CONTINUOUS
 72
5
 10
183.773617391
 20
263.980362319
 40
2.800000000
  1
)
 41
1.800001800
 11
185.453617391
 21
263.980362319
  0
LINE
  8
1
 62
4
  6
CONTINUOUS
 10
241.565217391
 20
220.848863255
 11
241.565217391
 21
263.775362319
  0
POLYLINE
  8
1
 62
4
  6
CONTINUOUS
 66
1
  0
VERTEX
  8
1
 10
239.565217391
 20
261.475362319
  0
VERTEX
  8
1
 10
241.565217391
 20
261.775362319
  0
VERTEX
  8
1
 10
239.565217391
 20
262.075362319
  0
SEQEND
  8
1
  0
LINE
  8
1
 62
4
  6
CONTINUOUS
 10
241.565217391
 20
261.775362319
 11
117.565217391
 21
261.775362319
  0
POLYLINE
  8
1
 62
4
  6
CONTINUOUS
 66
1
  0
VERTEX
  8
1
 10
119.565217391
 20
262.075362319
  0
VERTEX
  8
1
 10
117.565217391
 20
261.775362319
  0
VERTEX
  8
1
 10
119.565217391
 20
261.475362319
  0
SEQEND
  8
1
  0
LINE
  8
1
 62
4
  6
CONTINUOUS
 10
117.565217391
 20
211.775362319
 11
117.565217391
 21
263.775362319
  0
ENDBLK
  8
0
  0
ENDSEC
  0
SECTION
  2
ENTITIES
  0
LINE
  8
1
 62
1
  6
CENTER
 10
89.893714776
 20
199.275362319
 11
244.565217391
 21
199.275362319
  0
LINE
  8
1
 62
7
  6
CONTINUOUS
 10
125.865217391
 20
178.475362319
 11
126.065217391
 21
178.475362319
  0
LINE
  8
1
 62
7
  6
CONTINUOUS
 10
127.415217391
 20
221.525362308
 11
147.065217391
 21
221.525362308
  0
LINE
  8
1
 62
7
  6
CONTINUOUS
 10
126.165217391
 20
220.275362308
 11
127.415217391
 21
221.525362308
  0
ARC
  8
1
 62
7
  6
CONTINUOUS
 10
106.452560503
 20
194.375362319
 40
1.000000000
 50
240.000000000
 51
270.000000000
  0
LINE
  8
1
 62
4
  6
CONTINUOUS
 10
115.065217391
 20
201.336915132
 11
117.565217391
 21
197.213809506
  0
LINE
  8
1
 62
7
  6
CONTINUOUS
 10
117.565217391
 20
186.775362319
 11
125.865217391
 21
178.475362319
  0
LINE
  8
1
 62
4
  6
CONTINUOUS
 10
117.565217391
 20
201.336915132
 11
115.065217391
 21
197.213809506
  0
LINE
  8
1
 62
7
  6
CONTINUOUS
 10
115.065217391
 20
194.775362319
 11
115.065217391
 21
203.775362319
  0
LINE
  8
1
 62
7
  6
CONTINUOUS
 10
115.065217391
 20
201.336915132
 11
117.565217391
 21
201.336915132
  0
LINE
  8
1
 62
7
  6
CONTINUOUS
 10
114.393714776
 20
194.575362319
 11
114.865217391
 21
194.575362319
  0
LINE
  8
1
 62
7
  6
CONTINUOUS
 10
126.065217391
 20
220.075362319
 11
126.065217391
 21
178.475362319
  0
LINE
  8
1
 62
7
  6
CONTINUOUS
 10
106.743714776
 20
193.375362319
 11
106.452560503
 21
193.375362319
  0
LINE
  8
1
 62
7
  6
CONTINUOUS
 10
117.565217391
 20
186.775362319
 11
117.565217391
 21
211.775362319
  0
LINE
  8
1
 62
7
  6
CONTINUOUS
 10
117.565217391
 20
211.775362319
 11
125.865217391
 21
220.075362319
  0
LINE
  8
1
 62
7
  6
CONTINUOUS
 10
125.865217391
 20
220.075362319
 11
125.865217391
 21
178.475362319
  0
LINE
  8
1
 62
7
  6
CONTINUOUS
 10
125.865217391
 20
220.075362319
 11
126.065217391
 21
220.075362319
  0
LINE
  8
1
 62
7
  6
CONTINUOUS
 10
117.565217391
 20
194.775362319
 11
115.065217391
 21
194.775362319
  0
LINE
  8
1
 62
7
  6
CONTINUOUS
 10
106.743714776
 20
205.175362319
 11
106.893714776
 21
205.025362319
  0
LINE
  8
1
 62
7
  6
CONTINUOUS
 10
106.893714776
 20
204.775362319
 11
109.893714776
 21
204.775362319
  0
LINE
  8
1
 62
7
  6
CONTINUOUS
 10
114.865217391
 20
194.575362319
 11
114.865217391
 21
203.975362319
  0
LINE
  8
1
 62
7
  6
CONTINUOUS
 10
114.393714776
 20
204.375362319
 11
114.393714776
 21
194.175362319
  0
LINE
  8
1
 62
7
  6
CONTINUOUS
 10
115.065217391
 20
203.775362319
 11
114.865217391
 21
203.975362319
  0
LINE
  8
1
 62
7
  6
CONTINUOUS
 10
117.565217391
 20
203.775362319
 11
115.065217391
 21
203.775362319
  0
LINE
  8
1
 62
7
  6
CONTINUOUS
 10
115.065217391
 20
194.775362319
 11
114.865217391
 21
194.575362319
  0
LINE
  8
1
 62
7
  6
CONTINUOUS
 10
114.393714776
 20
203.975362319
 11
114.865217391
 21
203.975362319
  0
LINE
  8
1
 62
7
  6
CONTINUOUS
 10
113.593714776
 20
205.175362319
 11
110.043714776
 21
205.175362319
  0
LINE
  8
1
 62
7
  6
CONTINUOUS
 10
115.065217391
 20
197.213809506
 11
117.565217391
 21
197.213809506
  0
LINE
  8
1
 62
7
  6
CONTINUOUS
 10
103.393714776
 20
194.986687184
 11
105.952560503
 21
193.509336915
  0
LINE
  8
1
 62
7
  6
CONTINUOUS
 10
106.893714776
 20
193.525362319
 11
106.893714776
 21
205.025362319
  0
ARC
  8
1
 62
7
  6
CONTINUOUS
 10
113.593714776
 20
194.175362319
 40
0.800000000
 50
270.000000000
 51
0.000000000
  0
ARC
  8
1
 62
7
  6
CONTINUOUS
 10
103.893714776
 20
195.852712588
 40
1.000000000
 50
180.000000000
 51
240.000000000
  0
ARC
  8
1
 62
7
  6
CONTINUOUS
 10
103.893714776
 20
202.698012050
 40
1.000000000
 50
120.000000000
 51
180.000000000
  0
ARC
  8
1
 62
7
  6
CONTINUOUS
 10
113.593714776
 20
204.375362319
 40
0.800000000
 50
0.000000000
 51
90.000000000
  0
LINE
  8
1
 62
7
  6
CONTINUOUS
 10
106.743714776
 20
193.375362319
 11
106.893714776
 21
193.525362319
  0
LINE
  8
1
 62
7
  6
CONTINUOUS
 10
107.043714776
 20
201.410777969
 11
106.893714776
 21
201.260777969
  0
LINE
  8
1
 62
7
  6
CONTINUOUS
 10
103.393714776
 20
203.564037453
 11
105.952560503
 21
205.041387723
  0
LINE
  8
1
 62
7
  6
CONTINUOUS
 10
106.893714776
 20
193.775362319
 11
109.893714776
 21
193.775362319
  0
LINE
  8
1
 62
7
  6
CONTINUOUS
 10
113.593714776
 20
193.375362319
 11
110.043714776
 21
193.375362319
  0
ARC
  8
15
 62
7
  6
CONTINUOUS
 10
93.093714776
 20
201.075362319
 40
0.200000000
 50
90.000000000
 51
180.000000000
  0
LINE
  8
1
 62
7
  6
CONTINUOUS
 10
109.893714776
 20
205.025362319
 11
110.043714776
 21
205.175362319
  0
ARC
  8
15
 62
7
  6
CONTINUOUS
 10
93.093714776
 20
197.475362319
 40
0.200000000
 50
180.000000000
 51
270.000000000
  0
ARC
  8
1
 62
7
  6
CONTINUOUS
 10
106.452560503
 20
204.175362319
 40
1.000000000
 50
90.000000000
 51
120.000000000
  0
LINE
  8
1
 62
7
  6
CONTINUOUS
 10
106.743714776
 20
205.175362319
 11
106.452560503
 21
205.175362319
  0
LINE
  8
1
 62
7
  6
CONTINUOUS
 10
106.893714776
 20
197.289946668
 11
107.043714776
 21
197.139946668
  0
LINE
  8
15
 62
7
  6
CONTINUOUS
 10
102.893714776
 20
197.275362319
 11
93.093714776
 21
197.275362319
  0
LINE
  8
15
 62
7
  6
CONTINUOUS
 10
93.093714776
 20
201.275362319
 11
102.893714776
 21
201.275362319
  0
LINE
  8
1
 62
4
  6
CONTINUOUS
 10
109.893714776
 20
201.260777969
 11
106.893714776
 21
197.289946668
  0
LINE
  8
15
 62
7
  6
CONTINUOUS
 10
92.893714776
 20
201.075362319
 11
92.893714776
 21
197.475362319
  0
LINE
  8
1
 62
7
  6
CONTINUOUS
 10
109.893714776
 20
205.025362319
 11
109.893714776
 21
193.525362319
  0
LINE
  8
1
 62
7
  6
CONTINUOUS
 10
103.393714776
 20
203.064037453
 11
103.393714776
 21
195.486687184
  0
LINE
  8
1
 62
7
  6
CONTINUOUS
 10
109.893714776
 20
193.525362319
 11
110.043714776
 21
193.375362319
  0
LINE
  8
1
 62
7
  6
CONTINUOUS
 10
106.452560503
 20
205.175362319
 11
106.452560503
 21
193.375362319
  0
LINE
  8
1
 62
7
  6
CONTINUOUS
 10
102.893714776
 20
195.852712588
 11
102.893714776
 21
202.698012050
  0
LINE
  8
1
 62
7
  6
CONTINUOUS
 10
113.593714776
 20
205.175362319
 11
113.593714776
 21
193.375362319
  0
LINE
  8
1
 62
7
  6
CONTINUOUS
 10
109.743714776
 20
201.410777969
 11
109.743714776
 21
204.775362319
  0
LINE
  8
1
 62
7
  6
CONTINUOUS
 10
107.043714776
 20
201.410777969
 11
107.043714776
 21
204.775362319
  0
LINE
  8
1
 62
4
  6
CONTINUOUS
 10
106.893714776
 20
201.260777969
 11
109.893714776
 21
197.289946668
  0
LINE
  8
1
 62
7
  6
CONTINUOUS
 10
107.043714776
 20
197.139946668
 11
109.743714776
 21
197.139946668
  0
LINE
  8
1
 62
7
  6
CONTINUOUS
 10
107.043714776
 20
201.410777969
 11
109.743714776
 21
201.410777969
  0
LINE
  8
1
 62
7
  6
CONTINUOUS
 10
109.743714776
 20
193.775362319
 11
109.743714776
 21
197.139946668
  0
LINE
  8
1
 62
7
  6
CONTINUOUS
 10
107.043714776
 20
193.775362319
 11
107.043714776
 21
197.139946668
  0
LINE
  8
1
 62
7
  6
CONTINUOUS
 10
109.893714776
 20
201.260777969
 11
109.743714776
 21
201.410777969
  0
LINE
  8
1
 62
7
  6
CONTINUOUS
 10
109.743714776
 20
197.139946668
 11
109.893714776
 21
197.289946668
  0
LINE
  8
1
 62
7
  6
CONTINUOUS
 10
106.743714776
 20
193.375362319
 11
106.743714776
 21
205.175362319
  0
LINE
  8
1
 62
7
  6
CONTINUOUS
 10
110.043714776
 20
193.375362319
 11
110.043714776
 21
205.175362319
  0
LINE
  8
1
 62
7
  6
CONTINUOUS
 10
105.952560503
 20
204.541387723
 11
105.952560503
 21
194.009336915
  0
LINE
  8
1
 62
7
  6
CONTINUOUS
 10
126.065217391
 20
216.525362319
 11
126.165217391
 21
216.525362319
  0
LINE
  8
1
 62
7
  6
CONTINUOUS
 10
147.065217391
 20
221.525362308
 11
151.065217391
 21
221.525362308
  0
LINE
  8
1
 62
7
  6
CONTINUOUS
 10
126.165217391
 20
220.275362308
 11
126.165217391
 21
178.275362329
  0
LINE
  8
1
 62
7
  6
CONTINUOUS
 10
147.065217391
 20
177.025362329
 11
147.065217391
 21
221.525362308
  0
LINE
  8
1
 62
7
  6
CONTINUOUS
 10
126.065217391
 20
182.025362319
 11
126.165217391
 21
182.025362319
  0
LINE
  8
1
 62
7
  6
CONTINUOUS
 10
126.065217391
 20
216.525362319
 11
126.065217391
 21
182.025362319
  0
LINE
  8
1
 62
7
  6
CONTINUOUS
 10
147.065217391
 20
177.025362329
 11
151.065217391
 21
177.025362329
  0
LINE
  8
1
 62
7
  6
CONTINUOUS
 10
151.065217391
 20
177.025362329
 11
151.065217391
 21
221.525362308
  0
LINE
  8
1
 62
7
  6
CONTINUOUS
 10
147.065217391
 20
221.525362308
 11
147.065217391
 21
177.025362329
  0
LINE
  8
1
 62
7
  6
CONTINUOUS
 10
127.415217391
 20
177.025362329
 11
147.065217391
 21
177.025362329
  0
LINE
  8
1
 62
7
  6
CONTINUOUS
 10
126.165217391
 20
178.275362329
 11
127.415217391
 21
177.025362329
  0
LINE
  8
1
 62
7
  6
CONTINUOUS
 10
127.415217391
 20
221.525362308
 11
127.415217391
 21
177.025362329
  0
LINE
  8
1
 62
7
  6
CONTINUOUS
 10
169.115217391
 20
180.275362319
 11
169.515217391
 21
180.275362319
  0
LINE
  8
1
 62
7
  6
CONTINUOUS
 10
169.115217391
 20
218.275362319
 11
169.115217391
 21
180.275362319
  0
LINE
  8
1
 62
7
  6
CONTINUOUS
 10
151.515217391
 20
221.275362319
 11
151.115217391
 21
221.275362319
  0
LINE
  8
1
 62
7
  6
CONTINUOUS
 10
151.515217391
 20
177.275362319
 11
151.515217391
 21
221.275362319
  0
LINE
  8
1
 62
7
  6
CONTINUOUS
 10
151.115217391
 20
177.275362319
 11
151.515217391
 21
177.275362319
  0
LINE
  8
1
 62
7
  6
CONTINUOUS
 10
151.115217391
 20
221.275362319
 11
151.115217391
 21
177.275362319
  0
LINE
  8
1
 62
7
  6
CONTINUOUS
 10
169.565217391
 20
173.775362319
 11
170.065217391
 21
173.275362319
  0
LINE
  8
1
 62
7
  6
CONTINUOUS
 10
169.565217391
 20
224.775362319
 11
169.565217391
 21
173.775362319
  0
LINE
  8
1
 62
7
  6
CONTINUOUS
 10
170.065217391
 20
173.275362319
 11
176.265217391
 21
173.275362319
  0
LINE
  8
1
 62
7
  6
CONTINUOUS
 10
176.265217391
 20
173.275362319
 11
176.565217391
 21
173.575362319
  0
LINE
  8
1
 62
7
  6
CONTINUOUS
 10
176.265217391
 20
225.275362319
 11
176.565217391
 21
224.975362319
  0
LINE
  8
1
 62
7
  6
CONTINUOUS
 10
176.565217391
 20
173.575362319
 11
176.565217391
 21
224.975362319
  0
LINE
  8
1
 62
7
  6
CONTINUOUS
 10
170.065217391
 20
225.275362319
 11
176.265217391
 21
225.275362319
  0
LINE
  8
1
 62
7
  6
CONTINUOUS
 10
169.565217391
 20
224.775362319
 11
170.065217391
 21
225.275362319
  0
LINE
  8
1
 62
7
  6
CONTINUOUS
 10
162.029217391
 20
170.525362319
 11
162.029217391
 21
163.725362319
  0
LINE
  8
1
 62
1
  6
CENTER
 10
158.565217391
 20
176.525362319
 11
158.565217391
 21
154.025362319
  0
LINE
  8
1
 62
7
  6
CONTINUOUS
 10
155.101217391
 20
170.525362319
 11
155.101217391
 21
163.725362319
  0
LINE
  8
1
 62
1
  6
CONTINUOUS
 10
154.213217391
 20
172.357362319
 11
154.281055264
 21
174.525362319
  0
LINE
  8
1
 62
7
  6
CONTINUOUS
 10
152.815217391
 20
156.025362319
 11
164.315217391
 21
156.025362319
  0
LINE
  8
1
 62
7
  6
CONTINUOUS
 10
151.637217391
 20
170.525362319
 11
165.493217391
 21
170.525362319
  0
LINE
  8
1
 62
7
  6
CONTINUOUS
 10
152.565217391
 20
161.225362319
 11
164.565217391
 21
161.225362319
  0
LINE
  8
1
 62
7
  6
CONTINUOUS
 10
151.565217391
 20
177.025362319
 11
151.565217391
 21
221.525362319
  0
LINE
  8
1
 62
7
  6
CONTINUOUS
 10
151.637217391
 20
163.725362319
 11
165.493217391
 21
163.725362319
  0
LINE
  8
1
 62
1
  6
CONTINUOUS
 10
162.917217391
 20
172.357362319
 11
162.849379518
 21
174.525362319
  0
LINE
  8
1
 62
7
  6
CONTINUOUS
 10
151.637217391
 20
170.525362319
 11
151.637217391
 21
163.725362319
  0
LINE
  8
1
 62
1
  6
DASHED
 10
199.515217391
 20
221.775362319
 11
202.065217391
 21
220.303119132
  0
LINE
  8
1
 62
1
  6
DASHED
 10
199.515217391
 20
229.975362319
 11
199.515217391
 21
221.775362319
  0
LINE
  8
1
 62
1
  6
DASHED
 10
204.615217391
 20
221.775362319
 11
202.065217391
 21
220.303119132
  0
DIMENSION
  8
1
 62
4
  6
CONTINUOUS
  2
*D108
 70
1
 10
76.893714776
 20
177.025362329
 11
76.893714776
 21
199.275362319
 14
127.415217391
 24
177.025362329
 13
127.415217391
 23
221.525362308
 50
90.000000000
  0
DIMENSION
  8
1
 62
4
  6
CONTINUOUS
  2
*D109
 70
1
 10
84.893714776
 20
193.375362319
 11
84.893714776
 21
199.275362319
 14
106.452560503
 24
193.375362319
 13
106.452560503
 23
205.175362319
 50
90.000000000
  0
TEXT
  8
1
 62
3
  6
CONTINUOUS
 72
5
 10
141.429466084
 20
134.041362319
 40
4.000000000
  1
ＨＴＳ１５０１Ｓ－ＨＳＫ Ａ６３
 41
0.843235378
 11
202.629466084
 21
134.041362319
  0
LINE
  8
1
 62
1
  6
DASHED
 10
204.615217391
 20
229.975362319
 11
204.615217391
 21
221.775362319
  0
LINE
  8
1
 62
7
  6
CONTINUOUS
 10
165.493217391
 20
170.525362319
 11
165.493217391
 21
163.725362319
  0
LINE
  8
1
 62
7
  6
CONTINUOUS
 10
164.465217391
 20
163.725362319
 11
164.465217391
 21
161.225362319
  0
LINE
  8
1
 62
7
  6
CONTINUOUS
 10
152.665217391
 20
163.725362319
 11
152.665217391
 21
161.225362319
  0
LINE
  8
1
 62
7
  6
CONTINUOUS
 10
164.315217391
 20
156.025362319
 11
164.315217391
 21
157.525362319
  0
LINE
  8
1
 62
7
  6
CONTINUOUS
 10
169.515217391
 20
180.275362319
 11
169.515217391
 21
218.275362319
  0
LINE
  8
1
 62
7
  6
CONTINUOUS
 10
169.515217391
 20
218.275362319
 11
169.115217391
 21
218.275362319
  0
LINE
  8
1
 62
7
  6
CONTINUOUS
 10
153.575217391
 20
170.525362319
 11
153.700217391
 21
174.525362319
  0
LINE
  8
1
 62
7
  6
CONTINUOUS
 10
152.815217391
 20
156.025362319
 11
152.815217391
 21
157.525362319
  0
LINE
  8
1
 62
7
  6
CONTINUOUS
 10
152.815217391
 20
157.525362319
 11
164.315217391
 21
157.525362319
  0
LINE
  8
1
 62
7
  6
CONTINUOUS
 10
162.065217391
 20
157.525362319
 11
162.065217391
 21
159.325362319
  0
LINE
  8
1
 62
7
  6
CONTINUOUS
 10
155.065217391
 20
157.525362319
 11
155.065217391
 21
159.325362319
  0
LINE
  8
1
 62
7
  6
CONTINUOUS
 10
163.498217391
 20
172.357362319
 11
153.632217391
 21
172.357362319
  0
LINE
  8
1
 62
7
  6
CONTINUOUS
 10
164.565217391
 20
159.325362319
 11
164.565217391
 21
161.225362319
  0
LINE
  8
1
 62
7
  6
CONTINUOUS
 10
152.565217391
 20
159.325362319
 11
152.565217391
 21
161.225362319
  0
LINE
  8
1
 62
7
  6
CONTINUOUS
 10
163.555217391
 20
170.525362319
 11
163.430217391
 21
174.525362319
  0
LINE
  8
1
 62
7
  6
CONTINUOUS
 10
152.565217391
 20
159.325362319
 11
164.565217391
 21
159.325362319
  0
LINE
  8
1
 62
7
  6
CONTINUOUS
 10
153.008593064
 20
174.525362319
 11
153.008593064
 21
224.025362319
  0
LINE
  8
1
 62
7
  6
CONTINUOUS
 10
151.565217391
 20
221.525362319
 11
153.008593064
 21
224.025362319
  0
LINE
  8
1
 62
7
  6
CONTINUOUS
 10
153.008593064
 20
224.025362319
 11
168.565217391
 21
224.025362319
  0
LINE
  8
1
 62
7
  6
CONTINUOUS
 10
168.565217391
 20
174.525362319
 11
169.065217391
 21
175.025362319
  0
LINE
  8
1
 62
7
  6
CONTINUOUS
 10
168.565217391
 20
224.025362319
 11
169.065217391
 21
223.525362319
  0
LINE
  8
1
 62
7
  6
CONTINUOUS
 10
153.008593064
 20
174.525362319
 11
168.565217391
 21
174.525362319
  0
LINE
  8
1
 62
7
  6
CONTINUOUS
 10
151.565217391
 20
177.025362319
 11
153.008593064
 21
174.525362319
  0
LINE
  8
3
 62
7
  6
CONTINUOUS
 10
232.565217391
 20
205.525362319
 11
240.565217391
 21
205.525362319
  0
LINE
  8
1
 62
7
  6
CONTINUOUS
 10
169.065217391
 20
223.525362319
 11
169.065217391
 21
175.025362319
  0
LINE
  8
3
 62
7
  6
CONTINUOUS
 10
210.895107158
 20
175.234832781
 11
210.895107158
 21
223.315891857
  0
LINE
  8
3
 62
7
  6
CONTINUOUS
 10
209.565217391
 20
230.275362319
 11
209.565217391
 21
168.275362319
  0
LINE
  8
3
 62
7
  6
CONTINUOUS
 10
211.565217391
 20
175.055277285
 11
211.565217391
 21
223.495447353
  0
LINE
  8
3
 62
7
  6
CONTINUOUS
 10
211.565217391
 20
175.055277285
 11
240.425305185
 21
176.502208217
  0
LINE
  8
3
 62
7
  6
CONTINUOUS
 10
211.565217391
 20
223.495447353
 11
240.425305185
 21
222.048516421
  0
LINE
  8
3
 62
7
  6
CONTINUOUS
 10
211.565217391
 20
175.055277285
 11
210.895107158
 21
175.234832781
  0
LINE
  8
3
 62
7
  6
CONTINUOUS
 10
210.739815731
 20
175.255277285
 11
210.065217391
 21
175.255277285
  0
ARC
  8
3
 62
7
  6
CONTINUOUS
 10
210.739815731
 20
174.655277285
 40
0.600000000
 50
75.000000000
 51
90.000000000
  0
ARC
  8
3
 62
7
  6
CONTINUOUS
 10
210.065217391
 20
174.655277285
 40
0.600000000
 50
90.000000000
 51
146.442690238
  0
LINE
  8
3
 62
7
  6
CONTINUOUS
 10
210.065217391
 20
175.255277285
 11
210.065217391
 21
223.295447353
  0
LINE
  8
3
 62
7
  6
CONTINUOUS
 10
211.565217391
 20
223.495447353
 11
210.895107158
 21
223.315891857
  0
LINE
  8
3
 62
7
  6
CONTINUOUS
 10
210.739815731
 20
223.295447353
 11
210.065217391
 21
223.295447353
  0
LINE
  8
3
 62
7
  6
CONTINUOUS
 10
210.739815731
 20
175.255277285
 11
210.739815731
 21
223.295447353
  0
ARC
  8
3
 62
7
  6
CONTINUOUS
 10
210.065217391
 20
223.895447353
 40
0.600000000
 50
213.557309762
 51
270.000000000
  0
ARC
  8
3
 62
7
  6
CONTINUOUS
 10
210.739815731
 20
223.895447353
 40
0.600000000
 50
270.000000000
 51
285.000000000
  0
LINE
  8
3
 62
7
  6
CONTINUOUS
 10
211.565217391
 20
175.055277285
 11
210.895107158
 21
175.234832781
  0
LINE
  8
3
 62
7
  6
CONTINUOUS
 10
210.739815731
 20
175.255277285
 11
210.065217391
 21
175.255277285
  0
ARC
  8
3
 62
7
  6
CONTINUOUS
 10
210.739815731
 20
174.655277285
 40
0.600000000
 50
75.000000000
 51
90.000000000
  0
ARC
  8
3
 62
7
  6
CONTINUOUS
 10
210.065217391
 20
174.655277285
 40
0.600000000
 50
90.000000000
 51
146.442690238
  0
LINE
  8
3
 62
7
  6
CONTINUOUS
 10
176.565217391
 20
224.975362319
 11
176.565217391
 21
173.575362319
  0
LINE
  8
3
 62
7
  6
CONTINUOUS
 10
183.065217391
 20
173.275362319
 11
176.865217391
 21
173.275362319
  0
LINE
  8
3
 62
7
  6
CONTINUOUS
 10
183.065217391
 20
225.275362319
 11
176.865217391
 21
225.275362319
  0
ARC
  8
3
 62
7
  6
CONTINUOUS
 10
183.065217391
 20
225.775362319
 40
0.500000000
 50
270.000000000
 51
0.000000000
  0
ARC
  8
3
 62
7
  6
CONTINUOUS
 10
183.065217391
 20
172.775362319
 40
0.500000000
 50
0.000000000
 51
90.000000000
  0
LINE
  8
3
 62
7
  6
CONTINUOUS
 10
176.565217391
 20
173.575362319
 11
176.865217391
 21
173.275362319
  0
LINE
  8
3
 62
7
  6
CONTINUOUS
 10
176.565217391
 20
224.975362319
 11
176.865217391
 21
225.275362319
  0
LINE
  8
3
 62
7
  6
CONTINUOUS
 10
209.565217391
 20
168.275362319
 11
209.065217391
 21
167.775362319
  0
LINE
  8
3
 62
7
  6
CONTINUOUS
 10
241.565217391
 20
177.700702880
 11
241.565217391
 21
192.025362319
  0
LINE
  8
3
 62
7
  6
CONTINUOUS
 10
194.942716466
 20
167.775362319
 11
209.065217391
 21
167.775362319
  0
LINE
  8
3
 62
7
  6
CONTINUOUS
 10
188.187718317
 20
167.775362319
 11
184.065217391
 21
167.775362319
  0
LINE
  8
3
 62
7
  6
CONTINUOUS
 10
184.065217391
 20
167.775362319
 11
183.565217391
 21
168.275362319
  0
LINE
  8
3
 62
7
  6
CONTINUOUS
 10
183.565217391
 20
230.275362319
 11
183.565217391
 21
168.275362319
  0
LINE
  8
3
 62
7
  6
CONTINUOUS
 10
193.440217391
 20
171.775362319
 11
189.690217391
 21
171.775362319
  0
LINE
  8
3
 62
7
  6
CONTINUOUS
 10
193.440217391
 20
228.172957583
 11
193.440217391
 21
208.275362319
  0
LINE
  8
3
 62
7
  6
CONTINUOUS
 10
193.440217391
 20
170.377767055
 11
194.942716466
 21
167.775362319
  0
LINE
  8
3
 62
7
  6
CONTINUOUS
 10
241.565217391
 20
206.525362319
 11
241.565217391
 21
220.848863255
  0
LINE
  8
3
 62
7
  6
CONTINUOUS
 10
189.690217391
 20
228.172957583
 11
189.690217391
 21
208.275362319
  0
LINE
  8
3
 62
7
  6
CONTINUOUS
 10
189.690217391
 20
170.377767055
 11
188.187718317
 21
167.775362319
  0
LINE
  8
3
 62
7
  6
CONTINUOUS
 10
209.565217391
 20
230.275362319
 11
209.065217391
 21
230.775362319
  0
LINE
  8
3
 62
7
  6
CONTINUOUS
 10
194.942716466
 20
230.775362319
 11
209.065217391
 21
230.775362319
  0
LINE
  8
3
 62
7
  6
CONTINUOUS
 10
188.187718317
 20
230.775362319
 11
184.065217391
 21
230.775362319
  0
LINE
  8
3
 62
7
  6
CONTINUOUS
 10
184.065217391
 20
230.775362319
 11
183.565217391
 21
230.275362319
  0
LINE
  8
3
 62
7
  6
CONTINUOUS
 10
193.440217391
 20
226.775362319
 11
189.690217391
 21
226.775362319
  0
LINE
  8
3
 62
7
  6
CONTINUOUS
 10
193.440217391
 20
228.172957583
 11
194.942716466
 21
230.775362319
  0
LINE
  8
3
 62
7
  6
CONTINUOUS
 10
189.690217391
 20
228.172957583
 11
188.187718317
 21
230.775362319
  0
LINE
  8
3
 62
7
  6
CONTINUOUS
 10
194.942716466
 20
167.775362319
 11
194.942716466
 21
190.275362319
  0
LINE
  8
3
 62
7
  6
CONTINUOUS
 10
240.565217391
 20
190.025362319
 11
241.565217391
 21
189.310783342
  0
LINE
  8
3
 62
7
  6
CONTINUOUS
 10
188.187718317
 20
167.775362319
 11
188.187718317
 21
190.275362319
  0
LINE
  8
3
 62
7
  6
CONTINUOUS
 10
240.565217391
 20
190.025362319
 11
240.565217391
 21
193.025362319
  0
LINE
  8
3
 62
7
  6
CONTINUOUS
 10
241.565217391
 20
206.525362319
 11
240.565217391
 21
205.525362319
  0
LINE
  8
3
 62
7
  6
CONTINUOUS
 10
231.565217391
 20
209.122689227
 11
231.565217391
 21
189.428035411
  0
LINE
  8
3
 62
7
  6
CONTINUOUS
 10
194.942716466
 20
208.275362319
 11
194.942716466
 21
230.775362319
  0
LINE
  8
3
 62
7
  6
CONTINUOUS
 10
240.565217391
 20
190.025362319
 11
231.565217391
 21
189.428035411
  0
ARC
  8
3
 62
7
  6
CONTINUOUS
 10
232.565217391
 20
194.025362319
 40
1.000000000
 50
180.000000000
 51
270.000000000
  0
LINE
  8
3
 62
7
  6
CONTINUOUS
 10
232.565217391
 20
193.025362319
 11
240.565217391
 21
193.025362319
  0
LINE
  8
3
 62
7
  6
CONTINUOUS
 10
241.565217391
 20
192.025362319
 11
240.565217391
 21
193.025362319
  0
LINE
  8
3
 62
7
  6
CONTINUOUS
 10
240.565217391
 20
208.525362319
 11
241.565217391
 21
209.239941296
  0
LINE
  8
3
 62
7
  6
CONTINUOUS
 10
240.565217391
 20
208.525362319
 11
240.565217391
 21
205.525362319
  0
LINE
  8
3
 62
7
  6
CONTINUOUS
 10
240.565217391
 20
208.525362319
 11
231.565217391
 21
209.122689227
  0
ARC
  8
3
 62
7
  6
CONTINUOUS
 10
232.565217391
 20
204.525362319
 40
1.000000000
 50
90.000000000
 51
180.000000000
  0
LINE
  8
1
 62
7
  6
CONTINUOUS
 10
183.565217391
 20
190.275362319
 11
195.565217391
 21
190.275362319
  0
LINE
  8
1
 62
7
  6
CONTINUOUS
 10
183.565217391
 20
208.275362319
 11
195.565217391
 21
208.275362319
  0
ARC
  8
1
 62
7
  6
CONTINUOUS
 10
195.565217391
 20
199.275362319
 40
9.000000000
 50
270.000000000
 51
90.000000000
  0
ARC
  8
3
 62
7
  6
CONTINUOUS
 10
240.365217391
 20
177.700702880
 40
1.200000000
 50
272.870181078
 51
0.000000000
  0
ARC
  8
3
 62
7
  6
CONTINUOUS
 10
240.365217391
 20
220.850021758
 40
1.200000000
 50
0.000000000
 51
87.129818922
  0
LINE
  8
3
 62
7
  6
CONTINUOUS
 10
193.440217391
 20
190.275362319
 11
193.440217391
 21
170.377767055
  0
LINE
  8
1
 62
1
  6
CENTER
 10
202.065217391
 20
218.303119132
 11
202.065217391
 21
232.775362319
  0
TEXT
  8
1
 62
4
  6
CONTINUOUS
 72
5
 10
217.381406900
 20
246.795362319
 40
3.200000000
  1
ＨＳＫ Ａ６３
 41
0.859498393
 11
237.581406900
 21
246.795362319
  0
POLYLINE
  8
1
 62
4
  6
CONTINUOUS
 66
1
  0
VERTEX
  8
1
 10
223.511779785
 20
222.896499634
  0
VERTEX
  8
1
 10
223.320205688
 20
223.611465454
  0
VERTEX
  8
1
 10
223.128631592
 20
224.326416016
  0
VERTEX
  8
1
 10
222.937057495
 20
225.041381836
  0
VERTEX
  8
1
 10
222.745483398
 20
225.756347656
  0
VERTEX
  8
1
 10
222.553909302
 20
226.471313477
  0
VERTEX
  8
1
 10
222.362335205
 20
227.186279297
  0
VERTEX
  8
1
 10
222.170761108
 20
227.901245117
  0
VERTEX
  8
1
 10
221.979187012
 20
228.616210938
  0
VERTEX
  8
1
 10
221.787612915
 20
229.331176758
  0
VERTEX
  8
1
 10
221.596038818
 20
230.046142578
  0
VERTEX
  8
1
 10
221.404464722
 20
230.761108398
  0
VERTEX
  8
1
 10
221.212890625
 20
231.476074219
  0
VERTEX
  8
1
 10
221.021316528
 20
232.191040039
  0
VERTEX
  8
1
 10
220.829742432
 20
232.906005859
  0
VERTEX
  8
1
 10
220.638168335
 20
233.620956421
  0
VERTEX
  8
1
 10
220.446594238
 20
234.335922241
  0
VERTEX
  8
1
 10
220.255020142
 20
235.050888062
  0
VERTEX
  8
1
 10
220.063446045
 20
235.765853882
  0
VERTEX
  8
1
 10
219.871871948
 20
236.480819702
  0
VERTEX
  8
1
 10
219.680297852
 20
237.195785522
  0
VERTEX
  8
1
 10
219.488723755
 20
237.910751343
  0
VERTEX
  8
1
 10
219.297149658
 20
238.625717163
  0
VERTEX
  8
1
 10
219.105575562
 20
239.340682983
  0
VERTEX
  8
1
 10
218.914001465
 20
240.055648804
  0
VERTEX
  8
1
 10
218.722427368
 20
240.770614624
  0
VERTEX
  8
1
 10
218.530853271
 20
241.485580444
  0
VERTEX
  8
1
 10
218.339279175
 20
242.200546265
  0
VERTEX
  8
1
 10
218.147705078
 20
242.915496826
  0
VERTEX
  8
1
 10
217.956130981
 20
243.630462646
  0
VERTEX
  8
1
 10
217.764556885
 20
244.345428467
  0
VERTEX
  8
1
 10
217.572982788
 20
245.060394287
  0
VERTEX
  8
1
 10
217.381408691
 20
245.775360107
  0
VERTEX
  8
1
 10
218.021911621
 20
245.775360107
  0
VERTEX
  8
1
 10
218.662399292
 20
245.775360107
  0
VERTEX
  8
1
 10
219.302902222
 20
245.775360107
  0
VERTEX
  8
1
 10
219.943405151
 20
245.775360107
  0
VERTEX
  8
1
 10
220.583908081
 20
245.775360107
  0
VERTEX
  8
1
 10
221.224411011
 20
245.775360107
  0
VERTEX
  8
1
 10
221.864913940
 20
245.775360107
  0
VERTEX
  8
1
 10
222.505401611
 20
245.775360107
  0
VERTEX
  8
1
 10
223.145904541
 20
245.775360107
  0
VERTEX
  8
1
 10
223.786407471
 20
245.775360107
  0
VERTEX
  8
1
 10
224.426910400
 20
245.775360107
  0
VERTEX
  8
1
 10
225.067413330
 20
245.775360107
  0
VERTEX
  8
1
 10
225.707901001
 20
245.775360107
  0
VERTEX
  8
1
 10
226.348403931
 20
245.775360107
  0
VERTEX
  8
1
 10
226.988906860
 20
245.775360107
  0
VERTEX
  8
1
 10
227.629409790
 20
245.775360107
  0
VERTEX
  8
1
 10
228.269912720
 20
245.775360107
  0
VERTEX
  8
1
 10
228.910400391
 20
245.775360107
  0
VERTEX
  8
1
 10
229.550903320
 20
245.775360107
  0
VERTEX
  8
1
 10
230.191406250
 20
245.775360107
  0
VERTEX
  8
1
 10
230.831909180
 20
245.775360107
  0
VERTEX
  8
1
 10
231.472412109
 20
245.775360107
  0
VERTEX
  8
1
 10
232.112899780
 20
245.775360107
  0
VERTEX
  8
1
 10
232.753402710
 20
245.775360107
  0
VERTEX
  8
1
 10
233.393905640
 20
245.775360107
  0
VERTEX
  8
1
 10
234.034408569
 20
245.775360107
  0
VERTEX
  8
1
 10
234.674911499
 20
245.775360107
  0
VERTEX
  8
1
 10
235.315414429
 20
245.775360107
  0
VERTEX
  8
1
 10
235.955902100
 20
245.775360107
  0
VERTEX
  8
1
 10
236.596405029
 20
245.775360107
  0
VERTEX
  8
1
 10
237.236907959
 20
245.775360107
  0
VERTEX
  8
1
 10
237.877410889
 20
245.775360107
  0
SEQEND
  8
1
  0
POLYLINE
  8
1
 62
4
  6
CONTINUOUS
 66
1
  0
VERTEX
  8
1
 10
222.704364030
 20
224.750705609
  0
VERTEX
  8
1
 10
223.511779785
 20
222.896499634
  0
VERTEX
  8
1
 10
223.283919532
 20
224.905997010
  0
SEQEND
  8
1
  0
TEXT
  8
1
 62
4
  6
CONTINUOUS
 72
5
 10
180.908963353
 20
246.795362319
 40
3.200000000
  1
Ｍ６Ｘ１
 41
0.838944635
 11
193.108963353
 21
246.795362319
  0
TEXT
  8
1
 62
4
  6
CONTINUOUS
 72
5
 10
180.908963353
 20
241.695362319
 40
3.200000000
  1
深さ６
 41
0.840958019
 11
189.908963353
 21
241.695362319
  0
POLYLINE
  8
1
 62
4
  6
CONTINUOUS
 66
1
  0
VERTEX
  8
1
 10
202.065216064
 20
230.775360107
  0
VERTEX
  8
1
 10
201.794586182
 20
231.244110107
  0
VERTEX
  8
1
 10
201.523956299
 20
231.712860107
  0
VERTEX
  8
1
 10
201.253311157
 20
232.181610107
  0
VERTEX
  8
1
 10
200.982681274
 20
232.650360107
  0
VERTEX
  8
1
 10
200.712051392
 20
233.119110107
  0
VERTEX
  8
1
 10
200.441421509
 20
233.587860107
  0
VERTEX
  8
1
 10
200.170791626
 20
234.056610107
  0
VERTEX
  8
1
 10
199.900146484
 20
234.525360107
  0
VERTEX
  8
1
 10
199.629516602
 20
234.994110107
  0
VERTEX
  8
1
 10
199.358886719
 20
235.462860107
  0
VERTEX
  8
1
 10
199.088256836
 20
235.931610107
  0
VERTEX
  8
1
 10
198.817626953
 20
236.400360107
  0
VERTEX
  8
1
 10
198.546981812
 20
236.869110107
  0
VERTEX
  8
1
 10
198.276351929
 20
237.337860107
  0
VERTEX
  8
1
 10
198.005722046
 20
237.806610107
  0
VERTEX
  8
1
 10
197.735092163
 20
238.275360107
  0
VERTEX
  8
1
 10
197.464462280
 20
238.744110107
  0
VERTEX
  8
1
 10
197.193817139
 20
239.212860107
  0
VERTEX
  8
1
 10
196.923187256
 20
239.681610107
  0
VERTEX
  8
1
 10
196.652557373
 20
240.150360107
  0
VERTEX
  8
1
 10
196.381927490
 20
240.619110107
  0
VERTEX
  8
1
 10
196.111297607
 20
241.087860107
  0
VERTEX
  8
1
 10
195.840652466
 20
241.556610107
  0
VERTEX
  8
1
 10
195.570022583
 20
242.025360107
  0
VERTEX
  8
1
 10
195.299392700
 20
242.494110107
  0
VERTEX
  8
1
 10
195.028762817
 20
242.962860107
  0
VERTEX
  8
1
 10
194.758132935
 20
243.431610107
  0
VERTEX
  8
1
 10
194.487487793
 20
243.900360107
  0
VERTEX
  8
1
 10
194.216857910
 20
244.369110107
  0
VERTEX
  8
1
 10
193.946228027
 20
244.837860107
  0
VERTEX
  8
1
 10
193.675598145
 20
245.306610107
  0
VERTEX
  8
1
 10
193.404968262
 20
245.775360107
  0
VERTEX
  8
1
 10
193.014465332
 20
245.775360107
  0
VERTEX
  8
1
 10
192.623962402
 20
245.775360107
  0
VERTEX
  8
1
 10
192.233459473
 20
245.775360107
  0
VERTEX
  8
1
 10
191.842956543
 20
245.775360107
  0
VERTEX
  8
1
 10
191.452468872
 20
245.775360107
  0
VERTEX
  8
1
 10
191.061965942
 20
245.775360107
  0
VERTEX
  8
1
 10
190.671463013
 20
245.775360107
  0
VERTEX
  8
1
 10
190.280960083
 20
245.775360107
  0
VERTEX
  8
1
 10
189.890457153
 20
245.775360107
  0
VERTEX
  8
1
 10
189.499969482
 20
245.775360107
  0
VERTEX
  8
1
 10
189.109466553
 20
245.775360107
  0
VERTEX
  8
1
 10
188.718963623
 20
245.775360107
  0
VERTEX
  8
1
 10
188.328460693
 20
245.775360107
  0
VERTEX
  8
1
 10
187.937957764
 20
245.775360107
  0
VERTEX
  8
1
 10
187.547470093
 20
245.775360107
  0
VERTEX
  8
1
 10
187.156967163
 20
245.775360107
  0
VERTEX
  8
1
 10
186.766464233
 20
245.775360107
  0
VERTEX
  8
1
 10
186.375961304
 20
245.775360107
  0
VERTEX
  8
1
 10
185.985458374
 20
245.775360107
  0
VERTEX
  8
1
 10
185.594970703
 20
245.775360107
  0
VERTEX
  8
1
 10
185.204467773
 20
245.775360107
  0
VERTEX
  8
1
 10
184.813964844
 20
245.775360107
  0
VERTEX
  8
1
 10
184.423461914
 20
245.775360107
  0
VERTEX
  8
1
 10
184.032958984
 20
245.775360107
  0
VERTEX
  8
1
 10
183.642456055
 20
245.775360107
  0
VERTEX
  8
1
 10
183.251968384
 20
245.775360107
  0
VERTEX
  8
1
 10
182.861465454
 20
245.775360107
  0
VERTEX
  8
1
 10
182.470962524
 20
245.775360107
  0
VERTEX
  8
1
 10
182.080459595
 20
245.775360107
  0
VERTEX
  8
1
 10
181.689956665
 20
245.775360107
  0
VERTEX
  8
1
 10
181.299468994
 20
245.775360107
  0
VERTEX
  8
1
 10
180.908966064
 20
245.775360107
  0
SEQEND
  8
1
  0
POLYLINE
  8
1
 62
4
  6
CONTINUOUS
 66
1
  0
VERTEX
  8
1
 10
200.805408937
 20
232.357411308
  0
VERTEX
  8
1
 10
202.065216064
 20
230.775360107
  0
VERTEX
  8
1
 10
201.325024272
 20
232.657411146
  0
SEQEND
  8
1
  0
DIMENSION
  8
1
 62
4
  6
CONTINUOUS
  2
*D208
 70
1
 10
68.893714776
 20
224.025362319
 11
68.893714776
 21
199.275362319
 14
153.008593064
 24
224.025362319
 13
153.008593064
 23
174.525362319
 50
90.000000000
  0
DIMENSION
  8
1
 62
4
  6
CONTINUOUS
  2
*D209
 70
0
 10
202.065217391
 20
245.775362319
 11
205.383010819
 21
245.775362319
 14
202.065217391
 24
232.775362319
 13
209.565217391
 23
230.275362319
 50
0.000000000
  0
DIMENSION
  8
1
 62
4
  6
CONTINUOUS
  2
*D210
 70
1
 10
261.565217391
 20
167.775362319
 11
261.565217391
 21
199.275362319
 14
209.065217391
 24
167.775362319
 13
209.065217391
 23
230.775362319
 50
90.000000000
  0
DIMENSION
  8
1
 62
4
  6
CONTINUOUS
  2
*D211
 70
0
 10
127.415217391
 20
237.775362319
 11
123.835057478
 21
237.775362319
 14
127.415217391
 24
221.525362308
 13
117.565217391
 23
211.775362319
 50
0.000000000
  0
DIMENSION
  8
1
 62
4
  6
CONTINUOUS
  2
*D212
 70
0
 10
169.065217391
 20
245.775362319
 11
160.315217391
 21
245.775362319
 14
169.065217391
 24
223.525362319
 13
151.565217391
 23
221.525362319
 50
0.000000000
  0
DIMENSION
  8
1
 62
4
  6
CONTINUOUS
  2
*D213
 70
0
 10
151.565217391
 20
245.775362319
 11
134.565217391
 21
245.775362319
 14
151.565217391
 24
221.525362319
 13
117.565217391
 23
211.775362319
 50
0.000000000
  0
DIMENSION
  8
1
 62
4
  6
CONTINUOUS
  2
*D214
 70
0
 10
117.565217391
 20
253.775362319
 11
163.565217391
 21
253.775362319
 14
117.565217391
 24
211.775362319
 13
209.565217391
 23
230.275362319
 50
0.000000000
  0
LINE
  8
1
 62
1
  6
DASHED
 10
199.515217391
 20
229.975362319
 11
198.715217391
 21
230.775362319
  0
LINE
  8
1
 62
1
  6
DASHED
 10
204.615217391
 20
229.975362319
 11
199.515217391
 21
229.975362319
  0
LINE
  8
1
 62
1
  6
DASHED
 10
204.615217391
 20
229.975362319
 11
205.415217391
 21
230.775362319
  0
LINE
  8
1
 62
1
  6
DASHED
 10
199.065217391
 20
224.775362319
 11
205.065217391
 21
224.775362319
  0
LINE
  8
1
 62
1
  6
DASHED
 10
199.065217391
 20
224.775362319
 11
199.515217391
 21
223.995939455
  0
LINE
  8
1
 62
1
  6
DASHED
 10
199.065217391
 20
230.425362319
 11
199.065217391
 21
224.775362319
  0
LINE
  8
3
 62
7
  6
CONTINUOUS
 10
189.690217391
 20
190.275362319
 11
189.690217391
 21
170.377767055
  0
LINE
  8
1
 62
1
  6
DASHED
 10
205.065217391
 20
224.775362319
 11
204.615217391
 21
223.995939455
  0
LINE
  8
1
 62
1
  6
DASHED
 10
205.065217391
 20
230.425362319
 11
205.065217391
 21
224.775362319
  0
LINE
  8
1
 62
1
  6
DASHED
 10
204.615217391
 20
221.775362319
 11
199.515217391
 21
221.775362319
  0
DIMENSION
  8
1
 62
4
  6
CONTINUOUS
  2
*D225
 70
0
 10
209.565217391
 20
253.775362319
 11
225.565217391
 21
253.775362319
 14
209.565217391
 24
230.275362319
 13
241.565217391
 23
220.848863255
 50
0.000000000
  0
DIMENSION
  8
1
 62
4
  6
CONTINUOUS
  2
*D226
 70
0
 10
102.893714776
 20
261.775362319
 11
110.229466084
 21
261.775362319
 14
102.893714776
 24
202.698012050
 13
117.565217391
 23
211.775362319
 50
0.000000000
  0
DIMENSION
  8
1
 62
4
  6
CONTINUOUS
  2
*D227
 70
0
 10
117.565217391
 20
261.775362319
 11
179.565217391
 21
261.775362319
 14
117.565217391
 24
211.775362319
 13
241.565217391
 23
220.848863255
 50
0.000000000
  0
LINE
  8
3
 62
7
  6
CONTINUOUS
 10
188.187718317
 20
208.275362319
 11
188.187718317
 21
230.775362319
  0
ENDSEC
  0
EOF
