  0
SECTION
  2
HEADER
  9
$ACADVER
  1
AC1015
  9
$ACADMAINTVER
 70
     6
  9
$DWGCODEPAGE
  3
DOS932
  9
$INSBASE
 10
0.0
 20
0.0
 30
0.0
  9
$EXTMIN
 10
0.0
 20
0.0
 30
0.0
  9
$EXTMAX
 10
297.0
 20
210.0
 30
0.0
  9
$LIMMIN
 10
0.0
 20
0.0
  9
$LIMMAX
 10
297.0
 20
210.0
  9
$ORTHOMODE
 70
     0
  9
$REGENMODE
 70
     1
  9
$FILLMODE
 70
     1
  9
$QTEXTMODE
 70
     0
  9
$MIRRTEXT
 70
     1
  9
$LTSCALE
 40
1.0
  9
$ATTMODE
 70
     1
  9
$TEXTSIZE
 40
3.2
  9
$TRACEWID
 40
1.0
  9
$TEXTSTYLE
  7
Standard
  9
$CLAYER
  8
0
  9
$CELTYPE
  6
ByLayer
  9
$CECOLOR
 62
   256
  9
$CELTSCALE
 40
1.0
  9
$DISPSILH
 70
     0
  9
$DIMSCALE
 40
1.0
  9
$DIMASZ
 40
2.0
  9
$DIMEXO
 40
0.01
  9
$DIMDLI
 40
3.75
  9
$DIMRND
 40
0.0
  9
$DIMDLE
 40
0.0
  9
$DIMEXE
 40
0.8
  9
$DIMTP
 40
0.0
  9
$DIMTM
 40
0.0
  9
$DIMTXT
 40
3.0
  9
$DIMCEN
 40
2.5
  9
$DIMTSZ
 40
0.0
  9
$DIMTOL
 70
     0
  9
$DIMLIM
 70
     0
  9
$DIMTIH
 70
     1
  9
$DIMTOH
 70
     1
  9
$DIMSE1
 70
     0
  9
$DIMSE2
 70
     0
  9
$DIMTAD
 70
     1
  9
$DIMZIN
 70
     0
  9
$DIMBLK
  1

  9
$DIMASO
 70
     1
  9
$DIMSHO
 70
     1
  9
$DIMPOST
  1

  9
$DIMAPOST
  1

  9
$DIMALT
 70
     0
  9
$DIMALTD
 70
     3
  9
$DIMALTF
 40
0.0393700787
  9
$DIMLFAC
 40
1.0
  9
$DIMTOFL
 70
     1
  9
$DIMTVP
 40
0.0
  9
$DIMTIX
 70
     0
  9
$DIMSOXD
 70
     0
  9
$DIMSAH
 70
     0
  9
$DIMBLK1
  1

  9
$DIMBLK2
  1

  9
$DIMSTYLE
  2
ISO-25
  9
$DIMCLRD
 70
     0
  9
$DIMCLRE
 70
     0
  9
$DIMCLRT
 70
     0
  9
$DIMTFAC
 40
1.0
  9
$DIMGAP
 40
1.0
  9
$DIMJUST
 70
     0
  9
$DIMSD1
 70
     0
  9
$DIMSD2
 70
     0
  9
$DIMTOLJ
 70
     0
  9
$DIMTZIN
 70
     0
  9
$DIMALTZ
 70
     0
  9
$DIMALTTZ
 70
     0
  9
$DIMUPT
 70
     0
  9
$DIMDEC
 70
     3
  9
$DIMTDEC
 70
     2
  9
$DIMALTU
 70
     2
  9
$DIMALTTD
 70
     3
  9
$DIMTXSTY
  7
Standard
  9
$DIMAUNIT
 70
     0
  9
$DIMADEC
 70
     3
  9
$DIMALTRND
 40
0.0
  9
$DIMAZIN
 70
     0
  9
$DIMDSEP
 70
    44
  9
$DIMATFIT
 70
     3
  9
$DIMFRAC
 70
     0
  9
$DIMLDRBLK
  1

  9
$DIMLUNIT
 70
     2
  9
$DIMLWD
 70
    -2
  9
$DIMLWE
 70
    -2
  9
$DIMTMOVE
 70
     0
  9
$LUNITS
 70
     2
  9
$LUPREC
 70
     3
  9
$SKETCHINC
 40
1.0
  9
$FILLETRAD
 40
10.0
  9
$AUNITS
 70
     0
  9
$AUPREC
 70
     3
  9
$MENU
  1
.
  9
$ELEVATION
 40
0.0
  9
$PELEVATION
 40
0.0
  9
$THICKNESS
 40
0.0
  9
$LIMCHECK
 70
     0
  9
$CHAMFERA
 40
10.0
  9
$CHAMFERB
 40
10.0
  9
$CHAMFERC
 40
20.0
  9
$CHAMFERD
 40
0.0
  9
$SKPOLY
 70
     0
  9
$TDCREATE
 40
2456340.440622269
  9
$TDUCREATE
 40
2456340.065622269
  9
$TDUPDATE
 40
2456340.44062228
  9
$TDUUPDATE
 40
2456340.06562228
  9
$TDINDWG
 40
0.0000000116
  9
$TDUSRTIMER
 40
0.0000000116
  9
$USRTIMER
 70
     1
  9
$ANGBASE
 50
0.0
  9
$ANGDIR
 70
     0
  9
$PDMODE
 70
     0
  9
$PDSIZE
 40
-1.0
  9
$PLINEWID
 40
0.0
  9
$SPLFRAME
 70
     0
  9
$SPLINETYPE
 70
     6
  9
$SPLINESEGS
 70
     8
  9
$HANDSEED
  5
234
  9
$SURFTAB1
 70
     6
  9
$SURFTAB2
 70
     6
  9
$SURFTYPE
 70
     6
  9
$SURFU
 70
     6
  9
$SURFV
 70
     6
  9
$UCSBASE
  2

  9
$UCSNAME
  2

  9
$UCSORG
 10
0.0
 20
0.0
 30
0.0
  9
$UCSXDIR
 10
1.0
 20
0.0
 30
0.0
  9
$UCSYDIR
 10
0.0
 20
1.0
 30
0.0
  9
$UCSORTHOREF
  2

  9
$UCSORTHOVIEW
 70
     0
  9
$UCSORGTOP
 10
0.0
 20
0.0
 30
0.0
  9
$UCSORGBOTTOM
 10
0.0
 20
0.0
 30
0.0
  9
$UCSORGLEFT
 10
0.0
 20
0.0
 30
0.0
  9
$UCSORGRIGHT
 10
0.0
 20
0.0
 30
0.0
  9
$UCSORGFRONT
 10
0.0
 20
0.0
 30
0.0
  9
$UCSORGBACK
 10
0.0
 20
0.0
 30
0.0
  9
$PUCSBASE
  2

  9
$PUCSNAME
  2

  9
$PUCSORG
 10
0.0
 20
0.0
 30
0.0
  9
$PUCSXDIR
 10
1.0
 20
0.0
 30
0.0
  9
$PUCSYDIR
 10
0.0
 20
1.0
 30
0.0
  9
$PUCSORTHOREF
  2

  9
$PUCSORTHOVIEW
 70
     0
  9
$PUCSORGTOP
 10
0.0
 20
0.0
 30
0.0
  9
$PUCSORGBOTTOM
 10
0.0
 20
0.0
 30
0.0
  9
$PUCSORGLEFT
 10
0.0
 20
0.0
 30
0.0
  9
$PUCSORGRIGHT
 10
0.0
 20
0.0
 30
0.0
  9
$PUCSORGFRONT
 10
0.0
 20
0.0
 30
0.0
  9
$PUCSORGBACK
 10
0.0
 20
0.0
 30
0.0
  9
$USERI1
 70
     0
  9
$USERI2
 70
     0
  9
$USERI3
 70
     0
  9
$USERI4
 70
     0
  9
$USERI5
 70
     0
  9
$USERR1
 40
0.0
  9
$USERR2
 40
0.0
  9
$USERR3
 40
0.0
  9
$USERR4
 40
0.0
  9
$USERR5
 40
0.0
  9
$WORLDVIEW
 70
     1
  9
$SHADEDGE
 70
     3
  9
$SHADEDIF
 70
    70
  9
$TILEMODE
 70
     1
  9
$MAXACTVP
 70
    64
  9
$PINSBASE
 10
0.0
 20
0.0
 30
0.0
  9
$PLIMCHECK
 70
     0
  9
$PEXTMIN
 10
1.0000000000E+20
 20
1.0000000000E+20
 30
1.0000000000E+20
  9
$PEXTMAX
 10
-1.0000000000E+20
 20
-1.0000000000E+20
 30
-1.0000000000E+20
  9
$PLIMMIN
 10
0.0
 20
0.0
  9
$PLIMMAX
 10
420.0
 20
297.0
  9
$UNITMODE
 70
     0
  9
$VISRETAIN
 70
     1
  9
$PLINEGEN
 70
     0
  9
$PSLTSCALE
 70
     1
  9
$TREEDEPTH
 70
  3020
  9
$CMLSTYLE
  2
Standard
  9
$CMLJUST
 70
     0
  9
$CMLSCALE
 40
20.0
  9
$PROXYGRAPHICS
 70
     1
  9
$MEASUREMENT
 70
     1
  9
$CELWEIGHT
370
    -1
  9
$ENDCAPS
280
     0
  9
$JOINSTYLE
280
     0
  9
$LWDISPLAY
290
     1
  9
$INSUNITS
 70
     4
  9
$HYPERLINKBASE
  1

  9
$STYLESHEET
  1

  9
$XEDIT
290
     1
  9
$CEPSNTYPE
380
     0
  9
$PSTYLEMODE
290
     1
  9
$FINGERPRINTGUID
  2
{1E9CCDF2-53BB-451F-9AE9-DEE1B6FC78BF}
  9
$VERSIONGUID
  2
{FAEB1C32-E019-11D5-929B-00C0DF256EC4}
  9
$EXTNAMES
290
     1
  9
$PSVPSCALE
 40
0.0
  9
$OLESTARTUP
290
     0
  0
ENDSEC
  0
SECTION
  2
CLASSES
  0
CLASS
  1
ACDBDICTIONARYWDFLT
  2
AcDbDictionaryWithDefault
  3
ObjectDBX Classes
 90
        0
280
     0
281
     0
  0
CLASS
  1
VISUALSTYLE
  2
AcDbVisualStyle
  3
ObjectDBX Classes
 90
     4095
280
     0
281
     0
  0
CLASS
  1
MATERIAL
  2
AcDbMaterial
  3
ObjectDBX Classes
 90
     1153
280
     0
281
     0
  0
CLASS
  1
ACDBPLACEHOLDER
  2
AcDbPlaceHolder
  3
ObjectDBX Classes
 90
        0
280
     0
281
     0
  0
CLASS
  1
LAYOUT
  2
AcDbLayout
  3
ObjectDBX Classes
 90
        0
280
     0
281
     0
  0
ENDSEC
  0
SECTION
  2
TABLES
  0
TABLE
  2
VPORT
  5
8
330
0
100
AcDbSymbolTable
 70
     1
  0
VPORT
  5
29
330
8
100
AcDbSymbolTableRecord
100
AcDbViewportTableRecord
  2
*Active
 70
     0
 10
0.0
 20
0.0
 11
1.0
 21
1.0
 12
148.5
 22
105.0
 13
0.0
 23
0.0
 14
10.0
 24
10.0
 15
10.0
 25
10.0
 16
0.0
 26
0.0
 36
1.0
 17
0.0
 27
0.0
 37
0.0
 40
210.0
 41
1.4142857143
 42
50.0
 43
0.0
 44
0.0
 50
0.0
 51
0.0
 71
     0
 72
  2000
 73
     1
 74
     3
 75
     0
 76
     0
 77
     0
 78
     0
281
     0
 65
     1
110
0.0
120
0.0
130
0.0
111
1.0
121
0.0
131
0.0
112
0.0
122
1.0
132
0.0
 79
     0
146
0.0
  0
ENDTAB
  0
TABLE
  2
LTYPE
  5
5
330
0
100
AcDbSymbolTable
 70
     6
  0
LTYPE
  5
14
330
5
100
AcDbSymbolTableRecord
100
AcDbLinetypeTableRecord
  2
ByBlock
 70
     0
  3

 72
    65
 73
     0
 40
0.0
  0
LTYPE
  5
15
330
5
100
AcDbSymbolTableRecord
100
AcDbLinetypeTableRecord
  2
ByLayer
 70
     0
  3

 72
    65
 73
     0
 40
0.0
  0
LTYPE
  5
16
330
5
100
AcDbSymbolTableRecord
100
AcDbLinetypeTableRecord
  2
Continuous
 70
     0
  3
Solid line
 72
    65
 73
     0
 40
0.0
  0
LTYPE
  5
3F
330
5
100
AcDbSymbolTableRecord
100
AcDbLinetypeTableRecord
  2
HIDDEN
 70
     0
  3
Hidden __ __ __ __ __ __ __ __ __ __ __ __ __ __
 72
    65
 73
     2
 40
1.905
 49
1.27
 74
     0
 49
-0.635
 74
     0
  0
LTYPE
  5
40
330
5
100
AcDbSymbolTableRecord
100
AcDbLinetypeTableRecord
  2
PHANTOM
 70
     0
  3
Phantom ______  __  __  ______  __  __  ______
 72
    65
 73
     6
 40
12.7
 49
6.35
 74
     0
 49
-1.27
 74
     0
 49
1.27
 74
     0
 49
-1.27
 74
     0
 49
1.27
 74
     0
 49
-1.27
 74
     0
  0
LTYPE
  5
41
330
5
100
AcDbSymbolTableRecord
100
AcDbLinetypeTableRecord
  2
CENTER
 70
     0
  3
Center ____ _ ____ _ ____ _ ____ _ ____ _ ____
 72
    65
 73
     4
 40
10.16
 49
6.35
 74
     0
 49
-1.27
 74
     0
 49
1.27
 74
     0
 49
-1.27
 74
     0
  0
LTYPE
  5
42
330
5
100
AcDbSymbolTableRecord
100
AcDbLinetypeTableRecord
  2
CENTERX2
 70
     0
  3
Center (2x) ________  __  ________  __  _____
 72
    65
 73
     4
 40
20.32
 49
12.7
 74
     0
 49
-2.54
 74
     0
 49
2.54
 74
     0
 49
-2.54
 74
     0
  0
LTYPE
  5
43
330
5
100
AcDbSymbolTableRecord
100
AcDbLinetypeTableRecord
  2
DOT2
 70
     0
  3
Dot (.5x) ........................................
 72
    65
 73
     2
 40
0.635
 49
0.0
 74
     0
 49
-0.635
 74
     0
  0
ENDTAB
  0
TABLE
  2
LAYER
  5
2
330
0
100
AcDbSymbolTable
 70
     3
  0
LAYER
  5
10
330
2
100
AcDbSymbolTableRecord
100
AcDbLayerTableRecord
  2
0
 70
     0
 62
     7
  6
Continuous
370
    -3
390
F
  0
LAYER
  5
44
330
2
100
AcDbSymbolTableRecord
100
AcDbLayerTableRecord
  2
SLD-0
 70
     0
 62
  -179
  6
Continuous
370
    -3
390
F
  0
LAYER
  5
45
330
2
100
AcDbSymbolTableRecord
100
AcDbLayerTableRecord
  2
1
 70
     0
 62
   179
  6
Continuous
370
    -3
390
F
  0
ENDTAB
  0
TABLE
  2
STYLE
  5
3
330
0
100
AcDbSymbolTable
 70
     2
  0
STYLE
  5
11
330
3
100
AcDbSymbolTableRecord
100
AcDbTextStyleTableRecord
  2
Standard
 70
     0
 40
0.0
 41
1.0
 50
0.0
 71
     0
 42
2.5
  3
txt
  4
bigfont
  0
STYLE
  5
204
330
3
100
AcDbSymbolTableRecord
100
AcDbTextStyleTableRecord
  2
SLDTEXTSTYLE0
 70
     0
 40
0.0
 41
0.7
 50
0.0
 71
     0
 42
0.2
  3
TXT
  4
bigfont
  0
ENDTAB
  0
TABLE
  2
VIEW
  5
6
330
0
100
AcDbSymbolTable
 70
     0
  0
ENDTAB
  0
TABLE
  2
UCS
  5
7
330
0
100
AcDbSymbolTable
 70
     0
  0
ENDTAB
  0
TABLE
  2
APPID
  5
9
330
0
100
AcDbSymbolTable
 70
     1
  0
APPID
  5
12
330
9
100
AcDbSymbolTableRecord
100
AcDbRegAppTableRecord
  2
ACAD
 70
     0
  0
ENDTAB
  0
TABLE
  2
DIMSTYLE
  5
A
330
0
100
AcDbSymbolTable
 70
     2
100
AcDbDimStyleTable
  0
DIMSTYLE
105
27
330
A
100
AcDbSymbolTableRecord
100
AcDbDimStyleTableRecord
  2
ISO-25
 70
     0
 41
2.5
 42
0.625
 43
3.75
 44
1.25
 73
     0
 74
     0
 77
     1
 78
     8
140
2.5
141
2.5
143
0.0393700787
147
0.625
171
     3
172
     1
178
     0
271
     2
272
     2
274
     3
278
    44
283
     0
284
     8
340
11
  0
DIMSTYLE
105
205
102
{ACAD_REACTORS
330
203
330
216
330
221
102
}
330
A
100
AcDbSymbolTableRecord
100
AcDbDimStyleTableRecord
  2
SLDDIMSTYLE0
 70
     0
 41
2.0
 44
0.0
 45
0.000000001
 73
     0
 74
     0
 77
     3
 78
    12
 79
     3
140
3.0
147
0.75
173
     1
178
     0
271
     1
272
     2
276
     2
284
    12
340
204
341
206
343
206
344
206
  0
ENDTAB
  0
TABLE
  2
BLOCK_RECORD
  5
1
330
0
100
AcDbSymbolTable
 70
     6
  0
BLOCK_RECORD
  5
1F
330
1
100
AcDbSymbolTableRecord
100
AcDbBlockTableRecord
  2
*Model_Space
340
22
  0
BLOCK_RECORD
  5
1B
330
1
100
AcDbSymbolTableRecord
100
AcDbBlockTableRecord
  2
*Paper_Space
340
1E
  0
BLOCK_RECORD
  5
23
330
1
100
AcDbSymbolTableRecord
100
AcDbBlockTableRecord
  2
*Paper_Space0
340
26
  0
BLOCK_RECORD
  5
46
330
1
100
AcDbSymbolTableRecord
100
AcDbBlockTableRecord
  2
SW_BROKEN_VIEW_0
340
0
102
{BLKREFS
331
157
102
}
  0
BLOCK_RECORD
  5
206
330
1
100
AcDbSymbolTableRecord
100
AcDbBlockTableRecord
  2
_OPEN30
340
0
102
{BLKREFS
331
20F
331
210
331
21A
331
21B
331
225
331
226
102
}
  0
BLOCK_RECORD
  5
20C
330
1
100
AcDbSymbolTableRecord
100
AcDbBlockTableRecord
  2
*D3
340
0
  0
BLOCK_RECORD
  5
217
330
1
100
AcDbSymbolTableRecord
100
AcDbBlockTableRecord
  2
*D4
340
0
  0
BLOCK_RECORD
  5
222
330
1
100
AcDbSymbolTableRecord
100
AcDbBlockTableRecord
  2
*D5
340
0
  0
ENDTAB
  0
ENDSEC
  0
SECTION
  2
BLOCKS
  0
BLOCK
  5
20
330
1F
100
AcDbEntity
  8
0
100
AcDbBlockBegin
  2
*Model_Space
 70
     0
 10
0.0
 20
0.0
 30
0.0
  3
*Model_Space
  1

  0
ENDBLK
  5
21
330
1F
100
AcDbEntity
  8
0
100
AcDbBlockEnd
  0
BLOCK
  5
1C
330
1B
100
AcDbEntity
 67
     1
  8
0
100
AcDbBlockBegin
  2
*Paper_Space
 70
     0
 10
0.0
 20
0.0
 30
0.0
  3
*Paper_Space
  1

  0
ENDBLK
  5
1D
330
1B
100
AcDbEntity
 67
     1
  8
0
100
AcDbBlockEnd
  0
BLOCK
  5
24
330
23
100
AcDbEntity
  8
0
100
AcDbBlockBegin
  2
*Paper_Space0
 70
     0
 10
0.0
 20
0.0
 30
0.0
  3
*Paper_Space0
  1

  0
ENDBLK
  5
25
330
23
100
AcDbEntity
  8
0
100
AcDbBlockEnd
  0
BLOCK
  5
47
330
46
100
AcDbEntity
  8
0
100
AcDbBlockBegin
  2
SW_BROKEN_VIEW_0
 70
     0
 10
0.0
 20
0.0
 30
0.0
  3
SW_BROKEN_VIEW_0
  1

  0
LINE
  5
49
330
46
100
AcDbEntity
  8
0
  6
Continuous
 62
     0
100
AcDbLine
 10
0.0
 20
0.0
 30
0.0
 11
5.8000013232
 21
0.0
 31
0.0
  0
LINE
  5
4A
330
46
100
AcDbEntity
  8
0
  6
Continuous
 62
     0
100
AcDbLine
 10
0.0
 20
0.0
 30
0.0
 11
0.0
 21
-18.1000009179
 31
0.0
  0
LINE
  5
4B
330
46
100
AcDbEntity
  8
0
  6
Continuous
 62
     0
100
AcDbLine
 10
0.0
 20
-18.1000009179
 30
0.0
 11
5.8000013232
 21
-18.1000009179
 31
0.0
  0
LINE
  5
4C
330
46
100
AcDbEntity
  8
0
  6
Continuous
 62
     0
100
AcDbLine
 10
5.8000013232
 20
0.0
 30
0.0
 11
5.8000013232
 21
-18.1000009179
 31
0.0
  0
LINE
  5
4D
330
46
100
AcDbEntity
  8
0
  6
Continuous
 62
     0
100
AcDbLine
 10
-7.500000298
 20
0.0
 30
0.0
 11
-2.4999976158
 21
0.0
 31
0.0
  0
LINE
  5
4E
330
46
100
AcDbEntity
  8
0
  6
Continuous
 62
     0
100
AcDbLine
 10
-7.500000298
 20
0.0
 30
0.0
 11
-7.500000298
 21
-18.1000009179
 31
0.0
  0
LINE
  5
4F
330
46
100
AcDbEntity
  8
0
  6
Continuous
 62
     0
100
AcDbLine
 10
-7.500000298
 20
-18.1000009179
 30
0.0
 11
-2.4999976158
 21
-18.1000009179
 31
0.0
  0
LINE
  5
50
330
46
100
AcDbEntity
  8
0
  6
Continuous
 62
     0
100
AcDbLine
 10
-2.4999976158
 20
0.0
 30
0.0
 11
-2.4999976158
 21
-18.1000009179
 31
0.0
  0
LINE
  5
51
330
46
100
AcDbEntity
  8
0
  6
Continuous
 62
     0
100
AcDbLine
 10
-17.9999992251
 20
0.0
 30
0.0
 11
-13.0000039935
 21
0.0
 31
0.0
  0
LINE
  5
52
330
46
100
AcDbEntity
  8
0
  6
Continuous
 62
     0
100
AcDbLine
 10
-17.9999992251
 20
0.0
 30
0.0
 11
-17.9999992251
 21
-18.1000009179
 31
0.0
  0
LINE
  5
53
330
46
100
AcDbEntity
  8
0
  6
Continuous
 62
     0
100
AcDbLine
 10
-17.9999992251
 20
-18.1000009179
 30
0.0
 11
-13.0000039935
 21
-18.1000009179
 31
0.0
  0
LINE
  5
54
330
46
100
AcDbEntity
  8
0
  6
Continuous
 62
     0
100
AcDbLine
 10
-13.0000039935
 20
0.0
 30
0.0
 11
-13.0000039935
 21
-18.1000009179
 31
0.0
  0
LINE
  5
55
330
46
100
AcDbEntity
  8
0
  6
Continuous
 62
     0
100
AcDbLine
 10
-24.7000083327
 20
0.0
 30
0.0
 11
-20.499996841
 21
0.0
 31
0.0
  0
LINE
  5
56
330
46
100
AcDbEntity
  8
0
  6
Continuous
 62
     0
100
AcDbLine
 10
-24.7000083327
 20
0.0
 30
0.0
 11
-24.7000083327
 21
-18.1000009179
 31
0.0
  0
LINE
  5
57
330
46
100
AcDbEntity
  8
0
  6
Continuous
 62
     0
100
AcDbLine
 10
-24.7000083327
 20
-18.1000009179
 30
0.0
 11
-20.499996841
 21
-18.1000009179
 31
0.0
  0
LINE
  5
58
330
46
100
AcDbEntity
  8
0
  6
Continuous
 62
     0
100
AcDbLine
 10
-20.499996841
 20
0.0
 30
0.0
 11
-20.499996841
 21
-18.1000009179
 31
0.0
  0
LINE
  5
59
330
46
100
AcDbEntity
  8
0
  6
Continuous
 62
     0
100
AcDbLine
 10
0.0
 20
-0.371478498
 30
0.0
 11
0.371478498
 21
0.0
 31
0.0
  0
LINE
  5
5A
330
46
100
AcDbEntity
  8
0
  6
Continuous
 62
     0
100
AcDbLine
 10
0.0
 20
-1.4940109104
 30
0.0
 11
1.494012773
 21
0.0
 31
0.0
  0
LINE
  5
5B
330
46
100
AcDbEntity
  8
0
  6
Continuous
 62
     0
100
AcDbLine
 10
0.0
 20
-2.6165428571
 30
0.0
 11
2.6165395975
 21
0.0
 31
0.0
  0
LINE
  5
5C
330
46
100
AcDbEntity
  8
0
  6
Continuous
 62
     0
100
AcDbLine
 10
0.0
 20
-3.7390748039
 30
0.0
 11
3.7390738726
 21
0.0
 31
0.0
  0
LINE
  5
5D
330
46
100
AcDbEntity
  8
0
  6
Continuous
 62
     0
100
AcDbLine
 10
0.0
 20
-4.8616067506
 30
0.0
 11
4.8616081476
 21
0.0
 31
0.0
  0
LINE
  5
5E
330
46
100
AcDbEntity
  8
0
  6
Continuous
 62
     0
100
AcDbLine
 10
0.0
 20
-5.9841389302
 30
0.0
 11
5.8000013232
 21
-0.1841392368
 31
0.0
  0
LINE
  5
5F
330
46
100
AcDbEntity
  8
0
  6
Continuous
 62
     0
100
AcDbLine
 10
0.0
 20
-7.106670877
 30
0.0
 11
5.8000013232
 21
-1.3066707179
 31
0.0
  0
LINE
  5
60
330
46
100
AcDbEntity
  8
0
  6
Continuous
 62
     0
100
AcDbLine
 10
0.0
 20
-8.2292028819
 30
0.0
 11
5.8000013232
 21
-2.4292031303
 31
0.0
  0
LINE
  5
61
330
46
100
AcDbEntity
  8
0
  6
Continuous
 62
     0
100
AcDbLine
 10
0.0
 20
-9.351734916
 30
0.0
 11
5.8000013232
 21
-3.5517350771
 31
0.0
  0
LINE
  5
62
330
46
100
AcDbEntity
  8
0
  6
Continuous
 62
     0
100
AcDbLine
 10
0.0
 20
-10.47426695
 30
0.0
 11
5.8000013232
 21
-4.6742670238
 31
0.0
  0
LINE
  5
63
330
46
100
AcDbEntity
  8
0
  6
Continuous
 62
     0
100
AcDbLine
 10
0.0
 20
-11.5967988968
 30
0.0
 11
5.8000013232
 21
-5.7967989706
 31
0.0
  0
LINE
  5
64
330
46
100
AcDbEntity
  8
0
  6
Continuous
 62
     0
100
AcDbLine
 10
0.0
 20
-12.7193310764
 30
0.0
 11
5.8000013232
 21
-6.9193309173
 31
0.0
  0
LINE
  5
65
330
46
100
AcDbEntity
  8
0
  6
Continuous
 62
     0
100
AcDbLine
 10
0.0
 20
-13.8418627903
 30
0.0
 11
5.8000013232
 21
-8.0418629805
 31
0.0
  0
LINE
  5
66
330
46
100
AcDbEntity
  8
0
  6
Continuous
 62
     0
100
AcDbLine
 10
0.0
 20
-14.9643952027
 30
0.0
 11
5.8000013232
 21
-9.1643949927
 31
0.0
  0
LINE
  5
67
330
46
100
AcDbEntity
  8
0
  6
Continuous
 62
     0
100
AcDbLine
 10
0.0
 20
-16.0869271494
 30
0.0
 11
5.8000013232
 21
-10.2869269904
 31
0.0
  0
LINE
  5
68
330
46
100
AcDbEntity
  8
0
  6
Continuous
 62
     0
100
AcDbLine
 10
0.0
 20
-17.2094590962
 30
0.0
 11
5.8000013232
 21
-11.4094589371
 31
0.0
  0
LINE
  5
69
330
46
100
AcDbEntity
  8
0
  6
Continuous
 62
     0
100
AcDbLine
 10
0.231988728
 20
-18.1000009179
 30
0.0
 11
5.8000013232
 21
-12.5319911167
 31
0.0
  0
LINE
  5
6A
330
46
100
AcDbEntity
  8
0
  6
Continuous
 62
     0
100
AcDbLine
 10
1.3545230031
 20
-18.1000009179
 30
0.0
 11
5.8000013232
 21
-13.6545230635
 31
0.0
  0
LINE
  5
6B
330
46
100
AcDbEntity
  8
0
  6
Continuous
 62
     0
100
AcDbLine
 10
2.4770498276
 20
-18.1000009179
 30
0.0
 11
5.8000013232
 21
-14.7770550102
 31
0.0
  0
LINE
  5
6C
330
46
100
AcDbEntity
  8
0
  6
Continuous
 62
     0
100
AcDbLine
 10
3.5995841026
 20
-18.1000009179
 30
0.0
 11
5.8000013232
 21
-15.8995869569
 31
0.0
  0
LINE
  5
6D
330
46
100
AcDbEntity
  8
0
  6
Continuous
 62
     0
100
AcDbLine
 10
4.7221183777
 20
-18.1000009179
 30
0.0
 11
5.8000013232
 21
-17.0221189037
 31
0.0
  0
LINE
  5
6E
330
46
100
AcDbEntity
  8
0
  6
Continuous
 62
     0
100
AcDbLine
 10
0.371478498
 20
-18.1000009179
 30
0.0
 11
0.0
 21
-17.7285224199
 31
0.0
  0
LINE
  5
6F
330
46
100
AcDbEntity
  8
0
  6
Continuous
 62
     0
100
AcDbLine
 10
1.494012773
 20
-18.1000009179
 30
0.0
 11
0.0
 21
-16.6059900075
 31
0.0
  0
LINE
  5
70
330
46
100
AcDbEntity
  8
0
  6
Continuous
 62
     0
100
AcDbLine
 10
2.6165395975
 20
-18.1000009179
 30
0.0
 11
0.0
 21
-15.4834580608
 31
0.0
  0
LINE
  5
71
330
46
100
AcDbEntity
  8
0
  6
Continuous
 62
     0
100
AcDbLine
 10
3.7390738726
 20
-18.1000009179
 30
0.0
 11
0.0
 21
-14.360926114
 31
0.0
  0
LINE
  5
72
330
46
100
AcDbEntity
  8
0
  6
Continuous
 62
     0
100
AcDbLine
 10
4.8616081476
 20
-18.1000009179
 30
0.0
 11
0.0
 21
-13.2383941673
 31
0.0
  0
LINE
  5
73
330
46
100
AcDbEntity
  8
0
  6
Continuous
 62
     0
100
AcDbLine
 10
5.8000013232
 20
-17.9158616811
 30
0.0
 11
0.0
 21
-12.1158619877
 31
0.0
  0
LINE
  5
74
330
46
100
AcDbEntity
  8
0
  6
Continuous
 62
     0
100
AcDbLine
 10
5.8000013232
 20
-16.7933302
 30
0.0
 11
0.0
 21
-10.9933300409
 31
0.0
  0
LINE
  5
75
330
46
100
AcDbEntity
  8
0
  6
Continuous
 62
     0
100
AcDbLine
 10
5.8000013232
 20
-15.6707977876
 30
0.0
 11
0.0
 21
-9.870798036
 31
0.0
  0
LINE
  5
76
330
46
100
AcDbEntity
  8
0
  6
Continuous
 62
     0
100
AcDbLine
 10
5.8000013232
 20
-14.5482658409
 30
0.0
 11
0.0
 21
-8.7482660019
 31
0.0
  0
LINE
  5
77
330
46
100
AcDbEntity
  8
0
  6
Continuous
 62
     0
100
AcDbLine
 10
5.8000013232
 20
-13.4257338941
 30
0.0
 11
0.0
 21
-7.6257339679
 31
0.0
  0
LINE
  5
78
330
46
100
AcDbEntity
  8
0
  6
Continuous
 62
     0
100
AcDbLine
 10
5.8000013232
 20
-12.3032019474
 30
0.0
 11
0.0
 21
-6.5032020211
 31
0.0
  0
LINE
  5
79
330
46
100
AcDbEntity
  8
0
  6
Continuous
 62
     0
100
AcDbLine
 10
5.8000013232
 20
-11.1806700006
 30
0.0
 11
0.0
 21
-5.3806698415
 31
0.0
  0
LINE
  5
7A
330
46
100
AcDbEntity
  8
0
  6
Continuous
 62
     0
100
AcDbLine
 10
5.8000013232
 20
-10.0581379374
 30
0.0
 11
0.0
 21
-4.2581381276
 31
0.0
  0
LINE
  5
7B
330
46
100
AcDbEntity
  8
0
  6
Continuous
 62
     0
100
AcDbLine
 10
5.8000013232
 20
-8.9356059252
 30
0.0
 11
0.0
 21
-3.1356057152
 31
0.0
  0
LINE
  5
7C
330
46
100
AcDbEntity
  8
0
  6
Continuous
 62
     0
100
AcDbLine
 10
5.8000013232
 20
-7.8130739275
 30
0.0
 11
0.0
 21
-2.0130737685
 31
0.0
  0
LINE
  5
7D
330
46
100
AcDbEntity
  8
0
  6
Continuous
 62
     0
100
AcDbLine
 10
5.8000013232
 20
-6.6905419808
 30
0.0
 11
0.0
 21
-0.8905418217
 31
0.0
  0
LINE
  5
7E
330
46
100
AcDbEntity
  8
0
  6
Continuous
 62
     0
100
AcDbLine
 10
5.8000013232
 20
-5.5680098012
 30
0.0
 11
0.231988728
 21
0.0
 31
0.0
  0
LINE
  5
7F
330
46
100
AcDbEntity
  8
0
  6
Continuous
 62
     0
100
AcDbLine
 10
5.8000013232
 20
-4.4454778545
 30
0.0
 11
1.3545230031
 21
0.0
 31
0.0
  0
LINE
  5
80
330
46
100
AcDbEntity
  8
0
  6
Continuous
 62
     0
100
AcDbLine
 10
5.8000013232
 20
-3.3229459077
 30
0.0
 11
2.4770498276
 21
0.0
 31
0.0
  0
LINE
  5
81
330
46
100
AcDbEntity
  8
0
  6
Continuous
 62
     0
100
AcDbLine
 10
5.8000013232
 20
-2.200413961
 30
0.0
 11
3.5995841026
 21
0.0
 31
0.0
  0
LINE
  5
82
330
46
100
AcDbEntity
  8
0
  6
Continuous
 62
     0
100
AcDbLine
 10
5.8000013232
 20
-1.0778820142
 30
0.0
 11
4.7221183777
 21
0.0
 31
0.0
  0
LINE
  5
83
330
46
100
AcDbEntity
  8
0
  6
Continuous
 62
     0
100
AcDbLine
 10
-7.500000298
 20
-0.0137547031
 30
0.0
 11
-7.4862465262
 21
0.0
 31
0.0
  0
LINE
  5
84
330
46
100
AcDbEntity
  8
0
  6
Continuous
 62
     0
100
AcDbLine
 10
-7.500000298
 20
-1.1362871155
 30
0.0
 11
-6.3637122512
 21
0.0
 31
0.0
  0
LINE
  5
85
330
46
100
AcDbEntity
  8
0
  6
Continuous
 62
     0
100
AcDbLine
 10
-7.500000298
 20
-2.2588185966
 30
0.0
 11
-5.2411854267
 21
0.0
 31
0.0
  0
LINE
  5
86
330
46
100
AcDbEntity
  8
0
  6
Continuous
 62
     0
100
AcDbLine
 10
-7.500000298
 20
-3.3813505433
 30
0.0
 11
-4.1186511517
 21
0.0
 31
0.0
  0
LINE
  5
87
330
46
100
AcDbEntity
  8
0
  6
Continuous
 62
     0
100
AcDbLine
 10
-7.500000298
 20
-4.5038829558
 30
0.0
 11
-2.9961168766
 21
0.0
 31
0.0
  0
LINE
  5
88
330
46
100
AcDbEntity
  8
0
  6
Continuous
 62
     0
100
AcDbLine
 10
-7.500000298
 20
-5.6264146697
 30
0.0
 11
-2.4999976158
 21
-0.6264150143
 31
0.0
  0
LINE
  5
89
330
46
100
AcDbEntity
  8
0
  6
Continuous
 62
     0
100
AcDbLine
 10
-7.500000298
 20
-6.7489468493
 30
0.0
 11
-2.4999976158
 21
-1.748946961
 31
0.0
  0
LINE
  5
8A
330
46
100
AcDbEntity
  8
0
  6
Continuous
 62
     0
100
AcDbLine
 10
-7.500000298
 20
-7.871478796
 30
0.0
 11
-2.4999976158
 21
-2.8714789078
 31
0.0
  0
LINE
  5
8B
330
46
100
AcDbEntity
  8
0
  6
Continuous
 62
     0
100
AcDbLine
 10
-7.500000298
 20
-8.9940108082
 30
0.0
 11
-2.4999976158
 21
-3.9940108545
 31
0.0
  0
LINE
  5
8C
330
46
100
AcDbEntity
  8
0
  6
Continuous
 62
     0
100
AcDbLine
 10
-7.500000298
 20
-10.1165428059
 30
0.0
 11
-2.4999976158
 21
-5.1165428013
 31
0.0
  0
LINE
  5
8D
330
46
100
AcDbEntity
  8
0
  6
Continuous
 62
     0
100
AcDbLine
 10
-7.500000298
 20
-11.2390748691
 30
0.0
 11
-2.4999976158
 21
-6.239074748
 31
0.0
  0
LINE
  5
8E
330
46
100
AcDbEntity
  8
0
  6
Continuous
 62
     0
100
AcDbLine
 10
-7.500000298
 20
-12.3616068158
 30
0.0
 11
-2.4999976158
 21
-7.3616068112
 31
0.0
  0
LINE
  5
8F
330
46
100
AcDbEntity
  8
0
  6
Continuous
 62
     0
100
AcDbLine
 10
-7.500000298
 20
-13.4841389954
 30
0.0
 11
-2.4999976158
 21
-8.4841388743
 31
0.0
  0
LINE
  5
90
330
46
100
AcDbEntity
  8
0
  6
Continuous
 62
     0
100
AcDbLine
 10
-7.500000298
 20
-14.6066709422
 30
0.0
 11
-2.4999976158
 21
-9.6066708793
 31
0.0
  0
LINE
  5
91
330
46
100
AcDbEntity
  8
0
  6
Continuous
 62
     0
100
AcDbLine
 10
-7.500000298
 20
-15.7292028889
 30
0.0
 11
-2.4999976158
 21
-10.7292028842
 31
0.0
  0
LINE
  5
92
330
46
100
AcDbEntity
  8
0
  6
Continuous
 62
     0
100
AcDbLine
 10
-7.500000298
 20
-16.8517348357
 30
0.0
 11
-2.4999976158
 21
-11.8517349474
 31
0.0
  0
LINE
  5
93
330
46
100
AcDbEntity
  8
0
  6
Continuous
 62
     0
100
AcDbLine
 10
-7.500000298
 20
-17.9742667824
 30
0.0
 11
-2.4999976158
 21
-12.9742668942
 31
0.0
  0
LINE
  5
94
330
46
100
AcDbEntity
  8
0
  6
Continuous
 62
     0
100
AcDbLine
 10
-6.5032020211
 20
-18.1000009179
 30
0.0
 11
-2.4999976158
 21
-14.0967988409
 31
0.0
  0
LINE
  5
95
330
46
100
AcDbEntity
  8
0
  6
Continuous
 62
     0
100
AcDbLine
 10
-5.3806677461
 20
-18.1000009179
 30
0.0
 11
-2.4999976158
 21
-15.2193307877
 31
0.0
  0
LINE
  5
96
330
46
100
AcDbEntity
  8
0
  6
Continuous
 62
     0
100
AcDbLine
 10
-4.2581409216
 20
-18.1000009179
 30
0.0
 11
-2.4999976158
 21
-16.3418632001
 31
0.0
  0
LINE
  5
97
330
46
100
AcDbEntity
  8
0
  6
Continuous
 62
     0
100
AcDbLine
 10
-3.1356066465
 20
-18.1000009179
 30
0.0
 11
-2.4999976158
 21
-17.4643946812
 31
0.0
  0
LINE
  5
98
330
46
100
AcDbEntity
  8
0
  6
Continuous
 62
     0
100
AcDbLine
 10
-7.4862465262
 20
-18.1000009179
 30
0.0
 11
-7.500000298
 21
-18.0862462148
 31
0.0
  0
LINE
  5
99
330
46
100
AcDbEntity
  8
0
  6
Continuous
 62
     0
100
AcDbLine
 10
-6.3637122512
 20
-18.1000009179
 30
0.0
 11
-7.500000298
 21
-16.9637138024
 31
0.0
  0
LINE
  5
9A
330
46
100
AcDbEntity
  8
0
  6
Continuous
 62
     0
100
AcDbLine
 10
-5.2411854267
 20
-18.1000009179
 30
0.0
 11
-7.500000298
 21
-15.8411823213
 31
0.0
  0
LINE
  5
9B
330
46
100
AcDbEntity
  8
0
  6
Continuous
 62
     0
100
AcDbLine
 10
-4.1186511517
 20
-18.1000009179
 30
0.0
 11
-7.500000298
 21
-14.7186503746
 31
0.0
  0
LINE
  5
9C
330
46
100
AcDbEntity
  8
0
  6
Continuous
 62
     0
100
AcDbLine
 10
-2.9961168766
 20
-18.1000009179
 30
0.0
 11
-7.500000298
 21
-13.5961179622
 31
0.0
  0
LINE
  5
9D
330
46
100
AcDbEntity
  8
0
  6
Continuous
 62
     0
100
AcDbLine
 10
-2.4999976158
 20
-17.4735859036
 30
0.0
 11
-7.500000298
 21
-12.4735862482
 31
0.0
  0
LINE
  5
9E
330
46
100
AcDbEntity
  8
0
  6
Continuous
 62
     0
100
AcDbLine
 10
-2.4999976158
 20
-16.3510539569
 30
0.0
 11
-7.500000298
 21
-11.3510540687
 31
0.0
  0
LINE
  5
9F
330
46
100
AcDbEntity
  8
0
  6
Continuous
 62
     0
100
AcDbLine
 10
-2.4999976158
 20
-15.2285220101
 30
0.0
 11
-7.500000298
 21
-10.2285221219
 31
0.0
  0
LINE
  5
A0
330
46
100
AcDbEntity
  8
0
  6
Continuous
 62
     0
100
AcDbLine
 10
-2.4999976158
 20
-14.1059900634
 30
0.0
 11
-7.500000298
 21
-9.1059901097
 31
0.0
  0
LINE
  5
A1
330
46
100
AcDbEntity
  8
0
  6
Continuous
 62
     0
100
AcDbLine
 10
-2.4999976158
 20
-12.9834581167
 30
0.0
 11
-7.500000298
 21
-7.983458112
 31
0.0
  0
LINE
  5
A2
330
46
100
AcDbEntity
  8
0
  6
Continuous
 62
     0
100
AcDbLine
 10
-2.4999976158
 20
-11.8609261699
 30
0.0
 11
-7.500000298
 21
-6.8609260488
 31
0.0
  0
LINE
  5
A3
330
46
100
AcDbEntity
  8
0
  6
Continuous
 62
     0
100
AcDbLine
 10
-2.4999976158
 20
-10.7383941067
 30
0.0
 11
-7.500000298
 21
-5.7383941021
 31
0.0
  0
LINE
  5
A4
330
46
100
AcDbEntity
  8
0
  6
Continuous
 62
     0
100
AcDbLine
 10
-2.4999976158
 20
-9.6158620436
 30
0.0
 11
-7.500000298
 21
-4.6158619225
 31
0.0
  0
LINE
  5
A5
330
46
100
AcDbEntity
  8
0
  6
Continuous
 62
     0
100
AcDbLine
 10
-2.4999976158
 20
-8.4933300386
 30
0.0
 11
-7.500000298
 21
-3.4933299758
 31
0.0
  0
LINE
  5
A6
330
46
100
AcDbEntity
  8
0
  6
Continuous
 62
     0
100
AcDbLine
 10
-2.4999976158
 20
-7.3707980337
 30
0.0
 11
-7.500000298
 21
-2.370798029
 31
0.0
  0
LINE
  5
A7
330
46
100
AcDbEntity
  8
0
  6
Continuous
 62
     0
100
AcDbLine
 10
-2.4999976158
 20
-6.2482659705
 30
0.0
 11
-7.500000298
 21
-1.2482660823
 31
0.0
  0
LINE
  5
A8
330
46
100
AcDbEntity
  8
0
  6
Continuous
 62
     0
100
AcDbLine
 10
-2.4999976158
 20
-5.1257340237
 30
0.0
 11
-7.500000298
 21
-0.1257341355
 31
0.0
  0
LINE
  5
A9
330
46
100
AcDbEntity
  8
0
  6
Continuous
 62
     0
100
AcDbLine
 10
-2.4999976158
 20
-4.003202077
 30
0.0
 11
-6.5032020211
 21
0.0
 31
0.0
  0
LINE
  5
AA
330
46
100
AcDbEntity
  8
0
  6
Continuous
 62
     0
100
AcDbLine
 10
-2.4999976158
 20
-2.8806701303
 30
0.0
 11
-5.3806677461
 21
0.0
 31
0.0
  0
LINE
  5
AB
330
46
100
AcDbEntity
  8
0
  6
Continuous
 62
     0
100
AcDbLine
 10
-2.4999976158
 20
-1.7581377178
 30
0.0
 11
-4.2581409216
 21
0.0
 31
0.0
  0
LINE
  5
AC
330
46
100
AcDbEntity
  8
0
  6
Continuous
 62
     0
100
AcDbLine
 10
-2.4999976158
 20
-0.6356062368
 30
0.0
 11
-3.1356066465
 21
0.0
 31
0.0
  0
LINE
  5
AD
330
46
100
AcDbEntity
  8
0
  6
Continuous
 62
     0
100
AcDbLine
 10
-17.9999992251
 20
-0.4109665751
 30
0.0
 11
-17.5890401006
 21
0.0
 31
0.0
  0
LINE
  5
AE
330
46
100
AcDbEntity
  8
0
  6
Continuous
 62
     0
100
AcDbLine
 10
-17.9999992251
 20
-1.5334985219
 30
0.0
 11
-16.4665058255
 21
0.0
 31
0.0
  0
LINE
  5
AF
330
46
100
AcDbEntity
  8
0
  6
Continuous
 62
     0
100
AcDbLine
 10
-17.9999992251
 20
-2.6560304686
 30
0.0
 11
-15.3439715505
 21
0.0
 31
0.0
  0
LINE
  5
B0
330
46
100
AcDbEntity
  8
0
  6
Continuous
 62
     0
100
AcDbLine
 10
-17.9999992251
 20
-3.7785624154
 30
0.0
 11
-14.2214372754
 21
0.0
 31
0.0
  0
LINE
  5
B1
330
46
100
AcDbEntity
  8
0
  6
Continuous
 62
     0
100
AcDbLine
 10
-17.9999992251
 20
-4.9010948278
 30
0.0
 11
-13.0989030004
 21
0.0
 31
0.0
  0
LINE
  5
B2
330
46
100
AcDbEntity
  8
0
  6
Continuous
 62
     0
100
AcDbLine
 10
-17.9999992251
 20
-6.0236265417
 30
0.0
 11
-13.0000039935
 21
-1.0236268863
 31
0.0
  0
LINE
  5
B3
330
46
100
AcDbEntity
  8
0
  6
Continuous
 62
     0
100
AcDbLine
 10
-17.9999992251
 20
-7.1461586049
 30
0.0
 11
-13.0000039935
 21
-2.1461588331
 31
0.0
  0
LINE
  5
B4
330
46
100
AcDbEntity
  8
0
  6
Continuous
 62
     0
100
AcDbLine
 10
-17.9999992251
 20
-8.268690668
 30
0.0
 11
-13.0000039935
 21
-3.2686907798
 31
0.0
  0
LINE
  5
B5
330
46
100
AcDbEntity
  8
0
  6
Continuous
 62
     0
100
AcDbLine
 10
-17.9999992251
 20
-9.391222673
 30
0.0
 11
-13.0000039935
 21
-4.3912227266
 31
0.0
  0
LINE
  5
B6
330
46
100
AcDbEntity
  8
0
  6
Continuous
 62
     0
100
AcDbLine
 10
-17.9999992251
 20
-10.513754678
 30
0.0
 11
-13.0000039935
 21
-5.5137546733
 31
0.0
  0
LINE
  5
B7
330
46
100
AcDbEntity
  8
0
  6
Continuous
 62
     0
100
AcDbLine
 10
-17.9999992251
 20
-11.6362867411
 30
0.0
 11
-13.0000039935
 21
-6.6362866201
 31
0.0
  0
LINE
  5
B8
330
46
100
AcDbEntity
  8
0
  6
Continuous
 62
     0
100
AcDbLine
 10
-17.9999992251
 20
-12.7588186879
 30
0.0
 11
-13.0000039935
 21
-7.7588186832
 31
0.0
  0
LINE
  5
B9
330
46
100
AcDbEntity
  8
0
  6
Continuous
 62
     0
100
AcDbLine
 10
-17.9999992251
 20
-13.8813508675
 30
0.0
 11
-13.0000039935
 21
-8.8813507318
 31
0.0
  0
LINE
  5
BA
330
46
100
AcDbEntity
  8
0
  6
Continuous
 62
     0
100
AcDbLine
 10
-17.9999992251
 20
-15.0038828142
 30
0.0
 11
-13.0000039935
 21
-10.0038827513
 31
0.0
  0
LINE
  5
BB
330
46
100
AcDbEntity
  8
0
  6
Continuous
 62
     0
100
AcDbLine
 10
-17.9999992251
 20
-16.1264147609
 30
0.0
 11
-13.0000039935
 21
-11.1264148727
 31
0.0
  0
LINE
  5
BC
330
46
100
AcDbEntity
  8
0
  6
Continuous
 62
     0
100
AcDbLine
 10
-17.9999992251
 20
-17.2489471734
 30
0.0
 11
-13.0000039935
 21
-12.2489468195
 31
0.0
  0
LINE
  5
BD
330
46
100
AcDbEntity
  8
0
  6
Continuous
 62
     0
100
AcDbLine
 10
-17.7285298705
 20
-18.1000009179
 30
0.0
 11
-13.0000039935
 21
-13.3714787662
 31
0.0
  0
LINE
  5
BE
330
46
100
AcDbEntity
  8
0
  6
Continuous
 62
     0
100
AcDbLine
 10
-16.6059955955
 20
-18.1000009179
 30
0.0
 11
-13.0000039935
 21
-14.494010713
 31
0.0
  0
LINE
  5
BF
330
46
100
AcDbEntity
  8
0
  6
Continuous
 62
     0
100
AcDbLine
 10
-15.4834613204
 20
-18.1000009179
 30
0.0
 11
-13.0000039935
 21
-15.6165426597
 31
0.0
  0
LINE
  5
C0
330
46
100
AcDbEntity
  8
0
  6
Continuous
 62
     0
100
AcDbLine
 10
-14.3609270453
 20
-18.1000009179
 30
0.0
 11
-13.0000039935
 21
-16.7390750721
 31
0.0
  0
LINE
  5
C1
330
46
100
AcDbEntity
  8
0
  6
Continuous
 62
     0
100
AcDbLine
 10
-13.2383927703
 20
-18.1000009179
 30
0.0
 11
-13.0000039935
 21
-17.8616065532
 31
0.0
  0
LINE
  5
C2
330
46
100
AcDbEntity
  8
0
  6
Continuous
 62
     0
100
AcDbLine
 10
-17.5890401006
 20
-18.1000009179
 30
0.0
 11
-17.9999992251
 21
-17.6890343428
 31
0.0
  0
LINE
  5
C3
330
46
100
AcDbEntity
  8
0
  6
Continuous
 62
     0
100
AcDbLine
 10
-16.4665058255
 20
-18.1000009179
 30
0.0
 11
-17.9999992251
 21
-16.566502396
 31
0.0
  0
LINE
  5
C4
330
46
100
AcDbEntity
  8
0
  6
Continuous
 62
     0
100
AcDbLine
 10
-15.3439715505
 20
-18.1000009179
 30
0.0
 11
-17.9999992251
 21
-15.4439704493
 31
0.0
  0
LINE
  5
C5
330
46
100
AcDbEntity
  8
0
  6
Continuous
 62
     0
100
AcDbLine
 10
-14.2214372754
 20
-18.1000009179
 30
0.0
 11
-17.9999992251
 21
-14.3214385025
 31
0.0
  0
LINE
  5
C6
330
46
100
AcDbEntity
  8
0
  6
Continuous
 62
     0
100
AcDbLine
 10
-13.0989030004
 20
-18.1000009179
 30
0.0
 11
-17.9999992251
 21
-13.1989060901
 31
0.0
  0
LINE
  5
C7
330
46
100
AcDbEntity
  8
0
  6
Continuous
 62
     0
100
AcDbLine
 10
-13.0000039935
 20
-17.0763740316
 30
0.0
 11
-17.9999992251
 21
-12.0763743762
 31
0.0
  0
LINE
  5
C8
330
46
100
AcDbEntity
  8
0
  6
Continuous
 62
     0
100
AcDbLine
 10
-13.0000039935
 20
-15.9538420849
 30
0.0
 11
-17.9999992251
 21
-10.953842313
 31
0.0
  0
LINE
  5
C9
330
46
100
AcDbEntity
  8
0
  6
Continuous
 62
     0
100
AcDbLine
 10
-13.0000039935
 20
-14.8313101381
 30
0.0
 11
-17.9999992251
 21
-9.8313102499
 31
0.0
  0
LINE
  5
CA
330
46
100
AcDbEntity
  8
0
  6
Continuous
 62
     0
100
AcDbLine
 10
-13.0000039935
 20
-13.7087781914
 30
0.0
 11
-17.9999992251
 21
-8.7087782449
 31
0.0
  0
LINE
  5
CB
330
46
100
AcDbEntity
  8
0
  6
Continuous
 62
     0
100
AcDbLine
 10
-13.0000039935
 20
-12.5862462446
 30
0.0
 11
-17.9999992251
 21
-7.58624624
 31
0.0
  0
LINE
  5
CC
330
46
100
AcDbEntity
  8
0
  6
Continuous
 62
     0
100
AcDbLine
 10
-13.0000039935
 20
-11.4637142979
 30
0.0
 11
-17.9999992251
 21
-6.4637141768
 31
0.0
  0
LINE
  5
CD
330
46
100
AcDbEntity
  8
0
  6
Continuous
 62
     0
100
AcDbLine
 10
-13.0000039935
 20
-10.3411822347
 30
0.0
 11
-17.9999992251
 21
-5.34118223
 31
0.0
  0
LINE
  5
CE
330
46
100
AcDbEntity
  8
0
  6
Continuous
 62
     0
100
AcDbLine
 10
-13.0000039935
 20
-9.2186501861
 30
0.0
 11
-17.9999992251
 21
-4.2186500505
 31
0.0
  0
LINE
  5
CF
330
46
100
AcDbEntity
  8
0
  6
Continuous
 62
     0
100
AcDbLine
 10
-13.0000039935
 20
-8.0961181666
 30
0.0
 11
-17.9999992251
 21
-3.0961181037
 31
0.0
  0
LINE
  5
D0
330
46
100
AcDbEntity
  8
0
  6
Continuous
 62
     0
100
AcDbLine
 10
-13.0000039935
 20
-6.9735860452
 30
0.0
 11
-17.9999992251
 21
-1.973586157
 31
0.0
  0
LINE
  5
D1
330
46
100
AcDbEntity
  8
0
  6
Continuous
 62
     0
100
AcDbLine
 10
-13.0000039935
 20
-5.8510540985
 30
0.0
 11
-17.9999992251
 21
-0.8510537446
 31
0.0
  0
LINE
  5
D2
330
46
100
AcDbEntity
  8
0
  6
Continuous
 62
     0
100
AcDbLine
 10
-13.0000039935
 20
-4.7285221517
 30
0.0
 11
-17.7285298705
 21
0.0
 31
0.0
  0
LINE
  5
D3
330
46
100
AcDbEntity
  8
0
  6
Continuous
 62
     0
100
AcDbLine
 10
-13.0000039935
 20
-3.605990205
 30
0.0
 11
-16.6059955955
 21
0.0
 31
0.0
  0
LINE
  5
D4
330
46
100
AcDbEntity
  8
0
  6
Continuous
 62
     0
100
AcDbLine
 10
-13.0000039935
 20
-2.4834582582
 30
0.0
 11
-15.4834613204
 21
0.0
 31
0.0
  0
LINE
  5
D5
330
46
100
AcDbEntity
  8
0
  6
Continuous
 62
     0
100
AcDbLine
 10
-13.0000039935
 20
-1.3609258458
 30
0.0
 11
-14.3609270453
 21
0.0
 31
0.0
  0
LINE
  5
D6
330
46
100
AcDbEntity
  8
0
  6
Continuous
 62
     0
100
AcDbLine
 10
-13.0000039935
 20
-0.2383943647
 30
0.0
 11
-13.2383927703
 21
0.0
 31
0.0
  0
LINE
  5
D7
330
46
100
AcDbEntity
  8
0
  6
Continuous
 62
     0
100
AcDbLine
 10
-24.7000083327
 20
-0.375774689
 30
0.0
 11
-24.3242308497
 21
0.0
 31
0.0
  0
LINE
  5
D8
330
46
100
AcDbEntity
  8
0
  6
Continuous
 62
     0
100
AcDbLine
 10
-24.7000083327
 20
-1.4983066358
 30
0.0
 11
-23.2016965747
 21
0.0
 31
0.0
  0
LINE
  5
D9
330
46
100
AcDbEntity
  8
0
  6
Continuous
 62
     0
100
AcDbLine
 10
-24.7000083327
 20
-2.6208385825
 30
0.0
 11
-22.0791622996
 21
0.0
 31
0.0
  0
LINE
  5
DA
330
46
100
AcDbEntity
  8
0
  6
Continuous
 62
     0
100
AcDbLine
 10
-24.7000083327
 20
-3.7433705293
 30
0.0
 11
-20.9566280246
 21
0.0
 31
0.0
  0
LINE
  5
DB
330
46
100
AcDbEntity
  8
0
  6
Continuous
 62
     0
100
AcDbLine
 10
-24.7000083327
 20
-4.865902476
 30
0.0
 11
-20.499996841
 21
-0.6659021601
 31
0.0
  0
LINE
  5
DC
330
46
100
AcDbEntity
  8
0
  6
Continuous
 62
     0
100
AcDbLine
 10
-24.7000083327
 20
-5.9884344228
 30
0.0
 11
-20.499996841
 21
-1.7884345725
 31
0.0
  0
LINE
  5
DD
330
46
100
AcDbEntity
  8
0
  6
Continuous
 62
     0
100
AcDbLine
 10
-24.7000083327
 20
-7.1109666023
 30
0.0
 11
-20.499996841
 21
-2.9109665193
 31
0.0
  0
LINE
  5
DE
330
46
100
AcDbEntity
  8
0
  6
Continuous
 62
     0
100
AcDbLine
 10
-24.7000083327
 20
-8.2334985491
 30
0.0
 11
-20.499996841
 21
-4.033498466
 31
0.0
  0
LINE
  5
DF
330
46
100
AcDbEntity
  8
0
  6
Continuous
 62
     0
100
AcDbLine
 10
-24.7000083327
 20
-9.3560305831
 30
0.0
 11
-20.499996841
 21
-5.1560306456
 31
0.0
  0
LINE
  5
E0
330
46
100
AcDbEntity
  8
0
  6
Continuous
 62
     0
100
AcDbLine
 10
-24.7000083327
 20
-10.478562559
 30
0.0
 11
-20.499996841
 21
-6.2785625923
 31
0.0
  0
LINE
  5
E1
330
46
100
AcDbEntity
  8
0
  6
Continuous
 62
     0
100
AcDbLine
 10
-24.7000083327
 20
-11.6010946222
 30
0.0
 11
-20.499996841
 21
-7.4010946555
 31
0.0
  0
LINE
  5
E2
330
46
100
AcDbEntity
  8
0
  6
Continuous
 62
     0
100
AcDbLine
 10
-24.7000083327
 20
-12.7236265689
 30
0.0
 11
-20.499996841
 21
-8.5236266023
 31
0.0
  0
LINE
  5
E3
330
46
100
AcDbEntity
  8
0
  6
Continuous
 62
     0
100
AcDbLine
 10
-24.7000083327
 20
-13.8461585157
 30
0.0
 11
-20.499996841
 21
-9.6461586654
 31
0.0
  0
LINE
  5
E4
330
46
100
AcDbEntity
  8
0
  6
Continuous
 62
     0
100
AcDbLine
 10
-24.7000083327
 20
-14.9686904624
 30
0.0
 11
-20.499996841
 21
-10.7686906122
 31
0.0
  0
LINE
  5
E5
330
46
100
AcDbEntity
  8
0
  6
Continuous
 62
     0
100
AcDbLine
 10
-24.7000083327
 20
-16.0912228748
 30
0.0
 11
-20.499996841
 21
-11.8912225589
 31
0.0
  0
LINE
  5
E6
330
46
100
AcDbEntity
  8
0
  6
Continuous
 62
     0
100
AcDbLine
 10
-24.7000083327
 20
-17.2137543559
 30
0.0
 11
-20.499996841
 21
-13.0137545057
 31
0.0
  0
LINE
  5
E7
330
46
100
AcDbEntity
  8
0
  6
Continuous
 62
     0
100
AcDbLine
 10
-24.4637206197
 20
-18.1000009179
 30
0.0
 11
-20.499996841
 21
-14.1362869181
 31
0.0
  0
LINE
  5
E8
330
46
100
AcDbEntity
  8
0
  6
Continuous
 62
     0
100
AcDbLine
 10
-23.3411863446
 20
-18.1000009179
 30
0.0
 11
-20.499996841
 21
-15.2588188648
 31
0.0
  0
LINE
  5
E9
330
46
100
AcDbEntity
  8
0
  6
Continuous
 62
     0
100
AcDbLine
 10
-22.2186520696
 20
-18.1000009179
 30
0.0
 11
-20.499996841
 21
-16.3813508116
 31
0.0
  0
LINE
  5
EA
330
46
100
AcDbEntity
  8
0
  6
Continuous
 62
     0
100
AcDbLine
 10
-21.0961177945
 20
-18.1000009179
 30
0.0
 11
-20.499996841
 21
-17.5038827583
 31
0.0
  0
LINE
  5
EB
330
46
100
AcDbEntity
  8
0
  6
Continuous
 62
     0
100
AcDbLine
 10
-24.3242308497
 20
-18.1000009179
 30
0.0
 11
-24.7000083327
 21
-17.7242262289
 31
0.0
  0
LINE
  5
EC
330
46
100
AcDbEntity
  8
0
  6
Continuous
 62
     0
100
AcDbLine
 10
-23.2016965747
 20
-18.1000009179
 30
0.0
 11
-24.7000083327
 21
-16.6016942821
 31
0.0
  0
LINE
  5
ED
330
46
100
AcDbEntity
  8
0
  6
Continuous
 62
     0
100
AcDbLine
 10
-22.0791622996
 20
-18.1000009179
 30
0.0
 11
-24.7000083327
 21
-15.4791623354
 31
0.0
  0
LINE
  5
EE
330
46
100
AcDbEntity
  8
0
  6
Continuous
 62
     0
100
AcDbLine
 10
-20.9566280246
 20
-18.1000009179
 30
0.0
 11
-24.7000083327
 21
-14.3566303886
 31
0.0
  0
LINE
  5
EF
330
46
100
AcDbEntity
  8
0
  6
Continuous
 62
     0
100
AcDbLine
 10
-20.499996841
 20
-17.4340987578
 30
0.0
 11
-24.7000083327
 21
-13.2340984419
 31
0.0
  0
LINE
  5
F0
330
46
100
AcDbEntity
  8
0
  6
Continuous
 62
     0
100
AcDbLine
 10
-20.499996841
 20
-16.3115663454
 30
0.0
 11
-24.7000083327
 21
-12.1115664952
 31
0.0
  0
LINE
  5
F1
330
46
100
AcDbEntity
  8
0
  6
Continuous
 62
     0
100
AcDbLine
 10
-20.499996841
 20
-15.1890343986
 30
0.0
 11
-24.7000083327
 21
-10.9890343156
 31
0.0
  0
LINE
  5
F2
330
46
100
AcDbEntity
  8
0
  6
Continuous
 62
     0
100
AcDbLine
 10
-20.499996841
 20
-14.0665024519
 30
0.0
 11
-24.7000083327
 21
-9.8665023688
 31
0.0
  0
LINE
  5
F3
330
46
100
AcDbEntity
  8
0
  6
Continuous
 62
     0
100
AcDbLine
 10
-20.499996841
 20
-12.9439702723
 30
0.0
 11
-24.7000083327
 21
-8.7439703348
 31
0.0
  0
LINE
  5
F4
330
46
100
AcDbEntity
  8
0
  6
Continuous
 62
     0
100
AcDbLine
 10
-20.499996841
 20
-11.8214383256
 30
0.0
 11
-24.7000083327
 21
-7.6214383589
 31
0.0
  0
LINE
  5
F5
330
46
100
AcDbEntity
  8
0
  6
Continuous
 62
     0
100
AcDbLine
 10
-20.499996841
 20
-10.6989062624
 30
0.0
 11
-24.7000083327
 21
-6.4989062957
 31
0.0
  0
LINE
  5
F6
330
46
100
AcDbEntity
  8
0
  6
Continuous
 62
     0
100
AcDbLine
 10
-20.499996841
 20
-9.5763743157
 30
0.0
 11
-24.7000083327
 21
-5.376374349
 31
0.0
  0
LINE
  5
F7
330
46
100
AcDbEntity
  8
0
  6
Continuous
 62
     0
100
AcDbLine
 10
-20.499996841
 20
-8.4538422525
 30
0.0
 11
-24.7000083327
 21
-4.2538424022
 31
0.0
  0
LINE
  5
F8
330
46
100
AcDbEntity
  8
0
  6
Continuous
 62
     0
100
AcDbLine
 10
-20.499996841
 20
-7.3313103057
 30
0.0
 11
-24.7000083327
 21
-3.1313104555
 31
0.0
  0
LINE
  5
F9
330
46
100
AcDbEntity
  8
0
  6
Continuous
 62
     0
100
AcDbLine
 10
-20.499996841
 20
-6.208778359
 30
0.0
 11
-24.7000083327
 21
-2.0087780431
 31
0.0
  0
LINE
  5
FA
330
46
100
AcDbEntity
  8
0
  6
Continuous
 62
     0
100
AcDbLine
 10
-20.499996841
 20
-5.0862464122
 30
0.0
 11
-24.7000083327
 21
-0.886246562
 31
0.0
  0
LINE
  5
FB
330
46
100
AcDbEntity
  8
0
  6
Continuous
 62
     0
100
AcDbLine
 10
-20.499996841
 20
-3.9637139998
 30
0.0
 11
-24.4637206197
 21
0.0
 31
0.0
  0
LINE
  5
FC
330
46
100
AcDbEntity
  8
0
  6
Continuous
 62
     0
100
AcDbLine
 10
-20.499996841
 20
-2.8411820531
 30
0.0
 11
-23.3411863446
 21
0.0
 31
0.0
  0
LINE
  5
FD
330
46
100
AcDbEntity
  8
0
  6
Continuous
 62
     0
100
AcDbLine
 10
-20.499996841
 20
-1.7186501063
 30
0.0
 11
-22.2186520696
 21
0.0
 31
0.0
  0
LINE
  5
FE
330
46
100
AcDbEntity
  8
0
  6
Continuous
 62
     0
100
AcDbLine
 10
-20.499996841
 20
-0.5961181596
 30
0.0
 11
-21.0961177945
 21
0.0
 31
0.0
  0
LINE
  5
FF
330
46
100
AcDbEntity
  8
0
  6
Continuous
 62
     0
100
AcDbLine
 10
148.3665955399
 20
0.0
 30
0.0
 11
153.3666056727
 21
0.0
 31
0.0
  0
LINE
  5
100
330
46
100
AcDbEntity
  8
0
  6
Continuous
 62
     0
100
AcDbLine
 10
148.3665955399
 20
0.0
 30
0.0
 11
148.3665955399
 21
-18.1000009179
 31
0.0
  0
LINE
  5
101
330
46
100
AcDbEntity
  8
0
  6
Continuous
 62
     0
100
AcDbLine
 10
148.3665955399
 20
-18.1000009179
 30
0.0
 11
153.3666056727
 21
-18.1000009179
 31
0.0
  0
LINE
  5
102
330
46
100
AcDbEntity
  8
0
  6
Continuous
 62
     0
100
AcDbLine
 10
153.3666056727
 20
0.0
 30
0.0
 11
153.3666056727
 21
-18.1000009179
 31
0.0
  0
LINE
  5
103
330
46
100
AcDbEntity
  8
0
  6
Continuous
 62
     0
100
AcDbLine
 10
141.6666013335
 20
0.0
 30
0.0
 11
145.8665979241
 21
0.0
 31
0.0
  0
LINE
  5
104
330
46
100
AcDbEntity
  8
0
  6
Continuous
 62
     0
100
AcDbLine
 10
141.6666013335
 20
0.0
 30
0.0
 11
141.6666013335
 21
-18.1000009179
 31
0.0
  0
LINE
  5
105
330
46
100
AcDbEntity
  8
0
  6
Continuous
 62
     0
100
AcDbLine
 10
141.6666013335
 20
-18.1000009179
 30
0.0
 11
145.8665979241
 21
-18.1000009179
 31
0.0
  0
LINE
  5
106
330
46
100
AcDbEntity
  8
0
  6
Continuous
 62
     0
100
AcDbLine
 10
145.8665979241
 20
0.0
 30
0.0
 11
145.8665979241
 21
-18.1000009179
 31
0.0
  0
LINE
  5
107
330
46
100
AcDbEntity
  8
0
  6
Continuous
 62
     0
100
AcDbLine
 10
148.3665955399
 20
-0.7267873734
 30
0.0
 11
149.093384776
 21
0.0
 31
0.0
  0
LINE
  5
108
330
46
100
AcDbEntity
  8
0
  6
Continuous
 62
     0
100
AcDbLine
 10
148.3665955399
 20
-1.8493197858
 30
0.0
 11
150.215919051
 21
0.0
 31
0.0
  0
LINE
  5
109
330
46
100
AcDbEntity
  8
0
  6
Continuous
 62
     0
100
AcDbLine
 10
148.3665955399
 20
-2.9718517326
 30
0.0
 11
151.3384533261
 21
0.0
 31
0.0
  0
LINE
  5
10A
330
46
100
AcDbEntity
  8
0
  6
Continuous
 62
     0
100
AcDbLine
 10
148.3665955399
 20
-4.0943836793
 30
0.0
 11
152.4609727
 21
0.0
 31
0.0
  0
LINE
  5
10B
330
46
100
AcDbEntity
  8
0
  6
Continuous
 62
     0
100
AcDbLine
 10
148.3665955399
 20
-5.2169156261
 30
0.0
 11
153.3666056727
 21
-0.2169152722
 31
0.0
  0
LINE
  5
10C
330
46
100
AcDbEntity
  8
0
  6
Continuous
 62
     0
100
AcDbLine
 10
148.3665955399
 20
-6.3394478057
 30
0.0
 11
153.3666056727
 21
-1.3394476846
 31
0.0
  0
LINE
  5
10D
330
46
100
AcDbEntity
  8
0
  6
Continuous
 62
     0
100
AcDbLine
 10
148.3665955399
 20
-7.4619797524
 30
0.0
 11
153.3666056727
 21
-2.4619796313
 31
0.0
  0
LINE
  5
10E
330
46
100
AcDbEntity
  8
0
  6
Continuous
 62
     0
100
AcDbLine
 10
148.3665955399
 20
-8.5845117865
 30
0.0
 11
153.3666056727
 21
-3.5845115781
 31
0.0
  0
LINE
  5
10F
330
46
100
AcDbEntity
  8
0
  6
Continuous
 62
     0
100
AcDbLine
 10
148.3665955399
 20
-9.7070437623
 30
0.0
 11
153.3666056727
 21
-4.7070439905
 31
0.0
  0
LINE
  5
110
330
46
100
AcDbEntity
  8
0
  6
Continuous
 62
     0
100
AcDbLine
 10
148.3665955399
 20
-10.8295758255
 30
0.0
 11
153.3666056727
 21
-5.8295757044
 31
0.0
  0
LINE
  5
111
330
46
100
AcDbEntity
  8
0
  6
Continuous
 62
     0
100
AcDbLine
 10
148.3665955399
 20
-11.9521077722
 30
0.0
 11
153.3666056727
 21
-6.952107884
 31
0.0
  0
LINE
  5
112
330
46
100
AcDbEntity
  8
0
  6
Continuous
 62
     0
100
AcDbLine
 10
148.3665955399
 20
-13.074639719
 30
0.0
 11
153.3666056727
 21
-8.0746398307
 31
0.0
  0
LINE
  5
113
330
46
100
AcDbEntity
  8
0
  6
Continuous
 62
     0
100
AcDbLine
 10
148.3665955399
 20
-14.1971716657
 30
0.0
 11
153.3666056727
 21
-9.1971718502
 31
0.0
  0
LINE
  5
114
330
46
100
AcDbEntity
  8
0
  6
Continuous
 62
     0
100
AcDbLine
 10
148.3665955399
 20
-15.3197040781
 30
0.0
 11
153.3666056727
 21
-10.3197038407
 31
0.0
  0
LINE
  5
115
330
46
100
AcDbEntity
  8
0
  6
Continuous
 62
     0
100
AcDbLine
 10
148.3665955399
 20
-16.4422360249
 30
0.0
 11
153.3666056727
 21
-11.4422359038
 31
0.0
  0
LINE
  5
116
330
46
100
AcDbEntity
  8
0
  6
Continuous
 62
     0
100
AcDbLine
 10
148.3665955399
 20
-17.5647679716
 30
0.0
 11
153.3666056727
 21
-12.5647678506
 31
0.0
  0
LINE
  5
117
330
46
100
AcDbEntity
  8
0
  6
Continuous
 62
     0
100
AcDbLine
 10
148.953895006
 20
-18.1000009179
 30
0.0
 11
153.3666056727
 21
-13.6873000301
 31
0.0
  0
LINE
  5
118
330
46
100
AcDbEntity
  8
0
  6
Continuous
 62
     0
100
AcDbLine
 10
150.0764292811
 20
-18.1000009179
 30
0.0
 11
153.3666056727
 21
-14.8098319769
 31
0.0
  0
LINE
  5
119
330
46
100
AcDbEntity
  8
0
  6
Continuous
 62
     0
100
AcDbLine
 10
151.1989635561
 20
-18.1000009179
 30
0.0
 11
153.3666056727
 21
-15.9323639236
 31
0.0
  0
LINE
  5
11A
330
46
100
AcDbEntity
  8
0
  6
Continuous
 62
     0
100
AcDbLine
 10
152.3214978312
 20
-18.1000009179
 30
0.0
 11
153.3666056727
 21
-17.0548958704
 31
0.0
  0
LINE
  5
11B
330
46
100
AcDbEntity
  8
0
  6
Continuous
 62
     0
100
AcDbLine
 10
149.093384776
 20
-18.1000009179
 30
0.0
 11
148.3665955399
 21
-17.3732135445
 31
0.0
  0
LINE
  5
11C
330
46
100
AcDbEntity
  8
0
  6
Continuous
 62
     0
100
AcDbLine
 10
150.215919051
 20
-18.1000009179
 30
0.0
 11
148.3665955399
 21
-16.2506811321
 31
0.0
  0
LINE
  5
11D
330
46
100
AcDbEntity
  8
0
  6
Continuous
 62
     0
100
AcDbLine
 10
151.3384533261
 20
-18.1000009179
 30
0.0
 11
148.3665955399
 21
-15.1281491853
 31
0.0
  0
LINE
  5
11E
330
46
100
AcDbEntity
  8
0
  6
Continuous
 62
     0
100
AcDbLine
 10
152.4609727
 20
-18.1000009179
 30
0.0
 11
148.3665955399
 21
-14.0056172386
 31
0.0
  0
LINE
  5
11F
330
46
100
AcDbEntity
  8
0
  6
Continuous
 62
     0
100
AcDbLine
 10
153.3666056727
 20
-17.8830856457
 30
0.0
 11
148.3665955399
 21
-12.8830852918
 31
0.0
  0
LINE
  5
120
330
46
100
AcDbEntity
  8
0
  6
Continuous
 62
     0
100
AcDbLine
 10
153.3666056727
 20
-16.7605532333
 30
0.0
 11
148.3665955399
 21
-11.7605531123
 31
0.0
  0
LINE
  5
121
330
46
100
AcDbEntity
  8
0
  6
Continuous
 62
     0
100
AcDbLine
 10
153.3666056727
 20
-15.6380212866
 30
0.0
 11
148.3665955399
 21
-10.6380211655
 31
0.0
  0
LINE
  5
122
330
46
100
AcDbEntity
  8
0
  6
Continuous
 62
     0
100
AcDbLine
 10
153.3666056727
 20
-14.5154893398
 30
0.0
 11
148.3665955399
 21
-9.5154891314
 31
0.0
  0
LINE
  5
123
330
46
100
AcDbEntity
  8
0
  6
Continuous
 62
     0
100
AcDbLine
 10
153.3666056727
 20
-13.3929569274
 30
0.0
 11
148.3665955399
 21
-8.3929571556
 31
0.0
  0
LINE
  5
124
330
46
100
AcDbEntity
  8
0
  6
Continuous
 62
     0
100
AcDbLine
 10
153.3666056727
 20
-12.2704252135
 30
0.0
 11
148.3665955399
 21
-7.2704250924
 31
0.0
  0
LINE
  5
125
330
46
100
AcDbEntity
  8
0
  6
Continuous
 62
     0
100
AcDbLine
 10
153.3666056727
 20
-11.1478930339
 30
0.0
 11
148.3665955399
 21
-6.1478931457
 31
0.0
  0
LINE
  5
126
330
46
100
AcDbEntity
  8
0
  6
Continuous
 62
     0
100
AcDbLine
 10
153.3666056727
 20
-10.0253610872
 30
0.0
 11
148.3665955399
 21
-5.0253611989
 31
0.0
  0
LINE
  5
127
330
46
100
AcDbEntity
  8
0
  6
Continuous
 62
     0
100
AcDbLine
 10
153.3666056727
 20
-8.9028290677
 30
0.0
 11
148.3665955399
 21
-3.9028292522
 31
0.0
  0
LINE
  5
128
330
46
100
AcDbEntity
  8
0
  6
Continuous
 62
     0
100
AcDbLine
 10
153.3666056727
 20
-7.7802970773
 30
0.0
 11
148.3665955399
 21
-2.7802968398
 31
0.0
  0
LINE
  5
129
330
46
100
AcDbEntity
  8
0
  6
Continuous
 62
     0
100
AcDbLine
 10
153.3666056727
 20
-6.6577650141
 30
0.0
 11
148.3665955399
 21
-1.657764893
 31
0.0
  0
LINE
  5
12A
330
46
100
AcDbEntity
  8
0
  6
Continuous
 62
     0
100
AcDbLine
 10
153.3666056727
 20
-5.5352330673
 30
0.0
 11
148.3665955399
 21
-0.5352329463
 31
0.0
  0
LINE
  5
12B
330
46
100
AcDbEntity
  8
0
  6
Continuous
 62
     0
100
AcDbLine
 10
153.3666056727
 20
-4.4127008878
 30
0.0
 11
148.953895006
 21
0.0
 31
0.0
  0
LINE
  5
12C
330
46
100
AcDbEntity
  8
0
  6
Continuous
 62
     0
100
AcDbLine
 10
153.3666056727
 20
-3.290168941
 30
0.0
 11
150.0764292811
 21
0.0
 31
0.0
  0
LINE
  5
12D
330
46
100
AcDbEntity
  8
0
  6
Continuous
 62
     0
100
AcDbLine
 10
153.3666056727
 20
-2.1676369943
 30
0.0
 11
151.1989635561
 21
0.0
 31
0.0
  0
LINE
  5
12E
330
46
100
AcDbEntity
  8
0
  6
Continuous
 62
     0
100
AcDbLine
 10
153.3666056727
 20
-1.0451050475
 30
0.0
 11
152.3214978312
 21
0.0
 31
0.0
  0
LINE
  5
12F
330
46
100
AcDbEntity
  8
0
  6
Continuous
 62
     0
100
AcDbLine
 10
141.6666013335
 20
-0.6915954873
 30
0.0
 11
142.3581940268
 21
0.0
 31
0.0
  0
LINE
  5
130
330
46
100
AcDbEntity
  8
0
  6
Continuous
 62
     0
100
AcDbLine
 10
141.6666013335
 20
-1.814127434
 30
0.0
 11
143.4807283018
 21
0.0
 31
0.0
  0
LINE
  5
131
330
46
100
AcDbEntity
  8
0
  6
Continuous
 62
     0
100
AcDbLine
 10
141.6666013335
 20
-2.9366593808
 30
0.0
 11
144.6032625769
 21
0.0
 31
0.0
  0
LINE
  5
132
330
46
100
AcDbEntity
  8
0
  6
Continuous
 62
     0
100
AcDbLine
 10
141.6666013335
 20
-4.0591917932
 30
0.0
 11
145.7257968519
 21
0.0
 31
0.0
  0
LINE
  5
133
330
46
100
AcDbEntity
  8
0
  6
Continuous
 62
     0
100
AcDbLine
 10
141.6666013335
 20
-5.18172374
 30
0.0
 11
145.8665979241
 21
-0.9817238897
 31
0.0
  0
LINE
  5
134
330
46
100
AcDbEntity
  8
0
  6
Continuous
 62
     0
100
AcDbLine
 10
141.6666013335
 20
-6.3042556867
 30
0.0
 11
145.8665979241
 21
-2.1042558365
 31
0.0
  0
LINE
  5
135
330
46
100
AcDbEntity
  8
0
  6
Continuous
 62
     0
100
AcDbLine
 10
141.6666013335
 20
-7.4267876334
 30
0.0
 11
145.8665979241
 21
-3.2267877832
 31
0.0
  0
LINE
  5
136
330
46
100
AcDbEntity
  8
0
  6
Continuous
 62
     0
100
AcDbLine
 10
141.6666013335
 20
-8.5493196966
 30
0.0
 11
145.8665979241
 21
-4.34931973
 31
0.0
  0
LINE
  5
137
330
46
100
AcDbEntity
  8
0
  6
Continuous
 62
     0
100
AcDbLine
 10
141.6666013335
 20
-9.6718517016
 30
0.0
 11
145.8665979241
 21
-5.4718516767
 31
0.0
  0
LINE
  5
138
330
46
100
AcDbEntity
  8
0
  6
Continuous
 62
     0
100
AcDbLine
 10
141.6666013335
 20
-10.7943837065
 30
0.0
 11
145.8665979241
 21
-6.5943836235
 31
0.0
  0
LINE
  5
139
330
46
100
AcDbEntity
  8
0
  6
Continuous
 62
     0
100
AcDbLine
 10
141.6666013335
 20
-11.9169156533
 30
0.0
 11
145.8665979241
 21
-7.7169156866
 31
0.0
  0
LINE
  5
13A
330
46
100
AcDbEntity
  8
0
  6
Continuous
 62
     0
100
AcDbLine
 10
141.6666013335
 20
-13.0394478329
 30
0.0
 11
145.8665979241
 21
-8.8394477498
 31
0.0
  0
LINE
  5
13B
330
46
100
AcDbEntity
  8
0
  6
Continuous
 62
     0
100
AcDbLine
 10
141.6666013335
 20
-14.1619797796
 30
0.0
 11
145.8665979241
 21
-9.9619797547
 31
0.0
  0
LINE
  5
13C
330
46
100
AcDbEntity
  8
0
  6
Continuous
 62
     0
100
AcDbLine
 10
141.6666013335
 20
-15.2845117263
 30
0.0
 11
145.8665979241
 21
-11.0845118761
 31
0.0
  0
LINE
  5
13D
330
46
100
AcDbEntity
  8
0
  6
Continuous
 62
     0
100
AcDbLine
 10
141.6666013335
 20
-16.4070436731
 30
0.0
 11
145.8665979241
 21
-12.2070438229
 31
0.0
  0
LINE
  5
13E
330
46
100
AcDbEntity
  8
0
  6
Continuous
 62
     0
100
AcDbLine
 10
141.6666013335
 20
-17.5295760855
 30
0.0
 11
145.8665979241
 21
-13.3295757696
 31
0.0
  0
LINE
  5
13F
330
46
100
AcDbEntity
  8
0
  6
Continuous
 62
     0
100
AcDbLine
 10
142.2187042568
 20
-18.1000009179
 30
0.0
 11
145.8665979241
 21
-14.4521077164
 31
0.0
  0
LINE
  5
140
330
46
100
AcDbEntity
  8
0
  6
Continuous
 62
     0
100
AcDbLine
 10
143.3412385319
 20
-18.1000009179
 30
0.0
 11
145.8665979241
 21
-15.5746396631
 31
0.0
  0
LINE
  5
141
330
46
100
AcDbEntity
  8
0
  6
Continuous
 62
     0
100
AcDbLine
 10
144.463772807
 20
-18.1000009179
 30
0.0
 11
145.8665979241
 21
-16.6971720755
 31
0.0
  0
LINE
  5
142
330
46
100
AcDbEntity
  8
0
  6
Continuous
 62
     0
100
AcDbLine
 10
145.586307082
 20
-18.1000009179
 30
0.0
 11
145.8665979241
 21
-17.8197035566
 31
0.0
  0
LINE
  5
143
330
46
100
AcDbEntity
  8
0
  6
Continuous
 62
     0
100
AcDbLine
 10
142.3581940268
 20
-18.1000009179
 30
0.0
 11
141.6666013335
 21
-17.4084054306
 31
0.0
  0
LINE
  5
144
330
46
100
AcDbEntity
  8
0
  6
Continuous
 62
     0
100
AcDbLine
 10
143.4807283018
 20
-18.1000009179
 30
0.0
 11
141.6666013335
 21
-16.2858734839
 31
0.0
  0
LINE
  5
145
330
46
100
AcDbEntity
  8
0
  6
Continuous
 62
     0
100
AcDbLine
 10
144.6032625769
 20
-18.1000009179
 30
0.0
 11
141.6666013335
 21
-15.1633415371
 31
0.0
  0
LINE
  5
146
330
46
100
AcDbEntity
  8
0
  6
Continuous
 62
     0
100
AcDbLine
 10
145.7257968519
 20
-18.1000009179
 30
0.0
 11
141.6666013335
 21
-14.0408091247
 31
0.0
  0
LINE
  5
147
330
46
100
AcDbEntity
  8
0
  6
Continuous
 62
     0
100
AcDbLine
 10
145.8665979241
 20
-17.1182770282
 30
0.0
 11
141.6666013335
 21
-12.918277178
 31
0.0
  0
LINE
  5
148
330
46
100
AcDbEntity
  8
0
  6
Continuous
 62
     0
100
AcDbLine
 10
145.8665979241
 20
-15.9957450815
 30
0.0
 11
141.6666013335
 21
-11.7957452312
 31
0.0
  0
LINE
  5
149
330
46
100
AcDbEntity
  8
0
  6
Continuous
 62
     0
100
AcDbLine
 10
145.8665979241
 20
-14.8732131347
 30
0.0
 11
141.6666013335
 21
-10.6732132845
 31
0.0
  0
LINE
  5
14A
330
46
100
AcDbEntity
  8
0
  6
Continuous
 62
     0
100
AcDbLine
 10
145.8665979241
 20
-13.750681188
 30
0.0
 11
141.6666013335
 21
-9.5506812213
 31
0.0
  0
LINE
  5
14B
330
46
100
AcDbEntity
  8
0
  6
Continuous
 62
     0
100
AcDbLine
 10
145.8665979241
 20
-12.6281492412
 30
0.0
 11
141.6666013335
 21
-8.4281492163
 31
0.0
  0
LINE
  5
14C
330
46
100
AcDbEntity
  8
0
  6
Continuous
 62
     0
100
AcDbLine
 10
145.8665979241
 20
-11.5056172945
 30
0.0
 11
141.6666013335
 21
-7.3056172114
 31
0.0
  0
LINE
  5
14D
330
46
100
AcDbEntity
  8
0
  6
Continuous
 62
     0
100
AcDbLine
 10
145.8665979241
 20
-10.3830852313
 30
0.0
 11
141.6666013335
 21
-6.1830852646
 31
0.0
  0
LINE
  5
14E
330
46
100
AcDbEntity
  8
0
  6
Continuous
 62
     0
100
AcDbLine
 10
145.8665979241
 20
-9.2605531681
 30
0.0
 11
141.6666013335
 21
-5.0605530851
 31
0.0
  0
LINE
  5
14F
330
46
100
AcDbEntity
  8
0
  6
Continuous
 62
     0
100
AcDbLine
 10
145.8665979241
 20
-8.1380211632
 30
0.0
 11
141.6666013335
 21
-3.9380211383
 31
0.0
  0
LINE
  5
150
330
46
100
AcDbEntity
  8
0
  6
Continuous
 62
     0
100
AcDbLine
 10
145.8665979241
 20
-7.0154890418
 30
0.0
 11
141.6666013335
 21
-2.8154891916
 31
0.0
  0
LINE
  5
151
330
46
100
AcDbEntity
  8
0
  6
Continuous
 62
     0
100
AcDbLine
 10
145.8665979241
 20
-5.8929570951
 30
0.0
 11
141.6666013335
 21
-1.6929572448
 31
0.0
  0
LINE
  5
152
330
46
100
AcDbEntity
  8
0
  6
Continuous
 62
     0
100
AcDbLine
 10
145.8665979241
 20
-4.7704251483
 30
0.0
 11
141.6666013335
 21
-0.5704248324
 31
0.0
  0
LINE
  5
153
330
46
100
AcDbEntity
  8
0
  6
Continuous
 62
     0
100
AcDbLine
 10
145.8665979241
 20
-3.6478932016
 30
0.0
 11
142.2187042568
 21
0.0
 31
0.0
  0
LINE
  5
154
330
46
100
AcDbEntity
  8
0
  6
Continuous
 62
     0
100
AcDbLine
 10
145.8665979241
 20
-2.5253612548
 30
0.0
 11
143.3412385319
 21
0.0
 31
0.0
  0
LINE
  5
155
330
46
100
AcDbEntity
  8
0
  6
Continuous
 62
     0
100
AcDbLine
 10
145.8665979241
 20
-1.4028288424
 30
0.0
 11
144.463772807
 21
0.0
 31
0.0
  0
LINE
  5
156
330
46
100
AcDbEntity
  8
0
  6
Continuous
 62
     0
100
AcDbLine
 10
145.8665979241
 20
-0.2802973613
 30
0.0
 11
145.586307082
 21
0.0
 31
0.0
  0
ENDBLK
  5
48
330
46
100
AcDbEntity
  8
0
100
AcDbBlockEnd
  0
BLOCK
  5
207
330
206
100
AcDbEntity
  8
0
100
AcDbBlockBegin
  2
_OPEN30
 70
     0
 10
0.0
 20
0.0
 30
0.0
  3
_OPEN30
  1

  0
LINE
  5
209
330
206
100
AcDbEntity
  8
0
  6
ByBlock
 62
     0
370
    -2
100
AcDbLine
 10
-1.0
 20
0.267949
 30
0.0
 11
0.0
 21
0.0
 31
0.0
  0
LINE
  5
20A
330
206
100
AcDbEntity
  8
0
  6
ByBlock
 62
     0
370
    -2
100
AcDbLine
 10
0.0
 20
0.0
 30
0.0
 11
-1.0
 21
-0.267949
 31
0.0
  0
LINE
  5
20B
330
206
100
AcDbEntity
  8
0
  6
ByBlock
 62
     0
370
    -2
100
AcDbLine
 10
0.0
 20
0.0
 30
0.0
 11
-1.0
 21
0.0
 31
0.0
  0
ENDBLK
  5
208
330
206
100
AcDbEntity
  8
0
100
AcDbBlockEnd
  0
BLOCK
  5
20D
330
20C
100
AcDbEntity
  8
0
100
AcDbBlockBegin
  2
*D3
 70
     1
 10
0.0
 20
0.0
 30
0.0
  3
*D3
  1

  0
INSERT
  5
20F
330
20C
100
AcDbEntity
  8
1
100
AcDbBlockReference
  2
_OPEN30
 10
45.8407679889
 20
114.5256005037
 30
-0.0983784931
 41
2.0
 42
2.0
 50
90.0
  0
INSERT
  5
210
330
20C
100
AcDbEntity
  8
1
100
AcDbBlockReference
  2
_OPEN30
 10
45.8407679889
 20
95.0269253457
 30
-0.0983784931
 41
2.0
 42
2.0
 50
270.0
  0
LINE
  5
211
330
20C
100
AcDbEntity
  8
1
100
AcDbLine
 10
52.0321137335
 20
114.5256005037
 30
0.0
 11
45.0407679889
 21
114.5256005037
 31
0.0
  0
LINE
  5
212
330
20C
100
AcDbEntity
  8
1
100
AcDbLine
 10
52.0321137335
 20
95.0269253457
 30
0.0
 11
45.0407679889
 21
95.0269253457
 31
0.0
  0
LINE
  5
213
330
20C
100
AcDbEntity
  8
1
100
AcDbLine
 10
45.8407679889
 20
114.5256005037
 30
0.0
 11
45.8407679889
 21
95.0269253457
 31
0.0
  0
LINE
  5
214
330
20C
100
AcDbEntity
  8
1
100
AcDbLine
 10
45.8407679889
 20
95.0269253457
 30
0.0
 11
45.8407679889
 21
84.0033461457
 31
0.0
  0
MTEXT
  5
215
330
20C
100
AcDbEntity
  8
1
100
AcDbMText
 10
41.973564595
 20
84.0033461457
 30
-0.0983784931
 40
3.0
 41
0.0
 71
     1
 72
     1
  1
19.5
  7
SLDTEXTSTYLE0
 11
6.123233995736766E-17
 21
1.0
 31
0.0
 73
     1
 44
1.0
  0
ENDBLK
  5
20E
330
20C
100
AcDbEntity
  8
0
100
AcDbBlockEnd
  0
BLOCK
  5
218
330
217
100
AcDbEntity
  8
0
100
AcDbBlockBegin
  2
*D4
 70
     1
 10
0.0
 20
0.0
 30
0.0
  3
*D4
  1

  0
INSERT
  5
21A
330
217
100
AcDbEntity
  8
1
100
AcDbBlockReference
  2
_OPEN30
 10
164.2832384696
 20
114.5256005037
 30
-0.0983784931
 41
2.0
 42
2.0
 50
90.0
  0
INSERT
  5
21B
330
217
100
AcDbEntity
  8
1
100
AcDbBlockReference
  2
_OPEN30
 10
164.2832384696
 20
95.0269253457
 30
-0.0983784931
 41
2.0
 42
2.0
 50
270.0
  0
LINE
  5
21C
330
217
100
AcDbEntity
  8
1
100
AcDbLine
 10
158.1521137335
 20
114.5256005037
 30
0.0
 11
165.0832384696
 21
114.5256005037
 31
0.0
  0
LINE
  5
21D
330
217
100
AcDbEntity
  8
1
100
AcDbLine
 10
158.1521137335
 20
95.0269253457
 30
0.0
 11
165.0832384696
 21
95.0269253457
 31
0.0
  0
LINE
  5
21E
330
217
100
AcDbEntity
  8
1
100
AcDbLine
 10
164.2832384696
 20
114.5256005037
 30
0.0
 11
164.2832384696
 21
95.0269253457
 31
0.0
  0
LINE
  5
21F
330
217
100
AcDbEntity
  8
1
100
AcDbLine
 10
164.2832384696
 20
95.0269253457
 30
0.0
 11
164.2832384696
 21
84.0033461457
 31
0.0
  0
MTEXT
  5
220
330
217
100
AcDbEntity
  8
1
100
AcDbMText
 10
160.4160350757
 20
84.0033461457
 30
-0.0983784931
 40
3.0
 41
0.0
 71
     1
 72
     1
  1
19.5
  7
SLDTEXTSTYLE0
 11
6.123233995736766E-17
 21
1.0
 31
0.0
 73
     1
 44
1.0
  0
ENDBLK
  5
219
330
217
100
AcDbEntity
  8
0
100
AcDbBlockEnd
  0
BLOCK
  5
223
330
222
100
AcDbEntity
  8
0
100
AcDbBlockBegin
  2
*D5
 70
     1
 10
0.0
 20
0.0
 30
0.0
  3
*D5
  1

  0
INSERT
  5
225
330
222
100
AcDbEntity
  8
1
100
AcDbBlockReference
  2
_OPEN30
 10
211.4677586392
 20
114.5256005037
 30
-0.0983784931
 41
2.0
 42
2.0
 50
90.0
  0
INSERT
  5
226
330
222
100
AcDbEntity
  8
1
100
AcDbBlockReference
  2
_OPEN30
 10
211.4677586392
 20
95.0269253457
 30
-0.0983784931
 41
2.0
 42
2.0
 50
270.0
  0
LINE
  5
227
330
222
100
AcDbEntity
  8
1
100
AcDbLine
 10
218.3987136007
 20
114.5256005037
 30
0.0
 11
210.6677586392
 21
114.5256005037
 31
0.0
  0
LINE
  5
228
330
222
100
AcDbEntity
  8
1
100
AcDbLine
 10
218.3987136007
 20
95.0269253457
 30
0.0
 11
210.6677586392
 21
95.0269253457
 31
0.0
  0
LINE
  5
229
330
222
100
AcDbEntity
  8
1
100
AcDbLine
 10
211.4677586392
 20
114.5256005037
 30
0.0
 11
211.4677586392
 21
95.0269253457
 31
0.0
  0
LINE
  5
22A
330
222
100
AcDbEntity
  8
1
100
AcDbLine
 10
211.4677586392
 20
95.0269253457
 30
0.0
 11
211.4677586392
 21
84.0033461457
 31
0.0
  0
MTEXT
  5
22B
330
222
100
AcDbEntity
  8
1
100
AcDbMText
 10
207.6005552452
 20
84.0033461457
 30
-0.0983784931
 40
3.0
 41
0.0
 71
     1
 72
     1
  1
19.5
  7
SLDTEXTSTYLE0
 11
6.123233995736766E-17
 21
1.0
 31
0.0
 73
     1
 44
1.0
  0
ENDBLK
  5
224
330
222
100
AcDbEntity
  8
0
100
AcDbBlockEnd
  0
ENDSEC
  0
SECTION
  2
ENTITIES
  0
INSERT
  5
157
330
1F
100
AcDbEntity
  8
0
  6
Continuous
 62
     7
100
AcDbBlockReference
  2
SW_BROKEN_VIEW_0
 10
112.0421150329
 20
113.8262633836
 30
0.0
  0
LINE
  5
158
330
1F
100
AcDbEntity
  8
0
  6
Continuous
 62
     7
370
    30
100
AcDbLine
 10
189.478692281
 20
100.7762627347
 30
0.0
 11
218.4087006924
 21
100.7762627347
 31
0.0
  0
LINE
  5
159
330
1F
100
AcDbEntity
  8
0
  6
Continuous
 62
     7
370
    30
100
AcDbLine
 10
218.4087006924
 20
108.7762631147
 30
0.0
 11
188.8295827983
 21
108.7762631147
 31
0.0
  0
LINE
  5
15A
330
1F
100
AcDbEntity
  8
0
  6
Continuous
 62
     7
370
    30
100
AcDbLine
 10
260.4087262032
 20
95.7262624657
 30
0.0
 11
265.4087214348
 21
95.7262624657
 31
0.0
  0
LINE
  5
15B
330
1F
100
AcDbEntity
  8
0
  6
Continuous
 62
     7
370
    30
100
AcDbLine
 10
265.4087214348
 20
113.8262633836
 30
0.0
 11
260.4087262032
 21
113.8262633836
 31
0.0
  0
LINE
  5
15C
330
1F
100
AcDbEntity
  8
0
  6
Continuous
 62
     7
370
    30
100
AcDbLine
 10
253.7087170956
 20
95.7262624657
 30
0.0
 11
257.9087285874
 21
95.7262624657
 31
0.0
  0
LINE
  5
15D
330
1F
100
AcDbEntity
  8
0
  6
Continuous
 62
     7
370
    30
100
AcDbLine
 10
257.9087285874
 20
113.8262633836
 30
0.0
 11
253.7087170956
 21
113.8262633836
 31
0.0
  0
LINE
  5
15E
330
1F
100
AcDbEntity
  8
0
  6
Continuous
 62
     7
370
    30
100
AcDbLine
 10
249.0087120412
 20
95.8262632272
 30
0.0
 11
249.5087056039
 21
96.3262633091
 31
0.0
  0
LINE
  5
15F
330
1F
100
AcDbEntity
  8
0
  6
Continuous
 62
     7
370
    30
100
AcDbLine
 10
249.5087056039
 20
113.2262625402
 30
0.0
 11
249.0087120412
 21
113.7262626222
 31
0.0
  0
LINE
  5
160
330
1F
100
AcDbEntity
  8
0
  6
Continuous
 62
     7
370
    30
100
AcDbLine
 10
236.2587122796
 20
95.8262632272
 30
0.0
 11
249.0087120412
 21
95.8262632272
 31
0.0
  0
LINE
  5
161
330
1F
100
AcDbEntity
  8
0
  6
Continuous
 62
     7
370
    30
100
AcDbLine
 10
249.0087120412
 20
113.7262626222
 30
0.0
 11
236.2587122796
 21
113.7262626222
 31
0.0
  0
LINE
  5
162
330
1F
100
AcDbEntity
  8
0
  6
Continuous
 62
     7
370
    30
100
AcDbLine
 10
236.2587122796
 20
113.7262626222
 30
0.0
 11
227.4587123273
 21
113.2762633866
 31
0.0
  0
LINE
  5
163
330
1F
100
AcDbEntity
  8
0
  6
Continuous
 62
     7
370
    30
100
AcDbLine
 10
227.4587123273
 20
96.2762624627
 30
0.0
 11
236.2587122796
 21
95.8262632272
 31
0.0
  0
LINE
  5
164
330
1F
100
AcDbEntity
  8
0
  6
Continuous
 62
     7
370
    30
100
AcDbLine
 10
265.4087214348
 20
95.9762629724
 30
0.0
 11
266.5087251542
 21
95.9762629724
 31
0.0
  0
LINE
  5
165
330
1F
100
AcDbEntity
  8
0
  6
Continuous
 62
     7
370
    30
100
AcDbLine
 10
266.5087251542
 20
113.576262877
 30
0.0
 11
265.4087214348
 21
113.576262877
 31
0.0
  0
LINE
  5
166
330
1F
100
AcDbEntity
  8
0
  6
Continuous
 62
     7
370
    30
100
AcDbLine
 10
257.9087285874
 20
95.9762629724
 30
0.0
 11
260.4087262032
 21
95.9762629724
 31
0.0
  0
LINE
  5
167
330
1F
100
AcDbEntity
  8
0
  6
Continuous
 62
     7
370
    30
100
AcDbLine
 10
260.4087262032
 20
113.576262877
 30
0.0
 11
257.9087285874
 21
113.576262877
 31
0.0
  0
LINE
  5
168
330
1F
100
AcDbEntity
  8
0
  6
Continuous
 62
     7
370
    30
100
AcDbLine
 10
252.7087299702
 20
95.9762629724
 30
0.0
 11
253.7087170956
 21
95.9762629724
 31
0.0
  0
LINE
  5
169
330
1F
100
AcDbEntity
  8
0
  6
Continuous
 62
     7
370
    30
100
AcDbLine
 10
253.7087170956
 20
113.576262877
 30
0.0
 11
252.7087299702
 21
113.576262877
 31
0.0
  0
LINE
  5
16A
330
1F
100
AcDbEntity
  8
0
  6
Continuous
 62
     7
370
    30
100
AcDbLine
 10
249.5087056039
 20
96.3262633091
 30
0.0
 11
252.7087299702
 21
96.3262633091
 31
0.0
  0
LINE
  5
16B
330
1F
100
AcDbEntity
  8
0
  6
Continuous
 62
     7
370
    30
100
AcDbLine
 10
252.7087299702
 20
113.2262625402
 30
0.0
 11
249.5087056039
 21
113.2262625402
 31
0.0
  0
LINE
  5
16C
330
1F
100
AcDbEntity
  8
0
  6
Continuous
 62
     7
370
    30
100
AcDbLine
 10
266.5087251542
 20
96.7762625447
 30
0.0
 11
270.9087102292
 21
96.7762625447
 31
0.0
  0
LINE
  5
16D
330
1F
100
AcDbEntity
  8
0
  6
Continuous
 62
     7
370
    30
100
AcDbLine
 10
270.9087102292
 20
112.7762633046
 30
0.0
 11
266.5087251542
 21
112.7762633046
 31
0.0
  0
LINE
  5
16E
330
1F
100
AcDbEntity
  8
0
  6
Continuous
 62
     7
370
    30
100
AcDbLine
 10
221.4087216733
 20
97.2762630923
 30
0.0
 11
227.4587123273
 21
97.2762630923
 31
0.0
  0
LINE
  5
16F
330
1F
100
AcDbEntity
  8
0
  6
Continuous
 62
     7
370
    30
100
AcDbLine
 10
227.4587123273
 20
112.276262757
 30
0.0
 11
221.4087216733
 21
112.276262757
 31
0.0
  0
LINE
  5
170
330
1F
100
AcDbEntity
  8
0
  6
Continuous
 62
     7
370
    30
100
AcDbLine
 10
270.9087102292
 20
97.9262629195
 30
0.0
 11
275.4087044475
 21
97.9262629195
 31
0.0
  0
LINE
  5
171
330
1F
100
AcDbEntity
  8
0
  6
Continuous
 62
     7
370
    30
100
AcDbLine
 10
275.4087044475
 20
111.6262629299
 30
0.0
 11
270.9087102292
 21
111.6262629299
 31
0.0
  0
LINE
  5
172
330
1F
100
AcDbEntity
  8
0
  6
Continuous
 62
     7
370
    30
100
AcDbLine
 10
218.4087006924
 20
95.0262627235
 30
0.0
 11
221.4087216733
 21
95.0262627235
 31
0.0
  0
LINE
  5
173
330
1F
100
AcDbEntity
  8
0
  6
Continuous
 62
     7
370
    30
100
AcDbLine
 10
221.4087216733
 20
114.5262631258
 30
0.0
 11
218.4087006924
 21
114.5262631258
 31
0.0
  0
LINE
  5
174
330
1F
100
AcDbEntity
  8
0
  6
Continuous
 62
     7
370
    30
100
AcDbLine
 10
265.4087214348
 20
95.7262624657
 30
0.0
 11
265.4087214348
 21
113.8262633836
 31
0.0
  0
LINE
  5
175
330
1F
100
AcDbEntity
  8
0
  6
Continuous
 62
     7
370
    30
100
AcDbLine
 10
260.4087262032
 20
95.7262624657
 30
0.0
 11
260.4087262032
 21
113.8262633836
 31
0.0
  0
LINE
  5
176
330
1F
100
AcDbEntity
  8
0
  6
Continuous
 62
     7
370
    30
100
AcDbLine
 10
253.7087170956
 20
95.7262624657
 30
0.0
 11
253.7087170956
 21
113.8262633836
 31
0.0
  0
LINE
  5
177
330
1F
100
AcDbEntity
  8
0
  6
Continuous
 62
     7
370
    30
100
AcDbLine
 10
257.9087285874
 20
95.7262624657
 30
0.0
 11
257.9087285874
 21
113.8262633836
 31
0.0
  0
LINE
  5
178
330
1F
100
AcDbEntity
  8
0
  6
Continuous
 62
     7
370
    30
100
AcDbLine
 10
249.5087056039
 20
96.3262633091
 30
0.0
 11
249.5087056039
 21
113.2262625402
 31
0.0
  0
LINE
  5
179
330
1F
100
AcDbEntity
  8
0
  6
Continuous
 62
     7
370
    30
100
AcDbLine
 10
249.0087120412
 20
95.8262632272
 30
0.0
 11
249.0087120412
 21
113.7262626222
 31
0.0
  0
LINE
  5
17A
330
1F
100
AcDbEntity
  8
0
  6
Continuous
 62
     7
370
    30
100
AcDbLine
 10
236.2587122796
 20
95.8262632272
 30
0.0
 11
236.2587122796
 21
113.7262626222
 31
0.0
  0
LINE
  5
17B
330
1F
100
AcDbEntity
  8
0
  6
Continuous
 62
     7
370
    30
100
AcDbLine
 10
238.0587129471
 20
108.8385127155
 30
0.0
 11
244.0087168095
 21
108.8385127155
 31
0.0
  0
LINE
  5
17C
330
1F
100
AcDbEntity
  8
0
  6
Continuous
 62
     7
370
    30
100
AcDbLine
 10
238.0587129471
 20
100.7140131338
 30
0.0
 11
238.0587129471
 21
108.8385127155
 31
0.0
  0
LINE
  5
17D
330
1F
100
AcDbEntity
  8
0
  6
Continuous
 62
     7
370
    30
100
AcDbLine
 10
244.0087168095
 20
100.7140131338
 30
0.0
 11
238.0587129471
 21
100.7140131338
 31
0.0
  0
LINE
  5
17E
330
1F
100
AcDbEntity
  8
0
  6
Continuous
 62
     7
370
    30
100
AcDbLine
 10
244.0087168095
 20
108.8385127155
 30
0.0
 11
244.0087168095
 21
100.7140131338
 31
0.0
  0
LINE
  5
17F
330
1F
100
AcDbEntity
  8
0
  6
Continuous
 62
     7
370
    30
100
AcDbLine
 10
227.4587123273
 20
96.2762624627
 30
0.0
 11
227.4587123273
 21
113.2762633866
 31
0.0
  0
LINE
  5
180
330
1F
100
AcDbEntity
  8
0
  6
Continuous
 62
     7
370
    30
100
AcDbLine
 10
266.5087251542
 20
95.9762629724
 30
0.0
 11
266.5087251542
 21
113.576262877
 31
0.0
  0
LINE
  5
181
330
1F
100
AcDbEntity
  8
0
  6
Continuous
 62
     7
370
    30
100
AcDbLine
 10
252.7087299702
 20
95.9762629724
 30
0.0
 11
252.7087299702
 21
113.576262877
 31
0.0
  0
LINE
  5
182
330
1F
100
AcDbEntity
  8
0
  6
Continuous
 62
     7
370
    30
100
AcDbLine
 10
218.4087006924
 20
100.0000198042
 30
0.0
 11
221.4087216733
 21
100.0000198042
 31
0.0
  0
LINE
  5
183
330
1F
100
AcDbEntity
  8
0
  6
Continuous
 62
     7
370
    30
100
AcDbLine
 10
221.4087216733
 20
109.5525060451
 30
0.0
 11
218.4087006924
 21
109.5525060451
 31
0.0
  0
LINE
  5
184
330
1F
100
AcDbEntity
  8
0
  6
Continuous
 62
     7
370
    30
100
AcDbLine
 10
221.4087216733
 20
100.0000198042
 30
0.0
 11
221.4087216733
 21
109.5525060451
 31
0.0
  0
LINE
  5
185
330
1F
100
AcDbEntity
  8
0
  6
Continuous
 62
     7
370
    30
100
AcDbLine
 10
218.4087006924
 20
100.0000198042
 30
0.0
 11
218.4087006924
 21
109.5525060451
 31
0.0
  0
LINE
  5
186
330
1F
100
AcDbEntity
  8
0
  6
Continuous
 62
     7
370
    30
100
AcDbLine
 10
221.4087216733
 20
99.8031684799
 30
0.0
 11
218.4087006924
 21
99.8031684799
 31
0.0
  0
LINE
  5
187
330
1F
100
AcDbEntity
  8
0
  6
Continuous
 62
     7
370
    30
100
AcDbLine
 10
221.4087216733
 20
99.8031684799
 30
0.0
 11
221.4087216733
 21
100.0000198042
 31
0.0
  0
LINE
  5
188
330
1F
100
AcDbEntity
  8
0
  6
Continuous
 62
     7
370
    30
100
AcDbLine
 10
218.4087006924
 20
99.8031684799
 30
0.0
 11
218.4087006924
 21
100.0000198042
 31
0.0
  0
LINE
  5
189
330
1F
100
AcDbEntity
  8
0
  6
Continuous
 62
     7
370
    30
100
AcDbLine
 10
218.4087006924
 20
109.7493573694
 30
0.0
 11
221.4087216733
 21
109.7493573694
 31
0.0
  0
LINE
  5
18A
330
1F
100
AcDbEntity
  8
0
  6
Continuous
 62
     7
370
    30
100
AcDbLine
 10
221.4087216733
 20
109.5525060451
 30
0.0
 11
221.4087216733
 21
109.7493573694
 31
0.0
  0
LINE
  5
18B
330
1F
100
AcDbEntity
  8
0
  6
Continuous
 62
     7
370
    30
100
AcDbLine
 10
218.4087006924
 20
109.5525060451
 30
0.0
 11
218.4087006924
 21
109.7493573694
 31
0.0
  0
LINE
  5
18C
330
1F
100
AcDbEntity
  8
0
  6
Continuous
 62
     7
370
    30
100
AcDbLine
 10
218.4087006924
 20
95.0269248939
 30
0.0
 11
221.4087216733
 21
95.0269248939
 31
0.0
  0
LINE
  5
18D
330
1F
100
AcDbEntity
  8
0
  6
Continuous
 62
     7
370
    30
100
AcDbLine
 10
221.4087216733
 20
95.0269248939
 30
0.0
 11
221.4087216733
 21
99.8031684799
 31
0.0
  0
LINE
  5
18E
330
1F
100
AcDbEntity
  8
0
  6
Continuous
 62
     7
370
    30
100
AcDbLine
 10
218.4087006924
 20
95.0269248939
 30
0.0
 11
218.4087006924
 21
99.8031684799
 31
0.0
  0
LINE
  5
18F
330
1F
100
AcDbEntity
  8
0
  6
Continuous
 62
     7
370
    30
100
AcDbLine
 10
221.4087216733
 20
114.5256009555
 30
0.0
 11
218.4087006924
 21
114.5256009555
 31
0.0
  0
LINE
  5
190
330
1F
100
AcDbEntity
  8
0
  6
Continuous
 62
     7
370
    30
100
AcDbLine
 10
221.4087216733
 20
109.7493573694
 30
0.0
 11
221.4087216733
 21
114.5256009555
 31
0.0
  0
LINE
  5
191
330
1F
100
AcDbEntity
  8
0
  6
Continuous
 62
     7
370
    30
100
AcDbLine
 10
218.4087006924
 20
109.7493573694
 30
0.0
 11
218.4087006924
 21
114.5256009555
 31
0.0
  0
LINE
  5
192
330
1F
100
AcDbEntity
  8
0
  6
Continuous
 62
     7
370
    30
100
AcDbLine
 10
270.9087102292
 20
96.7762625447
 30
0.0
 11
270.9087102292
 21
112.7762633046
 31
0.0
  0
LINE
  5
193
330
1F
100
AcDbEntity
  8
0
  6
Continuous
 62
     7
370
    30
100
AcDbLine
 10
275.4087044475
 20
97.9262629195
 30
0.0
 11
275.4087044475
 21
111.6262629299
 31
0.0
  0
LINE
  5
194
330
1F
100
AcDbEntity
  8
0
  6
Continuous
 62
     7
370
    30
100
AcDbLine
 10
158.1421128092
 20
100.7762627347
 30
0.0
 11
187.4786994038
 21
100.7762627347
 31
0.0
  0
LINE
  5
195
330
1F
100
AcDbEntity
  8
0
  6
Continuous
 62
     7
370
    30
100
AcDbLine
 10
186.8295861957
 20
108.7762631147
 30
0.0
 11
158.1421128092
 21
108.7762631147
 31
0.0
  0
LINE
  5
196
330
1F
100
AcDbEntity
  8
0
  6
Continuous
 62
     7
370
    30
100
AcDbLine
 10
109.5421171365
 20
113.8262633836
 30
0.0
 11
104.5421144543
 21
113.8262633836
 31
0.0
  0
LINE
  5
197
330
1F
100
AcDbEntity
  8
0
  6
Continuous
 62
     7
370
    30
100
AcDbLine
 10
104.5421144543
 20
95.7262624657
 30
0.0
 11
109.5421171365
 21
95.7262624657
 31
0.0
  0
LINE
  5
198
330
1F
100
AcDbEntity
  8
0
  6
Continuous
 62
     7
370
    30
100
AcDbLine
 10
117.8421160755
 20
113.8262633836
 30
0.0
 11
112.0421147523
 21
113.8262633836
 31
0.0
  0
LINE
  5
199
330
1F
100
AcDbEntity
  8
0
  6
Continuous
 62
     7
370
    30
100
AcDbLine
 10
112.0421147523
 20
95.7262624657
 30
0.0
 11
117.8421160755
 21
95.7262624657
 31
0.0
  0
LINE
  5
19A
330
1F
100
AcDbEntity
  8
0
  6
Continuous
 62
     7
370
    30
100
AcDbLine
 10
139.3921157894
 20
95.8262632272
 30
0.0
 11
148.1921160328
 21
96.2762624627
 31
0.0
  0
LINE
  5
19B
330
1F
100
AcDbEntity
  8
0
  6
Continuous
 62
     7
370
    30
100
AcDbLine
 10
148.1921160328
 20
113.2762633866
 30
0.0
 11
139.3921157894
 21
113.7262626222
 31
0.0
  0
LINE
  5
19C
330
1F
100
AcDbEntity
  8
0
  6
Continuous
 62
     7
370
    30
100
AcDbLine
 10
139.3921157894
 20
113.7262626222
 30
0.0
 11
126.6421160279
 21
113.7262626222
 31
0.0
  0
LINE
  5
19D
330
1F
100
AcDbEntity
  8
0
  6
Continuous
 62
     7
370
    30
100
AcDbLine
 10
126.6421160279
 20
95.8262632272
 30
0.0
 11
139.3921157894
 21
95.8262632272
 31
0.0
  0
LINE
  5
19E
330
1F
100
AcDbEntity
  8
0
  6
Continuous
 62
     7
370
    30
100
AcDbLine
 10
126.6421160279
 20
113.7262626222
 30
0.0
 11
126.1421150146
 21
113.2262625402
 31
0.0
  0
LINE
  5
19F
330
1F
100
AcDbEntity
  8
0
  6
Continuous
 62
     7
370
    30
100
AcDbLine
 10
126.1421150146
 20
96.3262633091
 30
0.0
 11
126.6421160279
 21
95.8262632272
 31
0.0
  0
LINE
  5
1A0
330
1F
100
AcDbEntity
  8
0
  6
Continuous
 62
     7
370
    30
100
AcDbLine
 10
122.9421129999
 20
113.576262877
 30
0.0
 11
117.8421160755
 21
113.576262877
 31
0.0
  0
LINE
  5
1A1
330
1F
100
AcDbEntity
  8
0
  6
Continuous
 62
     7
370
    30
100
AcDbLine
 10
117.8421160755
 20
95.9762629724
 30
0.0
 11
122.9421129999
 21
95.9762629724
 31
0.0
  0
LINE
  5
1A2
330
1F
100
AcDbEntity
  8
0
  6
Continuous
 62
     7
370
    30
100
AcDbLine
 10
112.0421147523
 20
113.576262877
 30
0.0
 11
109.5421171365
 21
113.576262877
 31
0.0
  0
LINE
  5
1A3
330
1F
100
AcDbEntity
  8
0
  6
Continuous
 62
     7
370
    30
100
AcDbLine
 10
109.5421171365
 20
95.9762629724
 30
0.0
 11
112.0421147523
 21
95.9762629724
 31
0.0
  0
LINE
  5
1A4
330
1F
100
AcDbEntity
  8
0
  6
Continuous
 62
     7
370
    30
100
AcDbLine
 10
104.5421144543
 20
113.576262877
 30
0.0
 11
100.1421144781
 21
113.576262877
 31
0.0
  0
LINE
  5
1A5
330
1F
100
AcDbEntity
  8
0
  6
Continuous
 62
     7
370
    30
100
AcDbLine
 10
100.1421144781
 20
95.9762629724
 30
0.0
 11
104.5421144543
 21
95.9762629724
 31
0.0
  0
LINE
  5
1A6
330
1F
100
AcDbEntity
  8
0
  6
Continuous
 62
     7
370
    30
100
AcDbLine
 10
126.1421150146
 20
113.2262625402
 30
0.0
 11
122.9421129999
 21
113.2262625402
 31
0.0
  0
LINE
  5
1A7
330
1F
100
AcDbEntity
  8
0
  6
Continuous
 62
     7
370
    30
100
AcDbLine
 10
122.9421129999
 20
96.3262633091
 30
0.0
 11
126.1421150146
 21
96.3262633091
 31
0.0
  0
LINE
  5
1A8
330
1F
100
AcDbEntity
  8
0
  6
Continuous
 62
     7
370
    30
100
AcDbLine
 10
155.1421220963
 20
112.276262757
 30
0.0
 11
148.1921160328
 21
112.276262757
 31
0.0
  0
LINE
  5
1A9
330
1F
100
AcDbEntity
  8
0
  6
Continuous
 62
     7
370
    30
100
AcDbLine
 10
148.1921160328
 20
97.2762630923
 30
0.0
 11
155.1421220963
 21
97.2762630923
 31
0.0
  0
LINE
  5
1AA
330
1F
100
AcDbEntity
  8
0
  6
Continuous
 62
     7
370
    30
100
AcDbLine
 10
155.1421220963
 20
95.0262627235
 30
0.0
 11
158.1421128092
 21
95.0262627235
 31
0.0
  0
LINE
  5
1AB
330
1F
100
AcDbEntity
  8
0
  6
Continuous
 62
     7
370
    30
100
AcDbLine
 10
158.1421128092
 20
114.5262631258
 30
0.0
 11
155.1421220963
 21
114.5262631258
 31
0.0
  0
LINE
  5
1AC
330
1F
100
AcDbEntity
  8
0
  6
Continuous
 62
     7
370
    30
100
AcDbLine
 10
94.0421155272
 20
95.7262624657
 30
0.0
 11
99.0421107588
 21
95.7262624657
 31
0.0
  0
LINE
  5
1AD
330
1F
100
AcDbEntity
  8
0
  6
Continuous
 62
     7
370
    30
100
AcDbLine
 10
99.0421107588
 20
113.8262633836
 30
0.0
 11
94.0421155272
 21
113.8262633836
 31
0.0
  0
LINE
  5
1AE
330
1F
100
AcDbEntity
  8
0
  6
Continuous
 62
     7
370
    30
100
AcDbLine
 10
87.3421064196
 20
95.7262624657
 30
0.0
 11
91.5421179114
 21
95.7262624657
 31
0.0
  0
LINE
  5
1AF
330
1F
100
AcDbEntity
  8
0
  6
Continuous
 62
     7
370
    30
100
AcDbLine
 10
91.5421179114
 20
113.8262633836
 30
0.0
 11
87.3421064196
 21
113.8262633836
 31
0.0
  0
LINE
  5
1B0
330
1F
100
AcDbEntity
  8
0
  6
Continuous
 62
     7
370
    30
100
AcDbLine
 10
69.89212023
 20
95.8262632272
 30
0.0
 11
82.6421199916
 21
95.8262632272
 31
0.0
  0
LINE
  5
1B1
330
1F
100
AcDbEntity
  8
0
  6
Continuous
 62
     7
370
    30
100
AcDbLine
 10
82.6421199916
 20
113.7262626222
 30
0.0
 11
69.89212023
 21
113.7262626222
 31
0.0
  0
LINE
  5
1B2
330
1F
100
AcDbEntity
  8
0
  6
Continuous
 62
     7
370
    30
100
AcDbLine
 10
82.6421199916
 20
95.8262632272
 30
0.0
 11
83.1421135543
 21
96.3262633091
 31
0.0
  0
LINE
  5
1B3
330
1F
100
AcDbEntity
  8
0
  6
Continuous
 62
     7
370
    30
100
AcDbLine
 10
83.1421135543
 20
113.2262625402
 30
0.0
 11
82.6421199916
 21
113.7262626222
 31
0.0
  0
LINE
  5
1B4
330
1F
100
AcDbEntity
  8
0
  6
Continuous
 62
     7
370
    30
100
AcDbLine
 10
69.89212023
 20
113.7262626222
 30
0.0
 11
61.0921202777
 21
113.2762633866
 31
0.0
  0
LINE
  5
1B5
330
1F
100
AcDbEntity
  8
0
  6
Continuous
 62
     7
370
    30
100
AcDbLine
 10
61.0921202777
 20
96.2762624627
 30
0.0
 11
69.89212023
 21
95.8262632272
 31
0.0
  0
LINE
  5
1B6
330
1F
100
AcDbEntity
  8
0
  6
Continuous
 62
     7
370
    30
100
AcDbLine
 10
91.5421179114
 20
95.9762629724
 30
0.0
 11
94.0421155272
 21
95.9762629724
 31
0.0
  0
LINE
  5
1B7
330
1F
100
AcDbEntity
  8
0
  6
Continuous
 62
     7
370
    30
100
AcDbLine
 10
94.0421155272
 20
113.576262877
 30
0.0
 11
91.5421179114
 21
113.576262877
 31
0.0
  0
LINE
  5
1B8
330
1F
100
AcDbEntity
  8
0
  6
Continuous
 62
     7
370
    30
100
AcDbLine
 10
99.0421107588
 20
95.9762629724
 30
0.0
 11
100.1421144781
 21
95.9762629724
 31
0.0
  0
LINE
  5
1B9
330
1F
100
AcDbEntity
  8
0
  6
Continuous
 62
     7
370
    30
100
AcDbLine
 10
100.1421144781
 20
113.576262877
 30
0.0
 11
99.0421107588
 21
113.576262877
 31
0.0
  0
LINE
  5
1BA
330
1F
100
AcDbEntity
  8
0
  6
Continuous
 62
     7
370
    30
100
AcDbLine
 10
86.3421081183
 20
95.9762629724
 30
0.0
 11
87.3421064196
 21
95.9762629724
 31
0.0
  0
LINE
  5
1BB
330
1F
100
AcDbEntity
  8
0
  6
Continuous
 62
     7
370
    30
100
AcDbLine
 10
87.3421064196
 20
113.576262877
 30
0.0
 11
86.3421081183
 21
113.576262877
 31
0.0
  0
LINE
  5
1BC
330
1F
100
AcDbEntity
  8
0
  6
Continuous
 62
     7
370
    30
100
AcDbLine
 10
83.1421135543
 20
96.3262633091
 30
0.0
 11
86.3421081183
 21
96.3262633091
 31
0.0
  0
LINE
  5
1BD
330
1F
100
AcDbEntity
  8
0
  6
Continuous
 62
     7
370
    30
100
AcDbLine
 10
86.3421081183
 20
113.2262625402
 30
0.0
 11
83.1421135543
 21
113.2262625402
 31
0.0
  0
LINE
  5
1BE
330
1F
100
AcDbEntity
  8
0
  6
Continuous
 62
     7
370
    30
100
AcDbLine
 10
55.0421147225
 20
97.2762630923
 30
0.0
 11
61.0921202777
 21
97.2762630923
 31
0.0
  0
LINE
  5
1BF
330
1F
100
AcDbEntity
  8
0
  6
Continuous
 62
     7
370
    30
100
AcDbLine
 10
61.0921202777
 20
112.276262757
 30
0.0
 11
55.0421147225
 21
112.276262757
 31
0.0
  0
LINE
  5
1C0
330
1F
100
AcDbEntity
  8
0
  6
Continuous
 62
     7
370
    30
100
AcDbLine
 10
52.042123544
 20
95.0262627235
 30
0.0
 11
55.0421147225
 21
95.0262627235
 31
0.0
  0
LINE
  5
1C1
330
1F
100
AcDbEntity
  8
0
  6
Continuous
 62
     7
370
    30
100
AcDbLine
 10
55.0421147225
 20
114.5262631258
 30
0.0
 11
52.042123544
 21
114.5262631258
 31
0.0
  0
LINE
  5
1C2
330
1F
100
AcDbEntity
  8
0
  6
Continuous
 62
     7
370
    30
100
AcDbLine
 10
52.042123544
 20
108.0262629917
 30
0.0
 11
31.1795740006
 21
108.0262629917
 31
0.0
  0
LINE
  5
1C3
330
1F
100
AcDbEntity
  8
0
  6
Continuous
 62
     7
370
    30
100
AcDbLine
 10
31.7980764983
 20
101.5262628576
 30
0.0
 11
52.042123544
 21
101.5262628576
 31
0.0
  0
LINE
  5
1C4
330
1F
100
AcDbEntity
  8
0
  6
Continuous
 62
     7
370
    30
100
AcDbLine
 10
104.5421144543
 20
113.8262633836
 30
0.0
 11
104.5421144543
 21
95.7262624657
 31
0.0
  0
LINE
  5
1C5
330
1F
100
AcDbEntity
  8
0
  6
Continuous
 62
     7
370
    30
100
AcDbLine
 10
109.5421171365
 20
113.8262633836
 30
0.0
 11
109.5421171365
 21
95.7262624657
 31
0.0
  0
LINE
  5
1C6
330
1F
100
AcDbEntity
  8
0
  6
Continuous
 62
     7
370
    30
100
AcDbLine
 10
112.0421147523
 20
113.8262633836
 30
0.0
 11
112.0421147523
 21
95.7262624657
 31
0.0
  0
LINE
  5
1C7
330
1F
100
AcDbEntity
  8
0
  6
Continuous
 62
     7
370
    30
100
AcDbLine
 10
117.8421160755
 20
113.8262633836
 30
0.0
 11
117.8421160755
 21
95.7262624657
 31
0.0
  0
LINE
  5
1C8
330
1F
100
AcDbEntity
  8
0
  6
Continuous
 62
     7
370
    30
100
AcDbLine
 10
139.3921157894
 20
113.7262626222
 30
0.0
 11
139.3921157894
 21
95.8262632272
 31
0.0
  0
LINE
  5
1C9
330
1F
100
AcDbEntity
  8
0
  6
Continuous
 62
     7
370
    30
100
AcDbLine
 10
148.1921160328
 20
113.2762633866
 30
0.0
 11
148.1921160328
 21
96.2762624627
 31
0.0
  0
LINE
  5
1CA
330
1F
100
AcDbEntity
  8
0
  6
Continuous
 62
     7
370
    30
100
AcDbLine
 10
126.6421160279
 20
113.7262626222
 30
0.0
 11
126.6421160279
 21
95.8262632272
 31
0.0
  0
LINE
  5
1CB
330
1F
100
AcDbEntity
  8
0
  6
Continuous
 62
     7
370
    30
100
AcDbLine
 10
137.5921151219
 20
100.7140131338
 30
0.0
 11
131.6421112595
 21
100.7140131338
 31
0.0
  0
LINE
  5
1CC
330
1F
100
AcDbEntity
  8
0
  6
Continuous
 62
     7
370
    30
100
AcDbLine
 10
137.5921151219
 20
108.8385127155
 30
0.0
 11
137.5921151219
 21
100.7140131338
 31
0.0
  0
LINE
  5
1CD
330
1F
100
AcDbEntity
  8
0
  6
Continuous
 62
     7
370
    30
100
AcDbLine
 10
131.6421112595
 20
108.8385127155
 30
0.0
 11
137.5921151219
 21
108.8385127155
 31
0.0
  0
LINE
  5
1CE
330
1F
100
AcDbEntity
  8
0
  6
Continuous
 62
     7
370
    30
100
AcDbLine
 10
131.6421112595
 20
100.7140131338
 30
0.0
 11
131.6421112595
 21
108.8385127155
 31
0.0
  0
LINE
  5
1CF
330
1F
100
AcDbEntity
  8
0
  6
Continuous
 62
     7
370
    30
100
AcDbLine
 10
126.1421150146
 20
113.2262625402
 30
0.0
 11
126.1421150146
 21
96.3262633091
 31
0.0
  0
LINE
  5
1D0
330
1F
100
AcDbEntity
  8
0
  6
Continuous
 62
     7
370
    30
100
AcDbLine
 10
122.9421129999
 20
113.576262877
 30
0.0
 11
122.9421129999
 21
95.9762629724
 31
0.0
  0
LINE
  5
1D1
330
1F
100
AcDbEntity
  8
0
  6
Continuous
 62
     7
370
    30
100
AcDbLine
 10
100.1421144781
 20
113.576262877
 30
0.0
 11
100.1421144781
 21
95.9762629724
 31
0.0
  0
LINE
  5
1D2
330
1F
100
AcDbEntity
  8
0
  6
Continuous
 62
     7
370
    30
100
AcDbLine
 10
158.1421128092
 20
99.8031684799
 30
0.0
 11
155.1421220963
 21
99.8031684799
 31
0.0
  0
LINE
  5
1D3
330
1F
100
AcDbEntity
  8
0
  6
Continuous
 62
     7
370
    30
100
AcDbLine
 10
155.1421220963
 20
100.0000198042
 30
0.0
 11
158.1421128092
 21
100.0000198042
 31
0.0
  0
LINE
  5
1D4
330
1F
100
AcDbEntity
  8
0
  6
Continuous
 62
     7
370
    30
100
AcDbLine
 10
155.1421220963
 20
100.0000198042
 30
0.0
 11
155.1421220963
 21
99.8031684799
 31
0.0
  0
LINE
  5
1D5
330
1F
100
AcDbEntity
  8
0
  6
Continuous
 62
     7
370
    30
100
AcDbLine
 10
158.1421128092
 20
100.0000198042
 30
0.0
 11
158.1421128092
 21
99.8031684799
 31
0.0
  0
LINE
  5
1D6
330
1F
100
AcDbEntity
  8
0
  6
Continuous
 62
     7
370
    30
100
AcDbLine
 10
158.1421128092
 20
109.5525060451
 30
0.0
 11
155.1421220963
 21
109.5525060451
 31
0.0
  0
LINE
  5
1D7
330
1F
100
AcDbEntity
  8
0
  6
Continuous
 62
     7
370
    30
100
AcDbLine
 10
155.1421220963
 20
100.0000198042
 30
0.0
 11
155.1421220963
 21
109.5525060451
 31
0.0
  0
LINE
  5
1D8
330
1F
100
AcDbEntity
  8
0
  6
Continuous
 62
     7
370
    30
100
AcDbLine
 10
158.1421128092
 20
100.0000198042
 30
0.0
 11
158.1421128092
 21
109.5525060451
 31
0.0
  0
LINE
  5
1D9
330
1F
100
AcDbEntity
  8
0
  6
Continuous
 62
     7
370
    30
100
AcDbLine
 10
155.1421220963
 20
109.7493573694
 30
0.0
 11
158.1421128092
 21
109.7493573694
 31
0.0
  0
LINE
  5
1DA
330
1F
100
AcDbEntity
  8
0
  6
Continuous
 62
     7
370
    30
100
AcDbLine
 10
155.1421220963
 20
109.7493573694
 30
0.0
 11
155.1421220963
 21
109.5525060451
 31
0.0
  0
LINE
  5
1DB
330
1F
100
AcDbEntity
  8
0
  6
Continuous
 62
     7
370
    30
100
AcDbLine
 10
158.1421128092
 20
109.7493573694
 30
0.0
 11
158.1421128092
 21
109.5525060451
 31
0.0
  0
LINE
  5
1DC
330
1F
100
AcDbEntity
  8
0
  6
Continuous
 62
     7
370
    30
100
AcDbLine
 10
155.1421220963
 20
95.0269248939
 30
0.0
 11
158.1421128092
 21
95.0269248939
 31
0.0
  0
LINE
  5
1DD
330
1F
100
AcDbEntity
  8
0
  6
Continuous
 62
     7
370
    30
100
AcDbLine
 10
155.1421220963
 20
95.0269248939
 30
0.0
 11
155.1421220963
 21
99.8031684799
 31
0.0
  0
LINE
  5
1DE
330
1F
100
AcDbEntity
  8
0
  6
Continuous
 62
     7
370
    30
100
AcDbLine
 10
158.1421128092
 20
95.0269248939
 30
0.0
 11
158.1421128092
 21
99.8031684799
 31
0.0
  0
LINE
  5
1DF
330
1F
100
AcDbEntity
  8
0
  6
Continuous
 62
     7
370
    30
100
AcDbLine
 10
158.1421128092
 20
114.5256009555
 30
0.0
 11
155.1421220963
 21
114.5256009555
 31
0.0
  0
LINE
  5
1E0
330
1F
100
AcDbEntity
  8
0
  6
Continuous
 62
     7
370
    30
100
AcDbLine
 10
155.1421220963
 20
109.7493573694
 30
0.0
 11
155.1421220963
 21
114.5256009555
 31
0.0
  0
LINE
  5
1E1
330
1F
100
AcDbEntity
  8
0
  6
Continuous
 62
     7
370
    30
100
AcDbLine
 10
158.1421128092
 20
109.7493573694
 30
0.0
 11
158.1421128092
 21
114.5256009555
 31
0.0
  0
LINE
  5
1E2
330
1F
100
AcDbEntity
  8
0
  6
Continuous
 62
     7
370
    30
100
AcDbLine
 10
94.0421155272
 20
95.7262624657
 30
0.0
 11
94.0421155272
 21
113.8262633836
 31
0.0
  0
LINE
  5
1E3
330
1F
100
AcDbEntity
  8
0
  6
Continuous
 62
     7
370
    30
100
AcDbLine
 10
99.0421107588
 20
95.7262624657
 30
0.0
 11
99.0421107588
 21
113.8262633836
 31
0.0
  0
LINE
  5
1E4
330
1F
100
AcDbEntity
  8
0
  6
Continuous
 62
     7
370
    30
100
AcDbLine
 10
87.3421064196
 20
95.7262624657
 30
0.0
 11
87.3421064196
 21
113.8262633836
 31
0.0
  0
LINE
  5
1E5
330
1F
100
AcDbEntity
  8
0
  6
Continuous
 62
     7
370
    30
100
AcDbLine
 10
91.5421179114
 20
95.7262624657
 30
0.0
 11
91.5421179114
 21
113.8262633836
 31
0.0
  0
LINE
  5
1E6
330
1F
100
AcDbEntity
  8
0
  6
Continuous
 62
     7
370
    30
100
AcDbLine
 10
82.6421199916
 20
95.8262632272
 30
0.0
 11
82.6421199916
 21
113.7262626222
 31
0.0
  0
LINE
  5
1E7
330
1F
100
AcDbEntity
  8
0
  6
Continuous
 62
     7
370
    30
100
AcDbLine
 10
69.89212023
 20
95.8262632272
 30
0.0
 11
69.89212023
 21
113.7262626222
 31
0.0
  0
LINE
  5
1E8
330
1F
100
AcDbEntity
  8
0
  6
Continuous
 62
     7
370
    30
100
AcDbLine
 10
77.6421098588
 20
108.8385127155
 30
0.0
 11
77.6421098588
 21
100.7140131338
 31
0.0
  0
LINE
  5
1E9
330
1F
100
AcDbEntity
  8
0
  6
Continuous
 62
     7
370
    30
100
AcDbLine
 10
71.6921208975
 20
108.8385127155
 30
0.0
 11
77.6421098588
 21
108.8385127155
 31
0.0
  0
LINE
  5
1EA
330
1F
100
AcDbEntity
  8
0
  6
Continuous
 62
     7
370
    30
100
AcDbLine
 10
71.6921208975
 20
100.7140131338
 30
0.0
 11
71.6921208975
 21
108.8385127155
 31
0.0
  0
LINE
  5
1EB
330
1F
100
AcDbEntity
  8
0
  6
Continuous
 62
     7
370
    30
100
AcDbLine
 10
77.6421098588
 20
100.7140131338
 30
0.0
 11
71.6921208975
 21
100.7140131338
 31
0.0
  0
LINE
  5
1EC
330
1F
100
AcDbEntity
  8
0
  6
Continuous
 62
     7
370
    30
100
AcDbLine
 10
83.1421135543
 20
96.3262633091
 30
0.0
 11
83.1421135543
 21
113.2262625402
 31
0.0
  0
LINE
  5
1ED
330
1F
100
AcDbEntity
  8
0
  6
Continuous
 62
     7
370
    30
100
AcDbLine
 10
61.0921202777
 20
96.2762624627
 30
0.0
 11
61.0921202777
 21
113.2762633866
 31
0.0
  0
LINE
  5
1EE
330
1F
100
AcDbEntity
  8
0
  6
Continuous
 62
     7
370
    30
100
AcDbLine
 10
86.3421081183
 20
95.9762629724
 30
0.0
 11
86.3421081183
 21
113.576262877
 31
0.0
  0
LINE
  5
1EF
330
1F
100
AcDbEntity
  8
0
  6
Continuous
 62
     7
370
    30
100
AcDbLine
 10
52.042123544
 20
100.0000198042
 30
0.0
 11
55.0421147225
 21
100.0000198042
 31
0.0
  0
LINE
  5
1F0
330
1F
100
AcDbEntity
  8
0
  6
Continuous
 62
     7
370
    30
100
AcDbLine
 10
55.0421147225
 20
109.5525060451
 30
0.0
 11
52.042123544
 21
109.5525060451
 31
0.0
  0
LINE
  5
1F1
330
1F
100
AcDbEntity
  8
0
  6
Continuous
 62
     7
370
    30
100
AcDbLine
 10
55.0421147225
 20
100.0000198042
 30
0.0
 11
55.0421147225
 21
109.5525060451
 31
0.0
  0
LINE
  5
1F2
330
1F
100
AcDbEntity
  8
0
  6
Continuous
 62
     7
370
    30
100
AcDbLine
 10
52.042123544
 20
100.0000198042
 30
0.0
 11
52.042123544
 21
109.5525060451
 31
0.0
  0
LINE
  5
1F3
330
1F
100
AcDbEntity
  8
0
  6
Continuous
 62
     7
370
    30
100
AcDbLine
 10
55.0421147225
 20
99.8031684799
 30
0.0
 11
52.042123544
 21
99.8031684799
 31
0.0
  0
LINE
  5
1F4
330
1F
100
AcDbEntity
  8
0
  6
Continuous
 62
     7
370
    30
100
AcDbLine
 10
55.0421147225
 20
99.8031684799
 30
0.0
 11
55.0421147225
 21
100.0000198042
 31
0.0
  0
LINE
  5
1F5
330
1F
100
AcDbEntity
  8
0
  6
Continuous
 62
     7
370
    30
100
AcDbLine
 10
52.042123544
 20
99.8031684799
 30
0.0
 11
52.042123544
 21
100.0000198042
 31
0.0
  0
LINE
  5
1F6
330
1F
100
AcDbEntity
  8
0
  6
Continuous
 62
     7
370
    30
100
AcDbLine
 10
52.042123544
 20
109.7493573694
 30
0.0
 11
55.0421147225
 21
109.7493573694
 31
0.0
  0
LINE
  5
1F7
330
1F
100
AcDbEntity
  8
0
  6
Continuous
 62
     7
370
    30
100
AcDbLine
 10
55.0421147225
 20
109.5525060451
 30
0.0
 11
55.0421147225
 21
109.7493573694
 31
0.0
  0
LINE
  5
1F8
330
1F
100
AcDbEntity
  8
0
  6
Continuous
 62
     7
370
    30
100
AcDbLine
 10
52.042123544
 20
109.5525060451
 30
0.0
 11
52.042123544
 21
109.7493573694
 31
0.0
  0
LINE
  5
1F9
330
1F
100
AcDbEntity
  8
0
  6
Continuous
 62
     7
370
    30
100
AcDbLine
 10
52.042123544
 20
95.0269248939
 30
0.0
 11
55.0421147225
 21
95.0269248939
 31
0.0
  0
LINE
  5
1FA
330
1F
100
AcDbEntity
  8
0
  6
Continuous
 62
     7
370
    30
100
AcDbLine
 10
55.0421147225
 20
95.0269248939
 30
0.0
 11
55.0421147225
 21
99.8031684799
 31
0.0
  0
LINE
  5
1FB
330
1F
100
AcDbEntity
  8
0
  6
Continuous
 62
     7
370
    30
100
AcDbLine
 10
52.042123544
 20
95.0269248939
 30
0.0
 11
52.042123544
 21
99.8031684799
 31
0.0
  0
LINE
  5
1FC
330
1F
100
AcDbEntity
  8
0
  6
Continuous
 62
     7
370
    30
100
AcDbLine
 10
55.0421147225
 20
114.5256009555
 30
0.0
 11
52.042123544
 21
114.5256009555
 31
0.0
  0
LINE
  5
1FD
330
1F
100
AcDbEntity
  8
0
  6
Continuous
 62
     7
370
    30
100
AcDbLine
 10
55.0421147225
 20
109.7493573694
 30
0.0
 11
55.0421147225
 21
114.5256009555
 31
0.0
  0
LINE
  5
1FE
330
1F
100
AcDbEntity
  8
0
  6
Continuous
 62
     7
370
    30
100
AcDbLine
 10
52.042123544
 20
109.7493573694
 30
0.0
 11
52.042123544
 21
114.5256009555
 31
0.0
  0
LINE
  5
1FF
330
1F
100
AcDbEntity
  8
0
  6
Continuous
 62
     7
370
    30
100
AcDbLine
 10
29.1795848487
 20
108.0262629917
 30
0.0
 11
22.4212302444
 21
108.0262629917
 31
0.0
  0
LINE
  5
200
330
1F
100
AcDbEntity
  8
0
  6
Continuous
 62
     7
370
    30
100
AcDbLine
 10
22.4212302444
 20
101.5262628576
 30
0.0
 11
29.7980724452
 21
101.5262628576
 31
0.0
  0
LINE
  5
201
330
1F
100
AcDbEntity
  8
0
  6
Continuous
 62
     7
370
    30
100
AcDbLine
 10
22.4212302444
 20
104.7762629247
 30
0.0
 11
22.4212302444
 21
101.5262628576
 31
0.0
  0
LINE
  5
202
330
1F
100
AcDbEntity
  8
0
  6
Continuous
 62
     7
370
    30
100
AcDbLine
 10
22.4212302444
 20
108.0262629917
 30
0.0
 11
22.4212302444
 21
104.7762629247
 31
0.0
  0
DIMENSION
  5
203
330
1F
100
AcDbEntity
  8
1
100
AcDbDimension
  2
*D3
 10
45.8407679889
 20
95.0269253457
 30
0.0
 11
45.8407679889
 21
88.0262629247
 31
0.0
 70
   160
 71
     2
 42
-1.0
  3
SLDDIMSTYLE0
100
AcDbAlignedDimension
 13
52.0421137335
 23
114.5256005037
 33
0.0
 14
52.0421137335
 24
95.0269253457
 34
0.0
 50
90.0
100
AcDbRotatedDimension
  0
DIMENSION
  5
216
330
1F
100
AcDbEntity
  8
1
100
AcDbDimension
  2
*D4
 10
164.2832384696
 20
95.0269253457
 30
0.0
 11
164.2832384696
 21
88.0262629247
 31
0.0
 70
   160
 71
     2
 42
-1.0
  3
SLDDIMSTYLE0
100
AcDbAlignedDimension
 13
158.1421137335
 23
114.5256005037
 33
0.0
 14
158.1421137335
 24
95.0269253457
 34
0.0
 50
90.0
100
AcDbRotatedDimension
  0
DIMENSION
  5
221
330
1F
100
AcDbEntity
  8
1
100
AcDbDimension
  2
*D5
 10
211.4677586392
 20
95.0269253457
 30
0.0
 11
211.4677586392
 21
88.0262629247
 31
0.0
 70
   160
 71
     2
 42
-1.0
  3
SLDDIMSTYLE0
100
AcDbAlignedDimension
 13
218.4087136007
 23
114.5256005037
 33
0.0
 14
218.4087136007
 24
95.0269253457
 34
0.0
 50
90.0
100
AcDbRotatedDimension
  0
ARC
  5
22C
330
1F
100
AcDbEntity
  8
0
  6
HIDDEN
 62
     7
370
     0
100
AcDbCircle
 10
34.5888260413
 20
106.9012629582
 30
0.0
 40
5.525000087171786
100
AcDbArc
 50
157.380135052
 51
202.619864948
  0
ARC
  5
22D
330
1F
100
AcDbEntity
  8
0
  6
HIDDEN
 62
     7
370
     0
100
AcDbCircle
 10
24.3888258803
 20
102.6512628911
 30
0.0
 40
5.525000087171815
100
AcDbArc
 50
337.380135052
 51
22.619864948
  0
ARC
  5
22E
330
1F
100
AcDbEntity
  8
0
  6
HIDDEN
 62
     7
370
     0
100
AcDbCircle
 10
36.5888260413
 20
106.9012629582
 30
0.0
 40
5.525000087171788
100
AcDbArc
 50
157.380135052
 51
202.619864948
  0
ARC
  5
22F
330
1F
100
AcDbEntity
  8
0
  6
HIDDEN
 62
     7
370
     0
100
AcDbCircle
 10
26.3888258803
 20
102.6512628911
 30
0.0
 40
5.525000087171788
100
AcDbArc
 50
337.380135052
 51
22.619864948
  0
ARC
  5
230
330
1F
100
AcDbEntity
  8
0
  6
HIDDEN
 62
     7
370
     0
100
AcDbCircle
 10
193.1541435042
 20
107.2762630197
 30
0.0
 40
6.500000246986736
100
AcDbArc
 50
157.380135052
 51
202.619864948
  0
ARC
  5
231
330
1F
100
AcDbEntity
  8
0
  6
HIDDEN
 62
     7
370
     0
100
AcDbCircle
 10
181.1541430483
 20
102.2762628297
 30
0.0
 40
6.500000246986763
100
AcDbArc
 50
337.380135052
 51
22.619864948
  0
ARC
  5
232
330
1F
100
AcDbEntity
  8
0
  6
HIDDEN
 62
     7
370
     0
100
AcDbCircle
 10
195.1541435042
 20
107.2762630197
 30
0.0
 40
6.500000246986736
100
AcDbArc
 50
157.380135052
 51
202.619864948
  0
ARC
  5
233
330
1F
100
AcDbEntity
  8
0
  6
HIDDEN
 62
     7
370
     0
100
AcDbCircle
 10
183.1541430483
 20
102.2762628297
 30
0.0
 40
6.500000246986763
100
AcDbArc
 50
337.380135052
 51
22.619864948
  0
ENDSEC
  0
SECTION
  2
OBJECTS
  0
DICTIONARY
  5
C
330
0
100
AcDbDictionary
281
     1
  3
ACAD_GROUP
350
D
  3
ACAD_LAYOUT
350
1A
  3
ACAD_MLINESTYLE
350
17
  3
ACAD_PLOTSETTINGS
350
19
  3
ACAD_PLOTSTYLENAME
350
E
  0
DICTIONARY
  5
D
102
{ACAD_REACTORS
330
C
102
}
330
C
100
AcDbDictionary
281
     1
  0
DICTIONARY
  5
1A
102
{ACAD_REACTORS
330
C
102
}
330
C
100
AcDbDictionary
281
     1
  3
Layout1
350
1E
  3
Layout2
350
26
  3
Model
350
22
  0
DICTIONARY
  5
17
102
{ACAD_REACTORS
330
C
102
}
330
C
100
AcDbDictionary
281
     1
  3
Standard
350
18
  0
DICTIONARY
  5
19
102
{ACAD_REACTORS
330
C
102
}
330
C
100
AcDbDictionary
281
     1
  0
ACDBDICTIONARYWDFLT
  5
E
102
{ACAD_REACTORS
330
C
102
}
330
C
100
AcDbDictionary
281
     1
  3
Normal
350
F
100
AcDbDictionaryWithDefault
340
F
  0
LAYOUT
  5
1E
102
{ACAD_REACTORS
330
1A
102
}
330
1A
100
AcDbPlotSettings
  1

  2
none_device
  4

  6

 40
0.0
 41
0.0
 42
0.0
 43
0.0
 44
0.0
 45
0.0
 46
0.0
 47
0.0
 48
0.0
 49
0.0
140
0.0
141
0.0
142
1.0
143
1.0
 70
   688
 72
     0
 73
     0
 74
     5
  7

 75
    16
147
1.0
148
0.0
149
0.0
100
AcDbLayout
  1
Layout1
 70
     1
 71
     1
 10
0.0
 20
0.0
 11
420.0
 21
297.0
 12
0.0
 22
0.0
 32
0.0
 14
1.0000000000E+20
 24
1.0000000000E+20
 34
1.0000000000E+20
 15
-1.0000000000E+20
 25
-1.0000000000E+20
 35
-1.0000000000E+20
146
0.0
 13
0.0
 23
0.0
 33
0.0
 16
1.0
 26
0.0
 36
0.0
 17
0.0
 27
1.0
 37
0.0
 76
     0
330
1B
  0
LAYOUT
  5
26
102
{ACAD_REACTORS
330
1A
102
}
330
1A
100
AcDbPlotSettings
  1

  2
none_device
  4

  6

 40
0.0
 41
0.0
 42
0.0
 43
0.0
 44
0.0
 45
0.0
 46
0.0
 47
0.0
 48
0.0
 49
0.0
140
0.0
141
0.0
142
1.0
143
1.0
 70
   688
 72
     0
 73
     0
 74
     5
  7

 75
    16
147
1.0
148
0.0
149
0.0
100
AcDbLayout
  1
Layout2
 70
     1
 71
     2
 10
0.0
 20
0.0
 11
0.0
 21
0.0
 12
0.0
 22
0.0
 32
0.0
 14
0.0
 24
0.0
 34
0.0
 15
0.0
 25
0.0
 35
0.0
146
0.0
 13
0.0
 23
0.0
 33
0.0
 16
1.0
 26
0.0
 36
0.0
 17
0.0
 27
1.0
 37
0.0
 76
     0
330
23
  0
LAYOUT
  5
22
102
{ACAD_REACTORS
330
1A
102
}
330
1A
100
AcDbPlotSettings
  1

  2
none_device
  4

  6

 40
0.0
 41
0.0
 42
0.0
 43
0.0
 44
0.0
 45
0.0
 46
0.0
 47
0.0
 48
0.0
 49
0.0
140
0.0
141
0.0
142
1.0
143
1.0
 70
  1712
 72
     0
 73
     0
 74
     0
  7

 75
     0
147
1.0
148
0.0
149
0.0
100
AcDbLayout
  1
Model
 70
     1
 71
     0
 10
0.0
 20
0.0
 11
297.0
 21
210.0
 12
0.0
 22
0.0
 32
0.0
 14
0.0
 24
0.0
 34
0.0
 15
297.0
 25
210.0
 35
0.0
146
0.0
 13
0.0
 23
0.0
 33
0.0
 16
1.0
 26
0.0
 36
0.0
 17
0.0
 27
1.0
 37
0.0
 76
     0
330
1F
331
29
  0
MLINESTYLE
  5
18
102
{ACAD_REACTORS
330
17
102
}
330
17
100
AcDbMlineStyle
  2
Standard
 70
     0
  3

 62
   256
 51
90.0
 52
90.0
 71
     2
 49
0.5
 62
   256
  6
BYLAYER
 49
-0.5
 62
   256
  6
BYLAYER
  0
ACDBPLACEHOLDER
  5
F
102
{ACAD_REACTORS
330
E
102
}
330
E
  0
ENDSEC
  0
EOF
