  0
SECTION
  2
HEADER
  9
$ACADVER
  1
AC1009
  9
$INSBASE
 10
-2.1815563600000001
 20
3.782601877999999
 30
0.0
  9
$EXTMIN
 10
-691.91011352212945
 20
9.2381710328909321
 30
-0.0015258207003583
  9
$EXTMAX
 10
-73.841846970313782
 20
260.08510471633099
 30
0.0000000349246037
  9
$LIMMIN
 10
-786.54938131199992
 20
-41.811650299999989
  9
$LIMMAX
 10
349.81538110300011
 20
459.92815330199988
  9
$ORTHOMODE
 70
     0
  9
$REGENMODE
 70
     1
  9
$FILLMODE
 70
     1
  9
$QTEXTMODE
 70
     0
  9
$MIRRTEXT
 70
     0
  9
$DRAGMODE
 70
     2
  9
$LTSCALE
 40
1.0
  9
$OSMODE
 70
    37
  9
$ATTMODE
 70
     1
  9
$TEXTSIZE
 40
3.2000000000000002
  9
$TRACEWID
 40
0.05
  9
$TEXTSTYLE
  7
STANDARD
  9
$CLAYER
  8
0
  9
$CELTYPE
  6
CONTINUOUS
  9
$CECOLOR
 62
   256
  9
$DIMSCALE
 40
1.0
  9
$DIMASZ
 40
0.18
  9
$DIMEXO
 40
0.0
  9
$DIMDLI
 40
8.0
  9
$DIMRND
 40
0.0
  9
$DIMDLE
 40
0.0
  9
$DIMEXE
 40
1.0
  9
$DIMTP
 40
0.0
  9
$DIMTM
 40
0.0
  9
$DIMTXT
 40
0.18
  9
$DIMCEN
 40
0.09
  9
$DIMTSZ
 40
0.0
  9
$DIMTOL
 70
     0
  9
$DIMLIM
 70
     0
  9
$DIMTIH
 70
     1
  9
$DIMTOH
 70
     1
  9
$DIMSE1
 70
     0
  9
$DIMSE2
 70
     0
  9
$DIMTAD
 70
     2
  9
$DIMZIN
 70
     0
  9
$DIMBLK
  1

  9
$DIMASO
 70
     1
  9
$DIMSHO
 70
     1
  9
$DIMPOST
  1

  9
$DIMAPOST
  1

  9
$DIMALT
 70
     0
  9
$DIMALTD
 70
     2
  9
$DIMALTF
 40
25.399999999999999
  9
$DIMLFAC
 40
1.0
  9
$DIMTOFL
 70
     0
  9
$DIMTVP
 40
0.0
  9
$DIMTIX
 70
     0
  9
$DIMSOXD
 70
     0
  9
$DIMSAH
 70
     0
  9
$DIMBLK1
  1

  9
$DIMBLK2
  1

  9
$DIMSTYLE
  2
STANDARD
  9
$DIMCLRD
 70
     0
  9
$DIMCLRE
 70
     0
  9
$DIMCLRT
 70
     0
  9
$DIMTFAC
 40
1.0
  9
$DIMGAP
 40
0.09
  9
$LUNITS
 70
     2
  9
$LUPREC
 70
     4
  9
$SKETCHINC
 40
0.1
  9
$FILLETRAD
 40
1.0
  9
$AUNITS
 70
     0
  9
$AUPREC
 70
     0
  9
$MENU
  1
.
  9
$ELEVATION
 40
0.0
  9
$PELEVATION
 40
0.0
  9
$THICKNESS
 40
0.0
  9
$LIMCHECK
 70
     0
  9
$BLIPMODE
 70
     0
  9
$CHAMFERA
 40
1.0
  9
$CHAMFERB
 40
1.0
  9
$SKPOLY
 70
     0
  9
$TDCREATE
 40
2454559.479166667
  9
$TDUPDATE
 40
2454638.4981783452
  9
$TDINDWG
 40
0.0027446875
  9
$TDUSRTIMER
 40
0.0027446875
  9
$USRTIMER
 70
     1
  9
$ANGBASE
 50
0.0
  9
$ANGDIR
 70
     0
  9
$PDMODE
 70
     0
  9
$PDSIZE
 40
0.0
  9
$PLINEWID
 40
0.0
  9
$COORDS
 70
     1
  9
$SPLFRAME
 70
     0
  9
$SPLINETYPE
 70
     6
  9
$SPLINESEGS
 70
     8
  9
$ATTDIA
 70
     0
  9
$ATTREQ
 70
     1
  9
$HANDLING
 70
     1
  9
$HANDSEED
  5
112F
  9
$SURFTAB1
 70
     6
  9
$SURFTAB2
 70
     6
  9
$SURFTYPE
 70
     6
  9
$SURFU
 70
     6
  9
$SURFV
 70
     6
  9
$UCSNAME
  2

  9
$UCSORG
 10
0.0
 20
0.0
 30
0.0
  9
$UCSXDIR
 10
1.0
 20
0.0
 30
0.0
  9
$UCSYDIR
 10
0.0
 20
1.0
 30
0.0
  9
$PUCSNAME
  2

  9
$PUCSORG
 10
0.0
 20
0.0
 30
0.0
  9
$PUCSXDIR
 10
1.0
 20
0.0
 30
0.0
  9
$PUCSYDIR
 10
0.0
 20
1.0
 30
0.0
  9
$USERI1
 70
     0
  9
$USERI2
 70
     0
  9
$USERI3
 70
     0
  9
$USERI4
 70
     0
  9
$USERI5
 70
     0
  9
$USERR1
 40
0.0
  9
$USERR2
 40
0.0
  9
$USERR3
 40
0.0
  9
$USERR4
 40
0.0
  9
$USERR5
 40
0.0
  9
$WORLDVIEW
 70
     1
  9
$SHADEDGE
 70
     3
  9
$SHADEDIF
 70
    70
  9
$TILEMODE
 70
     1
  9
$MAXACTVP
 70
    64
  9
$PLIMCHECK
 70
     0
  9
$PEXTMIN
 10
1.0000000000000000E+020
 20
1.0000000000000000E+020
 30
1.0000000000000000E+020
  9
$PEXTMAX
 10
-1.0000000000000000E+020
 20
-1.0000000000000000E+020
 30
-1.0000000000000000E+020
  9
$PLIMMIN
 10
0.0
 20
0.0
  9
$PLIMMAX
 10
12.0
 20
9.0
  9
$UNITMODE
 70
     0
  9
$VISRETAIN
 70
     1
  9
$PLINEGEN
 70
     0
  9
$PSLTSCALE
 70
     1
  0
ENDSEC
  0
SECTION
  2
TABLES
  0
TABLE
  2
VPORT
 70
     1
  0
VPORT
  2
*ACTIVE
 70
     0
 10
0.0
 20
0.0
 11
1.0
 21
1.0
 12
-382.87598024622162
 22
134.6616378746109
 13
0.0
 23
0.0
 14
1.0
 24
1.0
 15
0.0
 25
0.0
 16
0.0
 26
0.0
 36
1.0
 17
0.0
 27
0.0
 37
0.0
 40
463.68590687830158
 41
1.3409090909090899
 42
50.0
 43
0.0
 44
0.0
 50
0.0
 51
0.0
 71
     0
 72
   100
 73
     1
 74
     1
 75
     0
 76
     0
 77
     0
 78
     0
  0
ENDTAB
  0
TABLE
  2
LTYPE
 70
     3
  0
LTYPE
  2
CONTINUOUS
 70
     0
  3
______________
 72
    65
 73
     0
 40
0.0
  0
LTYPE
  2
CENTER
 70
     0
  3
___ _ ___ _ __
 72
    65
 73
     4
 40
13.0
 49
8.5
 49
-1.5
 49
1.5
 49
-1.5
  0
LTYPE
  2
DIVIDE
 70
     0
  3
___ . . ___ . 
 72
    65
 73
     6
 40
12.999999523
 49
5.1999998089999986
 49
-2.5999999049999989
 49
0.0
 49
-2.5999999049999989
 49
0.0
 49
-2.5999999049999989
  0
ENDTAB
  0
TABLE
  2
LAYER
 70
     4
  0
LAYER
  2
0
 70
     0
 62
     7
  6
CONTINUOUS
  0
LAYER
  2
1
 70
     0
 62
     7
  6
CONTINUOUS
  0
LAYER
  2
5
 70
     0
 62
     7
  6
CONTINUOUS
  0
LAYER
  2
_CONSTR
 70
     0
 62
     5
  6
CONTINUOUS
  0
ENDTAB
  0
TABLE
  2
STYLE
 70
     2
  0
STYLE
  2
STANDARD
 70
     0
 40
0.0
 41
1.0
 50
0.0
 71
     0
 42
3.2000000000000002
  3
TXT
  4
EXTFONT
  0
STYLE
  2
ANNOTATIVE
 70
     0
 40
0.0
 41
1.0
 50
0.0
 71
     0
 42
0.2
  3
txt
  4

  0
ENDTAB
  0
TABLE
  2
VIEW
 70
     5
  0
ENDTAB
  0
TABLE
  2
UCS
 70
     0
  0
ENDTAB
  0
TABLE
  2
APPID
 70
     3
  0
APPID
  2
ACAD
 70
     0
  0
APPID
  2
ACADANNOTATIVE
 70
     0
  0
APPID
  2
ACAD_MLEADERVER
 70
     0
  0
ENDTAB
  0
TABLE
  2
DIMSTYLE
 70
     2
  0
DIMSTYLE
  2
STANDARD
 70
     0
  3

  4

  5

  6

  7

 40
1.0
 41
0.18
 42
0.0625
 43
0.38
 44
0.18
 45
0.0
 46
0.0
 47
0.0
 48
0.0
140
0.18
141
0.09
142
0.0
143
25.399999999999999
144
1.0
145
0.0
146
1.0
147
0.09
 71
     0
 72
     0
 73
     1
 74
     1
 75
     0
 76
     0
 77
     0
 78
     0
170
     0
171
     2
172
     0
173
     0
174
     0
175
     0
176
     0
177
     0
178
     0
  0
DIMSTYLE
  2
ANNOTATIVE
 70
     0
  3

  4

  5

  6

  7

 40
1.0
 41
0.18
 42
0.0625
 43
0.38
 44
0.18
 45
0.0
 46
0.0
 47
0.0
 48
0.0
140
0.18
141
0.09
142
0.0
143
25.399999999999999
144
1.0
145
0.0
146
1.0
147
0.09
 71
     0
 72
     0
 73
     1
 74
     1
 75
     0
 76
     0
 77
     0
 78
     0
170
     0
171
     2
172
     0
173
     0
174
     0
175
     0
176
     0
177
     0
178
     0
  0
ENDTAB
  0
ENDSEC
  0
SECTION
  2
BLOCKS
  0
BLOCK
  8
0
  2
$MODEL_SPACE
 70
     0
 10
0.0
 20
0.0
 30
0.0
  3
$MODEL_SPACE
  1

  0
ENDBLK
  5
76
  8
0
  0
BLOCK
 67
     1
  8
0
  2
$PAPER_SPACE
 70
     0
 10
0.0
 20
0.0
 30
0.0
  3
$PAPER_SPACE
  1

  0
ENDBLK
  5
72
 67
     1
  8
0
  0
BLOCK
  8
0
  2
*D0
 70
     1
 10
0.0
 20
0.0
 30
0.0
  3
*D0
  1

  0
TEXT
  5
82
  8
1
  6
CONTINUOUS
 62
     4
 10
248.566839945
 20
356.80993695799998
 30
0.0
 40
2.7999999999999989
  1
60
 50
90.0
 72
     5
 11
248.566839945
 21
361.00993695800003
 31
0.0
  0
TEXT
  5
83
  8
1
  6
CONTINUOUS
 62
     4
 10
248.566839945
 20
361.84993695800011
 30
0.0
 40
2.7999999999999989
  1
°
 50
90.0
 41
3.5999999999999539
 72
     5
 11
248.566839945
 21
365.20993695800001
 31
0.0
  0
LINE
  5
84
  8
1
  6
CONTINUOUS
 62
     4
 10
241.53360726
 20
382.00280188200003
 30
0.0
 11
246.197919095
 21
384.69574357499999
 31
0.0
  0
POLYLINE
  5
85
  8
1
  6
CONTINUOUS
 62
     4
 66
     1
 10
0.0
 20
0.0
 30
0.0
  0
VERTEX
  5
D3F
  8
1
  6
CONTINUOUS
 62
     4
 10
245.72567590899999
 20
382.11369276800002
 30
0.0
  0
VERTEX
  5
D40
  8
1
  6
CONTINUOUS
 62
     4
 10
244.465868288
 20
383.69574357499999
 30
0.0
  0
VERTEX
  5
D41
  8
1
  6
CONTINUOUS
 62
     4
 10
245.206060667
 20
381.81369276800001
 30
0.0
  0
SEQEND
  5
D42
  8
1
  6
CONTINUOUS
 62
     4
  0
ARC
  5
8A
  8
1
  6
CONTINUOUS
 62
     4
 10
203.70342671
 20
360.16153695800011
 30
0.0
 40
47.068413234999987
 50
330.0
 51
30.0
  0
POLYLINE
  5
8B
  8
1
  6
CONTINUOUS
 62
     4
 66
     1
 10
0.0
 20
0.0
 30
0.0
  0
VERTEX
  5
D43
  8
1
  6
CONTINUOUS
 62
     4
 10
245.206060667
 20
338.50938114799999
 30
0.0
  0
VERTEX
  5
D44
  8
1
  6
CONTINUOUS
 62
     4
 10
244.465868288
 20
336.62733034000001
 30
0.0
  0
VERTEX
  5
D45
  8
1
  6
CONTINUOUS
 62
     4
 10
245.72567590899999
 20
338.20938114799998
 30
0.0
  0
SEQEND
  5
D46
  8
1
  6
CONTINUOUS
 62
     4
  0
LINE
  5
90
  8
1
  6
CONTINUOUS
 62
     4
 10
244.07042739400001
 20
336.85563824600001
 30
0.0
 11
246.19791909599999
 21
335.62733034000001
 31
0.0
  0
ENDBLK
  5
91
  8
0
  0
BLOCK
  8
0
  2
*D1
 70
     1
 10
0.0
 20
0.0
 30
0.0
  3
*D1
  1

  0
TEXT
  5
94
  8
1
  6
CONTINUOUS
 62
     4
 10
129.383666471
 20
328.52052518900001
 30
0.0
 40
2.7999999999999989
  1
(
 50
90.0
 41
1.8000000000000069
 72
     5
 11
129.383666471
 21
330.20052518900002
 31
0.0
  0
TEXT
  5
95
  8
1
  6
CONTINUOUS
 62
     4
 10
129.383666471
 20
331.04052518899999
 30
0.0
 40
2.7999999999999989
  1
124.7
 50
90.0
 41
1.1454545454545499
 72
     5
 11
129.383666471
 21
342.8005251890001
 31
0.0
  0
TEXT
  5
96
  8
1
  6
CONTINUOUS
 62
     4
 10
129.383666471
 20
343.64052518900002
 30
0.0
 40
2.7999999999999989
  1
)
 50
90.0
 41
1.8000000000000069
 72
     5
 11
129.383666471
 21
345.32052518900002
 31
0.0
  0
LINE
  5
97
  8
1
  6
CONTINUOUS
 62
     4
 10
123.547142323
 20
274.57637388199998
 30
0.0
 11
133.58866647100001
 21
274.57637388199998
 31
0.0
  0
POLYLINE
  5
98
  8
1
  6
CONTINUOUS
 62
     4
 66
     1
 10
0.0
 20
0.0
 30
0.0
  0
VERTEX
  5
D47
  8
1
  6
CONTINUOUS
 62
     4
 10
131.288666471
 20
276.57637388199998
 30
0.0
  0
VERTEX
  5
D48
  8
1
  6
CONTINUOUS
 62
     4
 10
131.58866647100001
 20
274.57637388199998
 30
0.0
  0
VERTEX
  5
D49
  8
1
  6
CONTINUOUS
 62
     4
 10
131.88866647099999
 20
276.57637388199998
 30
0.0
  0
SEQEND
  5
D4A
  8
1
  6
CONTINUOUS
 62
     4
  0
LINE
  5
9D
  8
1
  6
CONTINUOUS
 62
     4
 10
131.58866647100001
 20
274.57637388199998
 30
0.0
 11
131.58866647100001
 21
399.24787649699999
 31
0.0
  0
POLYLINE
  5
9E
  8
1
  6
CONTINUOUS
 62
     4
 66
     1
 10
0.0
 20
0.0
 30
0.0
  0
VERTEX
  5
D4B
  8
1
  6
CONTINUOUS
 62
     4
 10
131.88866647099999
 20
397.24787649699999
 30
0.0
  0
VERTEX
  5
D4C
  8
1
  6
CONTINUOUS
 62
     4
 10
131.58866647100001
 20
399.24787649699999
 30
0.0
  0
VERTEX
  5
D4D
  8
1
  6
CONTINUOUS
 62
     4
 10
131.288666471
 20
397.24787649699999
 30
0.0
  0
SEQEND
  5
D4E
  8
1
  6
CONTINUOUS
 62
     4
  0
LINE
  5
A3
  8
1
  6
CONTINUOUS
 62
     4
 10
123.547142323
 20
399.24787649699999
 30
0.0
 11
133.58866647100001
 21
399.24787649699999
 31
0.0
  0
ENDBLK
  5
A4
  8
0
  0
BLOCK
  8
0
  2
*D2
 70
     1
 10
0.0
 20
0.0
 30
0.0
  3
*D2
  1

  0
TEXT
  5
A7
  8
1
  6
CONTINUOUS
 62
     4
 10
112.959729362
 20
322.09399116499998
 30
0.0
 40
2.7999999999999989
  1
70
 50
90.0
 72
     5
 11
112.959729362
 21
326.29399116500002
 31
0.0
  0
LINE
  5
A8
  8
1
  6
CONTINUOUS
 62
     4
 10
58.616603781000002
 20
289.24787649699999
 30
0.0
 11
116.928418931
 21
289.24787649699999
 31
0.0
  0
POLYLINE
  5
A9
  8
1
  6
CONTINUOUS
 62
     4
 66
     1
 10
0.0
 20
0.0
 30
0.0
  0
VERTEX
  5
D4F
  8
1
  6
CONTINUOUS
 62
     4
 10
114.628418931
 20
291.24787649699999
 30
0.0
  0
VERTEX
  5
D50
  8
1
  6
CONTINUOUS
 62
     4
 10
114.928418931
 20
289.24787649699999
 30
0.0
  0
VERTEX
  5
D51
  8
1
  6
CONTINUOUS
 62
     4
 10
115.22841893099999
 20
291.24787649699999
 30
0.0
  0
SEQEND
  5
D52
  8
1
  6
CONTINUOUS
 62
     4
  0
LINE
  5
AE
  8
1
  6
CONTINUOUS
 62
     4
 10
114.928418931
 20
289.24787649699999
 30
0.0
 11
114.928418931
 21
359.24787649699999
 31
0.0
  0
POLYLINE
  5
AF
  8
1
  6
CONTINUOUS
 62
     4
 66
     1
 10
0.0
 20
0.0
 30
0.0
  0
VERTEX
  5
D53
  8
1
  6
CONTINUOUS
 62
     4
 10
115.22841893099999
 20
357.24787649699999
 30
0.0
  0
VERTEX
  5
D54
  8
1
  6
CONTINUOUS
 62
     4
 10
114.928418931
 20
359.24787649699999
 30
0.0
  0
VERTEX
  5
D55
  8
1
  6
CONTINUOUS
 62
     4
 10
114.628418931
 20
357.24787649699999
 30
0.0
  0
SEQEND
  5
D56
  8
1
  6
CONTINUOUS
 62
     4
  0
LINE
  5
B4
  8
1
  6
CONTINUOUS
 62
     4
 10
70.516603781000001
 20
359.24787649699999
 30
0.0
 11
116.928418931
 21
359.24787649699999
 31
0.0
  0
ENDBLK
  5
B5
  8
0
  0
BLOCK
  8
0
  2
*D3
 70
     1
 10
0.0
 20
0.0
 30
0.0
  3
*D3
  1

  0
TEXT
  5
B8
  8
1
  6
CONTINUOUS
 62
     4
 10
39.135003781000002
 20
420.32150300099988
 30
0.0
 40
2.7999999999999989
  1
φ
 41
1.5
 72
     5
 11
42.495003781000001
 21
420.32150300099988
 31
0.0
  0
TEXT
  5
B9
  8
1
  6
CONTINUOUS
 62
     4
 10
44.175003781000001
 20
420.32150300099988
 30
0.0
 40
2.7999999999999989
  1
49.5
 41
1.1000000000000001
 72
     5
 11
53.41500378100001
 21
420.32150300099988
 31
0.0
  0
LINE
  5
BA
  8
1
  6
CONTINUOUS
 62
     4
 10
71.016603781000001
 20
358.74787649699999
 30
0.0
 11
71.016603781000001
 21
420.11650300100001
 31
0.0
  0
POLYLINE
  5
BB
  8
1
  6
CONTINUOUS
 62
     4
 66
     1
 10
0.0
 20
0.0
 30
0.0
  0
VERTEX
  5
D57
  8
1
  6
CONTINUOUS
 62
     4
 10
69.016603781000001
 20
417.81650300099989
 30
0.0
  0
VERTEX
  5
D58
  8
1
  6
CONTINUOUS
 62
     4
 10
71.016603781000001
 20
418.1165030009999
 30
0.0
  0
VERTEX
  5
D59
  8
1
  6
CONTINUOUS
 62
     4
 10
69.016603781000001
 20
418.41650300099991
 30
0.0
  0
SEQEND
  5
D5A
  8
1
  6
CONTINUOUS
 62
     4
  0
LINE
  5
C0
  8
1
  6
CONTINUOUS
 62
     4
 10
71.016603781000001
 20
418.1165030009999
 30
0.0
 11
21.516603781000001
 21
418.1165030009999
 31
0.0
  0
POLYLINE
  5
C1
  8
1
  6
CONTINUOUS
 62
     4
 66
     1
 10
0.0
 20
0.0
 30
0.0
  0
VERTEX
  5
D5B
  8
1
  6
CONTINUOUS
 62
     4
 10
23.516603781000001
 20
418.41650300099991
 30
0.0
  0
VERTEX
  5
D5C
  8
1
  6
CONTINUOUS
 62
     4
 10
21.516603781000001
 20
418.1165030009999
 30
0.0
  0
VERTEX
  5
D5D
  8
1
  6
CONTINUOUS
 62
     4
 10
23.516603781000001
 20
417.81650300099989
 30
0.0
  0
SEQEND
  5
D5E
  8
1
  6
CONTINUOUS
 62
     4
  0
LINE
  5
C6
  8
1
  6
CONTINUOUS
 62
     4
 10
21.516603781000001
 20
358.74787649699999
 30
0.0
 11
21.516603781000001
 21
420.11650300100001
 31
0.0
  0
ENDBLK
  5
C7
  8
0
  0
BLOCK
  8
0
  2
*D4
 70
     1
 10
0.0
 20
0.0
 30
0.0
  3
*D4
  1

  0
TEXT
  5
CA
  8
1
  6
CONTINUOUS
 62
     4
 10
105.019575973
 20
342.15627649700002
 30
0.0
 40
2.7999999999999989
  1
30
 50
90.0
 72
     5
 11
105.019575973
 21
346.35627649700001
 31
0.0
  0
POLYLINE
  5
CB
  8
1
  6
CONTINUOUS
 62
     4
 66
     1
 10
0.0
 20
0.0
 30
0.0
  0
VERTEX
  5
D5F
  8
1
  6
CONTINUOUS
 62
     4
 10
107.524575973
 20
357.24787649699999
 30
0.0
  0
VERTEX
  5
D60
  8
1
  6
CONTINUOUS
 62
     4
 10
107.224575973
 20
359.24787649699999
 30
0.0
  0
VERTEX
  5
D61
  8
1
  6
CONTINUOUS
 62
     4
 10
106.924575973
 20
357.24787649699999
 30
0.0
  0
SEQEND
  5
D62
  8
1
  6
CONTINUOUS
 62
     4
  0
LINE
  5
D0
  8
1
  6
CONTINUOUS
 62
     4
 10
107.224575973
 20
359.24787649699999
 30
0.0
 11
107.224575973
 21
329.24787649699999
 31
0.0
  0
POLYLINE
  5
D1
  8
1
  6
CONTINUOUS
 62
     4
 66
     1
 10
0.0
 20
0.0
 30
0.0
  0
VERTEX
  5
D63
  8
1
  6
CONTINUOUS
 62
     4
 10
106.924575973
 20
331.24787649699999
 30
0.0
  0
VERTEX
  5
D64
  8
1
  6
CONTINUOUS
 62
     4
 10
107.224575973
 20
329.24787649699999
 30
0.0
  0
VERTEX
  5
D65
  8
1
  6
CONTINUOUS
 62
     4
 10
107.524575973
 20
331.24787649699999
 30
0.0
  0
SEQEND
  5
D66
  8
1
  6
CONTINUOUS
 62
     4
  0
LINE
  5
D6
  8
1
  6
CONTINUOUS
 62
     4
 10
70.516603781000001
 20
329.24787649699999
 30
0.0
 11
109.224575973
 21
329.24787649699999
 31
0.0
  0
ENDBLK
  5
D7
  8
0
  0
BLOCK
  8
0
  2
BLK20
 70
     0
 10
0.0
 20
0.0
 30
0.0
  3
BLK20
  1

  0
ARC
  5
DA
  8
1
  6
CONTINUOUS
 62
     5
 10
0.0
 20
0.0
 30
0.0
 40
1.0
 50
335.13969192299999
 51
204.86020311100009
  0
ENDBLK
  5
DB
  8
0
  0
BLOCK
  8
0
  2
*D6
 70
     1
 10
0.0
 20
0.0
 30
0.0
  3
*D6
  1

  0
TEXT
  5
DE
  8
1
  6
CONTINUOUS
 62
     4
 10
120.623829219
 20
308.87895131699997
 30
0.0
 40
2.7999999999999989
  1
(
 50
90.0
 41
1.7999999999999461
 72
     5
 11
120.623829219
 21
310.55895131699998
 31
0.0
  0
TEXT
  5
DF
  8
1
  6
CONTINUOUS
 62
     4
 10
120.623829219
 20
311.39895131700001
 30
0.0
 40
2.7999999999999989
  1
84.7
 50
90.0
 41
1.100000000000001
 72
     5
 11
120.623829219
 21
320.63895131700002
 31
0.0
  0
TEXT
  5
E0
  8
1
  6
CONTINUOUS
 62
     4
 10
120.623829219
 20
321.478951317
 30
0.0
 40
2.7999999999999989
  1
)
 50
90.0
 41
1.8000000000000069
 72
     5
 11
120.623829219
 21
323.158951317
 31
0.0
  0
LINE
  5
E1
  8
1
  6
CONTINUOUS
 62
     4
 10
70.516603781000001
 20
359.24787649699999
 30
0.0
 11
125.547142323
 21
359.24787649699999
 31
0.0
  0
POLYLINE
  5
E2
  8
1
  6
CONTINUOUS
 62
     4
 66
     1
 10
0.0
 20
0.0
 30
0.0
  0
VERTEX
  5
D67
  8
1
  6
CONTINUOUS
 62
     4
 10
123.847142323
 20
357.24787649699999
 30
0.0
  0
VERTEX
  5
D68
  8
1
  6
CONTINUOUS
 62
     4
 10
123.547142323
 20
359.24787649699999
 30
0.0
  0
VERTEX
  5
D69
  8
1
  6
CONTINUOUS
 62
     4
 10
123.24714232300001
 20
357.24787649699999
 30
0.0
  0
SEQEND
  5
D6A
  8
1
  6
CONTINUOUS
 62
     4
  0
LINE
  5
E7
  8
1
  6
CONTINUOUS
 62
     4
 10
123.547142323
 20
359.24787649699999
 30
0.0
 11
123.547142323
 21
274.57637388199998
 31
0.0
  0
POLYLINE
  5
E8
  8
1
  6
CONTINUOUS
 62
     4
 66
     1
 10
0.0
 20
0.0
 30
0.0
  0
VERTEX
  5
D6B
  8
1
  6
CONTINUOUS
 62
     4
 10
123.24714232300001
 20
276.57637388199998
 30
0.0
  0
VERTEX
  5
D6C
  8
1
  6
CONTINUOUS
 62
     4
 10
123.547142323
 20
274.57637388199998
 30
0.0
  0
VERTEX
  5
D6D
  8
1
  6
CONTINUOUS
 62
     4
 10
123.847142323
 20
276.57637388199998
 30
0.0
  0
SEQEND
  5
D6E
  8
1
  6
CONTINUOUS
 62
     4
  0
LINE
  5
ED
  8
1
  6
CONTINUOUS
 62
     4
 10
48.652358668999987
 20
274.57637388199998
 30
0.0
 11
125.547142323
 21
274.57637388199998
 31
0.0
  0
ENDBLK
  5
EE
  8
0
  0
BLOCK
  8
0
  2
BLK38
 70
     0
 10
0.0
 20
0.0
 30
0.0
  3
BLK38
  1

  0
ARC
  5
F1
  8
1
  6
CONTINUOUS
 62
     5
 10
0.0
 20
0.0
 30
0.0
 40
1.0
 50
0.0
 51
180.0
  0
ENDBLK
  5
F2
  8
0
  0
BLOCK
  8
0
  2
BLK55
 70
     0
 10
0.0
 20
0.0
 30
0.0
  3
BLK55
  1

  0
ARC
  5
F5
  8
1
  6
CONTINUOUS
 62
     5
 10
0.0
 20
0.0
 30
0.0
 40
1.0
 50
359.999797693
 51
180.0
  0
ENDBLK
  5
F6
  8
0
  0
BLOCK
  8
0
  2
BLK58
 70
     0
 10
0.0
 20
0.0
 30
0.0
  3
BLK58
  1

  0
ARC
  5
F9
  8
1
  6
CONTINUOUS
 62
     5
 10
0.0
 20
0.0
 30
0.0
 40
1.0
 50
190.21408736399999
 51
216.53185266700001
  0
ENDBLK
  5
FA
  8
0
  0
BLOCK
  8
0
  2
BLK59
 70
     0
 10
0.0
 20
0.0
 30
0.0
  3
BLK59
  1

  0
ARC
  5
FD
  8
1
  6
CONTINUOUS
 62
     5
 10
0.0
 20
0.0
 30
0.0
 40
1.0
 50
323.46807759500001
 51
349.78580864899999
  0
ENDBLK
  5
FE
  8
0
  0
BLOCK
  8
0
  2
BLK61
 70
     0
 10
0.0
 20
0.0
 30
0.0
  3
BLK61
  1

  0
ARC
  5
101
  8
1
  6
CONTINUOUS
 62
     5
 10
0.0
 20
0.0
 30
0.0
 40
1.0
 50
30.548898204000011
 51
30.548918412999999
  0
ENDBLK
  5
102
  8
0
  0
BLOCK
  8
0
  2
BLK62
 70
     0
 10
0.0
 20
0.0
 30
0.0
  3
BLK62
  1

  0
ARC
  5
105
  8
1
  6
CONTINUOUS
 62
     5
 10
0.0
 20
0.0
 30
0.0
 40
1.0
 50
30.548918412999999
 51
149.45106244900001
  0
ENDBLK
  5
106
  8
0
  0
BLOCK
  8
0
  2
BLK67
 70
     0
 10
0.0
 20
0.0
 30
0.0
  3
BLK67
  1

  0
ARC
  5
109
  8
1
  6
CONTINUOUS
 62
     5
 10
0.0
 20
0.0
 30
0.0
 40
1.0
 50
359.999797693
 51
180.0
  0
ENDBLK
  5
10A
  8
0
  0
BLOCK
  8
0
  2
BLK68
 70
     0
 10
0.0
 20
0.0
 30
0.0
  3
BLK68
  1

  0
ARC
  5
10D
  8
1
  6
CONTINUOUS
 62
     5
 10
0.0
 20
0.0
 30
0.0
 40
1.0
 50
338.96048839700001
 51
199.77483157799989
  0
ENDBLK
  5
10E
  8
0
  0
BLOCK
  8
0
  2
BLK69
 70
     0
 10
0.0
 20
0.0
 30
0.0
  3
BLK69
  1

  0
ARC
  5
111
  8
1
  6
CONTINUOUS
 62
     5
 10
0.0
 20
0.0
 30
0.0
 40
1.0
 50
359.999797693
 51
180.0
  0
ENDBLK
  5
112
  8
0
  0
BLOCK
  8
0
  2
BLK71
 70
     0
 10
0.0
 20
0.0
 30
0.0
  3
BLK71
  1

  0
CIRCLE
  5
115
  8
1
  6
CONTINUOUS
 62
     5
 10
0.0
 20
0.0
 30
0.0
 40
1.0
  0
ENDBLK
  5
116
  8
0
  0
BLOCK
  8
0
  2
BLK72
 70
     0
 10
0.0
 20
0.0
 30
0.0
  3
BLK72
  1

  0
CIRCLE
  5
119
  8
1
  6
CONTINUOUS
 62
     5
 10
0.0
 20
0.0
 30
0.0
 40
1.0
  0
ENDBLK
  5
11A
  8
0
  0
BLOCK
  8
0
  2
*D18
 70
     1
 10
0.0
 20
0.0
 30
0.0
  3
*D18
  1

  0
TEXT
  5
11D
  8
1
  6
CONTINUOUS
 62
     4
 10
41.655003780999991
 20
253.245099012
 30
0.0
 40
2.7999999999999989
  1
φ
 41
1.5000000000000031
 72
     5
 11
45.015003780999997
 21
253.245099012
 31
0.0
  0
TEXT
  5
11E
  8
1
  6
CONTINUOUS
 62
     4
 10
46.695003780999997
 20
253.245099012
 30
0.0
 40
2.7999999999999989
  1
28
 41
0.9000000000000008
 72
     5
 11
50.895003781000007
 21
253.245099012
 31
0.0
  0
LINE
  5
11F
  8
1
  6
CONTINUOUS
 62
     4
 10
32.266603781000001
 20
296.26909262599997
 30
0.0
 11
32.266603781000001
 21
249.04009901200001
 31
0.0
  0
POLYLINE
  5
120
  8
1
  6
CONTINUOUS
 62
     4
 66
     1
 10
0.0
 20
0.0
 30
0.0
  0
VERTEX
  5
D6F
  8
1
  6
CONTINUOUS
 62
     4
 10
34.266603781000001
 20
251.340099012
 30
0.0
  0
VERTEX
  5
D70
  8
1
  6
CONTINUOUS
 62
     4
 10
32.266603781000001
 20
251.04009901200001
 30
0.0
  0
VERTEX
  5
D71
  8
1
  6
CONTINUOUS
 62
     4
 10
34.266603781000001
 20
250.740099012
 30
0.0
  0
SEQEND
  5
D72
  8
1
  6
CONTINUOUS
 62
     4
  0
LINE
  5
125
  8
1
  6
CONTINUOUS
 62
     4
 10
32.266603781000001
 20
251.04009901200001
 30
0.0
 11
60.266603781000001
 21
251.04009901200001
 31
0.0
  0
POLYLINE
  5
126
  8
1
  6
CONTINUOUS
 62
     4
 66
     1
 10
0.0
 20
0.0
 30
0.0
  0
VERTEX
  5
D73
  8
1
  6
CONTINUOUS
 62
     4
 10
58.266603781000001
 20
250.740099012
 30
0.0
  0
VERTEX
  5
D74
  8
1
  6
CONTINUOUS
 62
     4
 10
60.266603781000001
 20
251.04009901200001
 30
0.0
  0
VERTEX
  5
D75
  8
1
  6
CONTINUOUS
 62
     4
 10
58.266603781000001
 20
251.340099012
 30
0.0
  0
SEQEND
  5
D76
  8
1
  6
CONTINUOUS
 62
     4
  0
LINE
  5
12B
  8
1
  6
CONTINUOUS
 62
     4
 10
60.266603781000001
 20
296.26909262599997
 30
0.0
 11
60.266603781000001
 21
249.04009901200001
 31
0.0
  0
ENDBLK
  5
12C
  8
0
  0
BLOCK
  8
0
  2
BLK109
 70
     0
 10
0.0
 20
0.0
 30
0.0
  3
BLK109
  1

  0
ARC
  5
12F
  8
1
  6
CONTINUOUS
 62
     5
 10
0.0
 20
0.0
 30
0.0
 40
1.0
 50
180.0
 51
0.0
  0
ENDBLK
  5
130
  8
0
  0
BLOCK
  8
0
  2
*D20
 70
     1
 10
0.0
 20
0.0
 30
0.0
  3
*D20
  1

  0
TEXT
  5
133
  8
1
  6
CONTINUOUS
 62
     4
 10
41.655003780999991
 20
410.40633176599988
 30
0.0
 40
2.7999999999999989
  1
φＤ
 41
1.5
 72
     5
 11
50.055003781000003
 21
410.40633176599988
 31
0.0
  0
LINE
  5
134
  8
1
  6
CONTINUOUS
 62
     4
 10
58.766603781000001
 20
398.24787649699999
 30
0.0
 11
58.766603781000001
 21
410.2013317659999
 31
0.0
  0
POLYLINE
  5
135
  8
1
  6
CONTINUOUS
 62
     4
 66
     1
 10
0.0
 20
0.0
 30
0.0
  0
VERTEX
  5
D77
  8
1
  6
CONTINUOUS
 62
     4
 10
56.766603781000001
 20
407.901331766
 30
0.0
  0
VERTEX
  5
D78
  8
1
  6
CONTINUOUS
 62
     4
 10
58.766603781000001
 20
408.20133176600001
 30
0.0
  0
VERTEX
  5
D79
  8
1
  6
CONTINUOUS
 62
     4
 10
56.766603781000001
 20
408.50133176599991
 30
0.0
  0
SEQEND
  5
D7A
  8
1
  6
CONTINUOUS
 62
     4
  0
LINE
  5
13A
  8
1
  6
CONTINUOUS
 62
     4
 10
58.766603781000001
 20
408.20133176600001
 30
0.0
 11
33.766603781000001
 21
408.20133176600001
 31
0.0
  0
POLYLINE
  5
13B
  8
1
  6
CONTINUOUS
 62
     4
 66
     1
 10
0.0
 20
0.0
 30
0.0
  0
VERTEX
  5
D7B
  8
1
  6
CONTINUOUS
 62
     4
 10
35.766603781000001
 20
408.50133176599991
 30
0.0
  0
VERTEX
  5
D7C
  8
1
  6
CONTINUOUS
 62
     4
 10
33.766603781000001
 20
408.20133176600001
 30
0.0
  0
VERTEX
  5
D7D
  8
1
  6
CONTINUOUS
 62
     4
 10
35.766603781000001
 20
407.901331766
 30
0.0
  0
SEQEND
  5
D7E
  8
1
  6
CONTINUOUS
 62
     4
  0
LINE
  5
140
  8
1
  6
CONTINUOUS
 62
     4
 10
33.766603781000001
 20
398.24787649699999
 30
0.0
 11
33.766603781000001
 21
410.2013317659999
 31
0.0
  0
ENDBLK
  5
141
  8
0
  0
BLOCK
  8
0
  2
*D21
 70
     1
 10
0.0
 20
0.0
 30
0.0
  3
*D21
  1

  0
TEXT
  5
144
  8
1
  6
CONTINUOUS
 62
     4
 10
121.342142323
 20
377.15627649700002
 30
0.0
 40
2.7999999999999989
  1
40
 50
90.0
 72
     5
 11
121.342142323
 21
381.3562764969999
 31
0.0
  0
LINE
  5
145
  8
1
  6
CONTINUOUS
 62
     4
 10
70.516603781000001
 20
359.24787649699999
 30
0.0
 11
125.547142323
 21
359.24787649699999
 31
0.0
  0
POLYLINE
  5
146
  8
1
  6
CONTINUOUS
 62
     4
 66
     1
 10
0.0
 20
0.0
 30
0.0
  0
VERTEX
  5
D7F
  8
1
  6
CONTINUOUS
 62
     4
 10
123.24714232300001
 20
361.24787649699999
 30
0.0
  0
VERTEX
  5
D80
  8
1
  6
CONTINUOUS
 62
     4
 10
123.547142323
 20
359.24787649699999
 30
0.0
  0
VERTEX
  5
D81
  8
1
  6
CONTINUOUS
 62
     4
 10
123.847142323
 20
361.24787649699999
 30
0.0
  0
SEQEND
  5
D82
  8
1
  6
CONTINUOUS
 62
     4
  0
LINE
  5
14B
  8
1
  6
CONTINUOUS
 62
     4
 10
123.547142323
 20
359.24787649699999
 30
0.0
 11
123.547142323
 21
399.24787649699999
 31
0.0
  0
POLYLINE
  5
14C
  8
1
  6
CONTINUOUS
 62
     4
 66
     1
 10
0.0
 20
0.0
 30
0.0
  0
VERTEX
  5
D83
  8
1
  6
CONTINUOUS
 62
     4
 10
123.847142323
 20
397.24787649699999
 30
0.0
  0
VERTEX
  5
D84
  8
1
  6
CONTINUOUS
 62
     4
 10
123.547142323
 20
399.24787649699999
 30
0.0
  0
VERTEX
  5
D85
  8
1
  6
CONTINUOUS
 62
     4
 10
123.24714232300001
 20
397.24787649699999
 30
0.0
  0
SEQEND
  5
D86
  8
1
  6
CONTINUOUS
 62
     4
  0
LINE
  5
151
  8
1
  6
CONTINUOUS
 62
     4
 10
57.766603781000001
 20
399.24787649699999
 30
0.0
 11
125.547142323
 21
399.24787649699999
 31
0.0
  0
ENDBLK
  5
152
  8
0
  0
BLOCK
  8
0
  2
*D22
 70
     1
 10
0.0
 20
0.0
 30
0.0
  3
*D22
  1

  0
TEXT
  5
155
  8
1
  6
CONTINUOUS
 62
     4
 10
-415.544422113
 20
185.03333799800001
 30
0.0
 40
2.7999999999999989
  1
69.9
 50
90.0
 41
1.100000000000001
 72
     5
 11
-415.544422113
 21
194.27333799799999
 31
0.0
  0
LINE
  5
156
  8
1
  6
CONTINUOUS
 62
     4
 10
-480.125993483
 20
154.694937998
 30
0.0
 11
-411.33942211300001
 21
154.694937998
 31
0.0
  0
POLYLINE
  5
157
  8
1
  6
CONTINUOUS
 62
     4
 66
     1
 10
0.0
 20
0.0
 30
0.0
  0
VERTEX
  5
D87
  8
1
  6
CONTINUOUS
 62
     4
 10
-413.63942211300002
 20
156.694937998
 30
0.0
  0
VERTEX
  5
D88
  8
1
  6
CONTINUOUS
 62
     4
 10
-413.33942211300001
 20
154.694937998
 30
0.0
  0
VERTEX
  5
D89
  8
1
  6
CONTINUOUS
 62
     4
 10
-413.039422113
 20
156.694937998
 30
0.0
  0
SEQEND
  5
D8A
  8
1
  6
CONTINUOUS
 62
     4
  0
LINE
  5
15C
  8
1
  6
CONTINUOUS
 62
     4
 10
-413.33942211300001
 20
154.694937998
 30
0.0
 11
-413.33942211300001
 21
224.59493799800001
 31
0.0
  0
POLYLINE
  5
15D
  8
1
  6
CONTINUOUS
 62
     4
 66
     1
 10
0.0
 20
0.0
 30
0.0
  0
VERTEX
  5
D8B
  8
1
  6
CONTINUOUS
 62
     4
 10
-413.039422113
 20
222.59493799800001
 30
0.0
  0
VERTEX
  5
D8C
  8
1
  6
CONTINUOUS
 62
     4
 10
-413.33942211300001
 20
224.59493799800001
 30
0.0
  0
VERTEX
  5
D8D
  8
1
  6
CONTINUOUS
 62
     4
 10
-413.63942211300002
 20
222.59493799800001
 30
0.0
  0
SEQEND
  5
D8E
  8
1
  6
CONTINUOUS
 62
     4
  0
LINE
  5
162
  8
1
  6
CONTINUOUS
 62
     4
 10
-494.02599348299998
 20
224.59493799800001
 30
0.0
 11
-411.33942211300001
 21
224.59493799800001
 31
0.0
  0
ENDBLK
  5
163
  8
0
  0
BLOCK
  8
0
  2
BLK195
 70
     0
 10
0.0
 20
0.0
 30
0.0
  3
BLK195
  1

  0
ARC
  5
166
  8
1
  6
CONTINUOUS
 62
     5
 10
0.0
 20
0.0
 30
0.0
 40
1.0
 50
335.13969192299999
 51
204.86020311100009
  0
ENDBLK
  5
167
  8
0
  0
BLOCK
  8
0
  2
*D24
 70
     1
 10
0.0
 20
0.0
 30
0.0
  3
*D24
  1

  0
TEXT
  5
16A
  8
1
  6
CONTINUOUS
 62
     4
 10
-506.73759348300001
 20
244.76149937100001
 30
0.0
 40
2.7999999999999989
  1
φ
 41
1.49999999999998
 72
     5
 11
-503.377593483
 21
244.76149937100001
 31
0.0
  0
TEXT
  5
16B
  8
1
  6
CONTINUOUS
 62
     4
 10
-501.69759348299999
 20
244.76149937100001
 30
0.0
 40
2.7999999999999989
  1
46
 41
0.9000000000000099
 72
     5
 11
-497.49759348299989
 21
244.76149937100001
 31
0.0
  0
LINE
  5
16C
  8
1
  6
CONTINUOUS
 62
     4
 10
-479.12599348300012
 20
153.694937998
 30
0.0
 11
-479.12599348300012
 21
244.556499371
 31
0.0
  0
POLYLINE
  5
16D
  8
1
  6
CONTINUOUS
 62
     4
 66
     1
 10
0.0
 20
0.0
 30
0.0
  0
VERTEX
  5
D8F
  8
1
  6
CONTINUOUS
 62
     4
 10
-481.125993483
 20
242.25649937099999
 30
0.0
  0
VERTEX
  5
D90
  8
1
  6
CONTINUOUS
 62
     4
 10
-479.12599348300012
 20
242.556499371
 30
0.0
  0
VERTEX
  5
D91
  8
1
  6
CONTINUOUS
 62
     4
 10
-481.125993483
 20
242.85649937100001
 30
0.0
  0
SEQEND
  5
D92
  8
1
  6
CONTINUOUS
 62
     4
  0
LINE
  5
172
  8
1
  6
CONTINUOUS
 62
     4
 10
-479.12599348300012
 20
242.556499371
 30
0.0
 11
-525.125993483
 21
242.556499371
 31
0.0
  0
POLYLINE
  5
173
  8
1
  6
CONTINUOUS
 62
     4
 66
     1
 10
0.0
 20
0.0
 30
0.0
  0
VERTEX
  5
D93
  8
1
  6
CONTINUOUS
 62
     4
 10
-523.12599348299989
 20
242.85649937100001
 30
0.0
  0
VERTEX
  5
D94
  8
1
  6
CONTINUOUS
 62
     4
 10
-525.125993483
 20
242.556499371
 30
0.0
  0
VERTEX
  5
D95
  8
1
  6
CONTINUOUS
 62
     4
 10
-523.12599348299989
 20
242.25649937099999
 30
0.0
  0
SEQEND
  5
D96
  8
1
  6
CONTINUOUS
 62
     4
  0
LINE
  5
178
  8
1
  6
CONTINUOUS
 62
     4
 10
-525.125993483
 20
153.694937998
 30
0.0
 11
-525.125993483
 21
244.556499371
 31
0.0
  0
ENDBLK
  5
179
  8
0
  0
BLOCK
  8
0
  2
BLK208
 70
     0
 10
0.0
 20
0.0
 30
0.0
  3
BLK208
  1

  0
ARC
  5
17C
  8
1
  6
CONTINUOUS
 62
     5
 10
0.0
 20
0.0
 30
0.0
 40
1.0
 50
0.0
 51
180.0
  0
ENDBLK
  5
17D
  8
0
  0
BLOCK
  8
0
  2
BLK232
 70
     0
 10
0.0
 20
0.0
 30
0.0
  3
BLK232
  1

  0
ARC
  5
180
  8
1
  6
CONTINUOUS
 62
     5
 10
0.0
 20
0.0
 30
0.0
 40
1.0
 50
359.999797693
 51
180.0
  0
ENDBLK
  5
181
  8
0
  0
BLOCK
  8
0
  2
BLK235
 70
     0
 10
0.0
 20
0.0
 30
0.0
  3
BLK235
  1

  0
ARC
  5
184
  8
1
  6
CONTINUOUS
 62
     5
 10
0.0
 20
0.0
 30
0.0
 40
1.0
 50
190.21408736399999
 51
216.53185266700001
  0
ENDBLK
  5
185
  8
0
  0
BLOCK
  8
0
  2
BLK236
 70
     0
 10
0.0
 20
0.0
 30
0.0
  3
BLK236
  1

  0
ARC
  5
188
  8
1
  6
CONTINUOUS
 62
     5
 10
0.0
 20
0.0
 30
0.0
 40
1.0
 50
323.46807759500001
 51
349.78580864899999
  0
ENDBLK
  5
189
  8
0
  0
BLOCK
  8
0
  2
BLK238
 70
     0
 10
0.0
 20
0.0
 30
0.0
  3
BLK238
  1

  0
ARC
  5
18C
  8
1
  6
CONTINUOUS
 62
     5
 10
0.0
 20
0.0
 30
0.0
 40
1.0
 50
30.548898204000011
 51
30.548918412999999
  0
ENDBLK
  5
18D
  8
0
  0
BLOCK
  8
0
  2
BLK239
 70
     0
 10
0.0
 20
0.0
 30
0.0
  3
BLK239
  1

  0
ARC
  5
190
  8
1
  6
CONTINUOUS
 62
     5
 10
0.0
 20
0.0
 30
0.0
 40
1.0
 50
30.548918412999999
 51
149.45106244900001
  0
ENDBLK
  5
191
  8
0
  0
BLOCK
  8
0
  2
BLK244
 70
     0
 10
0.0
 20
0.0
 30
0.0
  3
BLK244
  1

  0
ARC
  5
194
  8
1
  6
CONTINUOUS
 62
     5
 10
0.0
 20
0.0
 30
0.0
 40
1.0
 50
359.999797693
 51
180.0
  0
ENDBLK
  5
195
  8
0
  0
BLOCK
  8
0
  2
BLK245
 70
     0
 10
0.0
 20
0.0
 30
0.0
  3
BLK245
  1

  0
ARC
  5
198
  8
1
  6
CONTINUOUS
 62
     5
 10
0.0
 20
0.0
 30
0.0
 40
1.0
 50
338.96048839700001
 51
199.77483157799989
  0
ENDBLK
  5
199
  8
0
  0
BLOCK
  8
0
  2
BLK246
 70
     0
 10
0.0
 20
0.0
 30
0.0
  3
BLK246
  1

  0
ARC
  5
19C
  8
1
  6
CONTINUOUS
 62
     5
 10
0.0
 20
0.0
 30
0.0
 40
1.0
 50
359.999797693
 51
180.0
  0
ENDBLK
  5
19D
  8
0
  0
BLOCK
  8
0
  2
BLK247
 70
     0
 10
0.0
 20
0.0
 30
0.0
  3
BLK247
  1

  0
CIRCLE
  5
1A0
  8
1
  6
CONTINUOUS
 62
     5
 10
0.0
 20
0.0
 30
0.0
 40
1.0
  0
ENDBLK
  5
1A1
  8
0
  0
BLOCK
  8
0
  2
BLK248
 70
     0
 10
0.0
 20
0.0
 30
0.0
  3
BLK248
  1

  0
CIRCLE
  5
1A4
  8
1
  6
CONTINUOUS
 62
     5
 10
0.0
 20
0.0
 30
0.0
 40
1.0
  0
ENDBLK
  5
1A5
  8
0
  0
BLOCK
  8
0
  2
*D36
 70
     1
 10
0.0
 20
0.0
 30
0.0
  3
*D36
  1

  0
TEXT
  5
1A8
  8
1
  6
CONTINUOUS
 62
     4
 10
-416.22740187300002
 20
93.368573527999999
 30
0.0
 40
2.7999999999999989
  1
(
 50
90.0
 41
1.7999999999999921
 72
     5
 11
-416.22740187300002
 21
95.048573528000006
 31
0.0
  0
TEXT
  5
1A9
  8
1
  6
CONTINUOUS
 62
     4
 10
-416.22740187300002
 20
95.888573527999995
 30
0.0
 40
2.7999999999999989
  1
105.7
 50
90.0
 41
1.1999999999999991
 72
     5
 11
-416.22740187300002
 21
107.648573528
 31
0.0
  0
TEXT
  5
1AA
  8
1
  6
CONTINUOUS
 62
     4
 10
-416.22740187300002
 20
108.488573528
 30
0.0
 40
2.7999999999999989
  1
)
 50
90.0
 41
1.8000000000000069
 72
     5
 11
-416.22740187300002
 21
110.168573528
 31
0.0
  0
LINE
  5
1AB
  8
1
  6
CONTINUOUS
 62
     4
 10
-480.125993483
 20
154.694937998
 30
0.0
 11
-411.33942211300001
 21
154.694937998
 31
0.0
  0
POLYLINE
  5
1AC
  8
1
  6
CONTINUOUS
 62
     4
 66
     1
 10
0.0
 20
0.0
 30
0.0
  0
VERTEX
  5
D97
  8
1
  6
CONTINUOUS
 62
     4
 10
-413.039422113
 20
152.694937998
 30
0.0
  0
VERTEX
  5
D98
  8
1
  6
CONTINUOUS
 62
     4
 10
-413.33942211300001
 20
154.694937998
 30
0.0
  0
VERTEX
  5
D99
  8
1
  6
CONTINUOUS
 62
     4
 10
-413.63942211300002
 20
152.694937998
 30
0.0
  0
SEQEND
  5
D9A
  8
1
  6
CONTINUOUS
 62
     4
  0
LINE
  5
1B1
  8
1
  6
CONTINUOUS
 62
     4
 10
-413.33942211300001
 20
154.694937998
 30
0.0
 11
-413.33942211300001
 21
49.023435382999999
 31
0.0
  0
POLYLINE
  5
1B2
  8
1
  6
CONTINUOUS
 62
     4
 66
     1
 10
0.0
 20
0.0
 30
0.0
  0
VERTEX
  5
D9B
  8
1
  6
CONTINUOUS
 62
     4
 10
-413.63942211300002
 20
51.023435382999999
 30
0.0
  0
VERTEX
  5
D9C
  8
1
  6
CONTINUOUS
 62
     4
 10
-413.33942211300001
 20
49.023435382999999
 30
0.0
  0
VERTEX
  5
D9D
  8
1
  6
CONTINUOUS
 62
     4
 10
-413.039422113
 20
51.023435382999999
 30
0.0
  0
SEQEND
  5
D9E
  8
1
  6
CONTINUOUS
 62
     4
  0
LINE
  5
1B7
  8
1
  6
CONTINUOUS
 62
     4
 10
-425.77400230299997
 20
49.023435382999999
 30
0.0
 11
-411.33942211300001
 21
49.023435382999999
 31
0.0
  0
ENDBLK
  5
1B8
  8
0
  0
BLOCK
  8
0
  2
*D37
 70
     1
 10
0.0
 20
0.0
 30
0.0
  3
*D37
  1

  0
TEXT
  5
1BB
  8
1
  6
CONTINUOUS
 62
     4
 10
-428.09050636799998
 20
49.116785578000012
 30
0.0
 40
2.7999999999999989
  1
(
 50
90.0
 41
1.7999999999999989
 72
     5
 11
-428.09050636799998
 21
50.796785578000012
 31
0.0
  0
TEXT
  5
1BC
  8
1
  6
CONTINUOUS
 62
     4
 10
-428.09050636799998
 20
51.636785578000001
 30
0.0
 40
2.7999999999999989
  1
14.7
 50
90.0
 41
1.2375
 72
     5
 11
-428.09050636799998
 21
60.876785578000003
 31
0.0
  0
TEXT
  5
1BD
  8
1
  6
CONTINUOUS
 62
     4
 10
-428.09050636799998
 20
61.716785577999993
 30
0.0
 40
2.7999999999999989
  1
)
 50
90.0
 41
1.7999999999999989
 72
     5
 11
-428.09050636799998
 21
63.396785577999999
 31
0.0
  0
POLYLINE
  5
1BE
  8
1
  6
CONTINUOUS
 62
     4
 66
     1
 10
0.0
 20
0.0
 30
0.0
  0
VERTEX
  5
D9F
  8
1
  6
CONTINUOUS
 62
     4
 10
-425.47400230300002
 20
61.694937998
 30
0.0
  0
VERTEX
  5
DA0
  8
1
  6
CONTINUOUS
 62
     4
 10
-425.77400230299997
 20
63.694937998
 30
0.0
  0
VERTEX
  5
DA1
  8
1
  6
CONTINUOUS
 62
     4
 10
-426.07400230299999
 20
61.694937998
 30
0.0
  0
SEQEND
  5
DA2
  8
1
  6
CONTINUOUS
 62
     4
  0
LINE
  5
1C3
  8
1
  6
CONTINUOUS
 62
     4
 10
-425.77400230299997
 20
63.694937998
 30
0.0
 11
-425.77400230299997
 21
49.023435382999999
 31
0.0
  0
POLYLINE
  5
1C4
  8
1
  6
CONTINUOUS
 62
     4
 66
     1
 10
0.0
 20
0.0
 30
0.0
  0
VERTEX
  5
DA3
  8
1
  6
CONTINUOUS
 62
     4
 10
-426.07400230299999
 20
51.023435382999999
 30
0.0
  0
VERTEX
  5
DA4
  8
1
  6
CONTINUOUS
 62
     4
 10
-425.77400230299997
 20
49.023435382999999
 30
0.0
  0
VERTEX
  5
DA5
  8
1
  6
CONTINUOUS
 62
     4
 10
-425.47400230300002
 20
51.023435382999999
 30
0.0
  0
SEQEND
  5
DA6
  8
1
  6
CONTINUOUS
 62
     4
  0
LINE
  5
1C9
  8
1
  6
CONTINUOUS
 62
     4
 10
-498.70334375200002
 20
49.023435382999999
 30
0.0
 11
-423.77400230299997
 21
49.023435382999999
 31
0.0
  0
ENDBLK
  5
1CA
  8
0
  0
BLOCK
  8
0
  2
*D38
 70
     1
 10
0.0
 20
0.0
 30
0.0
  3
*D38
  1

  0
TEXT
  5
1CD
  8
1
  6
CONTINUOUS
 62
     4
 10
-440.57762285299998
 20
127.103337998
 30
0.0
 40
2.7999999999999989
  1
51
 50
90.0
 41
1.125
 72
     5
 11
-440.57762285299998
 21
131.30333799799999
 31
0.0
  0
POLYLINE
  5
1CE
  8
1
  6
CONTINUOUS
 62
     4
 66
     1
 10
0.0
 20
0.0
 30
0.0
  0
VERTEX
  5
DA7
  8
1
  6
CONTINUOUS
 62
     4
 10
-438.07262285299998
 20
152.694937998
 30
0.0
  0
VERTEX
  5
DA8
  8
1
  6
CONTINUOUS
 62
     4
 10
-438.372622853
 20
154.694937998
 30
0.0
  0
VERTEX
  5
DA9
  8
1
  6
CONTINUOUS
 62
     4
 10
-438.67262285300001
 20
152.694937998
 30
0.0
  0
SEQEND
  5
DAA
  8
1
  6
CONTINUOUS
 62
     4
  0
LINE
  5
1D3
  8
1
  6
CONTINUOUS
 62
     4
 10
-438.372622853
 20
154.694937998
 30
0.0
 11
-438.372622853
 21
103.694937998
 31
0.0
  0
POLYLINE
  5
1D4
  8
1
  6
CONTINUOUS
 62
     4
 66
     1
 10
0.0
 20
0.0
 30
0.0
  0
VERTEX
  5
DAB
  8
1
  6
CONTINUOUS
 62
     4
 10
-438.67262285300001
 20
105.694937998
 30
0.0
  0
VERTEX
  5
DAC
  8
1
  6
CONTINUOUS
 62
     4
 10
-438.372622853
 20
103.694937998
 30
0.0
  0
VERTEX
  5
DAD
  8
1
  6
CONTINUOUS
 62
     4
 10
-438.07262285299998
 20
105.694937998
 30
0.0
  0
SEQEND
  5
DAE
  8
1
  6
CONTINUOUS
 62
     4
  0
LINE
  5
1D9
  8
1
  6
CONTINUOUS
 62
     4
 10
-477.875993483
 20
103.694937998
 30
0.0
 11
-436.372622853
 21
103.694937998
 31
0.0
  0
ENDBLK
  5
1DA
  8
0
  0
BLOCK
  8
0
  2
*D39
 70
     1
 10
0.0
 20
0.0
 30
0.0
  3
*D39
  1

  0
TEXT
  5
1DD
  8
1
  6
CONTINUOUS
 62
     4
 10
-509.25759348300011
 20
256.75993839400002
 30
0.0
 40
2.7999999999999989
  1
φ
 41
1.500000000000006
 72
     5
 11
-505.89759348299998
 21
256.75993839400002
 31
0.0
  0
TEXT
  5
1DE
  8
1
  6
CONTINUOUS
 62
     4
 10
-504.21759348299997
 20
256.75993839400002
 30
0.0
 40
2.7999999999999989
  1
49.5
 41
1.100000000000001
 72
     5
 11
-494.97759348299991
 21
256.75993839400002
 31
0.0
  0
LINE
  5
1DF
  8
1
  6
CONTINUOUS
 62
     4
 10
-477.37599348300012
 20
127.194937998
 30
0.0
 11
-477.37599348300012
 21
256.55493839399998
 31
0.0
  0
POLYLINE
  5
1E0
  8
1
  6
CONTINUOUS
 62
     4
 66
     1
 10
0.0
 20
0.0
 30
0.0
  0
VERTEX
  5
DAF
  8
1
  6
CONTINUOUS
 62
     4
 10
-479.375993483
 20
254.25493839399999
 30
0.0
  0
VERTEX
  5
DB0
  8
1
  6
CONTINUOUS
 62
     4
 10
-477.37599348300012
 20
254.554938394
 30
0.0
  0
VERTEX
  5
DB1
  8
1
  6
CONTINUOUS
 62
     4
 10
-479.375993483
 20
254.85493839399999
 30
0.0
  0
SEQEND
  5
DB2
  8
1
  6
CONTINUOUS
 62
     4
  0
LINE
  5
1E5
  8
1
  6
CONTINUOUS
 62
     4
 10
-477.37599348300012
 20
254.554938394
 30
0.0
 11
-526.875993483
 21
254.554938394
 31
0.0
  0
POLYLINE
  5
1E6
  8
1
  6
CONTINUOUS
 62
     4
 66
     1
 10
0.0
 20
0.0
 30
0.0
  0
VERTEX
  5
DB3
  8
1
  6
CONTINUOUS
 62
     4
 10
-524.87599348299989
 20
254.85493839399999
 30
0.0
  0
VERTEX
  5
DB4
  8
1
  6
CONTINUOUS
 62
     4
 10
-526.875993483
 20
254.554938394
 30
0.0
  0
VERTEX
  5
DB5
  8
1
  6
CONTINUOUS
 62
     4
 10
-524.87599348299989
 20
254.25493839399999
 30
0.0
  0
SEQEND
  5
DB6
  8
1
  6
CONTINUOUS
 62
     4
  0
LINE
  5
1EB
  8
1
  6
CONTINUOUS
 62
     4
 10
-526.875993483
 20
127.194937998
 30
0.0
 11
-526.875993483
 21
256.55493839399998
 31
0.0
  0
ENDBLK
  5
1EC
  8
0
  0
BLOCK
  8
0
  2
*D40
 70
     1
 10
0.0
 20
0.0
 30
0.0
  3
*D40
  1

  0
TEXT
  5
1EF
  8
1
  6
CONTINUOUS
 62
     4
 10
-427.97900230300002
 20
107.103337998
 30
0.0
 40
2.7999999999999989
  1
91
 50
90.0
 41
1.125
 72
     5
 11
-427.97900230300002
 21
111.303337998
 31
0.0
  0
LINE
  5
1F0
  8
1
  6
CONTINUOUS
 62
     4
 10
-489.77599348299998
 20
63.694937998
 30
0.0
 11
-423.77400230299997
 21
63.694937998
 31
0.0
  0
POLYLINE
  5
1F1
  8
1
  6
CONTINUOUS
 62
     4
 66
     1
 10
0.0
 20
0.0
 30
0.0
  0
VERTEX
  5
DB7
  8
1
  6
CONTINUOUS
 62
     4
 10
-426.07400230299999
 20
65.694937998
 30
0.0
  0
VERTEX
  5
DB8
  8
1
  6
CONTINUOUS
 62
     4
 10
-425.77400230299997
 20
63.694937998
 30
0.0
  0
VERTEX
  5
DB9
  8
1
  6
CONTINUOUS
 62
     4
 10
-425.47400230300002
 20
65.694937998
 30
0.0
  0
SEQEND
  5
DBA
  8
1
  6
CONTINUOUS
 62
     4
  0
LINE
  5
1F6
  8
1
  6
CONTINUOUS
 62
     4
 10
-425.77400230299997
 20
63.694937998
 30
0.0
 11
-425.77400230299997
 21
154.694937998
 31
0.0
  0
POLYLINE
  5
1F7
  8
1
  6
CONTINUOUS
 62
     4
 66
     1
 10
0.0
 20
0.0
 30
0.0
  0
VERTEX
  5
DBB
  8
1
  6
CONTINUOUS
 62
     4
 10
-425.47400230300002
 20
152.694937998
 30
0.0
  0
VERTEX
  5
DBC
  8
1
  6
CONTINUOUS
 62
     4
 10
-425.77400230299997
 20
154.694937998
 30
0.0
  0
VERTEX
  5
DBD
  8
1
  6
CONTINUOUS
 62
     4
 10
-426.07400230299999
 20
152.694937998
 30
0.0
  0
SEQEND
  5
DBE
  8
1
  6
CONTINUOUS
 62
     4
  0
LINE
  5
1FC
  8
1
  6
CONTINUOUS
 62
     4
 10
-480.125993483
 20
154.694937998
 30
0.0
 11
-423.77400230299997
 21
154.694937998
 31
0.0
  0
ENDBLK
  5
1FD
  8
0
  0
BLOCK
  8
0
  2
*D41
 70
     1
 10
0.0
 20
0.0
 30
0.0
  3
*D41
  1

  0
TEXT
  5
200
  8
1
  6
CONTINUOUS
 62
     4
 10
-403.58165361900001
 20
128.41758669000001
 30
0.0
 40
2.7999999999999989
  1
(
 50
90.0
 41
1.8000000000000069
 72
     5
 11
-403.58165361900001
 21
130.09758669000001
 31
0.0
  0
TEXT
  5
201
  8
1
  6
CONTINUOUS
 62
     4
 10
-403.58165361900001
 20
130.93758668999999
 30
0.0
 40
2.7999999999999989
  1
175.6
 50
90.0
 41
1.1454545454545471
 72
     5
 11
-403.58165361900001
 21
142.69758669000001
 31
0.0
  0
TEXT
  5
202
  8
1
  6
CONTINUOUS
 62
     4
 10
-403.58165361900001
 20
143.53758669000001
 30
0.0
 40
2.7999999999999989
  1
)
 50
90.0
 41
1.7999999999999761
 72
     5
 11
-403.58165361900001
 21
145.21758668999999
 31
0.0
  0
LINE
  5
203
  8
1
  6
CONTINUOUS
 62
     4
 10
-425.77400230299997
 20
49.023435382999999
 30
0.0
 11
-399.37665361900002
 21
49.023435382999999
 31
0.0
  0
POLYLINE
  5
204
  8
1
  6
CONTINUOUS
 62
     4
 66
     1
 10
0.0
 20
0.0
 30
0.0
  0
VERTEX
  5
DBF
  8
1
  6
CONTINUOUS
 62
     4
 10
-401.67665361899998
 20
51.023435382999999
 30
0.0
  0
VERTEX
  5
DC0
  8
1
  6
CONTINUOUS
 62
     4
 10
-401.37665361900002
 20
49.023435382999999
 30
0.0
  0
VERTEX
  5
DC1
  8
1
  6
CONTINUOUS
 62
     4
 10
-401.07665361900001
 20
51.023435382999999
 30
0.0
  0
SEQEND
  5
DC2
  8
1
  6
CONTINUOUS
 62
     4
  0
LINE
  5
209
  8
1
  6
CONTINUOUS
 62
     4
 10
-401.37665361900002
 20
49.023435382999999
 30
0.0
 11
-401.37665361900002
 21
224.59493799800001
 31
0.0
  0
POLYLINE
  5
20A
  8
1
  6
CONTINUOUS
 62
     4
 66
     1
 10
0.0
 20
0.0
 30
0.0
  0
VERTEX
  5
DC3
  8
1
  6
CONTINUOUS
 62
     4
 10
-401.07665361900001
 20
222.59493799800001
 30
0.0
  0
VERTEX
  5
DC4
  8
1
  6
CONTINUOUS
 62
     4
 10
-401.37665361900002
 20
224.59493799800001
 30
0.0
  0
VERTEX
  5
DC5
  8
1
  6
CONTINUOUS
 62
     4
 10
-401.67665361899998
 20
222.59493799800001
 30
0.0
  0
SEQEND
  5
DC6
  8
1
  6
CONTINUOUS
 62
     4
  0
LINE
  5
20F
  8
1
  6
CONTINUOUS
 62
     4
 10
-424.8454549409999
 20
224.59493799800001
 30
0.0
 11
-399.37665361900002
 21
224.59493799800001
 31
0.0
  0
ENDBLK
  5
210
  8
0
  0
BLOCK
  8
0
  2
*D42
 70
     1
 10
0.0
 20
0.0
 30
0.0
  3
*D42
  1

  0
TEXT
  5
213
  8
1
  6
CONTINUOUS
 62
     4
 10
-183.77166796700001
 20
13.467101766000001
 30
0.0
 40
2.7999999999999989
  1
φ
 41
1.500000000000006
 72
     5
 11
-180.411667967
 21
13.467101766000001
 31
0.0
  0
TEXT
  5
214
  8
1
  6
CONTINUOUS
 62
     4
 10
-178.73166796699999
 20
13.467101766000001
 30
0.0
 40
2.7999999999999989
  1
49.5
 41
1.100000000000001
 72
     5
 11
-169.49166796700001
 21
13.467101766000001
 31
0.0
  0
LINE
  5
215
  8
1
  6
CONTINUOUS
 62
     4
 10
-151.89006796699999
 20
104.194937998
 30
0.0
 11
-151.89006796699999
 21
9.2621017660000007
 31
0.0
  0
POLYLINE
  5
216
  8
1
  6
CONTINUOUS
 62
     4
 66
     1
 10
0.0
 20
0.0
 30
0.0
  0
VERTEX
  5
DC7
  8
1
  6
CONTINUOUS
 62
     4
 10
-153.89006796699999
 20
10.962101766
 30
0.0
  0
VERTEX
  5
DC8
  8
1
  6
CONTINUOUS
 62
     4
 10
-151.89006796699999
 20
11.262101766000001
 30
0.0
  0
VERTEX
  5
DC9
  8
1
  6
CONTINUOUS
 62
     4
 10
-153.89006796699999
 20
11.562101766
 30
0.0
  0
SEQEND
  5
DCA
  8
1
  6
CONTINUOUS
 62
     4
  0
LINE
  5
21B
  8
1
  6
CONTINUOUS
 62
     4
 10
-151.89006796699999
 20
11.262101766000001
 30
0.0
 11
-201.39006796699999
 21
11.262101766000001
 31
0.0
  0
POLYLINE
  5
21C
  8
1
  6
CONTINUOUS
 62
     4
 66
     1
 10
0.0
 20
0.0
 30
0.0
  0
VERTEX
  5
DCB
  8
1
  6
CONTINUOUS
 62
     4
 10
-199.39006796699999
 20
11.562101766
 30
0.0
  0
VERTEX
  5
DCC
  8
1
  6
CONTINUOUS
 62
     4
 10
-201.39006796699999
 20
11.262101766000001
 30
0.0
  0
VERTEX
  5
DCD
  8
1
  6
CONTINUOUS
 62
     4
 10
-199.39006796699999
 20
10.962101766
 30
0.0
  0
SEQEND
  5
DCE
  8
1
  6
CONTINUOUS
 62
     4
  0
LINE
  5
221
  8
1
  6
CONTINUOUS
 62
     4
 10
-201.39006796699999
 20
104.194937998
 30
0.0
 11
-201.39006796699999
 21
9.2621017660000007
 31
0.0
  0
ENDBLK
  5
222
  8
0
  0
BLOCK
  8
0
  2
*D43
 70
     1
 10
0.0
 20
0.0
 30
0.0
  3
*D43
  1

  0
TEXT
  5
225
  8
1
  6
CONTINUOUS
 62
     4
 10
-506.73759348300001
 20
27.692160513000001
 30
0.0
 40
2.7999999999999989
  1
φ
 41
1.49999999999998
 72
     5
 11
-503.377593483
 21
27.692160513000001
 31
0.0
  0
TEXT
  5
226
  8
1
  6
CONTINUOUS
 62
     4
 10
-501.69759348299999
 20
27.692160513000001
 30
0.0
 40
2.7999999999999989
  1
28
 41
0.9000000000000095
 72
     5
 11
-497.49759348299989
 21
27.692160513000001
 31
0.0
  0
LINE
  5
227
  8
1
  6
CONTINUOUS
 62
     4
 10
-516.125993483
 20
70.716154126999996
 30
0.0
 11
-516.125993483
 21
23.487160512999999
 31
0.0
  0
POLYLINE
  5
228
  8
1
  6
CONTINUOUS
 62
     4
 66
     1
 10
0.0
 20
0.0
 30
0.0
  0
VERTEX
  5
DCF
  8
1
  6
CONTINUOUS
 62
     4
 10
-514.12599348299989
 20
25.787160513000011
 30
0.0
  0
VERTEX
  5
DD0
  8
1
  6
CONTINUOUS
 62
     4
 10
-516.125993483
 20
25.487160512999999
 30
0.0
  0
VERTEX
  5
DD1
  8
1
  6
CONTINUOUS
 62
     4
 10
-514.12599348299989
 20
25.187160512999998
 30
0.0
  0
SEQEND
  5
DD2
  8
1
  6
CONTINUOUS
 62
     4
  0
LINE
  5
22D
  8
1
  6
CONTINUOUS
 62
     4
 10
-516.125993483
 20
25.487160512999999
 30
0.0
 11
-488.125993483
 21
25.487160512999999
 31
0.0
  0
POLYLINE
  5
22E
  8
1
  6
CONTINUOUS
 62
     4
 66
     1
 10
0.0
 20
0.0
 30
0.0
  0
VERTEX
  5
DD3
  8
1
  6
CONTINUOUS
 62
     4
 10
-490.125993483
 20
25.187160512999998
 30
0.0
  0
VERTEX
  5
DD4
  8
1
  6
CONTINUOUS
 62
     4
 10
-488.125993483
 20
25.487160512999999
 30
0.0
  0
VERTEX
  5
DD5
  8
1
  6
CONTINUOUS
 62
     4
 10
-490.125993483
 20
25.787160513000011
 30
0.0
  0
SEQEND
  5
DD6
  8
1
  6
CONTINUOUS
 62
     4
  0
LINE
  5
233
  8
1
  6
CONTINUOUS
 62
     4
 10
-488.125993483
 20
70.716154126999996
 30
0.0
 11
-488.125993483
 21
23.487160512999999
 31
0.0
  0
ENDBLK
  5
234
  8
0
  0
BLOCK
  8
0
  2
BLK322
 70
     0
 10
0.0
 20
0.0
 30
0.0
  3
BLK322
  1

  0
ARC
  5
237
  8
1
  6
CONTINUOUS
 62
     5
 10
0.0
 20
0.0
 30
0.0
 40
1.0
 50
0.0
 51
180.0
  0
ENDBLK
  5
238
  8
0
  0
BLOCK
  8
0
  2
*D45
 70
     1
 10
0.0
 20
0.0
 30
0.0
  3
*D45
  1

  0
TEXT
  5
23B
  8
1
  6
CONTINUOUS
 62
     4
 10
-78.095728101999995
 20
133.91758669000001
 30
0.0
 40
2.7999999999999989
  1
(
 50
90.0
 41
1.8000000000000069
 72
     5
 11
-78.095728101999995
 21
135.59758669000001
 31
0.0
  0
TEXT
  5
23C
  8
1
  6
CONTINUOUS
 62
     4
 10
-78.095728101999995
 20
136.43758668999999
 30
0.0
 40
2.7999999999999989
  1
186.6
 50
90.0
 41
1.1454545454545471
 72
     5
 11
-78.095728101999995
 21
148.19758669000001
 31
0.0
  0
TEXT
  5
23D
  8
1
  6
CONTINUOUS
 62
     4
 10
-78.095728101999995
 20
149.03758669000001
 30
0.0
 40
2.7999999999999989
  1
)
 50
90.0
 41
1.7999999999999761
 72
     5
 11
-78.095728101999995
 21
150.71758668999999
 31
0.0
  0
LINE
  5
23E
  8
1
  6
CONTINUOUS
 62
     4
 10
-100.28807678699999
 20
49.023435382999999
 30
0.0
 11
-73.890728101999997
 21
49.023435382999999
 31
0.0
  0
POLYLINE
  5
23F
  8
1
  6
CONTINUOUS
 62
     4
 66
     1
 10
0.0
 20
0.0
 30
0.0
  0
VERTEX
  5
DD7
  8
1
  6
CONTINUOUS
 62
     4
 10
-76.190728101999994
 20
51.023435382999999
 30
0.0
  0
VERTEX
  5
DD8
  8
1
  6
CONTINUOUS
 62
     4
 10
-75.890728101999997
 20
49.023435382999999
 30
0.0
  0
VERTEX
  5
DD9
  8
1
  6
CONTINUOUS
 62
     4
 10
-75.590728101999986
 20
51.023435382999999
 30
0.0
  0
SEQEND
  5
DDA
  8
1
  6
CONTINUOUS
 62
     4
  0
LINE
  5
244
  8
1
  6
CONTINUOUS
 62
     4
 10
-75.890728101999997
 20
49.023435382999999
 30
0.0
 11
-75.890728101999997
 21
235.59493799800001
 31
0.0
  0
POLYLINE
  5
245
  8
1
  6
CONTINUOUS
 62
     4
 66
     1
 10
0.0
 20
0.0
 30
0.0
  0
VERTEX
  5
DDB
  8
1
  6
CONTINUOUS
 62
     4
 10
-75.590728101999986
 20
233.59493799800001
 30
0.0
  0
VERTEX
  5
DDC
  8
1
  6
CONTINUOUS
 62
     4
 10
-75.890728101999997
 20
235.59493799800001
 30
0.0
  0
VERTEX
  5
DDD
  8
1
  6
CONTINUOUS
 62
     4
 10
-76.190728101999994
 20
233.59493799800001
 30
0.0
  0
SEQEND
  5
DDE
  8
1
  6
CONTINUOUS
 62
     4
  0
LINE
  5
24A
  8
1
  6
CONTINUOUS
 62
     4
 10
-164.665067967
 20
235.59493799800001
 30
0.0
 11
-73.890728101999997
 21
235.59493799800001
 31
0.0
  0
ENDBLK
  5
24B
  8
0
  0
BLOCK
  8
0
  2
*D46
 70
     1
 10
0.0
 20
0.0
 30
0.0
  3
*D46
  1

  0
TEXT
  5
24E
  8
1
  6
CONTINUOUS
 62
     4
 10
-115.091697337
 20
120.103337998
 30
0.0
 40
2.7999999999999989
  1
37
 50
90.0
 41
0.9000000000000007
 72
     5
 11
-115.091697337
 21
124.303337998
 31
0.0
  0
POLYLINE
  5
24F
  8
1
  6
CONTINUOUS
 62
     4
 66
     1
 10
0.0
 20
0.0
 30
0.0
  0
VERTEX
  5
DDF
  8
1
  6
CONTINUOUS
 62
     4
 10
-112.586697337
 20
138.694937998
 30
0.0
  0
VERTEX
  5
DE0
  8
1
  6
CONTINUOUS
 62
     4
 10
-112.886697337
 20
140.694937998
 30
0.0
  0
VERTEX
  5
DE1
  8
1
  6
CONTINUOUS
 62
     4
 10
-113.186697337
 20
138.694937998
 30
0.0
  0
SEQEND
  5
DE2
  8
1
  6
CONTINUOUS
 62
     4
  0
LINE
  5
254
  8
1
  6
CONTINUOUS
 62
     4
 10
-112.886697337
 20
140.694937998
 30
0.0
 11
-112.886697337
 21
103.694937998
 31
0.0
  0
POLYLINE
  5
255
  8
1
  6
CONTINUOUS
 62
     4
 66
     1
 10
0.0
 20
0.0
 30
0.0
  0
VERTEX
  5
DE3
  8
1
  6
CONTINUOUS
 62
     4
 10
-113.186697337
 20
105.694937998
 30
0.0
  0
VERTEX
  5
DE4
  8
1
  6
CONTINUOUS
 62
     4
 10
-112.886697337
 20
103.694937998
 30
0.0
  0
VERTEX
  5
DE5
  8
1
  6
CONTINUOUS
 62
     4
 10
-112.586697337
 20
105.694937998
 30
0.0
  0
SEQEND
  5
DE6
  8
1
  6
CONTINUOUS
 62
     4
  0
LINE
  5
25A
  8
1
  6
CONTINUOUS
 62
     4
 10
-152.39006796699999
 20
103.694937998
 30
0.0
 11
-110.886697337
 21
103.694937998
 31
0.0
  0
ENDBLK
  5
25B
  8
0
  0
BLOCK
  8
0
  2
*D47
 70
     1
 10
0.0
 20
0.0
 30
0.0
  3
*D47
  1

  0
TEXT
  5
25E
  8
1
  6
CONTINUOUS
 62
     4
 10
-90.526633235000006
 20
88.328426032999985
 30
0.0
 40
2.7999999999999989
  1
(
 50
90.0
 41
1.8000000000000069
 72
     5
 11
-90.526633235000006
 21
90.008426032999978
 31
0.0
  0
TEXT
  5
25F
  8
1
  6
CONTINUOUS
 62
     4
 10
-90.526633235000006
 20
90.848426032999996
 30
0.0
 40
2.7999999999999989
  1
91.7
 50
90.0
 41
1.2374999999999989
 72
     5
 11
-90.526633235000006
 21
100.088426033
 31
0.0
  0
TEXT
  5
260
  8
1
  6
CONTINUOUS
 62
     4
 10
-90.526633235000006
 20
100.92842603299999
 30
0.0
 40
2.7999999999999989
  1
)
 50
90.0
 41
1.7999999999999921
 72
     5
 11
-90.526633235000006
 21
102.6084260329999
 31
0.0
  0
LINE
  5
261
  8
1
  6
CONTINUOUS
 62
     4
 10
-146.14006796699999
 20
140.694937998
 30
0.0
 11
-85.853496597000003
 21
140.694937998
 31
0.0
  0
POLYLINE
  5
262
  8
1
  6
CONTINUOUS
 62
     4
 66
     1
 10
0.0
 20
0.0
 30
0.0
  0
VERTEX
  5
DE7
  8
1
  6
CONTINUOUS
 62
     4
 10
-87.553496597000006
 20
138.694937998
 30
0.0
  0
VERTEX
  5
DE8
  8
1
  6
CONTINUOUS
 62
     4
 10
-87.853496597000003
 20
140.694937998
 30
0.0
  0
VERTEX
  5
DE9
  8
1
  6
CONTINUOUS
 62
     4
 10
-88.153496597000014
 20
138.694937998
 30
0.0
  0
SEQEND
  5
DEA
  8
1
  6
CONTINUOUS
 62
     4
  0
LINE
  5
267
  8
1
  6
CONTINUOUS
 62
     4
 10
-87.853496597000003
 20
140.694937998
 30
0.0
 11
-87.853496597000003
 21
49.023435382999999
 31
0.0
  0
POLYLINE
  5
268
  8
1
  6
CONTINUOUS
 62
     4
 66
     1
 10
0.0
 20
0.0
 30
0.0
  0
VERTEX
  5
DEB
  8
1
  6
CONTINUOUS
 62
     4
 10
-88.153496597000014
 20
51.023435382999999
 30
0.0
  0
VERTEX
  5
DEC
  8
1
  6
CONTINUOUS
 62
     4
 10
-87.853496597000003
 20
49.023435382999999
 30
0.0
  0
VERTEX
  5
DED
  8
1
  6
CONTINUOUS
 62
     4
 10
-87.553496597000006
 20
51.023435382999999
 30
0.0
  0
SEQEND
  5
DEE
  8
1
  6
CONTINUOUS
 62
     4
  0
LINE
  5
26D
  8
1
  6
CONTINUOUS
 62
     4
 10
-100.28807678699999
 20
49.023435382999999
 30
0.0
 11
-85.853496597000003
 21
49.023435382999999
 31
0.0
  0
ENDBLK
  5
26E
  8
0
  0
BLOCK
  8
0
  2
*D48
 70
     1
 10
0.0
 20
0.0
 30
0.0
  3
*D48
  1

  0
TEXT
  5
271
  8
1
  6
CONTINUOUS
 62
     4
 10
-102.28800986
 20
49.116785578000012
 30
0.0
 40
2.7999999999999989
  1
(
 50
90.0
 41
1.7999999999999989
 72
     5
 11
-102.28800986
 21
50.796785578000012
 31
0.0
  0
TEXT
  5
272
  8
1
  6
CONTINUOUS
 62
     4
 10
-102.28800986
 20
51.636785578000001
 30
0.0
 40
2.7999999999999989
  1
14.7
 50
90.0
 41
1.2375
 72
     5
 11
-102.28800986
 21
60.876785578000003
 31
0.0
  0
TEXT
  5
273
  8
1
  6
CONTINUOUS
 62
     4
 10
-102.28800986
 20
61.716785577999993
 30
0.0
 40
2.7999999999999989
  1
)
 50
90.0
 41
1.7999999999999989
 72
     5
 11
-102.28800986
 21
63.396785577999999
 31
0.0
  0
POLYLINE
  5
274
  8
1
  6
CONTINUOUS
 62
     4
 66
     1
 10
0.0
 20
0.0
 30
0.0
  0
VERTEX
  5
DEF
  8
1
  6
CONTINUOUS
 62
     4
 10
-99.988076787000026
 20
61.694937998
 30
0.0
  0
VERTEX
  5
DF0
  8
1
  6
CONTINUOUS
 62
     4
 10
-100.28807678699999
 20
63.694937998
 30
0.0
  0
VERTEX
  5
DF1
  8
1
  6
CONTINUOUS
 62
     4
 10
-100.58807678700001
 20
61.694937998
 30
0.0
  0
SEQEND
  5
DF2
  8
1
  6
CONTINUOUS
 62
     4
  0
LINE
  5
279
  8
1
  6
CONTINUOUS
 62
     4
 10
-100.28807678699999
 20
63.694937998
 30
0.0
 11
-100.28807678699999
 21
49.023435382999999
 31
0.0
  0
POLYLINE
  5
27A
  8
1
  6
CONTINUOUS
 62
     4
 66
     1
 10
0.0
 20
0.0
 30
0.0
  0
VERTEX
  5
DF3
  8
1
  6
CONTINUOUS
 62
     4
 10
-100.58807678700001
 20
51.023435382999999
 30
0.0
  0
VERTEX
  5
DF4
  8
1
  6
CONTINUOUS
 62
     4
 10
-100.28807678699999
 20
49.023435382999999
 30
0.0
  0
VERTEX
  5
DF5
  8
1
  6
CONTINUOUS
 62
     4
 10
-99.988076787000026
 20
51.023435382999999
 30
0.0
  0
SEQEND
  5
DF6
  8
1
  6
CONTINUOUS
 62
     4
  0
LINE
  5
27F
  8
1
  6
CONTINUOUS
 62
     4
 10
-173.21741823599999
 20
49.023435382999999
 30
0.0
 11
-98.288076787000023
 21
49.023435382999999
 31
0.0
  0
ENDBLK
  5
280
  8
0
  0
BLOCK
  8
0
  2
*D49
 70
     1
 10
0.0
 20
0.0
 30
0.0
  3
*D49
  1

  0
TEXT
  5
283
  8
1
  6
CONTINUOUS
 62
     4
 10
-102.589347273
 20
99.817783374000015
 30
0.0
 40
2.7999999999999989
  1
77
 50
90.0
 41
0.8999999999999976
 72
     5
 11
-102.589347273
 21
104.017783374
 31
0.0
  0
LINE
  5
284
  8
1
  6
CONTINUOUS
 62
     4
 10
-164.290067967
 20
63.694937998
 30
0.0
 11
-98.288076787000023
 21
63.694937998
 31
0.0
  0
POLYLINE
  5
285
  8
1
  6
CONTINUOUS
 62
     4
 66
     1
 10
0.0
 20
0.0
 30
0.0
  0
VERTEX
  5
DF7
  8
1
  6
CONTINUOUS
 62
     4
 10
-100.58807678700001
 20
65.694937998
 30
0.0
  0
VERTEX
  5
DF8
  8
1
  6
CONTINUOUS
 62
     4
 10
-100.28807678699999
 20
63.694937998
 30
0.0
  0
VERTEX
  5
DF9
  8
1
  6
CONTINUOUS
 62
     4
 10
-99.988076787000026
 20
65.694937998
 30
0.0
  0
SEQEND
  5
DFA
  8
1
  6
CONTINUOUS
 62
     4
  0
LINE
  5
28A
  8
1
  6
CONTINUOUS
 62
     4
 10
-100.28807678699999
 20
63.694937998
 30
0.0
 11
-100.28807678699999
 21
140.694937998
 31
0.0
  0
POLYLINE
  5
28B
  8
1
  6
CONTINUOUS
 62
     4
 66
     1
 10
0.0
 20
0.0
 30
0.0
  0
VERTEX
  5
DFB
  8
1
  6
CONTINUOUS
 62
     4
 10
-99.988076787000026
 20
138.694937998
 30
0.0
  0
VERTEX
  5
DFC
  8
1
  6
CONTINUOUS
 62
     4
 10
-100.28807678699999
 20
140.694937998
 30
0.0
  0
VERTEX
  5
DFD
  8
1
  6
CONTINUOUS
 62
     4
 10
-100.58807678700001
 20
138.694937998
 30
0.0
  0
SEQEND
  5
DFE
  8
1
  6
CONTINUOUS
 62
     4
  0
LINE
  5
290
  8
1
  6
CONTINUOUS
 62
     4
 10
-146.14006796699999
 20
140.694937998
 30
0.0
 11
-98.288076787000023
 21
140.694937998
 31
0.0
  0
ENDBLK
  5
291
  8
0
  0
BLOCK
  8
0
  2
BLK350
 70
     0
 10
0.0
 20
0.0
 30
0.0
  3
BLK350
  1

  0
ARC
  5
294
  8
1
  6
CONTINUOUS
 62
     5
 10
0.0
 20
0.0
 30
0.0
 40
1.0
 50
359.999797693
 51
180.0
  0
ENDBLK
  5
295
  8
0
  0
BLOCK
  8
0
  2
BLK356
 70
     0
 10
0.0
 20
0.0
 30
0.0
  3
BLK356
  1

  0
ARC
  5
298
  8
1
  6
CONTINUOUS
 62
     5
 10
0.0
 20
0.0
 30
0.0
 40
1.0
 50
180.0
 51
0.0
  0
ENDBLK
  5
299
  8
0
  0
BLOCK
  8
0
  2
BLK357
 70
     0
 10
0.0
 20
0.0
 30
0.0
  3
BLK357
  1

  0
ARC
  5
29C
  8
1
  6
CONTINUOUS
 62
     5
 10
0.0
 20
0.0
 30
0.0
 40
1.0
 50
190.21408736399999
 51
216.53185266700001
  0
ENDBLK
  5
29D
  8
0
  0
BLOCK
  8
0
  2
BLK366
 70
     0
 10
0.0
 20
0.0
 30
0.0
  3
BLK366
  1

  0
ARC
  5
2A0
  8
1
  6
CONTINUOUS
 62
     5
 10
0.0
 20
0.0
 30
0.0
 40
1.0
 50
323.46807759500001
 51
349.78580864899999
  0
ENDBLK
  5
2A1
  8
0
  0
BLOCK
  8
0
  2
BLK391
 70
     0
 10
0.0
 20
0.0
 30
0.0
  3
BLK391
  1

  0
ARC
  5
2A4
  8
1
  6
CONTINUOUS
 62
     5
 10
0.0
 20
0.0
 30
0.0
 40
1.0
 50
30.548898204000011
 51
30.548918412999999
  0
ENDBLK
  5
2A5
  8
0
  0
BLOCK
  8
0
  2
BLK392
 70
     0
 10
0.0
 20
0.0
 30
0.0
  3
BLK392
  1

  0
ARC
  5
2A8
  8
1
  6
CONTINUOUS
 62
     5
 10
0.0
 20
0.0
 30
0.0
 40
1.0
 50
30.548918412999999
 51
149.45106244900001
  0
ENDBLK
  5
2A9
  8
0
  0
BLOCK
  8
0
  2
*D56
 70
     1
 10
0.0
 20
0.0
 30
0.0
  3
*D56
  1

  0
TEXT
  5
2AC
  8
1
  6
CONTINUOUS
 62
     4
 10
-90.058496597000001
 20
183.53333799799989
 30
0.0
 40
2.7999999999999989
  1
94.9
 50
90.0
 41
1.100000000000001
 72
     5
 11
-90.058496597000001
 21
192.77333799799999
 31
0.0
  0
LINE
  5
2AD
  8
1
  6
CONTINUOUS
 62
     4
 10
-146.14006796699999
 20
140.694937998
 30
0.0
 11
-85.853496597000003
 21
140.694937998
 31
0.0
  0
POLYLINE
  5
2AE
  8
1
  6
CONTINUOUS
 62
     4
 66
     1
 10
0.0
 20
0.0
 30
0.0
  0
VERTEX
  5
DFF
  8
1
  6
CONTINUOUS
 62
     4
 10
-88.153496597000014
 20
142.694937998
 30
0.0
  0
VERTEX
  5
E00
  8
1
  6
CONTINUOUS
 62
     4
 10
-87.853496597000003
 20
140.694937998
 30
0.0
  0
VERTEX
  5
E01
  8
1
  6
CONTINUOUS
 62
     4
 10
-87.553496597000006
 20
142.694937998
 30
0.0
  0
SEQEND
  5
E02
  8
1
  6
CONTINUOUS
 62
     4
  0
LINE
  5
2B3
  8
1
  6
CONTINUOUS
 62
     4
 10
-87.853496597000003
 20
140.694937998
 30
0.0
 11
-87.853496597000003
 21
235.59493799800001
 31
0.0
  0
POLYLINE
  5
2B4
  8
1
  6
CONTINUOUS
 62
     4
 66
     1
 10
0.0
 20
0.0
 30
0.0
  0
VERTEX
  5
E03
  8
1
  6
CONTINUOUS
 62
     4
 10
-87.553496597000006
 20
233.59493799800001
 30
0.0
  0
VERTEX
  5
E04
  8
1
  6
CONTINUOUS
 62
     4
 10
-87.853496597000003
 20
235.59493799800001
 30
0.0
  0
VERTEX
  5
E05
  8
1
  6
CONTINUOUS
 62
     4
 10
-88.153496597000014
 20
233.59493799800001
 30
0.0
  0
SEQEND
  5
E06
  8
1
  6
CONTINUOUS
 62
     4
  0
LINE
  5
2B9
  8
1
  6
CONTINUOUS
 62
     4
 10
-164.665067967
 20
235.59493799800001
 30
0.0
 11
-85.853496597000003
 21
235.59493799800001
 31
0.0
  0
ENDBLK
  5
2BA
  8
0
  0
BLOCK
  8
0
  2
BLK398
 70
     0
 10
0.0
 20
0.0
 30
0.0
  3
BLK398
  1

  0
ARC
  5
2BD
  8
1
  6
CONTINUOUS
 62
     5
 10
0.0
 20
0.0
 30
0.0
 40
1.0
 50
359.999797693
 51
180.0
  0
ENDBLK
  5
2BE
  8
0
  0
BLOCK
  8
0
  2
BLK399
 70
     0
 10
0.0
 20
0.0
 30
0.0
  3
BLK399
  1

  0
ARC
  5
2C1
  8
1
  6
CONTINUOUS
 62
     5
 10
0.0
 20
0.0
 30
0.0
 40
1.0
 50
338.96048839700001
 51
199.77483157799989
  0
ENDBLK
  5
2C2
  8
0
  0
BLOCK
  8
0
  2
BLK401
 70
     0
 10
0.0
 20
0.0
 30
0.0
  3
BLK401
  1

  0
ARC
  5
2C5
  8
1
  6
CONTINUOUS
 62
     5
 10
0.0
 20
0.0
 30
0.0
 40
1.0
 50
359.999797693
 51
180.0
  0
ENDBLK
  5
2C6
  8
0
  0
BLOCK
  8
0
  2
BLK404
 70
     0
 10
0.0
 20
0.0
 30
0.0
  3
BLK404
  1

  0
ARC
  5
2C9
  8
1
  6
CONTINUOUS
 62
     5
 10
0.0
 20
0.0
 30
0.0
 40
1.0
 50
335.13969192299999
 51
204.86020311100009
  0
ENDBLK
  5
2CA
  8
0
  0
BLOCK
  8
0
  2
BLK405
 70
     0
 10
0.0
 20
0.0
 30
0.0
  3
BLK405
  1

  0
CIRCLE
  5
2CD
  8
1
  6
CONTINUOUS
 62
     5
 10
0.0
 20
0.0
 30
0.0
 40
1.0
  0
ENDBLK
  5
2CE
  8
0
  0
BLOCK
  8
0
  2
BLK406
 70
     0
 10
0.0
 20
0.0
 30
0.0
  3
BLK406
  1

  0
CIRCLE
  5
2D1
  8
1
  6
CONTINUOUS
 62
     5
 10
0.0
 20
0.0
 30
0.0
 40
1.0
  0
ENDBLK
  5
2D2
  8
0
  0
BLOCK
  8
0
  2
*D63
 70
     1
 10
0.0
 20
0.0
 30
0.0
  3
*D63
  1

  0
TEXT
  5
2D5
  8
1
  6
CONTINUOUS
 62
     4
 10
-181.251667967
 20
27.692160513000001
 30
0.0
 40
2.7999999999999989
  1
φ
 41
1.4999999999999929
 72
     5
 11
-177.89166796699999
 21
27.692160513000001
 31
0.0
  0
TEXT
  5
2D6
  8
1
  6
CONTINUOUS
 62
     4
 10
-176.21166796700001
 20
27.692160513000001
 30
0.0
 40
2.7999999999999989
  1
28
 41
0.9000000000000037
 72
     5
 11
-172.01166796699999
 21
27.692160513000001
 31
0.0
  0
LINE
  5
2D7
  8
1
  6
CONTINUOUS
 62
     4
 10
-190.64006796699999
 20
70.716154126999996
 30
0.0
 11
-190.64006796699999
 21
23.487160512999999
 31
0.0
  0
POLYLINE
  5
2D8
  8
1
  6
CONTINUOUS
 62
     4
 66
     1
 10
0.0
 20
0.0
 30
0.0
  0
VERTEX
  5
E07
  8
1
  6
CONTINUOUS
 62
     4
 10
-188.64006796699999
 20
25.787160513000011
 30
0.0
  0
VERTEX
  5
E08
  8
1
  6
CONTINUOUS
 62
     4
 10
-190.64006796699999
 20
25.487160512999999
 30
0.0
  0
VERTEX
  5
E09
  8
1
  6
CONTINUOUS
 62
     4
 10
-188.64006796699999
 20
25.187160512999998
 30
0.0
  0
SEQEND
  5
E0A
  8
1
  6
CONTINUOUS
 62
     4
  0
LINE
  5
2DD
  8
1
  6
CONTINUOUS
 62
     4
 10
-190.64006796699999
 20
25.487160512999999
 30
0.0
 11
-162.64006796699999
 21
25.487160512999999
 31
0.0
  0
POLYLINE
  5
2DE
  8
1
  6
CONTINUOUS
 62
     4
 66
     1
 10
0.0
 20
0.0
 30
0.0
  0
VERTEX
  5
E0B
  8
1
  6
CONTINUOUS
 62
     4
 10
-164.64006796699999
 20
25.187160512999998
 30
0.0
  0
VERTEX
  5
E0C
  8
1
  6
CONTINUOUS
 62
     4
 10
-162.64006796699999
 20
25.487160512999999
 30
0.0
  0
VERTEX
  5
E0D
  8
1
  6
CONTINUOUS
 62
     4
 10
-164.64006796699999
 20
25.787160513000011
 30
0.0
  0
SEQEND
  5
E0E
  8
1
  6
CONTINUOUS
 62
     4
  0
LINE
  5
2E3
  8
1
  6
CONTINUOUS
 62
     4
 10
-162.64006796699999
 20
70.716154126999996
 30
0.0
 11
-162.64006796699999
 21
23.487160512999999
 31
0.0
  0
ENDBLK
  5
2E4
  8
0
  0
BLOCK
  8
0
  2
BLK445
 70
     0
 10
0.0
 20
0.0
 30
0.0
  3
BLK445
  1

  0
ARC
  5
2E7
  8
1
  6
CONTINUOUS
 62
     5
 10
0.0
 20
0.0
 30
0.0
 40
1.0
 50
180.0
 51
0.0
  0
ENDBLK
  5
2E8
  8
0
  0
BLOCK
  8
0
  2
*D65
 70
     1
 10
0.0
 20
0.0
 30
0.0
  3
*D65
  1

  0
TEXT
  5
2EB
  8
1
  6
CONTINUOUS
 62
     4
 10
-181.251667967
 20
257.26240806999999
 30
0.0
 40
2.7999999999999989
  1
φ
 41
1.4999999999999929
 72
     5
 11
-177.89166796699999
 21
257.26240806999999
 31
0.0
  0
TEXT
  5
2EC
  8
1
  6
CONTINUOUS
 62
     4
 10
-176.21166796700001
 20
257.26240806999999
 30
0.0
 40
2.7999999999999989
  1
63
 41
0.9000000000000037
 72
     5
 11
-172.01166796699999
 21
257.26240806999999
 31
0.0
  0
LINE
  5
2ED
  8
1
  6
CONTINUOUS
 62
     4
 10
-145.14006796699999
 20
139.694937998
 30
0.0
 11
-145.14006796699999
 21
257.05740807000001
 31
0.0
  0
POLYLINE
  5
2EE
  8
1
  6
CONTINUOUS
 62
     4
 66
     1
 10
0.0
 20
0.0
 30
0.0
  0
VERTEX
  5
E0F
  8
1
  6
CONTINUOUS
 62
     4
 10
-147.14006796699999
 20
254.75740807
 30
0.0
  0
VERTEX
  5
E10
  8
1
  6
CONTINUOUS
 62
     4
 10
-145.14006796699999
 20
255.05740807000001
 30
0.0
  0
VERTEX
  5
E11
  8
1
  6
CONTINUOUS
 62
     4
 10
-147.14006796699999
 20
255.35740806999999
 30
0.0
  0
SEQEND
  5
E12
  8
1
  6
CONTINUOUS
 62
     4
  0
LINE
  5
2F3
  8
1
  6
CONTINUOUS
 62
     4
 10
-145.14006796699999
 20
255.05740807000001
 30
0.0
 11
-208.14006796699999
 21
255.05740807000001
 31
0.0
  0
POLYLINE
  5
2F4
  8
1
  6
CONTINUOUS
 62
     4
 66
     1
 10
0.0
 20
0.0
 30
0.0
  0
VERTEX
  5
E13
  8
1
  6
CONTINUOUS
 62
     4
 10
-206.14006796699999
 20
255.35740806999999
 30
0.0
  0
VERTEX
  5
E14
  8
1
  6
CONTINUOUS
 62
     4
 10
-208.14006796699999
 20
255.05740807000001
 30
0.0
  0
VERTEX
  5
E15
  8
1
  6
CONTINUOUS
 62
     4
 10
-206.14006796699999
 20
254.75740807
 30
0.0
  0
SEQEND
  5
E16
  8
1
  6
CONTINUOUS
 62
     4
  0
LINE
  5
2F9
  8
1
  6
CONTINUOUS
 62
     4
 10
-208.14006796699999
 20
139.694937998
 30
0.0
 11
-208.14006796699999
 21
257.05740807000001
 31
0.0
  0
ENDBLK
  5
2FA
  8
0
  0
BLOCK
  8
0
  2
*D66
 70
     1
 10
0.0
 20
0.0
 30
0.0
  3
*D66
  1

  0
TEXT
  5
2FD
  8
1
  6
CONTINUOUS
 62
     4
 10
-263.015471166
 20
108.603337998
 30
0.0
 40
2.7999999999999989
  1
94
 50
90.0
 41
0.9000000000000007
 72
     5
 11
-263.015471166
 21
112.803337998
 31
0.0
  0
POLYLINE
  5
2FE
  8
1
  6
CONTINUOUS
 62
     4
 66
     1
 10
0.0
 20
0.0
 30
0.0
  0
VERTEX
  5
E17
  8
1
  6
CONTINUOUS
 62
     4
 10
-261.11047116600002
 20
65.694937998
 30
0.0
  0
VERTEX
  5
E18
  8
1
  6
CONTINUOUS
 62
     4
 10
-260.81047116600001
 20
63.694937998
 30
0.0
  0
VERTEX
  5
E19
  8
1
  6
CONTINUOUS
 62
     4
 10
-260.510471166
 20
65.694937998
 30
0.0
  0
SEQEND
  5
E1A
  8
1
  6
CONTINUOUS
 62
     4
  0
LINE
  5
303
  8
1
  6
CONTINUOUS
 62
     4
 10
-260.81047116600001
 20
63.694937998
 30
0.0
 11
-260.81047116600001
 21
157.694937998
 31
0.0
  0
POLYLINE
  5
304
  8
1
  6
CONTINUOUS
 62
     4
 66
     1
 10
0.0
 20
0.0
 30
0.0
  0
VERTEX
  5
E1B
  8
1
  6
CONTINUOUS
 62
     4
 10
-260.510471166
 20
155.694937998
 30
0.0
  0
VERTEX
  5
E1C
  8
1
  6
CONTINUOUS
 62
     4
 10
-260.81047116600001
 20
157.694937998
 30
0.0
  0
VERTEX
  5
E1D
  8
1
  6
CONTINUOUS
 62
     4
 10
-261.11047116600002
 20
155.694937998
 30
0.0
  0
SEQEND
  5
E1E
  8
1
  6
CONTINUOUS
 62
     4
  0
LINE
  5
309
  8
1
  6
CONTINUOUS
 62
     4
 10
-272.8104711659999
 20
157.694937998
 30
0.0
 11
-258.81047116600001
 21
157.694937998
 31
0.0
  0
ENDBLK
  5
30A
  8
0
  0
BLOCK
  8
0
  2
*D67
 70
     1
 10
0.0
 20
0.0
 30
0.0
  3
*D67
  1

  0
TEXT
  5
30D
  8
1
  6
CONTINUOUS
 62
     4
 10
-239.05270267099999
 20
128.66758669000001
 30
0.0
 40
2.7999999999999989
  1
(
 50
90.0
 41
1.8000000000000069
 72
     5
 11
-239.05270267099999
 21
130.34758669000001
 31
0.0
  0
TEXT
  5
30E
  8
1
  6
CONTINUOUS
 62
     4
 10
-239.05270267099999
 20
131.18758668999999
 30
0.0
 40
2.7999999999999989
  1
176.1
 50
90.0
 41
1.260000000000002
 72
     5
 11
-239.05270267099999
 21
142.94758669000001
 31
0.0
  0
TEXT
  5
30F
  8
1
  6
CONTINUOUS
 62
     4
 10
-239.05270267099999
 20
143.78758669000001
 30
0.0
 40
2.7999999999999989
  1
)
 50
90.0
 41
1.7999999999999761
 72
     5
 11
-239.05270267099999
 21
145.46758668999999
 31
0.0
  0
LINE
  5
310
  8
1
  6
CONTINUOUS
 62
     4
 10
-260.81047116600001
 20
49.023435382999999
 30
0.0
 11
-234.84770267100001
 21
49.023435382999999
 31
0.0
  0
POLYLINE
  5
311
  8
1
  6
CONTINUOUS
 62
     4
 66
     1
 10
0.0
 20
0.0
 30
0.0
  0
VERTEX
  5
E1F
  8
1
  6
CONTINUOUS
 62
     4
 10
-237.14770267099999
 20
51.023435382999999
 30
0.0
  0
VERTEX
  5
E20
  8
1
  6
CONTINUOUS
 62
     4
 10
-236.84770267100001
 20
49.023435382999999
 30
0.0
  0
VERTEX
  5
E21
  8
1
  6
CONTINUOUS
 62
     4
 10
-236.547702671
 20
51.023435382999999
 30
0.0
  0
SEQEND
  5
E22
  8
1
  6
CONTINUOUS
 62
     4
  0
LINE
  5
316
  8
1
  6
CONTINUOUS
 62
     4
 10
-236.84770267100001
 20
49.023435382999999
 30
0.0
 11
-236.84770267100001
 21
225.09493799800001
 31
0.0
  0
POLYLINE
  5
317
  8
1
  6
CONTINUOUS
 62
     4
 66
     1
 10
0.0
 20
0.0
 30
0.0
  0
VERTEX
  5
E23
  8
1
  6
CONTINUOUS
 62
     4
 10
-236.547702671
 20
223.09493799800001
 30
0.0
  0
VERTEX
  5
E24
  8
1
  6
CONTINUOUS
 62
     4
 10
-236.84770267100001
 20
225.09493799800001
 30
0.0
  0
VERTEX
  5
E25
  8
1
  6
CONTINUOUS
 62
     4
 10
-237.14770267099999
 20
223.09493799800001
 30
0.0
  0
SEQEND
  5
E26
  8
1
  6
CONTINUOUS
 62
     4
  0
LINE
  5
31C
  8
1
  6
CONTINUOUS
 62
     4
 10
-324.37634180100002
 20
225.09493799800001
 30
0.0
 11
-234.84770267100001
 21
225.09493799800001
 31
0.0
  0
ENDBLK
  5
31D
  8
0
  0
BLOCK
  8
0
  2
*D68
 70
     1
 10
0.0
 20
0.0
 30
0.0
  3
*D68
  1

  0
TEXT
  5
320
  8
1
  6
CONTINUOUS
 62
     4
 10
-251.015471166
 20
186.78333799800001
 30
0.0
 40
2.7999999999999989
  1
67.4
 50
90.0
 41
1.100000000000001
 72
     5
 11
-251.015471166
 21
196.02333799799999
 31
0.0
  0
LINE
  5
321
  8
1
  6
CONTINUOUS
 62
     4
 10
-306.06384179600002
 20
157.694937998
 30
0.0
 11
-246.81047116600001
 21
157.694937998
 31
0.0
  0
POLYLINE
  5
322
  8
1
  6
CONTINUOUS
 62
     4
 66
     1
 10
0.0
 20
0.0
 30
0.0
  0
VERTEX
  5
E27
  8
1
  6
CONTINUOUS
 62
     4
 10
-249.110471166
 20
159.694937998
 30
0.0
  0
VERTEX
  5
E28
  8
1
  6
CONTINUOUS
 62
     4
 10
-248.81047116600001
 20
157.694937998
 30
0.0
  0
VERTEX
  5
E29
  8
1
  6
CONTINUOUS
 62
     4
 10
-248.510471166
 20
159.694937998
 30
0.0
  0
SEQEND
  5
E2A
  8
1
  6
CONTINUOUS
 62
     4
  0
LINE
  5
327
  8
1
  6
CONTINUOUS
 62
     4
 10
-248.81047116600001
 20
157.694937998
 30
0.0
 11
-248.81047116600001
 21
225.09493799800001
 31
0.0
  0
POLYLINE
  5
328
  8
1
  6
CONTINUOUS
 62
     4
 66
     1
 10
0.0
 20
0.0
 30
0.0
  0
VERTEX
  5
E2B
  8
1
  6
CONTINUOUS
 62
     4
 10
-248.510471166
 20
223.09493799800001
 30
0.0
  0
VERTEX
  5
E2C
  8
1
  6
CONTINUOUS
 62
     4
 10
-248.81047116600001
 20
225.09493799800001
 30
0.0
  0
VERTEX
  5
E2D
  8
1
  6
CONTINUOUS
 62
     4
 10
-249.110471166
 20
223.09493799800001
 30
0.0
  0
SEQEND
  5
E2E
  8
1
  6
CONTINUOUS
 62
     4
  0
LINE
  5
32D
  8
1
  6
CONTINUOUS
 62
     4
 10
-324.37634180100002
 20
225.09493799800001
 30
0.0
 11
-246.81047116600001
 21
225.09493799800001
 31
0.0
  0
ENDBLK
  5
32E
  8
0
  0
BLOCK
  8
0
  2
*D69
 70
     1
 10
0.0
 20
0.0
 30
0.0
  3
*D69
  1

  0
TEXT
  5
331
  8
1
  6
CONTINUOUS
 62
     4
 10
-341.17544179599997
 20
244.58612479300001
 30
0.0
 40
2.7999999999999989
  1
φ
 41
1.500000000000006
 72
     5
 11
-337.81544179600002
 21
244.58612479300001
 31
0.0
  0
TEXT
  5
332
  8
1
  6
CONTINUOUS
 62
     4
 10
-336.13544179600001
 20
244.58612479300001
 30
0.0
 40
2.7999999999999989
  1
63
 41
0.9000000000000095
 72
     5
 11
-331.93544179600002
 21
244.58612479300001
 31
0.0
  0
LINE
  5
333
  8
1
  6
CONTINUOUS
 62
     4
 10
-305.06384179600002
 20
156.694937998
 30
0.0
 11
-305.06384179600002
 21
244.381124793
 31
0.0
  0
POLYLINE
  5
334
  8
1
  6
CONTINUOUS
 62
     4
 66
     1
 10
0.0
 20
0.0
 30
0.0
  0
VERTEX
  5
E2F
  8
1
  6
CONTINUOUS
 62
     4
 10
-307.06384179600002
 20
242.08112479299999
 30
0.0
  0
VERTEX
  5
E30
  8
1
  6
CONTINUOUS
 62
     4
 10
-305.06384179600002
 20
242.381124793
 30
0.0
  0
VERTEX
  5
E31
  8
1
  6
CONTINUOUS
 62
     4
 10
-307.06384179600002
 20
242.68112479300001
 30
0.0
  0
SEQEND
  5
E32
  8
1
  6
CONTINUOUS
 62
     4
  0
LINE
  5
339
  8
1
  6
CONTINUOUS
 62
     4
 10
-305.06384179600002
 20
242.381124793
 30
0.0
 11
-368.06384179600002
 21
242.381124793
 31
0.0
  0
POLYLINE
  5
33A
  8
1
  6
CONTINUOUS
 62
     4
 66
     1
 10
0.0
 20
0.0
 30
0.0
  0
VERTEX
  5
E33
  8
1
  6
CONTINUOUS
 62
     4
 10
-366.06384179600002
 20
242.68112479300001
 30
0.0
  0
VERTEX
  5
E34
  8
1
  6
CONTINUOUS
 62
     4
 10
-368.06384179600002
 20
242.381124793
 30
0.0
  0
VERTEX
  5
E35
  8
1
  6
CONTINUOUS
 62
     4
 10
-366.06384179600002
 20
242.08112479299999
 30
0.0
  0
SEQEND
  5
E36
  8
1
  6
CONTINUOUS
 62
     4
  0
LINE
  5
33F
  8
1
  6
CONTINUOUS
 62
     4
 10
-368.06384179600002
 20
156.694937998
 30
0.0
 11
-368.06384179600002
 21
244.381124793
 31
0.0
  0
ENDBLK
  5
340
  8
0
  0
BLOCK
  8
0
  2
BLK543
 70
     0
 10
0.0
 20
0.0
 30
0.0
  3
BLK543
  1

  0
ARC
  5
343
  8
1
  6
CONTINUOUS
 62
     5
 10
0.0
 20
0.0
 30
0.0
 40
1.0
 50
335.13969192299999
 51
204.86020311100009
  0
ENDBLK
  5
344
  8
0
  0
BLOCK
  8
0
  2
BLK554
 70
     0
 10
0.0
 20
0.0
 30
0.0
  3
BLK554
  1

  0
ARC
  5
347
  8
1
  6
CONTINUOUS
 62
     5
 10
0.0
 20
0.0
 30
0.0
 40
1.0
 50
0.0
 51
180.0
  0
ENDBLK
  5
348
  8
0
  0
BLOCK
  8
0
  2
BLK570
 70
     0
 10
0.0
 20
0.0
 30
0.0
  3
BLK570
  1

  0
ARC
  5
34B
  8
1
  6
CONTINUOUS
 62
     5
 10
0.0
 20
0.0
 30
0.0
 40
1.0
 50
359.999797693
 51
180.0
  0
ENDBLK
  5
34C
  8
0
  0
BLOCK
  8
0
  2
BLK574
 70
     0
 10
0.0
 20
0.0
 30
0.0
  3
BLK574
  1

  0
ARC
  5
34F
  8
1
  6
CONTINUOUS
 62
     5
 10
0.0
 20
0.0
 30
0.0
 40
1.0
 50
190.21408736399999
 51
216.53185266700001
  0
ENDBLK
  5
350
  8
0
  0
BLOCK
  8
0
  2
BLK575
 70
     0
 10
0.0
 20
0.0
 30
0.0
  3
BLK575
  1

  0
ARC
  5
353
  8
1
  6
CONTINUOUS
 62
     5
 10
0.0
 20
0.0
 30
0.0
 40
1.0
 50
323.46807759500001
 51
349.78580864899999
  0
ENDBLK
  5
354
  8
0
  0
BLOCK
  8
0
  2
BLK577
 70
     0
 10
0.0
 20
0.0
 30
0.0
  3
BLK577
  1

  0
ARC
  5
357
  8
1
  6
CONTINUOUS
 62
     5
 10
0.0
 20
0.0
 30
0.0
 40
1.0
 50
30.548898204000011
 51
30.548918412999999
  0
ENDBLK
  5
358
  8
0
  0
BLOCK
  8
0
  2
BLK578
 70
     0
 10
0.0
 20
0.0
 30
0.0
  3
BLK578
  1

  0
ARC
  5
35B
  8
1
  6
CONTINUOUS
 62
     5
 10
0.0
 20
0.0
 30
0.0
 40
1.0
 50
30.548918412999999
 51
149.45106244900001
  0
ENDBLK
  5
35C
  8
0
  0
BLOCK
  8
0
  2
BLK583
 70
     0
 10
0.0
 20
0.0
 30
0.0
  3
BLK583
  1

  0
ARC
  5
35F
  8
1
  6
CONTINUOUS
 62
     5
 10
0.0
 20
0.0
 30
0.0
 40
1.0
 50
359.999797693
 51
180.0
  0
ENDBLK
  5
360
  8
0
  0
BLOCK
  8
0
  2
BLK584
 70
     0
 10
0.0
 20
0.0
 30
0.0
  3
BLK584
  1

  0
ARC
  5
363
  8
1
  6
CONTINUOUS
 62
     5
 10
0.0
 20
0.0
 30
0.0
 40
1.0
 50
338.96048839700001
 51
199.77483157799989
  0
ENDBLK
  5
364
  8
0
  0
BLOCK
  8
0
  2
BLK585
 70
     0
 10
0.0
 20
0.0
 30
0.0
  3
BLK585
  1

  0
ARC
  5
367
  8
1
  6
CONTINUOUS
 62
     5
 10
0.0
 20
0.0
 30
0.0
 40
1.0
 50
359.999797693
 51
180.0
  0
ENDBLK
  5
368
  8
0
  0
BLOCK
  8
0
  2
BLK586
 70
     0
 10
0.0
 20
0.0
 30
0.0
  3
BLK586
  1

  0
CIRCLE
  5
36B
  8
1
  6
CONTINUOUS
 62
     5
 10
0.0
 20
0.0
 30
0.0
 40
1.0
  0
ENDBLK
  5
36C
  8
0
  0
BLOCK
  8
0
  2
BLK587
 70
     0
 10
0.0
 20
0.0
 30
0.0
  3
BLK587
  1

  0
CIRCLE
  5
36F
  8
1
  6
CONTINUOUS
 62
     5
 10
0.0
 20
0.0
 30
0.0
 40
1.0
  0
ENDBLK
  5
370
  8
0
  0
BLOCK
  8
0
  2
*D82
 70
     1
 10
0.0
 20
0.0
 30
0.0
  3
*D82
  1

  0
TEXT
  5
373
  8
1
  6
CONTINUOUS
 62
     4
 10
-341.17544179599997
 20
27.692160513000001
 30
0.0
 40
2.7999999999999989
  1
φ
 41
1.500000000000006
 72
     5
 11
-337.81544179600002
 21
27.692160513000001
 31
0.0
  0
TEXT
  5
374
  8
1
  6
CONTINUOUS
 62
     4
 10
-336.13544179600001
 20
27.692160513000001
 30
0.0
 40
2.7999999999999989
  1
28
 41
0.9000000000000095
 72
     5
 11
-331.93544179600002
 21
27.692160513000001
 31
0.0
  0
LINE
  5
375
  8
1
  6
CONTINUOUS
 62
     4
 10
-350.56384179600002
 20
70.716154126999996
 30
0.0
 11
-350.56384179600002
 21
23.487160512999999
 31
0.0
  0
POLYLINE
  5
376
  8
1
  6
CONTINUOUS
 62
     4
 66
     1
 10
0.0
 20
0.0
 30
0.0
  0
VERTEX
  5
E37
  8
1
  6
CONTINUOUS
 62
     4
 10
-348.56384179600002
 20
25.787160513000011
 30
0.0
  0
VERTEX
  5
E38
  8
1
  6
CONTINUOUS
 62
     4
 10
-350.56384179600002
 20
25.487160512999999
 30
0.0
  0
VERTEX
  5
E39
  8
1
  6
CONTINUOUS
 62
     4
 10
-348.56384179600002
 20
25.187160512999998
 30
0.0
  0
SEQEND
  5
E3A
  8
1
  6
CONTINUOUS
 62
     4
  0
LINE
  5
37B
  8
1
  6
CONTINUOUS
 62
     4
 10
-350.56384179600002
 20
25.487160512999999
 30
0.0
 11
-322.56384179599991
 21
25.487160512999999
 31
0.0
  0
POLYLINE
  5
37C
  8
1
  6
CONTINUOUS
 62
     4
 66
     1
 10
0.0
 20
0.0
 30
0.0
  0
VERTEX
  5
E3B
  8
1
  6
CONTINUOUS
 62
     4
 10
-324.56384179599991
 20
25.187160512999998
 30
0.0
  0
VERTEX
  5
E3C
  8
1
  6
CONTINUOUS
 62
     4
 10
-322.56384179599991
 20
25.487160512999999
 30
0.0
  0
VERTEX
  5
E3D
  8
1
  6
CONTINUOUS
 62
     4
 10
-324.56384179599991
 20
25.787160513000011
 30
0.0
  0
SEQEND
  5
E3E
  8
1
  6
CONTINUOUS
 62
     4
  0
LINE
  5
381
  8
1
  6
CONTINUOUS
 62
     4
 10
-322.56384179599991
 20
70.716154126999996
 30
0.0
 11
-322.56384179599991
 21
23.487160512999999
 31
0.0
  0
ENDBLK
  5
382
  8
0
  0
BLOCK
  8
0
  2
*D83
 70
     1
 10
0.0
 20
0.0
 30
0.0
  3
*D83
  1

  0
TEXT
  5
385
  8
1
  6
CONTINUOUS
 62
     4
 10
-262.89821545799998
 20
49.179211808999987
 30
0.0
 40
2.7999999999999989
  1
(
 50
90.0
 41
1.7999999999999989
 72
     5
 11
-262.89821545799998
 21
50.859211808999987
 31
0.0
  0
TEXT
  5
386
  8
1
  6
CONTINUOUS
 62
     4
 10
-262.89821545799998
 20
51.699211808999998
 30
0.0
 40
2.7999999999999989
  1
14.7
 50
90.0
 41
1.2375
 72
     5
 11
-262.89821545799998
 21
60.939211809
 31
0.0
  0
TEXT
  5
387
  8
1
  6
CONTINUOUS
 62
     4
 10
-262.89821545799998
 20
61.779211809000003
 30
0.0
 40
2.7999999999999989
  1
)
 50
90.0
 41
1.7999999999999989
 72
     5
 11
-262.89821545799998
 21
63.459211808999989
 31
0.0
  0
LINE
  5
388
  8
1
  6
CONTINUOUS
 62
     4
 10
-324.213841796
 20
63.694937998
 30
0.0
 11
-258.81047116600001
 21
63.694937998
 31
0.0
  0
POLYLINE
  5
389
  8
1
  6
CONTINUOUS
 62
     4
 66
     1
 10
0.0
 20
0.0
 30
0.0
  0
VERTEX
  5
E3F
  8
1
  6
CONTINUOUS
 62
     4
 10
-260.510471166
 20
61.694937998
 30
0.0
  0
VERTEX
  5
E40
  8
1
  6
CONTINUOUS
 62
     4
 10
-260.81047116600001
 20
63.694937998
 30
0.0
  0
VERTEX
  5
E41
  8
1
  6
CONTINUOUS
 62
     4
 10
-261.11047116600002
 20
61.694937998
 30
0.0
  0
SEQEND
  5
E42
  8
1
  6
CONTINUOUS
 62
     4
  0
LINE
  5
38E
  8
1
  6
CONTINUOUS
 62
     4
 10
-260.81047116600001
 20
63.694937998
 30
0.0
 11
-260.81047116600001
 21
49.023435382999999
 31
0.0
  0
POLYLINE
  5
38F
  8
1
  6
CONTINUOUS
 62
     4
 66
     1
 10
0.0
 20
0.0
 30
0.0
  0
VERTEX
  5
E43
  8
1
  6
CONTINUOUS
 62
     4
 10
-261.11047116600002
 20
51.023435382999999
 30
0.0
  0
VERTEX
  5
E44
  8
1
  6
CONTINUOUS
 62
     4
 10
-260.81047116600001
 20
49.023435382999999
 30
0.0
  0
VERTEX
  5
E45
  8
1
  6
CONTINUOUS
 62
     4
 10
-260.510471166
 20
51.023435382999999
 30
0.0
  0
SEQEND
  5
E46
  8
1
  6
CONTINUOUS
 62
     4
  0
LINE
  5
394
  8
1
  6
CONTINUOUS
 62
     4
 10
-333.14119206499998
 20
49.023435382999999
 30
0.0
 11
-258.81047116600001
 21
49.023435382999999
 31
0.0
  0
ENDBLK
  5
395
  8
0
  0
BLOCK
  8
0
  2
*D84
 70
     1
 10
0.0
 20
0.0
 30
0.0
  3
*D84
  1

  0
TEXT
  5
398
  8
1
  6
CONTINUOUS
 62
     4
 10
-275.015471166
 20
128.603337998
 30
0.0
 40
2.7999999999999989
  1
54
 50
90.0
 41
0.8999999999999976
 72
     5
 11
-275.015471166
 21
132.80333799799999
 31
0.0
  0
POLYLINE
  5
399
  8
1
  6
CONTINUOUS
 62
     4
 66
     1
 10
0.0
 20
0.0
 30
0.0
  0
VERTEX
  5
E47
  8
1
  6
CONTINUOUS
 62
     4
 10
-272.510471166
 20
155.694937998
 30
0.0
  0
VERTEX
  5
E48
  8
1
  6
CONTINUOUS
 62
     4
 10
-272.8104711659999
 20
157.694937998
 30
0.0
  0
VERTEX
  5
E49
  8
1
  6
CONTINUOUS
 62
     4
 10
-273.11047116600002
 20
155.694937998
 30
0.0
  0
SEQEND
  5
E4A
  8
1
  6
CONTINUOUS
 62
     4
  0
LINE
  5
39E
  8
1
  6
CONTINUOUS
 62
     4
 10
-272.8104711659999
 20
157.694937998
 30
0.0
 11
-272.8104711659999
 21
103.694937998
 31
0.0
  0
POLYLINE
  5
39F
  8
1
  6
CONTINUOUS
 62
     4
 66
     1
 10
0.0
 20
0.0
 30
0.0
  0
VERTEX
  5
E4B
  8
1
  6
CONTINUOUS
 62
     4
 10
-273.11047116600002
 20
105.694937998
 30
0.0
  0
VERTEX
  5
E4C
  8
1
  6
CONTINUOUS
 62
     4
 10
-272.8104711659999
 20
103.694937998
 30
0.0
  0
VERTEX
  5
E4D
  8
1
  6
CONTINUOUS
 62
     4
 10
-272.510471166
 20
105.694937998
 30
0.0
  0
SEQEND
  5
E4E
  8
1
  6
CONTINUOUS
 62
     4
  0
LINE
  5
3A4
  8
1
  6
CONTINUOUS
 62
     4
 10
-312.31384179600002
 20
103.694937998
 30
0.0
 11
-270.8104711659999
 21
103.694937998
 31
0.0
  0
ENDBLK
  5
3A5
  8
0
  0
BLOCK
  8
0
  2
*D85
 70
     1
 10
0.0
 20
0.0
 30
0.0
  3
*D85
  1

  0
TEXT
  5
3A8
  8
1
  6
CONTINUOUS
 62
     4
 10
-343.69544179600001
 20
13.467101766000001
 30
0.0
 40
2.7999999999999989
  1
φ
 41
1.500000000000006
 72
     5
 11
-340.335441796
 21
13.467101766000001
 31
0.0
  0
TEXT
  5
3A9
  8
1
  6
CONTINUOUS
 62
     4
 10
-338.65544179599999
 20
13.467101766000001
 30
0.0
 40
2.7999999999999989
  1
49.5
 41
1.100000000000001
 72
     5
 11
-329.41544179599998
 21
13.467101766000001
 31
0.0
  0
LINE
  5
3AA
  8
1
  6
CONTINUOUS
 62
     4
 10
-311.81384179600002
 20
104.194937998
 30
0.0
 11
-311.81384179600002
 21
9.2621017660000007
 31
0.0
  0
POLYLINE
  5
3AB
  8
1
  6
CONTINUOUS
 62
     4
 66
     1
 10
0.0
 20
0.0
 30
0.0
  0
VERTEX
  5
E4F
  8
1
  6
CONTINUOUS
 62
     4
 10
-313.81384179600002
 20
10.962101766
 30
0.0
  0
VERTEX
  5
E50
  8
1
  6
CONTINUOUS
 62
     4
 10
-311.81384179600002
 20
11.262101766000001
 30
0.0
  0
VERTEX
  5
E51
  8
1
  6
CONTINUOUS
 62
     4
 10
-313.81384179600002
 20
11.562101766
 30
0.0
  0
SEQEND
  5
E52
  8
1
  6
CONTINUOUS
 62
     4
  0
LINE
  5
3B0
  8
1
  6
CONTINUOUS
 62
     4
 10
-311.81384179600002
 20
11.262101766000001
 30
0.0
 11
-361.31384179600002
 21
11.262101766000001
 31
0.0
  0
POLYLINE
  5
3B1
  8
1
  6
CONTINUOUS
 62
     4
 66
     1
 10
0.0
 20
0.0
 30
0.0
  0
VERTEX
  5
E53
  8
1
  6
CONTINUOUS
 62
     4
 10
-359.31384179600002
 20
11.562101766
 30
0.0
  0
VERTEX
  5
E54
  8
1
  6
CONTINUOUS
 62
     4
 10
-361.31384179600002
 20
11.262101766000001
 30
0.0
  0
VERTEX
  5
E55
  8
1
  6
CONTINUOUS
 62
     4
 10
-359.31384179600002
 20
10.962101766
 30
0.0
  0
SEQEND
  5
E56
  8
1
  6
CONTINUOUS
 62
     4
  0
LINE
  5
3B6
  8
1
  6
CONTINUOUS
 62
     4
 10
-361.31384179600002
 20
104.194937998
 30
0.0
 11
-361.31384179600002
 21
9.2621017660000007
 31
0.0
  0
ENDBLK
  5
3B7
  8
0
  0
BLOCK
  8
0
  2
*D86
 70
     1
 10
0.0
 20
0.0
 30
0.0
  3
*D86
  1

  0
TEXT
  5
3BA
  8
1
  6
CONTINUOUS
 62
     4
 10
-250.613965506
 20
96.236445072000009
 30
0.0
 40
2.7999999999999989
  1
(
 50
90.0
 41
1.7999999999999921
 72
     5
 11
-250.613965506
 21
97.916445072000002
 31
0.0
  0
TEXT
  5
3BB
  8
1
  6
CONTINUOUS
 62
     4
 10
-250.613965506
 20
98.756445072000005
 30
0.0
 40
2.7999999999999989
  1
108.7
 50
90.0
 41
1.2
 72
     5
 11
-250.613965506
 21
110.516445072
 31
0.0
  0
TEXT
  5
3BC
  8
1
  6
CONTINUOUS
 62
     4
 10
-250.613965506
 20
111.356445072
 30
0.0
 40
2.7999999999999989
  1
)
 50
90.0
 41
1.7999999999999921
 72
     5
 11
-250.613965506
 21
113.03644507200001
 31
0.0
  0
LINE
  5
3BD
  8
1
  6
CONTINUOUS
 62
     4
 10
-306.06384179600002
 20
157.694937998
 30
0.0
 11
-246.81047116600001
 21
157.694937998
 31
0.0
  0
POLYLINE
  5
3BE
  8
1
  6
CONTINUOUS
 62
     4
 66
     1
 10
0.0
 20
0.0
 30
0.0
  0
VERTEX
  5
E57
  8
1
  6
CONTINUOUS
 62
     4
 10
-248.510471166
 20
155.694937998
 30
0.0
  0
VERTEX
  5
E58
  8
1
  6
CONTINUOUS
 62
     4
 10
-248.81047116600001
 20
157.694937998
 30
0.0
  0
VERTEX
  5
E59
  8
1
  6
CONTINUOUS
 62
     4
 10
-249.110471166
 20
155.694937998
 30
0.0
  0
SEQEND
  5
E5A
  8
1
  6
CONTINUOUS
 62
     4
  0
LINE
  5
3C3
  8
1
  6
CONTINUOUS
 62
     4
 10
-248.81047116600001
 20
157.694937998
 30
0.0
 11
-248.81047116600001
 21
49.023435382999999
 31
0.0
  0
POLYLINE
  5
3C4
  8
1
  6
CONTINUOUS
 62
     4
 66
     1
 10
0.0
 20
0.0
 30
0.0
  0
VERTEX
  5
E5B
  8
1
  6
CONTINUOUS
 62
     4
 10
-249.110471166
 20
51.023435382999999
 30
0.0
  0
VERTEX
  5
E5C
  8
1
  6
CONTINUOUS
 62
     4
 10
-248.81047116600001
 20
49.023435382999999
 30
0.0
  0
VERTEX
  5
E5D
  8
1
  6
CONTINUOUS
 62
     4
 10
-248.510471166
 20
51.023435382999999
 30
0.0
  0
SEQEND
  5
E5E
  8
1
  6
CONTINUOUS
 62
     4
  0
LINE
  5
3C9
  8
1
  6
CONTINUOUS
 62
     4
 10
-260.81047116600001
 20
49.023435382999999
 30
0.0
 11
-246.81047116600001
 21
49.023435382999999
 31
0.0
  0
ENDBLK
  5
3CA
  8
0
  0
BLOCK
  8
0
  2
BLK628
 70
     0
 10
0.0
 20
0.0
 30
0.0
  3
BLK628
  1

  0
ARC
  5
3CD
  8
1
  6
CONTINUOUS
 62
     5
 10
0.0
 20
0.0
 30
0.0
 40
1.0
 50
180.0
 51
0.0
  0
ENDBLK
  5
3CE
  8
0
  0
BLOCK
  8
0
  2
BLK667
 70
     0
 10
0.0
 20
0.0
 30
0.0
  3
BLK667
  1

  0
ARC
  5
3D1
  8
1
  6
CONTINUOUS
 62
     5
 10
0.0
 20
0.0
 30
0.0
 40
1.0
 50
359.999797693
 51
180.0
  0
ENDBLK
  5
3D2
  8
0
  0
BLOCK
  8
0
  2
*D89
 70
     1
 10
0.0
 20
0.0
 30
0.0
  3
*D89
  1

  0
TEXT
  5
3D5
  8
1
  6
CONTINUOUS
 62
     4
 10
-580.52074640800004
 20
175.28333799800001
 30
0.0
 40
2.7999999999999989
  1
50.4
 50
90.0
 41
1.1647058823529419
 72
     5
 11
-580.52074640800004
 21
184.5233379979999
 31
0.0
  0
LINE
  5
3D6
  8
1
  6
CONTINUOUS
 62
     4
 10
-645.10231777800004
 20
154.694937998
 30
0.0
 11
-576.31574640799988
 21
154.694937998
 31
0.0
  0
POLYLINE
  5
3D7
  8
1
  6
CONTINUOUS
 62
     4
 66
     1
 10
0.0
 20
0.0
 30
0.0
  0
VERTEX
  5
E5F
  8
1
  6
CONTINUOUS
 62
     4
 10
-578.61574640799995
 20
156.694937998
 30
0.0
  0
VERTEX
  5
E60
  8
1
  6
CONTINUOUS
 62
     4
 10
-578.315746408
 20
154.694937998
 30
0.0
  0
VERTEX
  5
E61
  8
1
  6
CONTINUOUS
 62
     4
 10
-578.01574640800004
 20
156.694937998
 30
0.0
  0
SEQEND
  5
E62
  8
1
  6
CONTINUOUS
 62
     4
  0
LINE
  5
3DC
  8
1
  6
CONTINUOUS
 62
     4
 10
-578.315746408
 20
154.694937998
 30
0.0
 11
-578.315746408
 21
205.09493799800001
 31
0.0
  0
POLYLINE
  5
3DD
  8
1
  6
CONTINUOUS
 62
     4
 66
     1
 10
0.0
 20
0.0
 30
0.0
  0
VERTEX
  5
E63
  8
1
  6
CONTINUOUS
 62
     4
 10
-578.01574640800004
 20
203.09493799800001
 30
0.0
  0
VERTEX
  5
E64
  8
1
  6
CONTINUOUS
 62
     4
 10
-578.315746408
 20
205.09493799800001
 30
0.0
  0
VERTEX
  5
E65
  8
1
  6
CONTINUOUS
 62
     4
 10
-578.61574640799995
 20
203.09493799800001
 30
0.0
  0
SEQEND
  5
E66
  8
1
  6
CONTINUOUS
 62
     4
  0
LINE
  5
3E2
  8
1
  6
CONTINUOUS
 62
     4
 10
-658.78565111499995
 20
205.09493799800001
 30
0.0
 11
-576.31574640799988
 21
205.09493799800001
 31
0.0
  0
ENDBLK
  5
3E3
  8
0
  0
BLOCK
  8
0
  2
*D90
 70
     1
 10
0.0
 20
0.0
 30
0.0
  3
*D90
  1

  0
TEXT
  5
3E6
  8
1
  6
CONTINUOUS
 62
     4
 10
-580.96030260199996
 20
94.166453697999984
 30
0.0
 40
2.7999999999999989
  1
(
 50
90.0
 41
1.7999999999999921
 72
     5
 11
-580.96030260199996
 21
95.846453697999976
 31
0.0
  0
TEXT
  5
3E7
  8
1
  6
CONTINUOUS
 62
     4
 10
-580.96030260199996
 20
96.686453697999994
 30
0.0
 40
2.7999999999999989
  1
105.7
 50
90.0
 41
1.2
 72
     5
 11
-580.96030260199996
 21
108.446453698
 31
0.0
  0
TEXT
  5
3E8
  8
1
  6
CONTINUOUS
 62
     4
 10
-580.96030260199996
 20
109.286453698
 30
0.0
 40
2.7999999999999989
  1
)
 50
90.0
 41
1.8000000000000069
 72
     5
 11
-580.96030260199996
 21
110.966453698
 31
0.0
  0
LINE
  5
3E9
  8
1
  6
CONTINUOUS
 62
     4
 10
-645.10231777800004
 20
154.694937998
 30
0.0
 11
-576.31574640799988
 21
154.694937998
 31
0.0
  0
POLYLINE
  5
3EA
  8
1
  6
CONTINUOUS
 62
     4
 66
     1
 10
0.0
 20
0.0
 30
0.0
  0
VERTEX
  5
E67
  8
1
  6
CONTINUOUS
 62
     4
 10
-578.01574640800004
 20
152.694937998
 30
0.0
  0
VERTEX
  5
E68
  8
1
  6
CONTINUOUS
 62
     4
 10
-578.315746408
 20
154.694937998
 30
0.0
  0
VERTEX
  5
E69
  8
1
  6
CONTINUOUS
 62
     4
 10
-578.61574640799995
 20
152.694937998
 30
0.0
  0
SEQEND
  5
E6A
  8
1
  6
CONTINUOUS
 62
     4
  0
LINE
  5
3EF
  8
1
  6
CONTINUOUS
 62
     4
 10
-578.315746408
 20
154.694937998
 30
0.0
 11
-578.315746408
 21
49.023435382999999
 31
0.0
  0
POLYLINE
  5
3F0
  8
1
  6
CONTINUOUS
 62
     4
 66
     1
 10
0.0
 20
0.0
 30
0.0
  0
VERTEX
  5
E6B
  8
1
  6
CONTINUOUS
 62
     4
 10
-578.61574640799995
 20
51.023435382999999
 30
0.0
  0
VERTEX
  5
E6C
  8
1
  6
CONTINUOUS
 62
     4
 10
-578.315746408
 20
49.023435382999999
 30
0.0
  0
VERTEX
  5
E6D
  8
1
  6
CONTINUOUS
 62
     4
 10
-578.01574640800004
 20
51.023435382999999
 30
0.0
  0
SEQEND
  5
E6E
  8
1
  6
CONTINUOUS
 62
     4
  0
LINE
  5
3F5
  8
1
  6
CONTINUOUS
 62
     4
 10
-590.7503265979999
 20
49.023435382999999
 30
0.0
 11
-576.31574640799988
 21
49.023435382999999
 31
0.0
  0
ENDBLK
  5
3F6
  8
0
  0
BLOCK
  8
0
  2
BLK675
 70
     0
 10
0.0
 20
0.0
 30
0.0
  3
BLK675
  1

  0
ARC
  5
3F9
  8
1
  6
CONTINUOUS
 62
     5
 10
0.0
 20
0.0
 30
0.0
 40
1.0
 50
190.21408736399999
 51
216.53185266700001
  0
ENDBLK
  5
3FA
  8
0
  0
BLOCK
  8
0
  2
BLK676
 70
     0
 10
0.0
 20
0.0
 30
0.0
  3
BLK676
  1

  0
ARC
  5
3FD
  8
1
  6
CONTINUOUS
 62
     5
 10
0.0
 20
0.0
 30
0.0
 40
1.0
 50
323.46807759500001
 51
349.78580864899999
  0
ENDBLK
  5
3FE
  8
0
  0
BLOCK
  8
0
  2
BLK678
 70
     0
 10
0.0
 20
0.0
 30
0.0
  3
BLK678
  1

  0
ARC
  5
401
  8
1
  6
CONTINUOUS
 62
     5
 10
0.0
 20
0.0
 30
0.0
 40
1.0
 50
30.548898204000011
 51
30.548918412999999
  0
ENDBLK
  5
402
  8
0
  0
BLOCK
  8
0
  2
BLK679
 70
     0
 10
0.0
 20
0.0
 30
0.0
  3
BLK679
  1

  0
ARC
  5
405
  8
1
  6
CONTINUOUS
 62
     5
 10
0.0
 20
0.0
 30
0.0
 40
1.0
 50
30.548918412999999
 51
149.45106244900001
  0
ENDBLK
  5
406
  8
0
  0
BLOCK
  8
0
  2
*D95
 70
     1
 10
0.0
 20
0.0
 30
0.0
  3
*D95
  1

  0
TEXT
  5
409
  8
1
  6
CONTINUOUS
 62
     4
 10
-568.55797791300006
 20
118.66758668999999
 30
0.0
 40
2.7999999999999989
  1
(
 50
90.0
 41
1.8000000000000069
 72
     5
 11
-568.55797791300006
 21
120.34758669
 31
0.0
  0
TEXT
  5
40A
  8
1
  6
CONTINUOUS
 62
     4
 10
-568.55797791300006
 20
121.18758669
 30
0.0
 40
2.7999999999999989
  1
156.1
 50
90.0
 41
1.26
 72
     5
 11
-568.55797791300006
 21
132.94758669000001
 31
0.0
  0
TEXT
  5
40B
  8
1
  6
CONTINUOUS
 62
     4
 10
-568.55797791300006
 20
133.78758669000001
 30
0.0
 40
2.7999999999999989
  1
)
 50
90.0
 41
1.7999999999999761
 72
     5
 11
-568.55797791300006
 21
135.46758668999999
 31
0.0
  0
LINE
  5
40C
  8
1
  6
CONTINUOUS
 62
     4
 10
-590.7503265979999
 20
49.023435382999999
 30
0.0
 11
-564.35297791300002
 21
49.023435382999999
 31
0.0
  0
POLYLINE
  5
40D
  8
1
  6
CONTINUOUS
 62
     4
 66
     1
 10
0.0
 20
0.0
 30
0.0
  0
VERTEX
  5
E6F
  8
1
  6
CONTINUOUS
 62
     4
 10
-566.65297791300009
 20
51.023435382999999
 30
0.0
  0
VERTEX
  5
E70
  8
1
  6
CONTINUOUS
 62
     4
 10
-566.35297791300002
 20
49.023435382999999
 30
0.0
  0
VERTEX
  5
E71
  8
1
  6
CONTINUOUS
 62
     4
 10
-566.05297791299995
 20
51.023435382999999
 30
0.0
  0
SEQEND
  5
E72
  8
1
  6
CONTINUOUS
 62
     4
  0
LINE
  5
412
  8
1
  6
CONTINUOUS
 62
     4
 10
-566.35297791300002
 20
49.023435382999999
 30
0.0
 11
-566.35297791300002
 21
205.09493799800001
 31
0.0
  0
POLYLINE
  5
413
  8
1
  6
CONTINUOUS
 62
     4
 66
     1
 10
0.0
 20
0.0
 30
0.0
  0
VERTEX
  5
E73
  8
1
  6
CONTINUOUS
 62
     4
 10
-566.05297791299995
 20
203.09493799800001
 30
0.0
  0
VERTEX
  5
E74
  8
1
  6
CONTINUOUS
 62
     4
 10
-566.35297791300002
 20
205.09493799800001
 30
0.0
  0
VERTEX
  5
E75
  8
1
  6
CONTINUOUS
 62
     4
 10
-566.65297791300009
 20
203.09493799800001
 30
0.0
  0
SEQEND
  5
E76
  8
1
  6
CONTINUOUS
 62
     4
  0
LINE
  5
418
  8
1
  6
CONTINUOUS
 62
     4
 10
-658.78565111499995
 20
205.09493799800001
 30
0.0
 11
-564.35297791300002
 21
205.09493799800001
 31
0.0
  0
ENDBLK
  5
419
  8
0
  0
BLOCK
  8
0
  2
*D96
 70
     1
 10
0.0
 20
0.0
 30
0.0
  3
*D96
  1

  0
TEXT
  5
41C
  8
1
  6
CONTINUOUS
 62
     4
 10
-674.23391777799986
 20
232.63248847400001
 30
0.0
 40
2.7999999999999989
  1
φ
 41
1.4999999999999549
 72
     5
 11
-670.87391777799996
 21
232.63248847400001
 31
0.0
  0
TEXT
  5
41D
  8
1
  6
CONTINUOUS
 62
     4
 10
-669.19391777800001
 20
232.63248847400001
 30
0.0
 40
2.7999999999999989
  1
49.5
 41
1.100000000000001
 72
     5
 11
-659.953917778
 21
232.63248847400001
 31
0.0
  0
LINE
  5
41E
  8
1
  6
CONTINUOUS
 62
     4
 10
-642.35231777800004
 20
127.194937998
 30
0.0
 11
-642.35231777800004
 21
232.427488474
 31
0.0
  0
POLYLINE
  5
41F
  8
1
  6
CONTINUOUS
 62
     4
 66
     1
 10
0.0
 20
0.0
 30
0.0
  0
VERTEX
  5
E77
  8
1
  6
CONTINUOUS
 62
     4
 10
-644.35231777800004
 20
230.12748847399999
 30
0.0
  0
VERTEX
  5
E78
  8
1
  6
CONTINUOUS
 62
     4
 10
-642.35231777800004
 20
230.427488474
 30
0.0
  0
VERTEX
  5
E79
  8
1
  6
CONTINUOUS
 62
     4
 10
-644.35231777800004
 20
230.72748847400001
 30
0.0
  0
SEQEND
  5
E7A
  8
1
  6
CONTINUOUS
 62
     4
  0
LINE
  5
424
  8
1
  6
CONTINUOUS
 62
     4
 10
-642.35231777800004
 20
230.427488474
 30
0.0
 11
-691.85231777800004
 21
230.427488474
 31
0.0
  0
POLYLINE
  5
425
  8
1
  6
CONTINUOUS
 62
     4
 66
     1
 10
0.0
 20
0.0
 30
0.0
  0
VERTEX
  5
E7B
  8
1
  6
CONTINUOUS
 62
     4
 10
-689.85231777800004
 20
230.72748847400001
 30
0.0
  0
VERTEX
  5
E7C
  8
1
  6
CONTINUOUS
 62
     4
 10
-691.85231777800004
 20
230.427488474
 30
0.0
  0
VERTEX
  5
E7D
  8
1
  6
CONTINUOUS
 62
     4
 10
-689.85231777800004
 20
230.12748847399999
 30
0.0
  0
SEQEND
  5
E7E
  8
1
  6
CONTINUOUS
 62
     4
  0
LINE
  5
42A
  8
1
  6
CONTINUOUS
 62
     4
 10
-691.85231777800004
 20
127.194937998
 30
0.0
 11
-691.85231777800004
 21
232.427488474
 31
0.0
  0
ENDBLK
  5
42B
  8
0
  0
BLOCK
  8
0
  2
*D97
 70
     1
 10
0.0
 20
0.0
 30
0.0
  3
*D97
  1

  0
TEXT
  5
42E
  8
1
  6
CONTINUOUS
 62
     4
 10
-593.17464330300004
 20
83.696976613000004
 30
0.0
 40
2.7999999999999989
  1
91
 50
90.0
 41
1.1249999999999969
 72
     5
 11
-593.17464330300004
 21
87.896976612999993
 31
0.0
  0
LINE
  5
42F
  8
1
  6
CONTINUOUS
 62
     4
 10
-654.75231777800002
 20
63.694937998
 30
0.0
 11
-588.75032659800002
 21
63.694937998
 31
0.0
  0
POLYLINE
  5
430
  8
1
  6
CONTINUOUS
 62
     4
 66
     1
 10
0.0
 20
0.0
 30
0.0
  0
VERTEX
  5
E7F
  8
1
  6
CONTINUOUS
 62
     4
 10
-591.05032659799997
 20
65.694937998
 30
0.0
  0
VERTEX
  5
E80
  8
1
  6
CONTINUOUS
 62
     4
 10
-590.7503265979999
 20
63.694937998
 30
0.0
  0
VERTEX
  5
E81
  8
1
  6
CONTINUOUS
 62
     4
 10
-590.45032659799995
 20
65.694937998
 30
0.0
  0
SEQEND
  5
E82
  8
1
  6
CONTINUOUS
 62
     4
  0
LINE
  5
435
  8
1
  6
CONTINUOUS
 62
     4
 10
-590.7503265979999
 20
63.694937998
 30
0.0
 11
-590.7503265979999
 21
154.694937998
 31
0.0
  0
POLYLINE
  5
436
  8
1
  6
CONTINUOUS
 62
     4
 66
     1
 10
0.0
 20
0.0
 30
0.0
  0
VERTEX
  5
E83
  8
1
  6
CONTINUOUS
 62
     4
 10
-590.45032659799995
 20
152.694937998
 30
0.0
  0
VERTEX
  5
E84
  8
1
  6
CONTINUOUS
 62
     4
 10
-590.7503265979999
 20
154.694937998
 30
0.0
  0
VERTEX
  5
E85
  8
1
  6
CONTINUOUS
 62
     4
 10
-591.05032659799997
 20
152.694937998
 30
0.0
  0
SEQEND
  5
E86
  8
1
  6
CONTINUOUS
 62
     4
  0
LINE
  5
43B
  8
1
  6
CONTINUOUS
 62
     4
 10
-645.10231777800004
 20
154.694937998
 30
0.0
 11
-588.75032659800002
 21
154.694937998
 31
0.0
  0
ENDBLK
  5
43C
  8
0
  0
BLOCK
  8
0
  2
BLK692
 70
     0
 10
0.0
 20
0.0
 30
0.0
  3
BLK692
  1

  0
ARC
  5
43F
  8
1
  6
CONTINUOUS
 62
     5
 10
0.0
 20
0.0
 30
0.0
 40
1.0
 50
359.999797693
 51
180.0
  0
ENDBLK
  5
440
  8
0
  0
BLOCK
  8
0
  2
BLK693
 70
     0
 10
0.0
 20
0.0
 30
0.0
  3
BLK693
  1

  0
ARC
  5
443
  8
1
  6
CONTINUOUS
 62
     5
 10
0.0
 20
0.0
 30
0.0
 40
1.0
 50
338.96048839700001
 51
199.77483157799989
  0
ENDBLK
  5
444
  8
0
  0
BLOCK
  8
0
  2
BLK694
 70
     0
 10
0.0
 20
0.0
 30
0.0
  3
BLK694
  1

  0
ARC
  5
447
  8
1
  6
CONTINUOUS
 62
     5
 10
0.0
 20
0.0
 30
0.0
 40
1.0
 50
359.999797693
 51
180.0
  0
ENDBLK
  5
448
  8
0
  0
BLOCK
  8
0
  2
BLK695
 70
     0
 10
0.0
 20
0.0
 30
0.0
  3
BLK695
  1

  0
CIRCLE
  5
44B
  8
1
  6
CONTINUOUS
 62
     5
 10
0.0
 20
0.0
 30
0.0
 40
1.0
  0
ENDBLK
  5
44C
  8
0
  0
BLOCK
  8
0
  2
BLK696
 70
     0
 10
0.0
 20
0.0
 30
0.0
  3
BLK696
  1

  0
CIRCLE
  5
44F
  8
1
  6
CONTINUOUS
 62
     5
 10
0.0
 20
0.0
 30
0.0
 40
1.0
  0
ENDBLK
  5
450
  8
0
  0
BLOCK
  8
0
  2
BLK722
 70
     0
 10
0.0
 20
0.0
 30
0.0
  3
BLK722
  1

  0
ARC
  5
453
  8
1
  6
CONTINUOUS
 62
     5
 10
0.0
 20
0.0
 30
0.0
 40
1.0
 50
335.13969192299999
 51
204.86020311100009
  0
ENDBLK
  5
454
  8
0
  0
BLOCK
  8
0
  2
*D104
 70
     1
 10
0.0
 20
0.0
 30
0.0
  3
*D104
  1

  0
TEXT
  5
457
  8
1
  6
CONTINUOUS
 62
     4
 10
121.342142323
 20
145.603337998
 30
0.0
 40
2.7999999999999989
  1
40
 50
90.0
 72
     5
 11
121.342142323
 21
149.80333799799999
 31
0.0
  0
LINE
  5
458
  8
1
  6
CONTINUOUS
 62
     4
 10
70.516603781000001
 20
127.694937998
 30
0.0
 11
125.547142323
 21
127.694937998
 31
0.0
  0
POLYLINE
  5
459
  8
1
  6
CONTINUOUS
 62
     4
 66
     1
 10
0.0
 20
0.0
 30
0.0
  0
VERTEX
  5
E87
  8
1
  6
CONTINUOUS
 62
     4
 10
123.24714232300001
 20
129.694937998
 30
0.0
  0
VERTEX
  5
E88
  8
1
  6
CONTINUOUS
 62
     4
 10
123.547142323
 20
127.694937998
 30
0.0
  0
VERTEX
  5
E89
  8
1
  6
CONTINUOUS
 62
     4
 10
123.847142323
 20
129.694937998
 30
0.0
  0
SEQEND
  5
E8A
  8
1
  6
CONTINUOUS
 62
     4
  0
LINE
  5
45E
  8
1
  6
CONTINUOUS
 62
     4
 10
123.547142323
 20
127.694937998
 30
0.0
 11
123.547142323
 21
167.694937998
 31
0.0
  0
POLYLINE
  5
45F
  8
1
  6
CONTINUOUS
 62
     4
 66
     1
 10
0.0
 20
0.0
 30
0.0
  0
VERTEX
  5
E8B
  8
1
  6
CONTINUOUS
 62
     4
 10
123.847142323
 20
165.694937998
 30
0.0
  0
VERTEX
  5
E8C
  8
1
  6
CONTINUOUS
 62
     4
 10
123.547142323
 20
167.694937998
 30
0.0
  0
VERTEX
  5
E8D
  8
1
  6
CONTINUOUS
 62
     4
 10
123.24714232300001
 20
165.694937998
 30
0.0
  0
SEQEND
  5
E8E
  8
1
  6
CONTINUOUS
 62
     4
  0
LINE
  5
464
  8
1
  6
CONTINUOUS
 62
     4
 10
55.966603781000011
 20
167.694937998
 30
0.0
 11
125.547142323
 21
167.694937998
 31
0.0
  0
ENDBLK
  5
465
  8
0
  0
BLOCK
  8
0
  2
*D105
 70
     1
 10
0.0
 20
0.0
 30
0.0
  3
*D105
  1

  0
TEXT
  5
468
  8
1
  6
CONTINUOUS
 62
     4
 10
192.92706189099999
 20
139.22809354699999
 30
0.0
 40
2.7999999999999989
  1
φ
 50
347.63648539491322
 41
1.4999999996281479
 72
     5
 11
196.20913953100001
 21
138.50867269700001
 31
0.0
  0
TEXT
  5
469
  8
1
  6
CONTINUOUS
 62
     4
 10
197.850178352
 20
138.14896227200001
 30
0.0
 40
2.7999999999999989
  1
38
 50
347.6364853911715
 41
0.900000000009151
 72
     5
 11
201.952775403
 21
137.249686209
 31
0.0
  0
POLYLINE
  5
46A
  8
1
  6
CONTINUOUS
 62
     4
 66
     1
 10
0.0
 20
0.0
 30
0.0
  0
VERTEX
  5
E8F
  8
1
  6
CONTINUOUS
 62
     4
 10
220.24494267399999
 20
130.67562889000001
 30
0.0
  0
VERTEX
  5
E90
  8
1
  6
CONTINUOUS
 62
     4
 10
222.262794321
 20
130.54044483999999
 30
0.0
  0
VERTEX
  5
E91
  8
1
  6
CONTINUOUS
 62
     4
 10
220.373410683
 20
131.26171418300001
 30
0.0
  0
SEQEND
  5
E92
  8
1
  6
CONTINUOUS
 62
     4
  0
LINE
  5
46F
  8
1
  6
CONTINUOUS
 62
     4
 10
222.262794321
 20
130.54044483999999
 30
0.0
 11
185.14405909800001
 21
138.676752077
 31
0.0
  0
POLYLINE
  5
470
  8
1
  6
CONTINUOUS
 62
     4
 66
     1
 10
0.0
 20
0.0
 30
0.0
  0
VERTEX
  5
E93
  8
1
  6
CONTINUOUS
 62
     4
 10
187.16191074599999
 20
138.54156802700001
 30
0.0
  0
VERTEX
  5
E94
  8
1
  6
CONTINUOUS
 62
     4
 10
185.14405909800001
 20
138.676752077
 30
0.0
  0
VERTEX
  5
E95
  8
1
  6
CONTINUOUS
 62
     4
 10
187.033442737
 20
137.95548273399999
 30
0.0
  0
SEQEND
  5
E96
  8
1
  6
CONTINUOUS
 62
     4
  0
ENDBLK
  5
475
  8
0
  0
BLOCK
  8
0
  2
BLK750
 70
     0
 10
0.0
 20
0.0
 30
0.0
  3
BLK750
  1

  0
ARC
  5
478
  8
1
  6
CONTINUOUS
 62
     5
 10
0.0
 20
0.0
 30
0.0
 40
1.0
 50
0.0
 51
180.0
  0
ENDBLK
  5
479
  8
0
  0
BLOCK
  8
0
  2
BLK768
 70
     0
 10
0.0
 20
0.0
 30
0.0
  3
BLK768
  1

  0
ARC
  5
47C
  8
1
  6
CONTINUOUS
 62
     5
 10
0.0
 20
0.0
 30
0.0
 40
1.0
 50
180.0
 51
0.0
  0
ENDBLK
  5
47D
  8
0
  0
BLOCK
  8
0
  2
*D108
 70
     1
 10
0.0
 20
0.0
 30
0.0
  3
*D108
  1

  0
TEXT
  5
480
  8
1
  6
CONTINUOUS
 62
     4
 10
-593.07054809500005
 20
49.179211808999987
 30
0.0
 40
2.7999999999999989
  1
(
 50
90.0
 41
1.7999999999999989
 72
     5
 11
-593.07054809500005
 21
50.859211808999987
 31
0.0
  0
TEXT
  5
481
  8
1
  6
CONTINUOUS
 62
     4
 10
-593.07054809500005
 20
51.699211808999998
 30
0.0
 40
2.7999999999999989
  1
14.7
 50
90.0
 41
1.2375
 72
     5
 11
-593.07054809500005
 21
60.939211809
 31
0.0
  0
TEXT
  5
482
  8
1
  6
CONTINUOUS
 62
     4
 10
-593.07054809500005
 20
61.779211809000003
 30
0.0
 40
2.7999999999999989
  1
)
 50
90.0
 41
1.7999999999999989
 72
     5
 11
-593.07054809500005
 21
63.459211808999989
 31
0.0
  0
POLYLINE
  5
483
  8
1
  6
CONTINUOUS
 62
     4
 66
     1
 10
0.0
 20
0.0
 30
0.0
  0
VERTEX
  5
E97
  8
1
  6
CONTINUOUS
 62
     4
 10
-590.45032659799995
 20
61.694937998
 30
0.0
  0
VERTEX
  5
E98
  8
1
  6
CONTINUOUS
 62
     4
 10
-590.7503265979999
 20
63.694937998
 30
0.0
  0
VERTEX
  5
E99
  8
1
  6
CONTINUOUS
 62
     4
 10
-591.05032659799997
 20
61.694937998
 30
0.0
  0
SEQEND
  5
E9A
  8
1
  6
CONTINUOUS
 62
     4
  0
LINE
  5
488
  8
1
  6
CONTINUOUS
 62
     4
 10
-590.7503265979999
 20
63.694937998
 30
0.0
 11
-590.7503265979999
 21
49.023435382999999
 31
0.0
  0
POLYLINE
  5
489
  8
1
  6
CONTINUOUS
 62
     4
 66
     1
 10
0.0
 20
0.0
 30
0.0
  0
VERTEX
  5
E9B
  8
1
  6
CONTINUOUS
 62
     4
 10
-591.05032659799997
 20
51.023435382999999
 30
0.0
  0
VERTEX
  5
E9C
  8
1
  6
CONTINUOUS
 62
     4
 10
-590.7503265979999
 20
49.023435382999999
 30
0.0
  0
VERTEX
  5
E9D
  8
1
  6
CONTINUOUS
 62
     4
 10
-590.45032659799995
 20
51.023435382999999
 30
0.0
  0
SEQEND
  5
E9E
  8
1
  6
CONTINUOUS
 62
     4
  0
LINE
  5
48E
  8
1
  6
CONTINUOUS
 62
     4
 10
-663.67966804699995
 20
49.023435382999999
 30
0.0
 11
-588.75032659800002
 21
49.023435382999999
 31
0.0
  0
ENDBLK
  5
48F
  8
0
  0
BLOCK
  8
0
  2
*D109
 70
     1
 10
0.0
 20
0.0
 30
0.0
  3
*D109
  1

  0
TEXT
  5
492
  8
1
  6
CONTINUOUS
 62
     4
 10
-605.55394714699992
 20
127.103337998
 30
0.0
 40
2.7999999999999989
  1
51
 50
90.0
 41
1.125
 72
     5
 11
-605.55394714699992
 21
131.30333799799999
 31
0.0
  0
POLYLINE
  5
493
  8
1
  6
CONTINUOUS
 62
     4
 66
     1
 10
0.0
 20
0.0
 30
0.0
  0
VERTEX
  5
E9F
  8
1
  6
CONTINUOUS
 62
     4
 10
-603.04894714699992
 20
152.694937998
 30
0.0
  0
VERTEX
  5
EA0
  8
1
  6
CONTINUOUS
 62
     4
 10
-603.34894714699999
 20
154.694937998
 30
0.0
  0
VERTEX
  5
EA1
  8
1
  6
CONTINUOUS
 62
     4
 10
-603.64894714699994
 20
152.694937998
 30
0.0
  0
SEQEND
  5
EA2
  8
1
  6
CONTINUOUS
 62
     4
  0
LINE
  5
498
  8
1
  6
CONTINUOUS
 62
     4
 10
-603.34894714699999
 20
154.694937998
 30
0.0
 11
-603.34894714699999
 21
103.694937998
 31
0.0
  0
POLYLINE
  5
499
  8
1
  6
CONTINUOUS
 62
     4
 66
     1
 10
0.0
 20
0.0
 30
0.0
  0
VERTEX
  5
EA3
  8
1
  6
CONTINUOUS
 62
     4
 10
-603.64894714699994
 20
105.694937998
 30
0.0
  0
VERTEX
  5
EA4
  8
1
  6
CONTINUOUS
 62
     4
 10
-603.34894714699999
 20
103.694937998
 30
0.0
  0
VERTEX
  5
EA5
  8
1
  6
CONTINUOUS
 62
     4
 10
-603.04894714699992
 20
105.694937998
 30
0.0
  0
SEQEND
  5
EA6
  8
1
  6
CONTINUOUS
 62
     4
  0
LINE
  5
49E
  8
1
  6
CONTINUOUS
 62
     4
 10
-642.85231777800004
 20
103.694937998
 30
0.0
 11
-601.34894714699988
 21
103.694937998
 31
0.0
  0
ENDBLK
  5
49F
  8
0
  0
BLOCK
  8
0
  2
*D110
 70
     1
 10
0.0
 20
0.0
 30
0.0
  3
*D110
  1

  0
TEXT
  5
4A2
  8
1
  6
CONTINUOUS
 62
     4
 10
41.655003780999991
 20
181.66653459599999
 30
0.0
 40
2.7999999999999989
  1
φ
 41
1.5000000000000031
 72
     5
 11
45.015003780999997
 21
181.66653459599999
 31
0.0
  0
TEXT
  5
4A3
  8
1
  6
CONTINUOUS
 62
     4
 10
46.695003780999997
 20
181.66653459599999
 30
0.0
 40
2.7999999999999989
  1
20
 72
     5
 11
50.895003781000007
 21
181.66653459599999
 31
0.0
  0
LINE
  5
4A4
  8
1
  6
CONTINUOUS
 62
     4
 10
56.266603781000001
 20
167.3949379979999
 30
0.0
 11
56.266603781000001
 21
181.46153459600001
 31
0.0
  0
POLYLINE
  5
4A5
  8
1
  6
CONTINUOUS
 62
     4
 66
     1
 10
0.0
 20
0.0
 30
0.0
  0
VERTEX
  5
EA7
  8
1
  6
CONTINUOUS
 62
     4
 10
54.266603781000001
 20
179.161534596
 30
0.0
  0
VERTEX
  5
EA8
  8
1
  6
CONTINUOUS
 62
     4
 10
56.266603781000001
 20
179.46153459600001
 30
0.0
  0
VERTEX
  5
EA9
  8
1
  6
CONTINUOUS
 62
     4
 10
54.266603781000001
 20
179.76153459599999
 30
0.0
  0
SEQEND
  5
EAA
  8
1
  6
CONTINUOUS
 62
     4
  0
LINE
  5
4AA
  8
1
  6
CONTINUOUS
 62
     4
 10
56.266603781000001
 20
179.46153459600001
 30
0.0
 11
36.266603781000001
 21
179.46153459600001
 31
0.0
  0
POLYLINE
  5
4AB
  8
1
  6
CONTINUOUS
 62
     4
 66
     1
 10
0.0
 20
0.0
 30
0.0
  0
VERTEX
  5
EAB
  8
1
  6
CONTINUOUS
 62
     4
 10
38.266603781000001
 20
179.76153459599999
 30
0.0
  0
VERTEX
  5
EAC
  8
1
  6
CONTINUOUS
 62
     4
 10
36.266603781000001
 20
179.46153459600001
 30
0.0
  0
VERTEX
  5
EAD
  8
1
  6
CONTINUOUS
 62
     4
 10
38.266603781000001
 20
179.161534596
 30
0.0
  0
SEQEND
  5
EAE
  8
1
  6
CONTINUOUS
 62
     4
  0
LINE
  5
4B0
  8
1
  6
CONTINUOUS
 62
     4
 10
36.266603781000001
 20
167.3949379979999
 30
0.0
 11
36.266603781000001
 21
181.46153459600001
 31
0.0
  0
ENDBLK
  5
4B1
  8
0
  0
BLOCK
  8
0
  2
*D111
 70
     1
 10
0.0
 20
0.0
 30
0.0
  3
*D111
  1

  0
TEXT
  5
4B4
  8
1
  6
CONTINUOUS
 62
     4
 10
-671.713917778
 20
27.692160513000001
 30
0.0
 40
2.7999999999999989
  1
φ
 41
1.500000000000006
 72
     5
 11
-668.35391777799998
 21
27.692160513000001
 31
0.0
  0
TEXT
  5
4B5
  8
1
  6
CONTINUOUS
 62
     4
 10
-666.67391777800003
 20
27.692160513000001
 30
0.0
 40
2.7999999999999989
  1
28
 41
0.9000000000000095
 72
     5
 11
-662.47391777799999
 21
27.692160513000001
 31
0.0
  0
LINE
  5
4B6
  8
1
  6
CONTINUOUS
 62
     4
 10
-681.10231777800004
 20
70.716154126999996
 30
0.0
 11
-681.10231777800004
 21
23.487160512999999
 31
0.0
  0
POLYLINE
  5
4B7
  8
1
  6
CONTINUOUS
 62
     4
 66
     1
 10
0.0
 20
0.0
 30
0.0
  0
VERTEX
  5
EAF
  8
1
  6
CONTINUOUS
 62
     4
 10
-679.10231777800004
 20
25.787160513000011
 30
0.0
  0
VERTEX
  5
EB0
  8
1
  6
CONTINUOUS
 62
     4
 10
-681.10231777800004
 20
25.487160512999999
 30
0.0
  0
VERTEX
  5
EB1
  8
1
  6
CONTINUOUS
 62
     4
 10
-679.10231777800004
 20
25.187160512999998
 30
0.0
  0
SEQEND
  5
EB2
  8
1
  6
CONTINUOUS
 62
     4
  0
LINE
  5
4BC
  8
1
  6
CONTINUOUS
 62
     4
 10
-681.10231777800004
 20
25.487160512999999
 30
0.0
 11
-653.10231777800004
 21
25.487160512999999
 31
0.0
  0
POLYLINE
  5
4BD
  8
1
  6
CONTINUOUS
 62
     4
 66
     1
 10
0.0
 20
0.0
 30
0.0
  0
VERTEX
  5
EB3
  8
1
  6
CONTINUOUS
 62
     4
 10
-655.10231777800004
 20
25.187160512999998
 30
0.0
  0
VERTEX
  5
EB4
  8
1
  6
CONTINUOUS
 62
     4
 10
-653.10231777800004
 20
25.487160512999999
 30
0.0
  0
VERTEX
  5
EB5
  8
1
  6
CONTINUOUS
 62
     4
 10
-655.10231777800004
 20
25.787160513000011
 30
0.0
  0
SEQEND
  5
EB6
  8
1
  6
CONTINUOUS
 62
     4
  0
LINE
  5
4C2
  8
1
  6
CONTINUOUS
 62
     4
 10
-653.10231777800004
 20
70.716154126999996
 30
0.0
 11
-653.10231777800004
 21
23.487160512999999
 31
0.0
  0
ENDBLK
  5
4C3
  8
0
  0
BLOCK
  8
0
  2
*D112
 70
     1
 10
0.0
 20
0.0
 30
0.0
  3
*D112
  1

  0
TEXT
  5
4C6
  8
1
  6
CONTINUOUS
 62
     4
 10
41.655003780999991
 20
27.692160513000001
 30
0.0
 40
2.7999999999999989
  1
φ
 41
1.5000000000000031
 72
     5
 11
45.015003780999997
 21
27.692160513000001
 31
0.0
  0
TEXT
  5
4C7
  8
1
  6
CONTINUOUS
 62
     4
 10
46.695003780999997
 20
27.692160513000001
 30
0.0
 40
2.7999999999999989
  1
28
 41
0.9000000000000008
 72
     5
 11
50.895003781000007
 21
27.692160513000001
 31
0.0
  0
LINE
  5
4C8
  8
1
  6
CONTINUOUS
 62
     4
 10
32.266603781000001
 20
70.716154126999996
 30
0.0
 11
32.266603781000001
 21
23.487160512999999
 31
0.0
  0
POLYLINE
  5
4C9
  8
1
  6
CONTINUOUS
 62
     4
 66
     1
 10
0.0
 20
0.0
 30
0.0
  0
VERTEX
  5
EB7
  8
1
  6
CONTINUOUS
 62
     4
 10
34.266603781000001
 20
25.787160513000011
 30
0.0
  0
VERTEX
  5
EB8
  8
1
  6
CONTINUOUS
 62
     4
 10
32.266603781000001
 20
25.487160512999999
 30
0.0
  0
VERTEX
  5
EB9
  8
1
  6
CONTINUOUS
 62
     4
 10
34.266603781000001
 20
25.187160512999998
 30
0.0
  0
SEQEND
  5
EBA
  8
1
  6
CONTINUOUS
 62
     4
  0
LINE
  5
4CE
  8
1
  6
CONTINUOUS
 62
     4
 10
32.266603781000001
 20
25.487160512999999
 30
0.0
 11
60.266603781000001
 21
25.487160512999999
 31
0.0
  0
POLYLINE
  5
4CF
  8
1
  6
CONTINUOUS
 62
     4
 66
     1
 10
0.0
 20
0.0
 30
0.0
  0
VERTEX
  5
EBB
  8
1
  6
CONTINUOUS
 62
     4
 10
58.266603781000001
 20
25.187160512999998
 30
0.0
  0
VERTEX
  5
EBC
  8
1
  6
CONTINUOUS
 62
     4
 10
60.266603781000001
 20
25.487160512999999
 30
0.0
  0
VERTEX
  5
EBD
  8
1
  6
CONTINUOUS
 62
     4
 10
58.266603781000001
 20
25.787160513000011
 30
0.0
  0
SEQEND
  5
EBE
  8
1
  6
CONTINUOUS
 62
     4
  0
LINE
  5
4D4
  8
1
  6
CONTINUOUS
 62
     4
 10
60.266603781000001
 20
70.716154126999996
 30
0.0
 11
60.266603781000001
 21
23.487160512999999
 31
0.0
  0
ENDBLK
  5
4D5
  8
0
  0
BLOCK
  8
0
  2
BLK829
 70
     0
 10
0.0
 20
0.0
 30
0.0
  3
BLK829
  1

  0
ARC
  5
4D8
  8
1
  6
CONTINUOUS
 62
     5
 10
0.0
 20
0.0
 30
0.0
 40
1.0
 50
180.0
 51
0.0
  0
ENDBLK
  5
4D9
  8
0
  0
BLOCK
  8
0
  2
*D114
 70
     1
 10
0.0
 20
0.0
 30
0.0
  3
*D114
  1

  0
TEXT
  5
4DC
  8
1
  6
CONTINUOUS
 62
     4
 10
-671.713917778
 20
221.90577325999999
 30
0.0
 40
2.7999999999999989
  1
φ
 41
1.500000000000006
 72
     5
 11
-668.35391777799998
 21
221.90577325999999
 31
0.0
  0
TEXT
  5
4DD
  8
1
  6
CONTINUOUS
 62
     4
 10
-666.67391777800003
 20
221.90577325999999
 30
0.0
 40
2.7999999999999989
  1
46
 41
0.9000000000000099
 72
     5
 11
-662.47391777799999
 21
221.90577325999999
 31
0.0
  0
LINE
  5
4DE
  8
1
  6
CONTINUOUS
 62
     4
 10
-644.10231777800004
 20
153.694937998
 30
0.0
 11
-644.10231777800004
 21
221.70077326000001
 31
0.0
  0
POLYLINE
  5
4DF
  8
1
  6
CONTINUOUS
 62
     4
 66
     1
 10
0.0
 20
0.0
 30
0.0
  0
VERTEX
  5
EBF
  8
1
  6
CONTINUOUS
 62
     4
 10
-646.10231777800004
 20
219.40077325999999
 30
0.0
  0
VERTEX
  5
EC0
  8
1
  6
CONTINUOUS
 62
     4
 10
-644.10231777800004
 20
219.70077326000001
 30
0.0
  0
VERTEX
  5
EC1
  8
1
  6
CONTINUOUS
 62
     4
 10
-646.10231777800004
 20
220.00077325999999
 30
0.0
  0
SEQEND
  5
EC2
  8
1
  6
CONTINUOUS
 62
     4
  0
LINE
  5
4E4
  8
1
  6
CONTINUOUS
 62
     4
 10
-644.10231777800004
 20
219.70077326000001
 30
0.0
 11
-690.10231777800004
 21
219.70077326000001
 31
0.0
  0
POLYLINE
  5
4E5
  8
1
  6
CONTINUOUS
 62
     4
 66
     1
 10
0.0
 20
0.0
 30
0.0
  0
VERTEX
  5
EC3
  8
1
  6
CONTINUOUS
 62
     4
 10
-688.10231777800004
 20
220.00077325999999
 30
0.0
  0
VERTEX
  5
EC4
  8
1
  6
CONTINUOUS
 62
     4
 10
-690.10231777800004
 20
219.70077326000001
 30
0.0
  0
VERTEX
  5
EC5
  8
1
  6
CONTINUOUS
 62
     4
 10
-688.10231777800004
 20
219.40077325999999
 30
0.0
  0
SEQEND
  5
EC6
  8
1
  6
CONTINUOUS
 62
     4
  0
LINE
  5
4EA
  8
1
  6
CONTINUOUS
 62
     4
 10
-690.10231777800004
 20
153.694937998
 30
0.0
 11
-690.10231777800004
 21
221.70077326000001
 31
0.0
  0
ENDBLK
  5
4EB
  8
0
  0
BLOCK
  8
0
  2
BLK899
 70
     0
 10
0.0
 20
0.0
 30
0.0
  3
BLK899
  1

  0
CIRCLE
  5
4EE
  8
1
  6
CONTINUOUS
 62
     5
 10
0.0
 20
0.0
 30
0.0
 40
1.0
  0
ENDBLK
  5
4EF
  8
0
  0
BLOCK
  8
0
  2
BLK900
 70
     0
 10
0.0
 20
0.0
 30
0.0
  3
BLK900
  1

  0
CIRCLE
  5
4F2
  8
1
  6
CONTINUOUS
 62
     5
 10
0.0
 20
0.0
 30
0.0
 40
1.0
  0
ENDBLK
  5
4F3
  8
0
  0
BLOCK
  8
0
  2
BLK901
 70
     0
 10
0.0
 20
0.0
 30
0.0
  3
BLK901
  1

  0
ARC
  5
4F6
  8
1
  6
CONTINUOUS
 62
     5
 10
0.0
 20
0.0
 30
0.0
 40
1.0
 50
359.999797693
 51
180.0
  0
ENDBLK
  5
4F7
  8
0
  0
BLOCK
  8
0
  2
BLK902
 70
     0
 10
0.0
 20
0.0
 30
0.0
  3
BLK902
  1

  0
ARC
  5
4FA
  8
1
  6
CONTINUOUS
 62
     5
 10
0.0
 20
0.0
 30
0.0
 40
1.0
 50
338.96048839700001
 51
199.77483157799989
  0
ENDBLK
  5
4FB
  8
0
  0
BLOCK
  8
0
  2
BLK903
 70
     0
 10
0.0
 20
0.0
 30
0.0
  3
BLK903
  1

  0
ARC
  5
4FE
  8
1
  6
CONTINUOUS
 62
     5
 10
0.0
 20
0.0
 30
0.0
 40
1.0
 50
359.999797693
 51
180.0
  0
ENDBLK
  5
4FF
  8
0
  0
BLOCK
  8
0
  2
BLK908
 70
     0
 10
0.0
 20
0.0
 30
0.0
  3
BLK908
  1

  0
ARC
  5
502
  8
1
  6
CONTINUOUS
 62
     5
 10
0.0
 20
0.0
 30
0.0
 40
1.0
 50
30.548918412999999
 51
149.45106244900001
  0
ENDBLK
  5
503
  8
0
  0
BLOCK
  8
0
  2
BLK909
 70
     0
 10
0.0
 20
0.0
 30
0.0
  3
BLK909
  1

  0
ARC
  5
506
  8
1
  6
CONTINUOUS
 62
     5
 10
0.0
 20
0.0
 30
0.0
 40
1.0
 50
30.548898204000011
 51
30.548918412999999
  0
ENDBLK
  5
507
  8
0
  0
BLOCK
  8
0
  2
BLK911
 70
     0
 10
0.0
 20
0.0
 30
0.0
  3
BLK911
  1

  0
ARC
  5
50A
  8
1
  6
CONTINUOUS
 62
     5
 10
0.0
 20
0.0
 30
0.0
 40
1.0
 50
323.46807759500001
 51
349.78580864899999
  0
ENDBLK
  5
50B
  8
0
  0
BLOCK
  8
0
  2
BLK912
 70
     0
 10
0.0
 20
0.0
 30
0.0
  3
BLK912
  1

  0
ARC
  5
50E
  8
1
  6
CONTINUOUS
 62
     5
 10
0.0
 20
0.0
 30
0.0
 40
1.0
 50
190.21408736399999
 51
216.53185266700001
  0
ENDBLK
  5
50F
  8
0
  0
BLOCK
  8
0
  2
BLK915
 70
     0
 10
0.0
 20
0.0
 30
0.0
  3
BLK915
  1

  0
ARC
  5
512
  8
1
  6
CONTINUOUS
 62
     5
 10
0.0
 20
0.0
 30
0.0
 40
1.0
 50
359.999797693
 51
180.0
  0
ENDBLK
  5
513
  8
0
  0
BLOCK
  8
0
  2
BLK942
 70
     0
 10
0.0
 20
0.0
 30
0.0
  3
BLK942
  1

  0
ARC
  5
516
  8
1
  6
CONTINUOUS
 62
     5
 10
0.0
 20
0.0
 30
0.0
 40
1.0
 50
0.0
 51
180.0
  0
ENDBLK
  5
517
  8
0
  0
BLOCK
  8
0
  2
*D126
 70
     1
 10
0.0
 20
0.0
 30
0.0
  3
*D126
  1

  0
TEXT
  5
51A
  8
1
  6
CONTINUOUS
 62
     4
 10
121.290213072
 20
81.152964690000005
 30
0.0
 40
2.7999999999999989
  1
(
 50
90.0
 41
1.7999999999999921
 72
     5
 11
121.290213072
 21
82.832964689999983
 31
0.0
  0
TEXT
  5
51B
  8
1
  6
CONTINUOUS
 62
     4
 10
121.290213072
 20
83.672964690000015
 30
0.0
 40
2.7999999999999989
  1
78.7
 50
90.0
 41
1.099999999999999
 72
     5
 11
121.290213072
 21
92.912964689999995
 31
0.0
  0
TEXT
  5
51C
  8
1
  6
CONTINUOUS
 62
     4
 10
121.290213072
 20
93.752964689999999
 30
0.0
 40
2.7999999999999989
  1
)
 50
90.0
 41
1.8000000000000069
 72
     5
 11
121.290213072
 21
95.432964690000006
 31
0.0
  0
LINE
  5
51D
  8
1
  6
CONTINUOUS
 62
     4
 10
70.516603781000001
 20
127.694937998
 30
0.0
 11
125.547142323
 21
127.694937998
 31
0.0
  0
POLYLINE
  5
51E
  8
1
  6
CONTINUOUS
 62
     4
 66
     1
 10
0.0
 20
0.0
 30
0.0
  0
VERTEX
  5
EC7
  8
1
  6
CONTINUOUS
 62
     4
 10
123.847142323
 20
125.694937998
 30
0.0
  0
VERTEX
  5
EC8
  8
1
  6
CONTINUOUS
 62
     4
 10
123.547142323
 20
127.694937998
 30
0.0
  0
VERTEX
  5
EC9
  8
1
  6
CONTINUOUS
 62
     4
 10
123.24714232300001
 20
125.694937998
 30
0.0
  0
SEQEND
  5
ECA
  8
1
  6
CONTINUOUS
 62
     4
  0
LINE
  5
523
  8
1
  6
CONTINUOUS
 62
     4
 10
123.547142323
 20
127.694937998
 30
0.0
 11
123.547142323
 21
49.023435382999999
 31
0.0
  0
POLYLINE
  5
524
  8
1
  6
CONTINUOUS
 62
     4
 66
     1
 10
0.0
 20
0.0
 30
0.0
  0
VERTEX
  5
ECB
  8
1
  6
CONTINUOUS
 62
     4
 10
123.24714232300001
 20
51.023435382999999
 30
0.0
  0
VERTEX
  5
ECC
  8
1
  6
CONTINUOUS
 62
     4
 10
123.547142323
 20
49.023435382999999
 30
0.0
  0
VERTEX
  5
ECD
  8
1
  6
CONTINUOUS
 62
     4
 10
123.847142323
 20
51.023435382999999
 30
0.0
  0
SEQEND
  5
ECE
  8
1
  6
CONTINUOUS
 62
     4
  0
LINE
  5
529
  8
1
  6
CONTINUOUS
 62
     4
 10
102.797864292
 20
49.023435382999999
 30
0.0
 11
125.547142323
 21
49.023435382999999
 31
0.0
  0
ENDBLK
  5
52A
  8
0
  0
BLOCK
  8
0
  2
*D127
 70
     1
 10
0.0
 20
0.0
 30
0.0
  3
*D127
  1

  0
TEXT
  5
52D
  8
1
  6
CONTINUOUS
 62
     4
 10
112.64550144099999
 20
49.179211808999987
 30
0.0
 40
2.7999999999999989
  1
(
 50
90.0
 41
1.7999999999999989
 72
     5
 11
112.64550144099999
 21
50.859211808999987
 31
0.0
  0
TEXT
  5
52E
  8
1
  6
CONTINUOUS
 62
     4
 10
112.64550144099999
 20
51.699211808999998
 30
0.0
 40
2.7999999999999989
  1
14.7
 50
90.0
 41
1.2375
 72
     5
 11
112.64550144099999
 21
60.939211809
 31
0.0
  0
TEXT
  5
52F
  8
1
  6
CONTINUOUS
 62
     4
 10
112.64550144099999
 20
61.779211809000003
 30
0.0
 40
2.7999999999999989
  1
)
 50
90.0
 41
1.7999999999999989
 72
     5
 11
112.64550144099999
 21
63.459211808999989
 31
0.0
  0
POLYLINE
  5
530
  8
1
  6
CONTINUOUS
 62
     4
 66
     1
 10
0.0
 20
0.0
 30
0.0
  0
VERTEX
  5
ECF
  8
1
  6
CONTINUOUS
 62
     4
 10
115.22841893099999
 20
61.694937998
 30
0.0
  0
VERTEX
  5
ED0
  8
1
  6
CONTINUOUS
 62
     4
 10
114.928418931
 20
63.694937998
 30
0.0
  0
VERTEX
  5
ED1
  8
1
  6
CONTINUOUS
 62
     4
 10
114.628418931
 20
61.694937998
 30
0.0
  0
SEQEND
  5
ED2
  8
1
  6
CONTINUOUS
 62
     4
  0
LINE
  5
535
  8
1
  6
CONTINUOUS
 62
     4
 10
114.928418931
 20
63.694937998
 30
0.0
 11
114.928418931
 21
49.023435382999999
 31
0.0
  0
POLYLINE
  5
536
  8
1
  6
CONTINUOUS
 62
     4
 66
     1
 10
0.0
 20
0.0
 30
0.0
  0
VERTEX
  5
ED3
  8
1
  6
CONTINUOUS
 62
     4
 10
114.628418931
 20
51.023435382999999
 30
0.0
  0
VERTEX
  5
ED4
  8
1
  6
CONTINUOUS
 62
     4
 10
114.928418931
 20
49.023435382999999
 30
0.0
  0
VERTEX
  5
ED5
  8
1
  6
CONTINUOUS
 62
     4
 10
115.22841893099999
 20
51.023435382999999
 30
0.0
  0
SEQEND
  5
ED6
  8
1
  6
CONTINUOUS
 62
     4
  0
LINE
  5
53B
  8
1
  6
CONTINUOUS
 62
     4
 10
49.689253512000001
 20
49.023435382999999
 30
0.0
 11
116.928418931
 21
49.023435382999999
 31
0.0
  0
ENDBLK
  5
53C
  8
0
  0
BLOCK
  8
0
  2
*D128
 70
     1
 10
0.0
 20
0.0
 30
0.0
  3
*D128
  1

  0
TEXT
  5
53F
  8
1
  6
CONTINUOUS
 62
     4
 10
105.019575973
 20
113.603337998
 30
0.0
 40
2.7999999999999989
  1
24
 50
90.0
 41
0.9000000000000007
 72
     5
 11
105.019575973
 21
117.803337998
 31
0.0
  0
POLYLINE
  5
540
  8
1
  6
CONTINUOUS
 62
     4
 66
     1
 10
0.0
 20
0.0
 30
0.0
  0
VERTEX
  5
ED7
  8
1
  6
CONTINUOUS
 62
     4
 10
107.524575973
 20
125.694937998
 30
0.0
  0
VERTEX
  5
ED8
  8
1
  6
CONTINUOUS
 62
     4
 10
107.224575973
 20
127.694937998
 30
0.0
  0
VERTEX
  5
ED9
  8
1
  6
CONTINUOUS
 62
     4
 10
106.924575973
 20
125.694937998
 30
0.0
  0
SEQEND
  5
EDA
  8
1
  6
CONTINUOUS
 62
     4
  0
LINE
  5
545
  8
1
  6
CONTINUOUS
 62
     4
 10
107.224575973
 20
127.694937998
 30
0.0
 11
107.224575973
 21
103.694937998
 31
0.0
  0
POLYLINE
  5
546
  8
1
  6
CONTINUOUS
 62
     4
 66
     1
 10
0.0
 20
0.0
 30
0.0
  0
VERTEX
  5
EDB
  8
1
  6
CONTINUOUS
 62
     4
 10
106.924575973
 20
105.694937998
 30
0.0
  0
VERTEX
  5
EDC
  8
1
  6
CONTINUOUS
 62
     4
 10
107.224575973
 20
103.694937998
 30
0.0
  0
VERTEX
  5
EDD
  8
1
  6
CONTINUOUS
 62
     4
 10
107.524575973
 20
105.694937998
 30
0.0
  0
SEQEND
  5
EDE
  8
1
  6
CONTINUOUS
 62
     4
  0
LINE
  5
54B
  8
1
  6
CONTINUOUS
 62
     4
 10
70.516603781000001
 20
103.694937998
 30
0.0
 11
109.224575973
 21
103.694937998
 31
0.0
  0
ENDBLK
  5
54C
  8
0
  0
BLOCK
  8
0
  2
*D129
 70
     1
 10
0.0
 20
0.0
 30
0.0
  3
*D129
  1

  0
TEXT
  5
54F
  8
1
  6
CONTINUOUS
 62
     4
 10
39.135003781000002
 20
193.030152534
 30
0.0
 40
2.7999999999999989
  1
φ
 41
1.5
 72
     5
 11
42.495003781000001
 21
193.030152534
 31
0.0
  0
TEXT
  5
550
  8
1
  6
CONTINUOUS
 62
     4
 10
44.175003781000001
 20
193.030152534
 30
0.0
 40
2.7999999999999989
  1
49.5
 41
1.1000000000000001
 72
     5
 11
53.41500378100001
 21
193.030152534
 31
0.0
  0
LINE
  5
551
  8
1
  6
CONTINUOUS
 62
     4
 10
71.016603781000001
 20
127.194937998
 30
0.0
 11
71.016603781000001
 21
192.82515253400001
 31
0.0
  0
POLYLINE
  5
552
  8
1
  6
CONTINUOUS
 62
     4
 66
     1
 10
0.0
 20
0.0
 30
0.0
  0
VERTEX
  5
EDF
  8
1
  6
CONTINUOUS
 62
     4
 10
69.016603781000001
 20
190.525152534
 30
0.0
  0
VERTEX
  5
EE0
  8
1
  6
CONTINUOUS
 62
     4
 10
71.016603781000001
 20
190.82515253400001
 30
0.0
  0
VERTEX
  5
EE1
  8
1
  6
CONTINUOUS
 62
     4
 10
69.016603781000001
 20
191.12515253399999
 30
0.0
  0
SEQEND
  5
EE2
  8
1
  6
CONTINUOUS
 62
     4
  0
LINE
  5
557
  8
1
  6
CONTINUOUS
 62
     4
 10
71.016603781000001
 20
190.82515253400001
 30
0.0
 11
21.516603781000001
 21
190.82515253400001
 31
0.0
  0
POLYLINE
  5
558
  8
1
  6
CONTINUOUS
 62
     4
 66
     1
 10
0.0
 20
0.0
 30
0.0
  0
VERTEX
  5
EE3
  8
1
  6
CONTINUOUS
 62
     4
 10
23.516603781000001
 20
191.12515253399999
 30
0.0
  0
VERTEX
  5
EE4
  8
1
  6
CONTINUOUS
 62
     4
 10
21.516603781000001
 20
190.82515253400001
 30
0.0
  0
VERTEX
  5
EE5
  8
1
  6
CONTINUOUS
 62
     4
 10
23.516603781000001
 20
190.525152534
 30
0.0
  0
SEQEND
  5
EE6
  8
1
  6
CONTINUOUS
 62
     4
  0
LINE
  5
55D
  8
1
  6
CONTINUOUS
 62
     4
 10
21.516603781000001
 20
127.194937998
 30
0.0
 11
21.516603781000001
 21
192.82515253400001
 31
0.0
  0
ENDBLK
  5
55E
  8
0
  0
BLOCK
  8
0
  2
*D130
 70
     1
 10
0.0
 20
0.0
 30
0.0
  3
*D130
  1

  0
TEXT
  5
561
  8
1
  6
CONTINUOUS
 62
     4
 10
111.990733652
 20
93.546041439999996
 30
0.0
 40
2.7999999999999989
  1
64
 50
90.0
 41
0.9000000000000007
 72
     5
 11
111.990733652
 21
97.746041440000013
 31
0.0
  0
LINE
  5
562
  8
1
  6
CONTINUOUS
 62
     4
 10
58.616603781000002
 20
63.694937998
 30
0.0
 11
116.928418931
 21
63.694937998
 31
0.0
  0
POLYLINE
  5
563
  8
1
  6
CONTINUOUS
 62
     4
 66
     1
 10
0.0
 20
0.0
 30
0.0
  0
VERTEX
  5
EE7
  8
1
  6
CONTINUOUS
 62
     4
 10
114.628418931
 20
65.694937998
 30
0.0
  0
VERTEX
  5
EE8
  8
1
  6
CONTINUOUS
 62
     4
 10
114.928418931
 20
63.694937998
 30
0.0
  0
VERTEX
  5
EE9
  8
1
  6
CONTINUOUS
 62
     4
 10
115.22841893099999
 20
65.694937998
 30
0.0
  0
SEQEND
  5
EEA
  8
1
  6
CONTINUOUS
 62
     4
  0
LINE
  5
568
  8
1
  6
CONTINUOUS
 62
     4
 10
114.928418931
 20
63.694937998
 30
0.0
 11
114.928418931
 21
127.694937998
 31
0.0
  0
POLYLINE
  5
569
  8
1
  6
CONTINUOUS
 62
     4
 66
     1
 10
0.0
 20
0.0
 30
0.0
  0
VERTEX
  5
EEB
  8
1
  6
CONTINUOUS
 62
     4
 10
115.22841893099999
 20
125.694937998
 30
0.0
  0
VERTEX
  5
EEC
  8
1
  6
CONTINUOUS
 62
     4
 10
114.928418931
 20
127.694937998
 30
0.0
  0
VERTEX
  5
EED
  8
1
  6
CONTINUOUS
 62
     4
 10
114.628418931
 20
125.694937998
 30
0.0
  0
SEQEND
  5
EEE
  8
1
  6
CONTINUOUS
 62
     4
  0
LINE
  5
56E
  8
1
  6
CONTINUOUS
 62
     4
 10
70.516603781000001
 20
127.694937998
 30
0.0
 11
116.928418931
 21
127.694937998
 31
0.0
  0
ENDBLK
  5
56F
  8
0
  0
BLOCK
  8
0
  2
*D131
 70
     1
 10
0.0
 20
0.0
 30
0.0
  3
*D131
  1

  0
TEXT
  5
572
  8
1
  6
CONTINUOUS
 62
     4
 10
129.383666471
 20
99.967586690000005
 30
0.0
 40
2.7999999999999989
  1
(
 50
90.0
 41
1.7999999999999921
 72
     5
 11
129.383666471
 21
101.64758669
 31
0.0
  0
TEXT
  5
573
  8
1
  6
CONTINUOUS
 62
     4
 10
129.383666471
 20
102.48758669
 30
0.0
 40
2.7999999999999989
  1
118.7
 50
90.0
 41
1.26
 72
     5
 11
129.383666471
 21
114.24758669000001
 31
0.0
  0
TEXT
  5
574
  8
1
  6
CONTINUOUS
 62
     4
 10
129.383666471
 20
115.08758668999999
 30
0.0
 40
2.7999999999999989
  1
)
 50
90.0
 41
1.8000000000000069
 72
     5
 11
129.383666471
 21
116.76758669
 31
0.0
  0
LINE
  5
575
  8
1
  6
CONTINUOUS
 62
     4
 10
123.547142323
 20
49.023435382999999
 30
0.0
 11
133.58866647100001
 21
49.023435382999999
 31
0.0
  0
POLYLINE
  5
576
  8
1
  6
CONTINUOUS
 62
     4
 66
     1
 10
0.0
 20
0.0
 30
0.0
  0
VERTEX
  5
EEF
  8
1
  6
CONTINUOUS
 62
     4
 10
131.288666471
 20
51.023435382999999
 30
0.0
  0
VERTEX
  5
EF0
  8
1
  6
CONTINUOUS
 62
     4
 10
131.58866647100001
 20
49.023435382999999
 30
0.0
  0
VERTEX
  5
EF1
  8
1
  6
CONTINUOUS
 62
     4
 10
131.88866647099999
 20
51.023435382999999
 30
0.0
  0
SEQEND
  5
EF2
  8
1
  6
CONTINUOUS
 62
     4
  0
LINE
  5
57B
  8
1
  6
CONTINUOUS
 62
     4
 10
131.58866647100001
 20
49.023435382999999
 30
0.0
 11
131.58866647100001
 21
167.694937998
 31
0.0
  0
POLYLINE
  5
57C
  8
1
  6
CONTINUOUS
 62
     4
 66
     1
 10
0.0
 20
0.0
 30
0.0
  0
VERTEX
  5
EF3
  8
1
  6
CONTINUOUS
 62
     4
 10
131.88866647099999
 20
165.694937998
 30
0.0
  0
VERTEX
  5
EF4
  8
1
  6
CONTINUOUS
 62
     4
 10
131.58866647100001
 20
167.694937998
 30
0.0
  0
VERTEX
  5
EF5
  8
1
  6
CONTINUOUS
 62
     4
 10
131.288666471
 20
165.694937998
 30
0.0
  0
SEQEND
  5
EF6
  8
1
  6
CONTINUOUS
 62
     4
  0
LINE
  5
581
  8
1
  6
CONTINUOUS
 62
     4
 10
123.547142323
 20
167.694937998
 30
0.0
 11
133.58866647100001
 21
167.694937998
 31
0.0
  0
ENDBLK
  5
582
  8
0
  0
BLOCK
  8
0
  2
BLK970
 70
     0
 10
0.0
 20
0.0
 30
0.0
  3
BLK970
  1

  0
ARC
  5
585
  8
1
  6
CONTINUOUS
 62
     5
 10
0.0
 20
0.0
 30
0.0
 40
1.0
 50
335.13969192299999
 51
204.86020311100009
  0
ENDBLK
  5
586
  8
0
  0
BLOCK
  8
0
  2
*D133
 70
     1
 10
0.0
 20
0.0
 30
0.0
  3
*D133
  1

  0
TEXT
  5
589
  8
1
  6
CONTINUOUS
 62
     4
 10
248.566839945
 20
131.256998458
 30
0.0
 40
2.7999999999999989
  1
60
 50
90.0
 72
     5
 11
248.566839945
 21
135.45699845799999
 31
0.0
  0
TEXT
  5
58A
  8
1
  6
CONTINUOUS
 62
     4
 10
248.566839945
 20
136.29699845799999
 30
0.0
 40
2.7999999999999989
  1
°
 50
90.0
 41
3.6000000000000152
 72
     5
 11
248.566839945
 21
139.656998458
 31
0.0
  0
LINE
  5
58B
  8
1
  6
CONTINUOUS
 62
     4
 10
241.53360726
 20
156.44986338299989
 30
0.0
 11
246.197919095
 21
159.142805076
 31
0.0
  0
POLYLINE
  5
58C
  8
1
  6
CONTINUOUS
 62
     4
 66
     1
 10
0.0
 20
0.0
 30
0.0
  0
VERTEX
  5
EF7
  8
1
  6
CONTINUOUS
 62
     4
 10
245.72567590899999
 20
156.560754269
 30
0.0
  0
VERTEX
  5
EF8
  8
1
  6
CONTINUOUS
 62
     4
 10
244.465868288
 20
158.142805076
 30
0.0
  0
VERTEX
  5
EF9
  8
1
  6
CONTINUOUS
 62
     4
 10
245.206060667
 20
156.26075426899999
 30
0.0
  0
SEQEND
  5
EFA
  8
1
  6
CONTINUOUS
 62
     4
  0
ARC
  5
591
  8
1
  6
CONTINUOUS
 62
     4
 10
203.70342671
 20
134.60859845900001
 30
0.0
 40
47.068413234999987
 50
330.0
 51
30.0
  0
POLYLINE
  5
592
  8
1
  6
CONTINUOUS
 62
     4
 66
     1
 10
0.0
 20
0.0
 30
0.0
  0
VERTEX
  5
EFB
  8
1
  6
CONTINUOUS
 62
     4
 10
245.206060667
 20
112.95644264800001
 30
0.0
  0
VERTEX
  5
EFC
  8
1
  6
CONTINUOUS
 62
     4
 10
244.465868288
 20
111.07439184099999
 30
0.0
  0
VERTEX
  5
EFD
  8
1
  6
CONTINUOUS
 62
     4
 10
245.72567590899999
 20
112.656442648
 30
0.0
  0
SEQEND
  5
EFE
  8
1
  6
CONTINUOUS
 62
     4
  0
LINE
  5
597
  8
1
  6
CONTINUOUS
 62
     4
 10
244.07042739400001
 20
111.30269974700001
 30
0.0
 11
246.19791909599999
 21
110.07439184099999
 31
0.0
  0
ENDBLK
  5
598
  8
0
  0
ENDSEC
  0
SECTION
  2
ENTITIES
  0
LINE
  5
6CE
  8
1
  6
CONTINUOUS
 62
     5
 10
-510.37599348300012
 20
207.43513037700001
 30
0.0
 11
-510.72599348300002
 21
207.694937998
 31
0.0
  0
LINE
  5
6CF
  8
1
  6
CONTINUOUS
 62
     5
 10
-493.52599348299998
 20
224.09493799800001
 30
0.0
 11
-493.52599348299998
 21
207.694937998
 31
0.0
  0
LINE
  5
6D0
  8
1
  6
CONTINUOUS
 62
     5
 10
-510.22599348300002
 20
224.59493799800001
 30
0.0
 11
-494.02599348299998
 21
224.59493799800001
 31
0.0
  0
LINE
  5
6D1
  8
1
  6
CONTINUOUS
 62
     5
 10
-510.72599348300002
 20
207.694937998
 30
0.0
 11
-510.72599348300002
 21
224.09493799800001
 31
0.0
  0
LINE
  5
6D2
  8
1
  6
CONTINUOUS
 62
     5
 10
-486.42599348300001
 20
156.29493799799999
 30
0.0
 11
-486.42599348300001
 21
154.694937998
 31
0.0
  0
LINE
  5
6D3
  8
1
  6
CONTINUOUS
 62
     5
 10
-502.125993483
 20
156.29493799799999
 30
0.0
 11
-518.000993483
 21
156.29493799799999
 31
0.0
  0
LINE
  5
6D4
  8
1
  6
CONTINUOUS
 62
     5
 10
-517.82599348300005
 20
154.694937998
 30
0.0
 11
-517.82599348300005
 21
156.29493799799999
 31
0.0
  0
ARC
  5
6D5
  8
1
  6
CONTINUOUS
 62
     5
 10
-502.125993483
 20
145.79493799799999
 30
0.0
 40
8.0999999999999996
 50
180.0
 51
0.0
  0
LINE
  5
6D6
  8
1
  6
CONTINUOUS
 62
     5
 10
-502.125993483
 20
154.694937998
 30
0.0
 11
-480.125993483
 21
154.694937998
 31
0.0
  0
LINE
  5
6D7
  8
1
  6
CONTINUOUS
 62
     5
 10
-524.125993483
 20
154.694937998
 30
0.0
 11
-502.125993483
 21
154.694937998
 31
0.0
  0
LINE
  5
6D8
  8
1
  6
CONTINUOUS
 62
     5
 10
-524.125993483
 20
154.694937998
 30
0.0
 11
-525.125993483
 21
153.694937998
 31
0.0
  0
LINE
  5
6D9
  8
1
  6
CONTINUOUS
 62
     5
 10
-480.125993483
 20
154.694937998
 30
0.0
 11
-479.12599348300012
 21
153.694937998
 31
0.0
  0
LINE
  5
6DA
  8
1
  6
CONTINUOUS
 62
     5
 10
-510.72599348300002
 20
224.09493799800001
 30
0.0
 11
-510.22599348300002
 21
224.59493799800001
 31
0.0
  0
LINE
  5
6DB
  8
1
  6
CONTINUOUS
 62
     5
 10
-479.12599348300012
 20
127.994937998
 30
0.0
 11
-479.12599348300012
 21
153.694937998
 31
0.0
  0
LINE
  5
6DC
  8
1
  6
CONTINUOUS
 62
     5
 10
-502.125993483
 20
156.29493799799999
 30
0.0
 11
-486.250993483
 21
156.29493799799999
 31
0.0
  0
LINE
  5
6DD
  8
1
  6
CONTINUOUS
 62
     5
 10
-486.250993483
 20
156.29493799799999
 30
0.0
 11
-493.30932681500002
 21
204.694937998
 31
0.0
  0
LINE
  5
6DE
  8
1
  6
CONTINUOUS
 62
     5
 10
-525.125993483
 20
153.694937998
 30
0.0
 11
-525.125993483
 21
127.994937998
 31
0.0
  0
LINE
  5
6DF
  8
1
  6
CONTINUOUS
 62
     4
 10
-499.6582009469999
 20
61.194937998
 30
0.0
 11
-499.6582009469999
 21
63.694937998
 31
0.0
  0
POLYLINE
  5
6E0
  8
1
  6
CONTINUOUS
 62
     4
 66
     1
 10
0.0
 20
0.0
 30
0.0
  0
VERTEX
  5
EFF
  8
1
  6
CONTINUOUS
 62
     4
 10
-459.28140258799999
 20
123.687065125
 30
0.0
  0
VERTEX
  5
F00
  8
1
  6
CONTINUOUS
 62
     4
 10
-459.49496459999989
 20
124.250427246
 30
0.0
  0
VERTEX
  5
F01
  8
1
  6
CONTINUOUS
 62
     4
 10
-459.70852661099991
 20
124.813789368
 30
0.0
  0
VERTEX
  5
F02
  8
1
  6
CONTINUOUS
 62
     4
 10
-459.92208862299998
 20
125.377151489
 30
0.0
  0
VERTEX
  5
F03
  8
1
  6
CONTINUOUS
 62
     4
 10
-460.13565063499999
 20
125.940505981
 30
0.0
  0
VERTEX
  5
F04
  8
1
  6
CONTINUOUS
 62
     4
 10
-460.3492126459999
 20
126.503868103
 30
0.0
  0
VERTEX
  5
F05
  8
1
  6
CONTINUOUS
 62
     4
 10
-460.56277465800002
 20
127.067230225
 30
0.0
  0
VERTEX
  5
F06
  8
1
  6
CONTINUOUS
 62
     4
 10
-460.77633666999992
 20
127.630592346
 30
0.0
  0
VERTEX
  5
F07
  8
1
  6
CONTINUOUS
 62
     4
 10
-460.98989868199999
 20
128.19395446799999
 30
0.0
  0
VERTEX
  5
F08
  8
1
  6
CONTINUOUS
 62
     4
 10
-461.20346069300001
 20
128.75730895999999
 30
0.0
  0
VERTEX
  5
F09
  8
1
  6
CONTINUOUS
 62
     4
 10
-461.41702270500002
 20
129.320678711
 30
0.0
  0
VERTEX
  5
F0A
  8
1
  6
CONTINUOUS
 62
     4
 10
-461.63058471699992
 20
129.884033203
 30
0.0
  0
VERTEX
  5
F0B
  8
1
  6
CONTINUOUS
 62
     4
 10
-461.84414672899999
 20
130.44740295400001
 30
0.0
  0
VERTEX
  5
F0C
  8
1
  6
CONTINUOUS
 62
     4
 10
-462.05770874000001
 20
131.01075744600001
 30
0.0
  0
VERTEX
  5
F0D
  8
1
  6
CONTINUOUS
 62
     4
 10
-462.27127075199991
 20
131.574127197
 30
0.0
  0
VERTEX
  5
F0E
  8
1
  6
CONTINUOUS
 62
     4
 10
-462.48483276399998
 20
132.137481689
 30
0.0
  0
VERTEX
  5
F0F
  8
1
  6
CONTINUOUS
 62
     4
 10
-462.698394775
 20
132.70083618199999
 30
0.0
  0
VERTEX
  5
F10
  8
1
  6
CONTINUOUS
 62
     4
 10
-462.91195678699989
 20
133.264205933
 30
0.0
  0
VERTEX
  5
F11
  8
1
  6
CONTINUOUS
 62
     4
 10
-463.12551879899991
 20
133.827560425
 30
0.0
  0
VERTEX
  5
F12
  8
1
  6
CONTINUOUS
 62
     4
 10
-463.33908081099992
 20
134.39093017600001
 30
0.0
  0
VERTEX
  5
F13
  8
1
  6
CONTINUOUS
 62
     4
 10
-463.552642822
 20
134.95428466800001
 30
0.0
  0
VERTEX
  5
F14
  8
1
  6
CONTINUOUS
 62
     4
 10
-463.76620483400001
 20
135.517654419
 30
0.0
  0
VERTEX
  5
F15
  8
1
  6
CONTINUOUS
 62
     4
 10
-463.9797668459999
 20
136.081008911
 30
0.0
  0
VERTEX
  5
F16
  8
1
  6
CONTINUOUS
 62
     4
 10
-464.19332885699993
 20
136.64437866200001
 30
0.0
  0
VERTEX
  5
F17
  8
1
  6
CONTINUOUS
 62
     4
 10
-464.40689086899999
 20
137.20773315400001
 30
0.0
  0
VERTEX
  5
F18
  8
1
  6
CONTINUOUS
 62
     4
 10
-464.62045288100001
 20
137.77108764600001
 30
0.0
  0
VERTEX
  5
F19
  8
1
  6
CONTINUOUS
 62
     4
 10
-464.83401489300002
 20
138.33445739699999
 30
0.0
  0
VERTEX
  5
F1A
  8
1
  6
CONTINUOUS
 62
     4
 10
-465.04757690399998
 20
138.89781189000001
 30
0.0
  0
VERTEX
  5
F1B
  8
1
  6
CONTINUOUS
 62
     4
 10
-465.26113891599988
 20
139.461181641
 30
0.0
  0
VERTEX
  5
F1C
  8
1
  6
CONTINUOUS
 62
     4
 10
-465.474700928
 20
140.024536133
 30
0.0
  0
VERTEX
  5
F1D
  8
1
  6
CONTINUOUS
 62
     4
 10
-465.68826293900003
 20
140.58790588400001
 30
0.0
  0
VERTEX
  5
F1E
  8
1
  6
CONTINUOUS
 62
     4
 10
-465.90182495099992
 20
141.15126037600001
 30
0.0
  0
VERTEX
  5
F1F
  8
1
  6
CONTINUOUS
 62
     4
 10
-466.11538696299999
 20
141.71461486800001
 30
0.0
  0
VERTEX
  5
F20
  8
1
  6
CONTINUOUS
 62
     4
 10
-465.3863220209999
 20
141.71461486800001
 30
0.0
  0
VERTEX
  5
F21
  8
1
  6
CONTINUOUS
 62
     4
 10
-464.65725708000002
 20
141.71461486800001
 30
0.0
  0
VERTEX
  5
F22
  8
1
  6
CONTINUOUS
 62
     4
 10
-463.92822265599989
 20
141.71461486800001
 30
0.0
  0
VERTEX
  5
F23
  8
1
  6
CONTINUOUS
 62
     4
 10
-463.1991577149999
 20
141.71461486800001
 30
0.0
  0
VERTEX
  5
F24
  8
1
  6
CONTINUOUS
 62
     4
 10
-462.47009277299998
 20
141.71461486800001
 30
0.0
  0
VERTEX
  5
F25
  8
1
  6
CONTINUOUS
 62
     4
 10
-461.74105834999989
 20
141.71461486800001
 30
0.0
  0
VERTEX
  5
F26
  8
1
  6
CONTINUOUS
 62
     4
 10
-461.01199340800002
 20
141.71461486800001
 30
0.0
  0
VERTEX
  5
F27
  8
1
  6
CONTINUOUS
 62
     4
 10
-460.28292846699998
 20
141.71461486800001
 30
0.0
  0
VERTEX
  5
F28
  8
1
  6
CONTINUOUS
 62
     4
 10
-459.553863525
 20
141.71461486800001
 30
0.0
  0
VERTEX
  5
F29
  8
1
  6
CONTINUOUS
 62
     4
 10
-458.82482910200002
 20
141.71461486800001
 30
0.0
  0
VERTEX
  5
F2A
  8
1
  6
CONTINUOUS
 62
     4
 10
-458.09576415999999
 20
141.71461486800001
 30
0.0
  0
VERTEX
  5
F2B
  8
1
  6
CONTINUOUS
 62
     4
 10
-457.36669921899988
 20
141.71461486800001
 30
0.0
  0
VERTEX
  5
F2C
  8
1
  6
CONTINUOUS
 62
     4
 10
-456.63766479499998
 20
141.71461486800001
 30
0.0
  0
VERTEX
  5
F2D
  8
1
  6
CONTINUOUS
 62
     4
 10
-455.90859985399987
 20
141.71461486800001
 30
0.0
  0
VERTEX
  5
F2E
  8
1
  6
CONTINUOUS
 62
     4
 10
-455.17953491199989
 20
141.71461486800001
 30
0.0
  0
VERTEX
  5
F2F
  8
1
  6
CONTINUOUS
 62
     4
 10
-454.45050048799999
 20
141.71461486800001
 30
0.0
  0
VERTEX
  5
F30
  8
1
  6
CONTINUOUS
 62
     4
 10
-453.72143554699988
 20
141.71461486800001
 30
0.0
  0
VERTEX
  5
F31
  8
1
  6
CONTINUOUS
 62
     4
 10
-452.99237060499991
 20
141.71461486800001
 30
0.0
  0
VERTEX
  5
F32
  8
1
  6
CONTINUOUS
 62
     4
 10
-452.26333618199988
 20
141.71461486800001
 30
0.0
  0
VERTEX
  5
F33
  8
1
  6
CONTINUOUS
 62
     4
 10
-451.5342712399999
 20
141.71461486800001
 30
0.0
  0
VERTEX
  5
F34
  8
1
  6
CONTINUOUS
 62
     4
 10
-450.80520629900002
 20
141.71461486800001
 30
0.0
  0
VERTEX
  5
F35
  8
1
  6
CONTINUOUS
 62
     4
 10
-450.07614135699998
 20
141.71461486800001
 30
0.0
  0
VERTEX
  5
F36
  8
1
  6
CONTINUOUS
 62
     4
 10
-449.3471069339999
 20
141.71461486800001
 30
0.0
  0
VERTEX
  5
F37
  8
1
  6
CONTINUOUS
 62
     4
 10
-448.61804199199997
 20
141.71461486800001
 30
0.0
  0
VERTEX
  5
F38
  8
1
  6
CONTINUOUS
 62
     4
 10
-447.88897705099998
 20
141.71461486800001
 30
0.0
  0
VERTEX
  5
F39
  8
1
  6
CONTINUOUS
 62
     4
 10
-447.15994262700002
 20
141.71461486800001
 30
0.0
  0
VERTEX
  5
F3A
  8
1
  6
CONTINUOUS
 62
     4
 10
-446.43087768599997
 20
141.71461486800001
 30
0.0
  0
VERTEX
  5
F3B
  8
1
  6
CONTINUOUS
 62
     4
 10
-445.70181274399999
 20
141.71461486800001
 30
0.0
  0
VERTEX
  5
F3C
  8
1
  6
CONTINUOUS
 62
     4
 10
-444.97277831999997
 20
141.71461486800001
 30
0.0
  0
VERTEX
  5
F3D
  8
1
  6
CONTINUOUS
 62
     4
 10
-444.24371337899998
 20
141.71461486800001
 30
0.0
  0
VERTEX
  5
F3E
  8
1
  6
CONTINUOUS
 62
     4
 10
-443.51464843799999
 20
141.71461486800001
 30
0.0
  0
VERTEX
  5
F3F
  8
1
  6
CONTINUOUS
 62
     4
 10
-442.7855834959999
 20
141.71461486800001
 30
0.0
  0
SEQEND
  5
F40
  8
1
  6
CONTINUOUS
 62
     4
  0
POLYLINE
  5
723
  8
1
  6
CONTINUOUS
 62
     4
 66
     1
 10
0.0
 20
0.0
 30
0.0
  0
VERTEX
  5
F41
  8
1
  6
CONTINUOUS
 62
     4
 10
-460.27086375200003
 20
125.450858368
 30
0.0
  0
VERTEX
  5
F42
  8
1
  6
CONTINUOUS
 62
     4
 10
-459.28140258799999
 20
123.687065125
 30
0.0
  0
VERTEX
  5
F43
  8
1
  6
CONTINUOUS
 62
     4
 10
-459.70982343399999
 20
125.663540669
 30
0.0
  0
SEQEND
  5
F44
  8
1
  6
CONTINUOUS
 62
     4
  0
TEXT
  5
728
  8
1
  6
CONTINUOUS
 62
     4
 10
-465.459128556
 20
142.61462221599999
 30
0.0
 40
3.0
  1
消音器１／８
 41
0.7537128712871298
 72
     5
 11
-450.23412855599997
 21
142.61462221599999
 31
0.0
  0
LINE
  5
729
  8
1
  6
CONTINUOUS
 62
     5
 10
-524.82599348300005
 20
127.694937998
 30
0.0
 11
-525.125993483
 21
127.994937998
 31
0.0
  0
LINE
  5
72A
  8
1
  6
CONTINUOUS
 62
     5
 10
-479.12599348300012
 20
127.994937998
 30
0.0
 11
-479.42599348300001
 21
127.694937998
 31
0.0
  0
LINE
  5
72B
  8
1
  6
CONTINUOUS
 62
     5
 10
-510.37599348300012
 20
207.43513037700001
 30
0.0
 11
-493.87599348300012
 21
207.43513037700001
 31
0.0
  0
DIMENSION
  5
72C
  8
1
  6
CONTINUOUS
 62
     4
  2
*D22
 10
-413.33942211300001
 20
224.59493799800001
 30
0.0
 11
-413.33942211300001
 21
189.64493799799999
 31
0.0
 13
-480.125993483
 23
154.694937998
 33
0.0
 14
-494.02599348299998
 24
224.59493799800001
 34
0.0
 50
90.0
  0
TEXT
  5
72D
  8
1
  6
CONTINUOUS
 62
     4
 10
-472.14694004799998
 20
69.614937998000002
 30
0.0
 40
3.2000000000000002
  1
ワンタッチ管継手１／８
 41
0.8491492146596861
 72
     5
 11
-437.54694004800001
 21
69.614937998000002
 31
0.0
  0
LINE
  5
72E
  8
1
  6
CONTINUOUS
 62
     5
 10
-499.99057783299997
 20
56.023435382999999
 30
0.0
 11
-504.26140913299997
 21
56.023435382999999
 31
0.0
  0
LINE
  5
72F
  8
1
  6
CONTINUOUS
 62
     5
 10
-504.26140913299997
 20
53.023435382999999
 30
0.0
 11
-504.26140913299997
 21
56.023435382999999
 31
0.0
  0
INSERT
  5
730
  8
1
  6
CONTINUOUS
 62
     5
  2
BLK195
 10
-480.69186473899998
 20
113.494937998
 30
0.0
 41
6.927999999999999
 42
3.4639999999999991
 50
90.0
  0
LINE
  5
731
  8
1
  6
CONTINUOUS
 62
     5
 10
-502.125993483
 20
66.594937998000006
 30
0.0
 11
-489.625993483
 21
66.594937998000006
 31
0.0
  0
LINE
  5
732
  8
1
  6
CONTINUOUS
 62
     5
 10
-510.37599348300012
 20
205.01368346000001
 30
0.0
 11
-493.87599348300012
 21
205.01368346000001
 31
0.0
  0
DIMENSION
  5
733
  8
1
  6
CONTINUOUS
 62
     4
  2
*D24
 10
-525.125993483
 20
242.556499371
 30
0.0
 11
-502.125993483
 21
242.556499371
 31
0.0
 70
     1
 13
-479.12599348300012
 23
153.694937998
 33
0.0
 14
-525.125993483
 24
153.694937998
 34
0.0
  0
LINE
  5
734
  8
1
  6
CONTINUOUS
 62
     5
 10
-494.02599348299998
 20
154.694937998
 30
0.0
 11
-494.02599348299998
 21
145.79493799799999
 31
0.0
  0
ARC
  5
735
  8
1
  6
CONTINUOUS
 62
     5
 10
-503.125993483
 20
38.523435382999999
 30
0.0
 40
0.5
 50
180.0
 51
270.0
  0
ARC
  5
736
  8
1
  6
CONTINUOUS
 62
     5
 10
-501.125993483
 20
38.523435382999999
 30
0.0
 40
0.5
 50
270.0
 51
0.0
  0
LINE
  5
737
  8
1
  6
CONTINUOUS
 62
     5
 10
-502.125993483
 20
66.394937998000003
 30
0.0
 11
-489.77599348299998
 21
66.394937998000003
 31
0.0
  0
LINE
  5
738
  8
1
  6
CONTINUOUS
 62
     5
 10
-499.99057783299997
 20
53.023435382999999
 30
0.0
 11
-499.99057783299997
 21
56.023435382999999
 31
0.0
  0
LINE
  5
739
  8
1
  6
CONTINUOUS
 62
     5
 10
-499.99057783299997
 20
55.873435383
 30
0.0
 11
-496.625993483
 21
55.873435383
 31
0.0
  0
LINE
  5
73A
  8
1
  6
CONTINUOUS
 62
     5
 10
-499.99057783299997
 20
53.173435383000012
 30
0.0
 11
-496.625993483
 21
53.173435383000012
 31
0.0
  0
LINE
  5
73B
  8
1
  6
CONTINUOUS
 62
     5
 10
-477.37599348300012
 20
104.194937998
 30
0.0
 11
-477.875993483
 21
103.694937998
 31
0.0
  0
LINE
  5
73C
  8
1
  6
CONTINUOUS
 62
     5
 10
-526.875993483
 20
104.194937998
 30
0.0
 11
-526.875993483
 21
127.194937998
 31
0.0
  0
INSERT
  5
73D
  8
1
  6
CONTINUOUS
 62
     5
  2
BLK208
 10
-480.95129196599999
 20
113.494937998
 30
0.0
 41
4.9900000000000002
 42
2.4950000000000001
 50
90.0
  0
LINE
  5
73E
  8
1
  6
CONTINUOUS
 62
     5
 10
-477.37599348300012
 20
127.194937998
 30
0.0
 11
-477.37599348300012
 21
120.42293799799999
 31
0.0
  0
LINE
  5
73F
  8
1
  6
CONTINUOUS
 62
     5
 10
-502.125993483
 20
103.694937998
 30
0.0
 11
-477.875993483
 21
103.694937998
 31
0.0
  0
LINE
  5
740
  8
1
  6
CONTINUOUS
 62
     5
 10
-526.375993483
 20
103.694937998
 30
0.0
 11
-502.125993483
 21
103.694937998
 31
0.0
  0
LINE
  5
741
  8
1
  6
CENTER
 62
     1
 10
-487.06636767499992
 20
113.494937998
 30
0.0
 11
-461.05527378499988
 21
113.494937998
 31
0.0
  0
LINE
  5
742
  8
1
  6
CONTINUOUS
 62
     5
 10
-477.37599348300012
 20
106.566937998
 30
0.0
 11
-477.37599348300012
 21
104.194937998
 31
0.0
  0
LINE
  5
743
  8
1
  6
CONTINUOUS
 62
     5
 10
-471.76368569800002
 20
119.494937998
 30
0.0
 11
-472.56730671000003
 21
120.42293799799999
 31
0.0
  0
LINE
  5
744
  8
1
  6
CONTINUOUS
 62
     5
 10
-471.76371094799998
 20
107.494937998
 30
0.0
 11
-472.56733195999999
 21
106.566937998
 31
0.0
  0
LINE
  5
745
  8
1
  6
CONTINUOUS
 62
     5
 10
-481.67963542699999
 20
116.958633134
 30
0.0
 11
-478.67963542699988
 21
120.42293799799999
 31
0.0
  0
LINE
  5
746
  8
1
  6
CONTINUOUS
 62
     5
 10
-481.67963542699999
 20
110.031242861
 30
0.0
 11
-478.67964816599988
 21
106.566937998
 31
0.0
  0
LINE
  5
747
  8
1
  6
CONTINUOUS
 62
     5
 10
-481.67963542699999
 20
110.031242861
 30
0.0
 11
-481.67963542699999
 21
116.958633134
 31
0.0
  0
LINE
  5
748
  8
1
  6
CONTINUOUS
 62
     5
 10
-475.56731921999989
 20
110.031242861
 30
0.0
 11
-475.56731921999989
 21
116.958633134
 31
0.0
  0
LINE
  5
749
  8
1
  6
CONTINUOUS
 62
     5
 10
-518.000993483
 20
156.29493799799999
 30
0.0
 11
-510.94266015099998
 21
204.694937998
 31
0.0
  0
LINE
  5
74A
  8
1
  6
CONTINUOUS
 62
     5
 10
-510.22599348300002
 20
145.79493799799999
 30
0.0
 11
-510.22599348300002
 21
154.694937998
 31
0.0
  0
LINE
  5
74B
  8
1
  6
CONTINUOUS
 62
     5
 10
-493.87599348300012
 20
207.43513037700001
 30
0.0
 11
-493.87599348300012
 21
205.01368346000001
 31
0.0
  0
LINE
  5
74C
  8
1
  6
CONTINUOUS
 62
     5
 10
-493.87599348300012
 20
205.01368346000001
 30
0.0
 11
-493.30932681500002
 21
204.694937998
 31
0.0
  0
LINE
  5
74D
  8
1
  6
CONTINUOUS
 62
     5
 10
-493.52599348299998
 20
207.694937998
 30
0.0
 11
-493.87599348300012
 21
207.43513037700001
 31
0.0
  0
LINE
  5
74E
  8
1
  6
CONTINUOUS
 62
     5
 10
-494.02599348299998
 20
224.59493799800001
 30
0.0
 11
-493.52599348299998
 21
224.09493799800001
 31
0.0
  0
LINE
  5
74F
  8
1
  6
CONTINUOUS
 62
     5
 10
-510.94266015099998
 20
204.694937998
 30
0.0
 11
-510.37599348300012
 21
205.01368346000001
 31
0.0
  0
LINE
  5
750
  8
1
  6
CONTINUOUS
 62
     5
 10
-481.67963542699999
 20
110.031242861
 30
0.0
 11
-475.56731921999989
 21
110.031242861
 31
0.0
  0
LINE
  5
751
  8
1
  6
CONTINUOUS
 62
     5
 10
-475.56731921999989
 20
116.958633134
 30
0.0
 11
-481.67963542699999
 21
116.958633134
 31
0.0
  0
LINE
  5
752
  8
1
  6
CONTINUOUS
 62
     5
 10
-475.56731921999989
 20
110.031242861
 30
0.0
 11
-472.56733195999999
 21
106.566937998
 31
0.0
  0
LINE
  5
753
  8
1
  6
CONTINUOUS
 62
     5
 10
-480.95129196599999
 20
118.48493799800001
 30
0.0
 11
-480.3578941909999
 21
118.48493799800001
 31
0.0
  0
LINE
  5
754
  8
1
  6
CONTINUOUS
 62
     5
 10
-510.37599348300012
 20
205.01368346000001
 30
0.0
 11
-510.37599348300012
 21
207.43513037700001
 31
0.0
  0
INSERT
  5
755
  8
1
  6
CONTINUOUS
 62
     5
  2
BLK232
 10
-472.56731922
 20
113.494937998
 30
0.0
 41
6.0
 42
3.0
 50
90.0
  0
LINE
  5
756
  8
1
  6
CONTINUOUS
 62
     5
 10
-472.56730671000003
 20
120.42293799799999
 30
0.0
 11
-478.67962291600003
 21
120.42293799799999
 31
0.0
  0
LINE
  5
757
  8
1
  6
CONTINUOUS
 62
     5
 10
-478.67964816599988
 20
106.566937998
 30
0.0
 11
-472.56733195999999
 21
106.566937998
 31
0.0
  0
INSERT
  5
758
  8
1
  6
CONTINUOUS
 62
     5
  2
BLK235
 10
-481.92039358099998
 20
113.494937998
 30
0.0
 41
6.927999999999999
 42
3.4639999999999991
 50
90.0
  0
INSERT
  5
759
  8
1
  6
CONTINUOUS
 62
     5
  2
BLK236
 10
-481.92039358099998
 20
113.494937998
 30
0.0
 41
6.927999999999999
 42
3.4639999999999991
 50
90.0
  0
LINE
  5
75A
  8
1
  6
CONTINUOUS
 62
     5
 10
-480.95129196599999
 20
108.504937998
 30
0.0
 11
-480.35789980399989
 21
108.504937998
 31
0.0
  0
INSERT
  5
75B
  8
1
  6
CONTINUOUS
 62
     5
  2
BLK238
 10
-468.75680744300001
 20
113.494937998
 30
0.0
 41
3.5
 42
1.75
 50
90.0
  0
INSERT
  5
75C
  8
1
  6
CONTINUOUS
 62
     5
  2
BLK239
 10
-468.75680744300001
 20
113.494937998
 30
0.0
 41
3.5
 42
1.75
 50
90.0
  0
LINE
  5
75D
  8
1
  6
CONTINUOUS
 62
     5
 10
-467.19797228999988
 20
107.744937998
 30
0.0
 11
-465.89893418399998
 21
107.744937998
 31
0.0
  0
LINE
  5
75E
  8
1
  6
CONTINUOUS
 62
     5
 10
-465.89891322800003
 20
119.244937998
 30
0.0
 11
-467.19795133299999
 21
119.244937998
 31
0.0
  0
LINE
  5
75F
  8
1
  6
CONTINUOUS
 62
     5
 10
-468.75679660899988
 20
119.494937998
 30
0.0
 11
-472.56730862699987
 21
119.494937998
 31
0.0
  0
LINE
  5
760
  8
1
  6
CONTINUOUS
 62
     5
 10
-472.56731922
 20
107.494937998
 30
0.0
 11
-468.75681847699991
 21
107.494937998
 31
0.0
  0
INSERT
  5
761
  8
1
  6
CONTINUOUS
 62
     5
  2
BLK244
 10
-470.40225571100001
 20
113.494937998
 30
0.0
 41
6.0
 42
3.0
 50
90.0
  0
INSERT
  5
762
  8
1
  6
CONTINUOUS
 62
     5
  2
BLK245
 10
-468.75680744300001
 20
113.494937998
 30
0.0
 41
6.0
 42
3.0
 50
90.0
  0
INSERT
  5
763
  8
1
  6
CONTINUOUS
 62
     5
  2
BLK246
 10
-467.19796171699988
 20
113.494937998
 30
0.0
 41
5.75
 42
2.875
 50
90.0
  0
INSERT
  5
764
  8
1
  6
CONTINUOUS
 62
     5
  2
BLK247
 10
-465.89892361099999
 20
113.494937998
 30
0.0
 41
5.75
 42
2.875
 50
90.0
  0
INSERT
  5
765
  8
1
  6
CONTINUOUS
 62
     5
  2
BLK248
 10
-465.89892361099999
 20
113.494937998
 30
0.0
 41
3.0
 42
1.5
 50
90.0
  0
LINE
  5
766
  8
1
  6
CONTINUOUS
 62
     5
 10
-502.125993483
 20
66.394937998000003
 30
0.0
 11
-514.47599348300002
 21
66.394937998000003
 31
0.0
  0
LINE
  5
767
  8
1
  6
CONTINUOUS
 62
     5
 10
-502.125993483
 20
66.594937998000006
 30
0.0
 11
-514.62599348299989
 21
66.594937998000006
 31
0.0
  0
LINE
  5
768
  8
1
  6
CONTINUOUS
 62
     5
 10
-503.125993483
 20
38.023435382999999
 30
0.0
 11
-501.125993483
 21
38.023435382999999
 31
0.0
  0
LINE
  5
769
  8
1
  6
CONTINUOUS
 62
     5
 10
-489.77599348299998
 20
66.394937998000003
 30
0.0
 11
-489.67599348300001
 21
66.294937998000009
 31
0.0
  0
LINE
  5
76A
  8
1
  6
CONTINUOUS
 62
     5
 10
-489.67599348300001
 20
66.294937998000009
 30
0.0
 11
-489.67599348300001
 21
63.794937998000002
 31
0.0
  0
LINE
  5
76B
  8
1
  6
CONTINUOUS
 62
     5
 10
-526.875993483
 20
127.194937998
 30
0.0
 11
-526.375993483
 21
127.694937998
 31
0.0
  0
LINE
  5
77C
  8
1
  6
CONTINUOUS
 62
     5
 10
-514.47599348300002
 20
63.694937998
 30
0.0
 11
-514.57599348300005
 21
63.794937998000002
 31
0.0
  0
LINE
  5
77F
  8
1
  6
CONTINUOUS
 62
     5
 10
-190.64006796699999
 20
70.716154126999996
 30
0.0
 11
-162.64006796699999
 21
70.716154126999996
 31
0.0
  0
LINE
  5
780
  8
1
  6
CONTINUOUS
 62
     5
 10
-350.56384179600002
 20
70.716154126999996
 30
0.0
 11
-322.56384179599991
 21
70.716154126999996
 31
0.0
  0
LINE
  5
781
  8
1
  6
CONTINUOUS
 62
     5
 10
-516.125993483
 20
70.716154126999996
 30
0.0
 11
-488.125993483
 21
70.716154126999996
 31
0.0
  0
TEXT
  5
782
  8
1
  6
CONTINUOUS
 62
     2
 10
-474.45380408300002
 20
18.263535491999999
 30
0.0
 40
3.2000000000000002
  1
ＳＭＳ４０１－ＮＴ３０（Ｍ）
 41
0.8668933054393301
 72
     5
 11
-430.25380408299998
 21
18.263535491999999
 31
0.0
  0
TEXT
  5
783
  8
1
  6
CONTINUOUS
 62
     2
 10
-148.96787856700001
 20
18.263535491999999
 30
0.0
 40
3.2000000000000002
  1
ＳＭＳ４０１－ＮＴ４０（Ｍ）
 41
0.8668933054393303
 72
     5
 11
-104.767878567
 21
18.263535491999999
 31
0.0
  0
TEXT
  5
784
  8
1
  6
CONTINUOUS
 62
     2
 10
-308.89165239599998
 20
18.263535491999999
 30
0.0
 40
3.2000000000000002
  1
ＳＭＳ４０１－ＢＴ４０
 41
0.8491492146596867
 72
     5
 11
-274.2916523959999
 21
18.263535491999999
 31
0.0
  0
LINE
  5
785
  8
1
  6
CONTINUOUS
 62
     5
 10
-488.125993483
 20
70.716154126999996
 30
0.0
 11
-489.625993483
 21
66.594937998000006
 31
0.0
  0
TEXT
  5
786
  8
1
  6
CONTINUOUS
 62
     2
 10
-639.43012837699985
 20
18.263535491999999
 30
0.0
 40
3.2000000000000002
  1
ＳＭＳ４０１－ＢＴ３０
 41
0.8491492146596867
 72
     5
 11
-604.83012837699994
 21
18.263535491999999
 31
0.0
  0
LINE
  5
787
  8
1
  6
CONTINUOUS
 62
     5
 10
-502.125993483
 20
127.694937998
 30
0.0
 11
-477.875993483
 21
127.694937998
 31
0.0
  0
LINE
  5
788
  8
1
  6
CONTINUOUS
 62
     5
 10
-526.375993483
 20
127.694937998
 30
0.0
 11
-502.125993483
 21
127.694937998
 31
0.0
  0
LINE
  5
789
  8
1
  6
CONTINUOUS
 62
     5
 10
-499.99057783299997
 20
53.023435382999999
 30
0.0
 11
-504.26140913299997
 21
53.023435382999999
 31
0.0
  0
LINE
  5
78A
  8
1
  6
CONTINUOUS
 62
     5
 10
-508.02599348299998
 20
52.873435383
 30
0.0
 11
-496.22599348300002
 21
52.873435383
 31
0.0
  0
LINE
  5
78B
  8
1
  6
CONTINUOUS
 62
     5
 10
-514.57599348300005
 20
66.294937998000009
 30
0.0
 11
-514.57599348300005
 21
63.794937998000002
 31
0.0
  0
LINE
  5
78C
  8
1
  6
CONTINUOUS
 62
     5
 10
-508.02599348299998
 20
56.173435382999998
 30
0.0
 11
-496.22599348300002
 21
56.173435382999998
 31
0.0
  0
LINE
  5
78D
  8
1
  6
CONTINUOUS
 62
     5
 10
-516.125993483
 20
103.694937998
 30
0.0
 11
-516.125993483
 21
70.716154126999996
 31
0.0
  0
LINE
  5
78E
  8
1
  6
CONTINUOUS
 62
     5
 10
-504.59378601899999
 20
61.194937998
 30
0.0
 11
-499.6582009469999
 21
61.194937998
 31
0.0
  0
LINE
  5
78F
  8
1
  6
CONTINUOUS
 62
     5
 10
-681.10231777800004
 20
70.716154126999996
 30
0.0
 11
-653.10231777800004
 21
70.716154126999996
 31
0.0
  0
POLYLINE
  5
790
  8
1
  6
CONTINUOUS
 62
     4
 66
     1
 10
0.0
 20
0.0
 30
0.0
  0
VERTEX
  5
F45
  8
1
  6
CONTINUOUS
 62
     4
 10
-476.26696777299998
 20
108.37832641599999
 30
0.0
  0
VERTEX
  5
F46
  8
1
  6
CONTINUOUS
 62
     4
 10
-476.16320800800003
 20
107.135101318
 30
0.0
  0
VERTEX
  5
F47
  8
1
  6
CONTINUOUS
 62
     4
 10
-476.05947875999988
 20
105.89186859100001
 30
0.0
  0
VERTEX
  5
F48
  8
1
  6
CONTINUOUS
 62
     4
 10
-475.95571899399988
 20
104.648635864
 30
0.0
  0
VERTEX
  5
F49
  8
1
  6
CONTINUOUS
 62
     4
 10
-475.85195922899987
 20
103.40540313699999
 30
0.0
  0
VERTEX
  5
F4A
  8
1
  6
CONTINUOUS
 62
     4
 10
-475.74819946299999
 20
102.16217041
 30
0.0
  0
VERTEX
  5
F4B
  8
1
  6
CONTINUOUS
 62
     4
 10
-475.64447021500001
 20
100.91894531299999
 30
0.0
  0
VERTEX
  5
F4C
  8
1
  6
CONTINUOUS
 62
     4
 10
-475.54071044900002
 20
99.675712585000014
 30
0.0
  0
VERTEX
  5
F4D
  8
1
  6
CONTINUOUS
 62
     4
 10
-475.4369506839999
 20
98.432479857999994
 30
0.0
  0
VERTEX
  5
F4E
  8
1
  6
CONTINUOUS
 62
     4
 10
-475.33322143599992
 20
97.189247131000016
 30
0.0
  0
VERTEX
  5
F4F
  8
1
  6
CONTINUOUS
 62
     4
 10
-475.22946166999992
 20
95.946022033999995
 30
0.0
  0
VERTEX
  5
F50
  8
1
  6
CONTINUOUS
 62
     4
 10
-475.12570190399998
 20
94.702789307000003
 30
0.0
  0
VERTEX
  5
F51
  8
1
  6
CONTINUOUS
 62
     4
 10
-475.021972656
 20
93.459556579999983
 30
0.0
  0
VERTEX
  5
F52
  8
1
  6
CONTINUOUS
 62
     4
 10
-474.918212891
 20
92.216323852999992
 30
0.0
  0
VERTEX
  5
F53
  8
1
  6
CONTINUOUS
 62
     4
 10
-474.814453125
 20
90.973098754999995
 30
0.0
  0
VERTEX
  5
F54
  8
1
  6
CONTINUOUS
 62
     4
 10
-474.710693359
 20
89.729866027999975
 30
0.0
  0
VERTEX
  5
F55
  8
1
  6
CONTINUOUS
 62
     4
 10
-474.60696411100002
 20
88.486633300999998
 30
0.0
  0
VERTEX
  5
F56
  8
1
  6
CONTINUOUS
 62
     4
 10
-474.5032043459999
 20
87.243400573999992
 30
0.0
  0
VERTEX
  5
F57
  8
1
  6
CONTINUOUS
 62
     4
 10
-474.39944458000002
 20
86.000167847000014
 30
0.0
  0
VERTEX
  5
F58
  8
1
  6
CONTINUOUS
 62
     4
 10
-474.29571533199987
 20
84.756942748999975
 30
0.0
  0
VERTEX
  5
F59
  8
1
  6
CONTINUOUS
 62
     4
 10
-474.19195556599999
 20
83.513710021999998
 30
0.0
  0
VERTEX
  5
F5A
  8
1
  6
CONTINUOUS
 62
     4
 10
-474.08819580099998
 20
82.270477295000006
 30
0.0
  0
VERTEX
  5
F5B
  8
1
  6
CONTINUOUS
 62
     4
 10
-473.98443603499999
 20
81.027244568
 30
0.0
  0
VERTEX
  5
F5C
  8
1
  6
CONTINUOUS
 62
     4
 10
-473.88070678699989
 20
79.784019470000004
 30
0.0
  0
VERTEX
  5
F5D
  8
1
  6
CONTINUOUS
 62
     4
 10
-473.7769470209999
 20
78.540786742999998
 30
0.0
  0
VERTEX
  5
F5E
  8
1
  6
CONTINUOUS
 62
     4
 10
-473.67318725600001
 20
77.297554016000007
 30
0.0
  0
VERTEX
  5
F5F
  8
1
  6
CONTINUOUS
 62
     4
 10
-473.56945800800003
 20
76.054321289000001
 30
0.0
  0
VERTEX
  5
F60
  8
1
  6
CONTINUOUS
 62
     4
 10
-473.46569824199992
 20
74.811096191000004
 30
0.0
  0
VERTEX
  5
F61
  8
1
  6
CONTINUOUS
 62
     4
 10
-473.36193847699991
 20
73.567863463999984
 30
0.0
  0
VERTEX
  5
F62
  8
1
  6
CONTINUOUS
 62
     4
 10
-473.25817871099991
 20
72.324630736999993
 30
0.0
  0
VERTEX
  5
F63
  8
1
  6
CONTINUOUS
 62
     4
 10
-473.15444946299999
 20
71.081398010000001
 30
0.0
  0
VERTEX
  5
F64
  8
1
  6
CONTINUOUS
 62
     4
 10
-473.05068969699988
 20
69.838165282999995
 30
0.0
  0
VERTEX
  5
F65
  8
1
  6
CONTINUOUS
 62
     4
 10
-472.94692993199988
 20
68.594940186000002
 30
0.0
  0
VERTEX
  5
F66
  8
1
  6
CONTINUOUS
 62
     4
 10
-471.79049682599998
 20
68.594940186000002
 30
0.0
  0
VERTEX
  5
F67
  8
1
  6
CONTINUOUS
 62
     4
 10
-470.634033203
 20
68.594940186000002
 30
0.0
  0
VERTEX
  5
F68
  8
1
  6
CONTINUOUS
 62
     4
 10
-469.47756958000002
 20
68.594940186000002
 30
0.0
  0
VERTEX
  5
F69
  8
1
  6
CONTINUOUS
 62
     4
 10
-468.32110595699987
 20
68.594940186000002
 30
0.0
  0
VERTEX
  5
F6A
  8
1
  6
CONTINUOUS
 62
     4
 10
-467.16464233400001
 20
68.594940186000002
 30
0.0
  0
VERTEX
  5
F6B
  8
1
  6
CONTINUOUS
 62
     4
 10
-466.00817871100003
 20
68.594940186000002
 30
0.0
  0
VERTEX
  5
F6C
  8
1
  6
CONTINUOUS
 62
     4
 10
-464.85174560500002
 20
68.594940186000002
 30
0.0
  0
VERTEX
  5
F6D
  8
1
  6
CONTINUOUS
 62
     4
 10
-463.69528198199998
 20
68.594940186000002
 30
0.0
  0
VERTEX
  5
F6E
  8
1
  6
CONTINUOUS
 62
     4
 10
-462.538818359
 20
68.594940186000002
 30
0.0
  0
VERTEX
  5
F6F
  8
1
  6
CONTINUOUS
 62
     4
 10
-461.38235473599991
 20
68.594940186000002
 30
0.0
  0
VERTEX
  5
F70
  8
1
  6
CONTINUOUS
 62
     4
 10
-460.22589111299999
 20
68.594940186000002
 30
0.0
  0
VERTEX
  5
F71
  8
1
  6
CONTINUOUS
 62
     4
 10
-459.06945800800003
 20
68.594940186000002
 30
0.0
  0
VERTEX
  5
F72
  8
1
  6
CONTINUOUS
 62
     4
 10
-457.91299438499988
 20
68.594940186000002
 30
0.0
  0
VERTEX
  5
F73
  8
1
  6
CONTINUOUS
 62
     4
 10
-456.7565307619999
 20
68.594940186000002
 30
0.0
  0
VERTEX
  5
F74
  8
1
  6
CONTINUOUS
 62
     4
 10
-455.60006713899998
 20
68.594940186000002
 30
0.0
  0
VERTEX
  5
F75
  8
1
  6
CONTINUOUS
 62
     4
 10
-454.443603516
 20
68.594940186000002
 30
0.0
  0
VERTEX
  5
F76
  8
1
  6
CONTINUOUS
 62
     4
 10
-453.28713989300002
 20
68.594940186000002
 30
0.0
  0
VERTEX
  5
F77
  8
1
  6
CONTINUOUS
 62
     4
 10
-452.13070678699989
 20
68.594940186000002
 30
0.0
  0
VERTEX
  5
F78
  8
1
  6
CONTINUOUS
 62
     4
 10
-450.97424316399997
 20
68.594940186000002
 30
0.0
  0
VERTEX
  5
F79
  8
1
  6
CONTINUOUS
 62
     4
 10
-449.81777954099999
 20
68.594940186000002
 30
0.0
  0
VERTEX
  5
F7A
  8
1
  6
CONTINUOUS
 62
     4
 10
-448.66131591800001
 20
68.594940186000002
 30
0.0
  0
VERTEX
  5
F7B
  8
1
  6
CONTINUOUS
 62
     4
 10
-447.50485229499992
 20
68.594940186000002
 30
0.0
  0
VERTEX
  5
F7C
  8
1
  6
CONTINUOUS
 62
     4
 10
-446.34841918900003
 20
68.594940186000002
 30
0.0
  0
VERTEX
  5
F7D
  8
1
  6
CONTINUOUS
 62
     4
 10
-445.19195556599988
 20
68.594940186000002
 30
0.0
  0
VERTEX
  5
F7E
  8
1
  6
CONTINUOUS
 62
     4
 10
-444.0354919429999
 20
68.594940186000002
 30
0.0
  0
VERTEX
  5
F7F
  8
1
  6
CONTINUOUS
 62
     4
 10
-442.87902831999992
 20
68.594940186000002
 30
0.0
  0
VERTEX
  5
F80
  8
1
  6
CONTINUOUS
 62
     4
 10
-441.722564697
 20
68.594940186000002
 30
0.0
  0
VERTEX
  5
F81
  8
1
  6
CONTINUOUS
 62
     4
 10
-440.56610107400002
 20
68.594940186000002
 30
0.0
  0
VERTEX
  5
F82
  8
1
  6
CONTINUOUS
 62
     4
 10
-439.409667969
 20
68.594940186000002
 30
0.0
  0
VERTEX
  5
F83
  8
1
  6
CONTINUOUS
 62
     4
 10
-438.2532043459999
 20
68.594940186000002
 30
0.0
  0
VERTEX
  5
F84
  8
1
  6
CONTINUOUS
 62
     4
 10
-437.09674072299998
 20
68.594940186000002
 30
0.0
  0
VERTEX
  5
F85
  8
1
  6
CONTINUOUS
 62
     4
 10
-435.9402771
 20
68.594940186000002
 30
0.0
  0
SEQEND
  5
F86
  8
1
  6
CONTINUOUS
 62
     4
  0
POLYLINE
  5
7D3
  8
1
  6
CONTINUOUS
 62
     4
 66
     1
 10
0.0
 20
0.0
 30
0.0
  0
VERTEX
  5
F87
  8
1
  6
CONTINUOUS
 62
     4
 10
-475.80167944099992
 20
106.41020376500001
 30
0.0
  0
VERTEX
  5
F88
  8
1
  6
CONTINUOUS
 62
     4
 10
-476.26696777299998
 20
108.37832641599999
 30
0.0
  0
VERTEX
  5
F89
  8
1
  6
CONTINUOUS
 62
     4
 10
-476.39960097599987
 20
106.360305496
 30
0.0
  0
SEQEND
  5
F8A
  8
1
  6
CONTINUOUS
 62
     4
  0
LINE
  5
7D9
  8
1
  6
CONTINUOUS
 62
     5
 10
-477.875993483
 20
127.694937998
 30
0.0
 11
-477.37599348300012
 21
127.194937998
 31
0.0
  0
DIMENSION
  5
7DA
  8
1
  6
CONTINUOUS
 62
     4
  2
*D36
 10
-413.33942211300001
 20
49.023435382999999
 30
0.0
 11
-414.02240187299998
 21
101.760173528
 31
0.0
 13
-480.125993483
 23
154.694937998
 33
0.0
 14
-425.77400230299997
 24
49.023435382999999
 34
0.0
 50
90.0
  0
DIMENSION
  5
7DB
  8
1
  6
CONTINUOUS
 62
     4
  2
*D37
 10
-425.77400230299997
 20
49.023435382999999
 30
0.0
 11
-425.88550636799999
 21
56.248385577999997
 31
0.0
 13
-425.77400230299997
 23
63.694937998
 33
0.0
 14
-498.70334375200002
 24
49.023435382999999
 34
0.0
 50
90.0
  0
DIMENSION
  5
7DC
  8
1
  6
CONTINUOUS
 62
     4
  2
*D38
 10
-438.372622853
 20
103.694937998
 30
0.0
 11
-438.372622853
 21
129.194937998
 31
0.0
 13
-480.125993483
 23
154.694937998
 33
0.0
 14
-477.875993483
 24
103.694937998
 34
0.0
 50
90.0
  0
DIMENSION
  5
7DD
  8
1
  6
CONTINUOUS
 62
     4
  2
*D39
 10
-526.875993483
 20
254.554938394
 30
0.0
 11
-502.125993483
 21
254.554938394
 31
0.0
 70
     1
 13
-477.37599348300012
 23
127.194937998
 33
0.0
 14
-526.875993483
 24
127.194937998
 34
0.0
  0
DIMENSION
  5
7DE
  8
1
  6
CONTINUOUS
 62
     4
  2
*D40
 10
-425.77400230299997
 20
154.694937998
 30
0.0
 11
-425.77400230299997
 21
109.194937998
 31
0.0
 13
-489.77599348299998
 23
63.694937998
 33
0.0
 14
-480.125993483
 24
154.694937998
 34
0.0
 50
90.0
  0
LINE
  5
7DF
  8
1
  6
CONTINUOUS
 62
     5
 10
-475.56731921999989
 20
116.958633134
 30
0.0
 11
-472.56731922
 21
120.42293799799999
 31
0.0
  0
LINE
  5
7E0
  8
1
  6
CENTER
 62
     1
 10
-502.125993483
 20
34.188416518000011
 30
0.0
 11
-502.125993483
 21
228.499963713
 31
0.0
  0
LINE
  5
7E1
  8
1
  6
CONTINUOUS
 62
     5
 10
-526.375993483
 20
103.694937998
 30
0.0
 11
-526.875993483
 21
104.194937998
 31
0.0
  0
LINE
  5
7E2
  8
1
  6
CONTINUOUS
 62
     5
 10
-516.125993483
 20
70.716154126999996
 30
0.0
 11
-514.62599348299989
 21
66.594937998000006
 31
0.0
  0
LINE
  5
7E3
  8
1
  6
CONTINUOUS
 62
     5
 10
-514.47599348300002
 20
66.394937998000003
 30
0.0
 11
-514.57599348300005
 21
66.294937998000009
 31
0.0
  0
LINE
  5
7E4
  8
1
  6
CONTINUOUS
 62
     5
 10
-503.625993483
 20
38.523435382999999
 30
0.0
 11
-503.625993483
 21
49.023435382999999
 31
0.0
  0
LINE
  5
7E5
  8
1
  6
CONTINUOUS
 62
     5
 10
-500.625993483
 20
49.023435382999999
 30
0.0
 11
-500.625993483
 21
38.523435382999999
 31
0.0
  0
LINE
  5
7E6
  8
1
  6
CONTINUOUS
 62
     5
 10
-514.47599348300002
 20
63.694937998
 30
0.0
 11
-502.125993483
 21
63.694937998
 31
0.0
  0
LINE
  5
7E7
  8
1
  6
CONTINUOUS
 62
     5
 10
-488.125993483
 20
103.694937998
 30
0.0
 11
-488.125993483
 21
70.716154126999996
 31
0.0
  0
LINE
  5
7E8
  8
1
  6
CONTINUOUS
 62
     4
 10
-504.59378601899999
 20
63.694937998
 30
0.0
 11
-504.59378601899999
 21
61.194937998
 31
0.0
  0
DIMENSION
  5
7E9
  8
1
  6
CONTINUOUS
 62
     4
  2
*D41
 10
-401.37665361900002
 20
224.59493799800001
 30
0.0
 11
-401.37665361900002
 21
136.80918668999999
 31
0.0
 13
-425.77400230299997
 23
49.023435382999999
 33
0.0
 14
-424.8454549409999
 24
224.59493799800001
 34
0.0
 50
90.0
  0
LINE
  5
7EA
  8
1
  6
CONTINUOUS
 62
     5
 10
-506.82599348299999
 20
60.523435382999999
 30
0.0
 11
-506.82599348299999
 21
63.694937998
 31
0.0
  0
DIMENSION
  5
7EB
  8
1
  6
CONTINUOUS
 62
     4
  2
*D42
 10
-201.39006796699999
 20
11.262101766000001
 30
0.0
 11
-176.64006796699999
 21
11.262101766000001
 31
0.0
 70
     1
 13
-151.89006796699999
 23
104.194937998
 33
0.0
 14
-201.39006796699999
 24
104.194937998
 34
0.0
  0
LINE
  5
7EC
  8
1
  6
CONTINUOUS
 62
     5
 10
-497.42599348300001
 20
60.523435382999999
 30
0.0
 11
-497.42599348300001
 21
63.694937998
 31
0.0
  0
DIMENSION
  5
7ED
  8
1
  6
CONTINUOUS
 62
     4
  2
*D43
 10
-488.125993483
 20
25.487160512999999
 30
0.0
 11
-502.125993483
 21
25.487160512999999
 31
0.0
 70
     1
 13
-516.125993483
 23
70.716154126999996
 33
0.0
 14
-488.125993483
 24
70.716154126999996
 34
0.0
  0
LINE
  5
7EE
  8
1
  6
CONTINUOUS
 62
     5
 10
-489.77599348299998
 20
63.694937998
 30
0.0
 11
-502.125993483
 21
63.694937998
 31
0.0
  0
LINE
  5
7EF
  8
1
  6
CONTINUOUS
 62
     5
 10
-184.74006796699999
 20
127.694937998
 30
0.0
 11
-184.74006796699999
 21
140.694937998
 31
0.0
  0
LINE
  5
7F0
  8
1
  6
CONTINUOUS
 62
     5
 10
-168.540067967
 20
127.694937998
 30
0.0
 11
-168.540067967
 21
140.694937998
 31
0.0
  0
LINE
  5
7F1
  8
1
  6
CONTINUOUS
 62
     5
 10
-505.54864321399998
 20
49.023435382999999
 30
0.0
 11
-498.70334375200002
 21
49.023435382999999
 31
0.0
  0
LINE
  5
7F2
  8
1
  6
CONTINUOUS
 62
     5
 10
-176.64006796699999
 20
66.394937998000003
 30
0.0
 11
-164.290067967
 21
66.394937998000003
 31
0.0
  0
POLYLINE
  5
7F3
  8
1
  6
CONTINUOUS
 62
     4
 66
     1
 10
0.0
 20
0.0
 30
0.0
  0
VERTEX
  5
F8B
  8
1
  6
CONTINUOUS
 62
     4
 10
-133.79547119099999
 20
123.687065125
 30
0.0
  0
VERTEX
  5
F8C
  8
1
  6
CONTINUOUS
 62
     4
 10
-134.009033203
 20
124.465438843
 30
0.0
  0
VERTEX
  5
F8D
  8
1
  6
CONTINUOUS
 62
     4
 10
-134.22259521500001
 20
125.243804932
 30
0.0
  0
VERTEX
  5
F8E
  8
1
  6
CONTINUOUS
 62
     4
 10
-134.436157227
 20
126.02217865
 30
0.0
  0
VERTEX
  5
F8F
  8
1
  6
CONTINUOUS
 62
     4
 10
-134.64971923799999
 20
126.800552368
 30
0.0
  0
VERTEX
  5
F90
  8
1
  6
CONTINUOUS
 62
     4
 10
-134.86328125
 20
127.578918457
 30
0.0
  0
VERTEX
  5
F91
  8
1
  6
CONTINUOUS
 62
     4
 10
-135.07684326200001
 20
128.35728454599999
 30
0.0
  0
VERTEX
  5
F92
  8
1
  6
CONTINUOUS
 62
     4
 10
-135.290405273
 20
129.135665894
 30
0.0
  0
VERTEX
  5
F93
  8
1
  6
CONTINUOUS
 62
     4
 10
-135.50396728499999
 20
129.91403198200001
 30
0.0
  0
VERTEX
  5
F94
  8
1
  6
CONTINUOUS
 62
     4
 10
-135.717529297
 20
130.69239807100001
 30
0.0
  0
VERTEX
  5
F95
  8
1
  6
CONTINUOUS
 62
     4
 10
-135.93109130900001
 20
131.470779419
 30
0.0
  0
VERTEX
  5
F96
  8
1
  6
CONTINUOUS
 62
     4
 10
-136.14465332
 20
132.249145508
 30
0.0
  0
VERTEX
  5
F97
  8
1
  6
CONTINUOUS
 62
     4
 10
-136.35821533199999
 20
133.027511597
 30
0.0
  0
VERTEX
  5
F98
  8
1
  6
CONTINUOUS
 62
     4
 10
-136.571777344
 20
133.80589294399999
 30
0.0
  0
VERTEX
  5
F99
  8
1
  6
CONTINUOUS
 62
     4
 10
-136.78533935499999
 20
134.584259033
 30
0.0
  0
VERTEX
  5
F9A
  8
1
  6
CONTINUOUS
 62
     4
 10
-136.998901367
 20
135.362625122
 30
0.0
  0
VERTEX
  5
F9B
  8
1
  6
CONTINUOUS
 62
     4
 10
-137.21246337900001
 20
136.14100647000001
 30
0.0
  0
VERTEX
  5
F9C
  8
1
  6
CONTINUOUS
 62
     4
 10
-137.426025391
 20
136.91937255900001
 30
0.0
  0
VERTEX
  5
F9D
  8
1
  6
CONTINUOUS
 62
     4
 10
-137.63958740199999
 20
137.69773864699999
 30
0.0
  0
VERTEX
  5
F9E
  8
1
  6
CONTINUOUS
 62
     4
 10
-137.853149414
 20
138.476119995
 30
0.0
  0
VERTEX
  5
F9F
  8
1
  6
CONTINUOUS
 62
     4
 10
-138.06671142600001
 20
139.25448608400001
 30
0.0
  0
VERTEX
  5
FA0
  8
1
  6
CONTINUOUS
 62
     4
 10
-138.28027343799999
 20
140.03285217300001
 30
0.0
  0
VERTEX
  5
FA1
  8
1
  6
CONTINUOUS
 62
     4
 10
-138.49383544899999
 20
140.81123352099999
 30
0.0
  0
VERTEX
  5
FA2
  8
1
  6
CONTINUOUS
 62
     4
 10
-138.707397461
 20
141.589599609
 30
0.0
  0
VERTEX
  5
FA3
  8
1
  6
CONTINUOUS
 62
     4
 10
-138.92095947300001
 20
142.36796569800001
 30
0.0
  0
VERTEX
  5
FA4
  8
1
  6
CONTINUOUS
 62
     4
 10
-139.134521484
 20
143.14634704599999
 30
0.0
  0
VERTEX
  5
FA5
  8
1
  6
CONTINUOUS
 62
     4
 10
-139.34808349599999
 20
143.92471313499999
 30
0.0
  0
VERTEX
  5
FA6
  8
1
  6
CONTINUOUS
 62
     4
 10
-139.561645508
 20
144.70307922399999
 30
0.0
  0
VERTEX
  5
FA7
  8
1
  6
CONTINUOUS
 62
     4
 10
-139.77520752000001
 20
145.48146057100001
 30
0.0
  0
VERTEX
  5
FA8
  8
1
  6
CONTINUOUS
 62
     4
 10
-139.988769531
 20
146.25982665999999
 30
0.0
  0
VERTEX
  5
FA9
  8
1
  6
CONTINUOUS
 62
     4
 10
-140.20233154300001
 20
147.03819274899999
 30
0.0
  0
VERTEX
  5
FAA
  8
1
  6
CONTINUOUS
 62
     4
 10
-140.415893555
 20
147.816574097
 30
0.0
  0
VERTEX
  5
FAB
  8
1
  6
CONTINUOUS
 62
     4
 10
-140.62945556599999
 20
148.594940186
 30
0.0
  0
VERTEX
  5
FAC
  8
1
  6
CONTINUOUS
 62
     4
 10
-139.900390625
 20
148.594940186
 30
0.0
  0
VERTEX
  5
FAD
  8
1
  6
CONTINUOUS
 62
     4
 10
-139.171340942
 20
148.594940186
 30
0.0
  0
VERTEX
  5
FAE
  8
1
  6
CONTINUOUS
 62
     4
 10
-138.44229125999999
 20
148.594940186
 30
0.0
  0
VERTEX
  5
FAF
  8
1
  6
CONTINUOUS
 62
     4
 10
-137.71322631800001
 20
148.594940186
 30
0.0
  0
VERTEX
  5
FB0
  8
1
  6
CONTINUOUS
 62
     4
 10
-136.984176636
 20
148.594940186
 30
0.0
  0
VERTEX
  5
FB1
  8
1
  6
CONTINUOUS
 62
     4
 10
-136.25511169399999
 20
148.594940186
 30
0.0
  0
VERTEX
  5
FB2
  8
1
  6
CONTINUOUS
 62
     4
 10
-135.52606201200001
 20
148.594940186
 30
0.0
  0
VERTEX
  5
FB3
  8
1
  6
CONTINUOUS
 62
     4
 10
-134.79701232900001
 20
148.594940186
 30
0.0
  0
VERTEX
  5
FB4
  8
1
  6
CONTINUOUS
 62
     4
 10
-134.06794738799999
 20
148.594940186
 30
0.0
  0
VERTEX
  5
FB5
  8
1
  6
CONTINUOUS
 62
     4
 10
-133.33889770499999
 20
148.594940186
 30
0.0
  0
VERTEX
  5
FB6
  8
1
  6
CONTINUOUS
 62
     4
 10
-132.60984802199999
 20
148.594940186
 30
0.0
  0
VERTEX
  5
FB7
  8
1
  6
CONTINUOUS
 62
     4
 10
-131.880783081
 20
148.594940186
 30
0.0
  0
VERTEX
  5
FB8
  8
1
  6
CONTINUOUS
 62
     4
 10
-131.151733398
 20
148.594940186
 30
0.0
  0
VERTEX
  5
FB9
  8
1
  6
CONTINUOUS
 62
     4
 10
-130.42266845699999
 20
148.594940186
 30
0.0
  0
VERTEX
  5
FBA
  8
1
  6
CONTINUOUS
 62
     4
 10
-129.69361877399999
 20
148.594940186
 30
0.0
  0
VERTEX
  5
FBB
  8
1
  6
CONTINUOUS
 62
     4
 10
-128.964569092
 20
148.594940186
 30
0.0
  0
VERTEX
  5
FBC
  8
1
  6
CONTINUOUS
 62
     4
 10
-128.23550415
 20
148.594940186
 30
0.0
  0
VERTEX
  5
FBD
  8
1
  6
CONTINUOUS
 62
     4
 10
-127.506454468
 20
148.594940186
 30
0.0
  0
VERTEX
  5
FBE
  8
1
  6
CONTINUOUS
 62
     4
 10
-126.77739715600001
 20
148.594940186
 30
0.0
  0
VERTEX
  5
FBF
  8
1
  6
CONTINUOUS
 62
     4
 10
-126.048339844
 20
148.594940186
 30
0.0
  0
VERTEX
  5
FC0
  8
1
  6
CONTINUOUS
 62
     4
 10
-125.319282532
 20
148.594940186
 30
0.0
  0
VERTEX
  5
FC1
  8
1
  6
CONTINUOUS
 62
     4
 10
-124.590232849
 20
148.594940186
 30
0.0
  0
VERTEX
  5
FC2
  8
1
  6
CONTINUOUS
 62
     4
 10
-123.86117553699999
 20
148.594940186
 30
0.0
  0
VERTEX
  5
FC3
  8
1
  6
CONTINUOUS
 62
     4
 10
-123.132118225
 20
148.594940186
 30
0.0
  0
VERTEX
  5
FC4
  8
1
  6
CONTINUOUS
 62
     4
 10
-122.403060913
 20
148.594940186
 30
0.0
  0
VERTEX
  5
FC5
  8
1
  6
CONTINUOUS
 62
     4
 10
-121.674003601
 20
148.594940186
 30
0.0
  0
VERTEX
  5
FC6
  8
1
  6
CONTINUOUS
 62
     4
 10
-120.944953918
 20
148.594940186
 30
0.0
  0
VERTEX
  5
FC7
  8
1
  6
CONTINUOUS
 62
     4
 10
-120.215896606
 20
148.594940186
 30
0.0
  0
VERTEX
  5
FC8
  8
1
  6
CONTINUOUS
 62
     4
 10
-119.48683929400001
 20
148.594940186
 30
0.0
  0
VERTEX
  5
FC9
  8
1
  6
CONTINUOUS
 62
     4
 10
-118.757781982
 20
148.594940186
 30
0.0
  0
VERTEX
  5
FCA
  8
1
  6
CONTINUOUS
 62
     4
 10
-118.0287323
 20
148.594940186
 30
0.0
  0
VERTEX
  5
FCB
  8
1
  6
CONTINUOUS
 62
     4
 10
-117.29967498800001
 20
148.594940186
 30
0.0
  0
SEQEND
  5
FCC
  8
1
  6
CONTINUOUS
 62
     4
  0
POLYLINE
  5
836
  8
1
  6
CONTINUOUS
 62
     4
 66
     1
 10
0.0
 20
0.0
 30
0.0
  0
VERTEX
  5
FCD
  8
1
  6
CONTINUOUS
 62
     4
 10
-134.613963308
 20
125.536408428
 30
0.0
  0
VERTEX
  5
FCE
  8
1
  6
CONTINUOUS
 62
     4
 10
-133.79547119099999
 20
123.687065125
 30
0.0
  0
VERTEX
  5
FCF
  8
1
  6
CONTINUOUS
 62
     4
 10
-134.035347038
 20
125.695163623
 30
0.0
  0
SEQEND
  5
FD0
  8
1
  6
CONTINUOUS
 62
     4
  0
TEXT
  5
83B
  8
1
  6
CONTINUOUS
 62
     4
 10
-139.97320303999999
 20
149.4949379979999
 30
0.0
 40
3.0
  1
消音器１／８
 41
0.7537128712871279
 72
     5
 11
-124.74820304000001
 21
149.4949379979999
 31
0.0
  0
LINE
  5
83C
  8
1
  6
CONTINUOUS
 62
     5
 10
-189.11506796699999
 20
212.694937998
 30
0.0
 11
-189.11506796699999
 21
235.09493799800001
 31
0.0
  0
INSERT
  5
83D
  8
1
  6
CONTINUOUS
 62
     5
  2
BLK322
 10
-155.46536645
 20
113.494937998
 30
0.0
 41
4.9900000000000002
 42
2.4950000000000001
 50
90.0
  0
DIMENSION
  5
83E
  8
1
  6
CONTINUOUS
 62
     4
  2
*D45
 10
-75.890728101999997
 20
235.59493799800001
 30
0.0
 11
-75.890728101999997
 21
142.30918668999999
 31
0.0
 13
-100.28807678699999
 23
49.023435382999999
 33
0.0
 14
-164.665067967
 24
235.59493799800001
 34
0.0
 50
90.0
  0
LINE
  5
83F
  8
1
  6
CONTINUOUS
 62
     5
 10
-151.89006796699999
 20
127.194937998
 30
0.0
 11
-151.89006796699999
 21
120.42293799799999
 31
0.0
  0
LINE
  5
840
  8
1
  6
CONTINUOUS
 62
     5
 10
-188.61506796699999
 20
235.59493799800001
 30
0.0
 11
-164.665067967
 21
235.59493799800001
 31
0.0
  0
LINE
  5
841
  8
1
  6
CONTINUOUS
 62
     5
 10
-176.64006796699999
 20
103.694937998
 30
0.0
 11
-152.39006796699999
 21
103.694937998
 31
0.0
  0
DIMENSION
  5
842
  8
1
  6
CONTINUOUS
 62
     4
  2
*D46
 10
-112.886697337
 20
103.694937998
 30
0.0
 11
-112.886697337
 21
122.194937998
 31
0.0
 13
-146.14006796699999
 23
140.694937998
 33
0.0
 14
-152.39006796699999
 24
103.694937998
 34
0.0
 50
90.0
  0
DIMENSION
  5
843
  8
1
  6
CONTINUOUS
 62
     4
  2
*D47
 10
-87.853496597000003
 20
49.023435382999999
 30
0.0
 11
-88.321633234999993
 21
95.460026032999991
 31
0.0
 13
-146.14006796699999
 23
140.694937998
 33
0.0
 14
-100.28807678699999
 24
49.023435382999999
 34
0.0
 50
90.0
  0
DIMENSION
  5
844
  8
1
  6
CONTINUOUS
 62
     4
  2
*D48
 10
-100.28807678699999
 20
49.023435382999999
 30
0.0
 11
-100.08300986
 21
56.248385577999997
 31
0.0
 13
-100.28807678699999
 23
63.694937998
 33
0.0
 14
-173.21741823599999
 24
49.023435382999999
 34
0.0
 50
90.0
  0
LINE
  5
845
  8
1
  6
CONTINUOUS
 62
     5
 10
-507.875993483
 20
56.023435382999999
 30
0.0
 11
-508.02599348299998
 21
56.173435382999998
 31
0.0
  0
LINE
  5
846
  8
1
  6
CONTINUOUS
 62
     5
 10
-200.89006796699999
 20
103.694937998
 30
0.0
 11
-176.64006796699999
 21
103.694937998
 31
0.0
  0
LINE
  5
847
  8
1
  6
CENTER
 62
     1
 10
-161.58044215800001
 20
113.494937998
 30
0.0
 11
-135.56934826899999
 21
113.494937998
 31
0.0
  0
LINE
  5
848
  8
1
  6
CONTINUOUS
 62
     5
 10
-151.89006796699999
 20
106.566937998
 30
0.0
 11
-151.89006796699999
 21
104.194937998
 31
0.0
  0
LINE
  5
849
  8
1
  6
CONTINUOUS
 62
     5
 10
-146.27776018200001
 20
119.494937998
 30
0.0
 11
-147.08138119399999
 21
120.42293799799999
 31
0.0
  0
LINE
  5
84A
  8
1
  6
CONTINUOUS
 62
     5
 10
-146.277785432
 20
107.494937998
 30
0.0
 11
-147.08140644299999
 21
106.566937998
 31
0.0
  0
LINE
  5
84B
  8
1
  6
CONTINUOUS
 62
     5
 10
-156.19370991100001
 20
116.958633134
 30
0.0
 11
-153.19370991100001
 21
120.42293799799999
 31
0.0
  0
LINE
  5
84C
  8
1
  6
CONTINUOUS
 62
     5
 10
-156.19370991100001
 20
110.031242861
 30
0.0
 11
-153.19372265000001
 21
106.566937998
 31
0.0
  0
LINE
  5
84D
  8
1
  6
CONTINUOUS
 62
     5
 10
-156.19370991100001
 20
110.031242861
 30
0.0
 11
-156.19370991100001
 21
116.958633134
 31
0.0
  0
LINE
  5
84E
  8
1
  6
CONTINUOUS
 62
     5
 10
-150.08139370399999
 20
110.031242861
 30
0.0
 11
-150.08139370399999
 21
116.958633134
 31
0.0
  0
LINE
  5
84F
  8
1
  6
CENTER
 62
     1
 10
-176.64006796699999
 20
34.816770463000012
 30
0.0
 11
-176.64006796699999
 21
241.09367260400001
 31
0.0
  0
LINE
  5
850
  8
1
  6
CONTINUOUS
 62
     5
 10
-156.19370991100001
 20
110.031242861
 30
0.0
 11
-150.08139370399999
 21
110.031242861
 31
0.0
  0
LINE
  5
851
  8
1
  6
CONTINUOUS
 62
     5
 10
-150.08139370399999
 20
116.958633134
 30
0.0
 11
-156.19370991100001
 21
116.958633134
 31
0.0
  0
DIMENSION
  5
852
  8
1
  6
CONTINUOUS
 62
     4
  2
*D49
 10
-100.28807678699999
 20
140.694937998
 30
0.0
 11
-100.384347273
 21
101.909383374
 31
0.0
 13
-164.290067967
 23
63.694937998
 33
0.0
 14
-146.14006796699999
 24
140.694937998
 34
0.0
 50
90.0
  0
LINE
  5
853
  8
1
  6
CONTINUOUS
 62
     5
 10
-152.39006796699999
 20
127.694937998
 30
0.0
 11
-151.89006796699999
 21
127.194937998
 31
0.0
  0
LINE
  5
854
  8
1
  6
CONTINUOUS
 62
     5
 10
-504.26140913299997
 20
53.023435382999999
 30
0.0
 11
-507.875993483
 21
53.023435382999999
 31
0.0
  0
LINE
  5
855
  8
1
  6
CONTINUOUS
 62
     5
 10
-151.89006796699999
 20
104.194937998
 30
0.0
 11
-152.39006796699999
 21
103.694937998
 31
0.0
  0
LINE
  5
856
  8
1
  6
CONTINUOUS
 62
     5
 10
-508.02599348299998
 20
52.873435383
 30
0.0
 11
-508.02599348299998
 21
52.582281108999993
 31
0.0
  0
LINE
  5
857
  8
1
  6
CONTINUOUS
 62
     5
 10
-150.08139370399999
 20
110.031242861
 30
0.0
 11
-147.08140644299999
 21
106.566937998
 31
0.0
  0
LINE
  5
858
  8
1
  6
CONTINUOUS
 62
     5
 10
-155.46536645
 20
118.48493799800001
 30
0.0
 11
-154.87196867500001
 21
118.48493799800001
 31
0.0
  0
INSERT
  5
859
  8
1
  6
CONTINUOUS
 62
     5
  2
BLK350
 10
-147.08139370399999
 20
113.494937998
 30
0.0
 41
6.0
 42
3.0
 50
90.0
  0
LINE
  5
85A
  8
1
  6
CONTINUOUS
 62
     5
 10
-147.08138119399999
 20
120.42293799799999
 30
0.0
 11
-153.19369739999999
 21
120.42293799799999
 31
0.0
  0
LINE
  5
85B
  8
1
  6
CONTINUOUS
 62
     5
 10
-153.19372265000001
 20
106.566937998
 30
0.0
 11
-147.08140644299999
 21
106.566937998
 31
0.0
  0
LINE
  5
85C
  8
1
  6
CONTINUOUS
 62
     5
 10
-174.504652316
 20
53.173435383000012
 30
0.0
 11
-171.14006796699999
 21
53.173435383000012
 31
0.0
  0
LINE
  5
85D
  8
1
  6
CONTINUOUS
 62
     5
 10
-200.89006796699999
 20
127.694937998
 30
0.0
 11
-176.64006796699999
 21
127.694937998
 31
0.0
  0
LINE
  5
85E
  8
1
  6
CONTINUOUS
 62
     5
 10
-176.64006796699999
 20
127.694937998
 30
0.0
 11
-146.14006796699999
 21
127.694937998
 31
0.0
  0
INSERT
  5
85F
  8
1
  6
CONTINUOUS
 62
     5
  2
BLK356
 10
-454.71110262600001
 20
118.894937998
 30
0.0
 41
8.0
 42
4.0
 50
90.0
  0
INSERT
  5
860
  8
1
  6
CONTINUOUS
 62
     5
  2
BLK357
 10
-156.434468065
 20
113.494937998
 30
0.0
 41
6.927999999999999
 42
3.4639999999999991
 50
90.0
  0
ARC
  5
861
  8
1
  6
CONTINUOUS
 62
     5
 10
-507.02599348299998
 20
52.582281108999993
 30
0.0
 40
1.0
 50
180.0
 51
210.0
  0
LINE
  5
862
  8
1
  6
CONTINUOUS
 62
     5
 10
-454.71110262600001
 20
110.894937998
 30
0.0
 11
-463.286333899
 21
110.894937998
 31
0.0
  0
LINE
  5
863
  8
1
  6
CONTINUOUS
 62
     5
 10
-496.22599348300002
 20
59.723435383000002
 30
0.0
 11
-496.22599348300002
 21
56.173435382999998
 31
0.0
  0
LINE
  5
864
  8
1
  6
CONTINUOUS
 62
     5
 10
-454.71110262600001
 20
126.894937998
 30
0.0
 11
-477.37599348300012
 21
126.894937998
 31
0.0
  0
LINE
  5
865
  8
1
  6
CENTER
 62
     1
 10
-487.046412745
 20
118.894937998
 30
0.0
 11
-448.81198449699991
 21
118.894937998
 31
0.0
  0
LINE
  5
866
  8
1
  6
CONTINUOUS
 62
     5
 10
-496.625993483
 20
53.023435382999999
 30
0.0
 11
-496.625993483
 21
56.023435382999999
 31
0.0
  0
LINE
  5
867
  8
1
  6
CONTINUOUS
 62
     5
 10
-504.26140913299997
 20
56.023435382999999
 30
0.0
 11
-507.875993483
 21
56.023435382999999
 31
0.0
  0
LINE
  5
868
  8
1
  6
CONTINUOUS
 62
     5
 10
-506.41466861799989
 20
49.523435382999999
 30
0.0
 11
-507.89201888699989
 21
52.082281108999993
 31
0.0
  0
INSERT
  5
869
  8
1
  6
CONTINUOUS
 62
     5
  2
BLK366
 10
-156.434468065
 20
113.494937998
 30
0.0
 41
6.927999999999999
 42
3.4639999999999991
 50
90.0
  0
LINE
  5
86A
  8
1
  6
CONTINUOUS
 62
     5
 10
-496.22599348300002
 20
52.873435383
 30
0.0
 11
-496.375993483
 21
53.023435382999999
 31
0.0
  0
LINE
  5
86B
  8
1
  6
CONTINUOUS
 62
     5
 10
-502.125993483
 20
60.523435382999999
 30
0.0
 11
-507.22599348299991
 21
60.523435382999999
 31
0.0
  0
ARC
  5
86C
  8
1
  6
CONTINUOUS
 62
     5
 10
-507.22599348299991
 20
59.723435383000002
 30
0.0
 40
0.8
 50
90.0
 51
180.0
  0
ARC
  5
86D
  8
1
  6
CONTINUOUS
 62
     5
 10
-505.54864321399998
 20
50.023435382999992
 30
0.0
 40
1.0
 50
210.0
 51
270.0
  0
ARC
  5
86E
  8
1
  6
CONTINUOUS
 62
     5
 10
-498.70334375200002
 20
50.023435382999992
 30
0.0
 40
1.0
 50
270.0
 51
330.0
  0
ARC
  5
86F
  8
1
  6
CONTINUOUS
 62
     5
 10
-497.02599348299998
 20
59.723435383000002
 30
0.0
 40
0.8
 50
0.0
 51
90.0
  0
LINE
  5
870
  8
1
  6
CONTINUOUS
 62
     5
 10
-508.02599348299998
 20
52.873435383
 30
0.0
 11
-507.875993483
 21
53.023435382999999
 31
0.0
  0
LINE
  5
871
  8
1
  6
CONTINUOUS
 62
     5
 10
-507.625993483
 20
53.023435382999999
 30
0.0
 11
-507.625993483
 21
56.023435382999999
 31
0.0
  0
LINE
  5
872
  8
1
  6
CONTINUOUS
 62
     5
 10
-502.125993483
 20
60.523435382999999
 30
0.0
 11
-497.02599348299998
 21
60.523435382999999
 31
0.0
  0
LINE
  5
873
  8
1
  6
CONTINUOUS
 62
     5
 10
-508.02599348299998
 20
59.723435383000002
 30
0.0
 11
-508.02599348299998
 21
56.173435382999998
 31
0.0
  0
LINE
  5
874
  8
1
  6
CONTINUOUS
 62
     5
 10
-497.837318348
 20
49.523435382999999
 30
0.0
 11
-496.35996807899988
 21
52.082281108999993
 31
0.0
  0
LINE
  5
875
  8
1
  6
CONTINUOUS
 62
     5
 10
-499.99057783299997
 20
56.023435382999999
 30
0.0
 11
-496.375993483
 21
56.023435382999999
 31
0.0
  0
ARC
  5
876
  8
1
  6
CONTINUOUS
 62
     5
 10
-497.22599348300002
 20
52.582281108999993
 30
0.0
 40
1.0
 50
330.0
 51
0.0
  0
LINE
  5
877
  8
1
  6
CONTINUOUS
 62
     5
 10
-496.22599348300002
 20
52.873435383
 30
0.0
 11
-496.22599348300002
 21
52.582281108999993
 31
0.0
  0
LINE
  5
878
  8
1
  6
CONTINUOUS
 62
     5
 10
-499.99057783299997
 20
53.023435382999999
 30
0.0
 11
-496.375993483
 21
53.023435382999999
 31
0.0
  0
LINE
  5
879
  8
1
  6
CONTINUOUS
 62
     5
 10
-496.375993483
 20
56.023435382999999
 30
0.0
 11
-496.22599348300002
 21
56.173435382999998
 31
0.0
  0
LINE
  5
87A
  8
1
  6
CONTINUOUS
 62
     5
 10
-507.625993483
 20
55.873435383
 30
0.0
 11
-504.26140913299997
 21
55.873435383
 31
0.0
  0
LINE
  5
87B
  8
1
  6
CONTINUOUS
 62
     5
 10
-507.625993483
 20
53.173435383000012
 30
0.0
 11
-504.26140913299997
 21
53.173435383000012
 31
0.0
  0
LINE
  5
87C
  8
1
  6
CONTINUOUS
 62
     4
 10
-174.172275431
 20
61.194937998
 30
0.0
 11
-174.172275431
 21
63.694937998
 31
0.0
  0
LINE
  5
87D
  8
1
  6
CONTINUOUS
 62
     5
 10
-174.504652316
 20
56.023435382999999
 30
0.0
 11
-178.77548361699999
 21
56.023435382999999
 31
0.0
  0
TEXT
  5
87E
  8
1
  6
CONTINUOUS
 62
     4
 10
-146.661014532
 20
69.614937998000002
 30
0.0
 40
3.2000000000000002
  1
ワンタッチ管継手１／８
 41
0.8491492146596851
 72
     5
 11
-112.061014532
 21
69.614937998000002
 31
0.0
  0
LINE
  5
87F
  8
1
  6
CONTINUOUS
 62
     5
 10
-174.504652316
 20
53.023435382999999
 30
0.0
 11
-178.77548361699999
 21
53.023435382999999
 31
0.0
  0
LINE
  5
880
  8
1
  6
CONTINUOUS
 62
     5
 10
-201.39006796699999
 20
127.194937998
 30
0.0
 11
-200.89006796699999
 21
127.694937998
 31
0.0
  0
LINE
  5
881
  8
1
  6
CONTINUOUS
 62
     5
 10
-155.46536645
 20
108.504937998
 30
0.0
 11
-154.87197428799999
 21
108.504937998
 31
0.0
  0
INSERT
  5
882
  8
1
  6
CONTINUOUS
 62
     5
  2
BLK391
 10
-143.270881927
 20
113.494937998
 30
0.0
 41
3.5
 42
1.75
 50
90.0
  0
INSERT
  5
883
  8
1
  6
CONTINUOUS
 62
     5
  2
BLK392
 10
-143.270881927
 20
113.494937998
 30
0.0
 41
3.5
 42
1.75
 50
90.0
  0
LINE
  5
884
  8
1
  6
CONTINUOUS
 62
     5
 10
-141.71204677399999
 20
107.744937998
 30
0.0
 11
-140.413008668
 21
107.744937998
 31
0.0
  0
LINE
  5
885
  8
1
  6
CONTINUOUS
 62
     5
 10
-140.41298771199999
 20
119.244937998
 30
0.0
 11
-141.71202581700001
 21
119.244937998
 31
0.0
  0
LINE
  5
886
  8
1
  6
CONTINUOUS
 62
     5
 10
-143.27087109300001
 20
119.494937998
 30
0.0
 11
-147.08138311100001
 21
119.494937998
 31
0.0
  0
LINE
  5
887
  8
1
  6
CONTINUOUS
 62
     5
 10
-147.08139370399999
 20
107.494937998
 30
0.0
 11
-143.27089296
 21
107.494937998
 31
0.0
  0
DIMENSION
  5
888
  8
1
  6
CONTINUOUS
 62
     4
  2
*D56
 10
-87.853496597000003
 20
235.59493799800001
 30
0.0
 11
-87.853496597000003
 21
188.14493799799999
 31
0.0
 13
-146.14006796699999
 23
140.694937998
 33
0.0
 14
-164.665067967
 24
235.59493799800001
 34
0.0
 50
90.0
  0
INSERT
  5
889
  8
1
  6
CONTINUOUS
 62
     5
  2
BLK398
 10
-144.91633019400001
 20
113.494937998
 30
0.0
 41
6.0
 42
3.0
 50
90.0
  0
INSERT
  5
88A
  8
1
  6
CONTINUOUS
 62
     5
  2
BLK399
 10
-143.270881927
 20
113.494937998
 30
0.0
 41
6.0
 42
3.0
 50
90.0
  0
LINE
  5
88B
  8
1
  6
CONTINUOUS
 62
     5
 10
-201.39006796699999
 20
104.194937998
 30
0.0
 11
-201.39006796699999
 21
127.194937998
 31
0.0
  0
INSERT
  5
88C
  8
1
  6
CONTINUOUS
 62
     5
  2
BLK401
 10
-141.7120362
 20
113.494937998
 30
0.0
 41
5.75
 42
2.875
 50
90.0
  0
POLYLINE
  5
88D
  8
1
  6
CONTINUOUS
 62
     4
 66
     1
 10
0.0
 20
0.0
 30
0.0
  0
VERTEX
  5
FD1
  8
1
  6
CONTINUOUS
 62
     4
 10
-150.78103637699999
 20
108.37832641599999
 30
0.0
  0
VERTEX
  5
FD2
  8
1
  6
CONTINUOUS
 62
     4
 10
-150.67729187
 20
107.135101318
 30
0.0
  0
VERTEX
  5
FD3
  8
1
  6
CONTINUOUS
 62
     4
 10
-150.57354736299999
 20
105.89186859100001
 30
0.0
  0
VERTEX
  5
FD4
  8
1
  6
CONTINUOUS
 62
     4
 10
-150.4697875979999
 20
104.648635864
 30
0.0
  0
VERTEX
  5
FD5
  8
1
  6
CONTINUOUS
 62
     4
 10
-150.36604309099999
 20
103.40540313699999
 30
0.0
  0
VERTEX
  5
FD6
  8
1
  6
CONTINUOUS
 62
     4
 10
-150.262283325
 20
102.16217041
 30
0.0
  0
VERTEX
  5
FD7
  8
1
  6
CONTINUOUS
 62
     4
 10
-150.15853881800001
 20
100.91894531299999
 30
0.0
  0
VERTEX
  5
FD8
  8
1
  6
CONTINUOUS
 62
     4
 10
-150.05479431200001
 20
99.675712585000014
 30
0.0
  0
VERTEX
  5
FD9
  8
1
  6
CONTINUOUS
 62
     4
 10
-149.95103454599999
 20
98.432479857999994
 30
0.0
  0
VERTEX
  5
FDA
  8
1
  6
CONTINUOUS
 62
     4
 10
-149.847290039
 20
97.189247131000016
 30
0.0
  0
VERTEX
  5
FDB
  8
1
  6
CONTINUOUS
 62
     4
 10
-149.743530273
 20
95.946022033999995
 30
0.0
  0
VERTEX
  5
FDC
  8
1
  6
CONTINUOUS
 62
     4
 10
-149.63978576700001
 20
94.702789307000003
 30
0.0
  0
VERTEX
  5
FDD
  8
1
  6
CONTINUOUS
 62
     4
 10
-149.53602600100001
 20
93.459556579999983
 30
0.0
  0
VERTEX
  5
FDE
  8
1
  6
CONTINUOUS
 62
     4
 10
-149.43228149399999
 20
92.216323852999992
 30
0.0
  0
VERTEX
  5
FDF
  8
1
  6
CONTINUOUS
 62
     4
 10
-149.32853698700001
 20
90.973098754999995
 30
0.0
  0
VERTEX
  5
FE0
  8
1
  6
CONTINUOUS
 62
     4
 10
-149.224777222
 20
89.729866027999975
 30
0.0
  0
VERTEX
  5
FE1
  8
1
  6
CONTINUOUS
 62
     4
 10
-149.12103271500001
 20
88.486633300999998
 30
0.0
  0
VERTEX
  5
FE2
  8
1
  6
CONTINUOUS
 62
     4
 10
-149.01727294899999
 20
87.243400573999992
 30
0.0
  0
VERTEX
  5
FE3
  8
1
  6
CONTINUOUS
 62
     4
 10
-148.913528442
 20
86.000167847000014
 30
0.0
  0
VERTEX
  5
FE4
  8
1
  6
CONTINUOUS
 62
     4
 10
-148.80976867699999
 20
84.756942748999975
 30
0.0
  0
VERTEX
  5
FE5
  8
1
  6
CONTINUOUS
 62
     4
 10
-148.70602417000001
 20
83.513710021999998
 30
0.0
  0
VERTEX
  5
FE6
  8
1
  6
CONTINUOUS
 62
     4
 10
-148.60227966299999
 20
82.270477295000006
 30
0.0
  0
VERTEX
  5
FE7
  8
1
  6
CONTINUOUS
 62
     4
 10
-148.49851989699999
 20
81.027244568
 30
0.0
  0
VERTEX
  5
FE8
  8
1
  6
CONTINUOUS
 62
     4
 10
-148.394775391
 20
79.784019470000004
 30
0.0
  0
VERTEX
  5
FE9
  8
1
  6
CONTINUOUS
 62
     4
 10
-148.291015625
 20
78.540786742999998
 30
0.0
  0
VERTEX
  5
FEA
  8
1
  6
CONTINUOUS
 62
     4
 10
-148.18727111800001
 20
77.297554016000007
 30
0.0
  0
VERTEX
  5
FEB
  8
1
  6
CONTINUOUS
 62
     4
 10
-148.083526611
 20
76.054321289000001
 30
0.0
  0
VERTEX
  5
FEC
  8
1
  6
CONTINUOUS
 62
     4
 10
-147.97976684599999
 20
74.811096191000004
 30
0.0
  0
VERTEX
  5
FED
  8
1
  6
CONTINUOUS
 62
     4
 10
-147.876022339
 20
73.567863463999984
 30
0.0
  0
VERTEX
  5
FEE
  8
1
  6
CONTINUOUS
 62
     4
 10
-147.77226257300001
 20
72.324630736999993
 30
0.0
  0
VERTEX
  5
FEF
  8
1
  6
CONTINUOUS
 62
     4
 10
-147.66851806599999
 20
71.081398010000001
 30
0.0
  0
VERTEX
  5
FF0
  8
1
  6
CONTINUOUS
 62
     4
 10
-147.56475830100001
 20
69.838165282999995
 30
0.0
  0
VERTEX
  5
FF1
  8
1
  6
CONTINUOUS
 62
     4
 10
-147.461013794
 20
68.594940186000002
 30
0.0
  0
VERTEX
  5
FF2
  8
1
  6
CONTINUOUS
 62
     4
 10
-146.30455017099999
 20
68.594940186000002
 30
0.0
  0
VERTEX
  5
FF3
  8
1
  6
CONTINUOUS
 62
     4
 10
-145.14810180699999
 20
68.594940186000002
 30
0.0
  0
VERTEX
  5
FF4
  8
1
  6
CONTINUOUS
 62
     4
 10
-143.99163818400001
 20
68.594940186000002
 30
0.0
  0
VERTEX
  5
FF5
  8
1
  6
CONTINUOUS
 62
     4
 10
-142.83518981899999
 20
68.594940186000002
 30
0.0
  0
VERTEX
  5
FF6
  8
1
  6
CONTINUOUS
 62
     4
 10
-141.67872619600001
 20
68.594940186000002
 30
0.0
  0
VERTEX
  5
FF7
  8
1
  6
CONTINUOUS
 62
     4
 10
-140.52226257300001
 20
68.594940186000002
 30
0.0
  0
VERTEX
  5
FF8
  8
1
  6
CONTINUOUS
 62
     4
 10
-139.36581420900001
 20
68.594940186000002
 30
0.0
  0
VERTEX
  5
FF9
  8
1
  6
CONTINUOUS
 62
     4
 10
-138.209350586
 20
68.594940186000002
 30
0.0
  0
VERTEX
  5
FFA
  8
1
  6
CONTINUOUS
 62
     4
 10
-137.05288696299999
 20
68.594940186000002
 30
0.0
  0
VERTEX
  5
FFB
  8
1
  6
CONTINUOUS
 62
     4
 10
-135.89643859899999
 20
68.594940186000002
 30
0.0
  0
VERTEX
  5
FFC
  8
1
  6
CONTINUOUS
 62
     4
 10
-134.73997497600001
 20
68.594940186000002
 30
0.0
  0
VERTEX
  5
FFD
  8
1
  6
CONTINUOUS
 62
     4
 10
-133.58351135300001
 20
68.594940186000002
 30
0.0
  0
VERTEX
  5
FFE
  8
1
  6
CONTINUOUS
 62
     4
 10
-132.42706298799999
 20
68.594940186000002
 30
0.0
  0
VERTEX
  5
FFF
  8
1
  6
CONTINUOUS
 62
     4
 10
-131.27059936500001
 20
68.594940186000002
 30
0.0
  0
VERTEX
  5
1000
  8
1
  6
CONTINUOUS
 62
     4
 10
-130.11415100100001
 20
68.594940186000002
 30
0.0
  0
VERTEX
  5
1001
  8
1
  6
CONTINUOUS
 62
     4
 10
-128.957687378
 20
68.594940186000002
 30
0.0
  0
VERTEX
  5
1002
  8
1
  6
CONTINUOUS
 62
     4
 10
-127.801231384
 20
68.594940186000002
 30
0.0
  0
VERTEX
  5
1003
  8
1
  6
CONTINUOUS
 62
     4
 10
-126.644767761
 20
68.594940186000002
 30
0.0
  0
VERTEX
  5
1004
  8
1
  6
CONTINUOUS
 62
     4
 10
-125.488311768
 20
68.594940186000002
 30
0.0
  0
VERTEX
  5
1005
  8
1
  6
CONTINUOUS
 62
     4
 10
-124.331855774
 20
68.594940186000002
 30
0.0
  0
VERTEX
  5
1006
  8
1
  6
CONTINUOUS
 62
     4
 10
-123.175392151
 20
68.594940186000002
 30
0.0
  0
VERTEX
  5
1007
  8
1
  6
CONTINUOUS
 62
     4
 10
-122.018936157
 20
68.594940186000002
 30
0.0
  0
VERTEX
  5
1008
  8
1
  6
CONTINUOUS
 62
     4
 10
-120.862480164
 20
68.594940186000002
 30
0.0
  0
VERTEX
  5
1009
  8
1
  6
CONTINUOUS
 62
     4
 10
-119.70602417000001
 20
68.594940186000002
 30
0.0
  0
VERTEX
  5
100A
  8
1
  6
CONTINUOUS
 62
     4
 10
-118.549560547
 20
68.594940186000002
 30
0.0
  0
VERTEX
  5
100B
  8
1
  6
CONTINUOUS
 62
     4
 10
-117.393104553
 20
68.594940186000002
 30
0.0
  0
VERTEX
  5
100C
  8
1
  6
CONTINUOUS
 62
     4
 10
-116.23664856000001
 20
68.594940186000002
 30
0.0
  0
VERTEX
  5
100D
  8
1
  6
CONTINUOUS
 62
     4
 10
-115.08019256599999
 20
68.594940186000002
 30
0.0
  0
VERTEX
  5
100E
  8
1
  6
CONTINUOUS
 62
     4
 10
-113.923728943
 20
68.594940186000002
 30
0.0
  0
VERTEX
  5
100F
  8
1
  6
CONTINUOUS
 62
     4
 10
-112.767272949
 20
68.594940186000002
 30
0.0
  0
VERTEX
  5
1010
  8
1
  6
CONTINUOUS
 62
     4
 10
-111.61081695599999
 20
68.594940186000002
 30
0.0
  0
VERTEX
  5
1011
  8
1
  6
CONTINUOUS
 62
     4
 10
-110.454353333
 20
68.594940186000002
 30
0.0
  0
SEQEND
  5
1012
  8
1
  6
CONTINUOUS
 62
     4
  0
POLYLINE
  5
8D0
  8
1
  6
CONTINUOUS
 62
     4
 66
     1
 10
0.0
 20
0.0
 30
0.0
  0
VERTEX
  5
1013
  8
1
  6
CONTINUOUS
 62
     4
 10
-150.315748794
 20
106.410203588
 30
0.0
  0
VERTEX
  5
1014
  8
1
  6
CONTINUOUS
 62
     4
 10
-150.78103637699999
 20
108.37832641599999
 30
0.0
  0
VERTEX
  5
1015
  8
1
  6
CONTINUOUS
 62
     4
 10
-150.913670349
 20
106.360305547
 30
0.0
  0
SEQEND
  5
1016
  8
1
  6
CONTINUOUS
 62
     4
  0
LINE
  5
8D5
  8
1
  6
CONTINUOUS
 62
     5
 10
-178.77548361699999
 20
53.023435382999999
 30
0.0
 11
-178.77548361699999
 21
56.023435382999999
 31
0.0
  0
INSERT
  5
8D6
  8
1
  6
CONTINUOUS
 62
     5
  2
BLK404
 10
-155.205939223
 20
113.494937998
 30
0.0
 41
6.927999999999999
 42
3.4639999999999991
 50
90.0
  0
INSERT
  5
8D7
  8
1
  6
CONTINUOUS
 62
     5
  2
BLK405
 10
-140.41299809500001
 20
113.494937998
 30
0.0
 41
5.75
 42
2.875
 50
90.0
  0
INSERT
  5
8D8
  8
1
  6
CONTINUOUS
 62
     5
  2
BLK406
 10
-140.41299809500001
 20
113.494937998
 30
0.0
 41
3.0
 42
1.5
 50
90.0
  0
LINE
  5
8D9
  8
1
  6
CONTINUOUS
 62
     5
 10
-176.64006796699999
 20
66.394937998000003
 30
0.0
 11
-188.99006796699999
 21
66.394937998000003
 31
0.0
  0
LINE
  5
8DA
  8
1
  6
CONTINUOUS
 62
     5
 10
-176.64006796699999
 20
66.594937998000006
 30
0.0
 11
-189.14006796699999
 21
66.594937998000006
 31
0.0
  0
LINE
  5
8DB
  8
1
  6
CONTINUOUS
 62
     5
 10
-177.64006796699999
 20
38.023435382999999
 30
0.0
 11
-175.64006796699999
 21
38.023435382999999
 31
0.0
  0
LINE
  5
8DC
  8
1
  6
CONTINUOUS
 62
     5
 10
-164.290067967
 20
66.394937998000003
 30
0.0
 11
-164.190067967
 21
66.294937998000009
 31
0.0
  0
LINE
  5
8DD
  8
1
  6
CONTINUOUS
 62
     5
 10
-176.64006796699999
 20
66.594937998000006
 30
0.0
 11
-164.14006796699999
 21
66.594937998000006
 31
0.0
  0
LINE
  5
8DE
  8
1
  6
CONTINUOUS
 62
     5
 10
-164.190067967
 20
66.294937998000009
 30
0.0
 11
-164.190067967
 21
63.794937998000002
 31
0.0
  0
LINE
  5
8DF
  8
1
  6
CONTINUOUS
 62
     5
 10
-188.99006796699999
 20
63.694937998
 30
0.0
 11
-189.09006796700001
 21
63.794937998000002
 31
0.0
  0
LINE
  5
8E0
  8
1
  6
CONTINUOUS
 62
     5
 10
-162.64006796699999
 20
70.716154126999996
 30
0.0
 11
-164.14006796699999
 21
66.594937998000006
 31
0.0
  0
LINE
  5
8E1
  8
1
  6
CONTINUOUS
 62
     5
 10
-182.540067967
 20
52.873435383
 30
0.0
 11
-170.74006796699999
 21
52.873435383
 31
0.0
  0
LINE
  5
8E2
  8
1
  6
CONTINUOUS
 62
     5
 10
-189.09006796700001
 20
66.294937998000009
 30
0.0
 11
-189.09006796700001
 21
63.794937998000002
 31
0.0
  0
LINE
  5
8E3
  8
1
  6
CONTINUOUS
 62
     5
 10
-182.540067967
 20
56.173435382999998
 30
0.0
 11
-170.74006796699999
 21
56.173435382999998
 31
0.0
  0
LINE
  5
8E4
  8
1
  6
CONTINUOUS
 62
     5
 10
-164.165067967
 20
235.09493799800001
 30
0.0
 11
-164.165067967
 21
212.694937998
 31
0.0
  0
LINE
  5
8E5
  8
1
  6
CONTINUOUS
 62
     5
 10
-190.64006796699999
 20
103.694937998
 30
0.0
 11
-190.64006796699999
 21
70.716154126999996
 31
0.0
  0
LINE
  5
8E6
  8
1
  6
CONTINUOUS
 62
     5
 10
-179.10786050300001
 20
61.194937998
 30
0.0
 11
-174.172275431
 21
61.194937998
 31
0.0
  0
LINE
  5
8E7
  8
1
  6
CONTINUOUS
 62
     5
 10
-150.08139370399999
 20
116.958633134
 30
0.0
 11
-147.08139370399999
 21
120.42293799799999
 31
0.0
  0
LINE
  5
8E8
  8
1
  6
CONTINUOUS
 62
     5
 10
-200.89006796699999
 20
103.694937998
 30
0.0
 11
-201.39006796699999
 21
104.194937998
 31
0.0
  0
LINE
  5
8E9
  8
1
  6
CONTINUOUS
 62
     5
 10
-164.165067967
 20
212.694937998
 30
0.0
 11
-164.64006796699999
 21
212.31966032299999
 31
0.0
  0
LINE
  5
8EA
  8
1
  6
CONTINUOUS
 62
     5
 10
-164.64006796699999
 20
212.31966032299999
 30
0.0
 11
-164.64006796699999
 21
208.09186630900001
 31
0.0
  0
LINE
  5
8EB
  8
1
  6
CONTINUOUS
 62
     5
 10
-164.64006796699999
 20
208.09186630900001
 30
0.0
 11
-163.95256796499999
 21
207.694937998
 31
0.0
  0
LINE
  5
8EC
  8
1
  6
CONTINUOUS
 62
     5
 10
-163.95256796499999
 20
207.694937998
 30
0.0
 11
-154.415067967
 21
142.29493799799999
 31
0.0
  0
LINE
  5
8ED
  8
1
  6
CONTINUOUS
 62
     5
 10
-189.11506796699999
 20
235.09493799800001
 30
0.0
 11
-188.61506796699999
 21
235.59493799800001
 31
0.0
  0
LINE
  5
8EE
  8
1
  6
CONTINUOUS
 62
     5
 10
-164.665067967
 20
235.59493799800001
 30
0.0
 11
-164.165067967
 21
235.09493799800001
 31
0.0
  0
LINE
  5
8EF
  8
1
  6
CONTINUOUS
 62
     5
 10
-154.64006796699999
 20
142.29493799799999
 30
0.0
 11
-154.64006796699999
 21
140.694937998
 31
0.0
  0
LINE
  5
8F0
  8
1
  6
CONTINUOUS
 62
     5
 10
-190.64006796699999
 20
70.716154126999996
 30
0.0
 11
-189.14006796699999
 21
66.594937998000006
 31
0.0
  0
LINE
  5
8F1
  8
1
  6
CONTINUOUS
 62
     5
 10
-188.99006796699999
 20
66.394937998000003
 30
0.0
 11
-189.09006796700001
 21
66.294937998000009
 31
0.0
  0
LINE
  5
8F2
  8
1
  6
CONTINUOUS
 62
     5
 10
-178.14006796699999
 20
38.523435382999999
 30
0.0
 11
-178.14006796699999
 21
49.023435382999999
 31
0.0
  0
LINE
  5
8F3
  8
1
  6
CONTINUOUS
 62
     5
 10
-175.14006796699999
 20
49.023435382999999
 30
0.0
 11
-175.14006796699999
 21
38.523435382999999
 31
0.0
  0
LINE
  5
8F4
  8
1
  6
CONTINUOUS
 62
     5
 10
-188.99006796699999
 20
63.694937998
 30
0.0
 11
-176.64006796699999
 21
63.694937998
 31
0.0
  0
LINE
  5
8F5
  8
1
  6
CONTINUOUS
 62
     5
 10
-162.64006796699999
 20
103.694937998
 30
0.0
 11
-162.64006796699999
 21
70.716154126999996
 31
0.0
  0
LINE
  5
8F6
  8
1
  6
CONTINUOUS
 62
     4
 10
-179.10786050300001
 20
63.694937998
 30
0.0
 11
-179.10786050300001
 21
61.194937998
 31
0.0
  0
LINE
  5
8F7
  8
1
  6
CONTINUOUS
 62
     5
 10
-181.34006796700001
 20
60.523435382999999
 30
0.0
 11
-181.34006796700001
 21
63.694937998
 31
0.0
  0
LINE
  5
8F8
  8
1
  6
CONTINUOUS
 62
     5
 10
-171.940067967
 20
60.523435382999999
 30
0.0
 11
-171.940067967
 21
63.694937998
 31
0.0
  0
DIMENSION
  5
8F9
  8
1
  6
CONTINUOUS
 62
     4
  2
*D63
 10
-162.64006796699999
 20
25.487160512999999
 30
0.0
 11
-176.64006796699999
 21
25.487160512999999
 31
0.0
 70
     1
 13
-190.64006796699999
 23
70.716154126999996
 33
0.0
 14
-162.64006796699999
 24
70.716154126999996
 34
0.0
  0
LINE
  5
8FA
  8
1
  6
CONTINUOUS
 62
     5
 10
-164.290067967
 20
63.694937998
 30
0.0
 11
-176.64006796699999
 21
63.694937998
 31
0.0
  0
LINE
  5
8FB
  8
1
  6
CONTINUOUS
 62
     5
 10
-180.062717698
 20
49.023435382999999
 30
0.0
 11
-173.21741823599999
 21
49.023435382999999
 31
0.0
  0
LINE
  5
8FC
  8
1
  6
CONTINUOUS
 62
     5
 10
-182.39006796699999
 20
56.023435382999999
 30
0.0
 11
-182.540067967
 21
56.173435382999998
 31
0.0
  0
LINE
  5
8FD
  8
1
  6
CONTINUOUS
 62
     5
 10
-178.77548361699999
 20
53.023435382999999
 30
0.0
 11
-182.39006796699999
 21
53.023435382999999
 31
0.0
  0
LINE
  5
8FE
  8
1
  6
CONTINUOUS
 62
     5
 10
-182.540067967
 20
52.873435383
 30
0.0
 11
-182.540067967
 21
52.582281108999993
 31
0.0
  0
INSERT
  5
8FF
  8
1
  6
CONTINUOUS
 62
     5
  2
BLK445
 10
-129.22517711
 20
118.894937998
 30
0.0
 41
8.0
 42
4.0
 50
90.0
  0
ARC
  5
900
  8
1
  6
CONTINUOUS
 62
     5
 10
-181.540067967
 20
52.582281108999993
 30
0.0
 40
1.0
 50
180.0
 51
210.0
  0
LINE
  5
901
  8
1
  6
CONTINUOUS
 62
     5
 10
-129.22517711
 20
110.894937998
 30
0.0
 11
-137.80040838299999
 21
110.894937998
 31
0.0
  0
LINE
  5
902
  8
1
  6
CONTINUOUS
 62
     5
 10
-170.74006796699999
 20
59.723435383000002
 30
0.0
 11
-170.74006796699999
 21
56.173435382999998
 31
0.0
  0
LINE
  5
903
  8
1
  6
CONTINUOUS
 62
     5
 10
-198.64006796699999
 20
140.694937998
 30
0.0
 11
-198.64006796699999
 21
142.29493799799999
 31
0.0
  0
DIMENSION
  5
904
  8
1
  6
CONTINUOUS
 62
     4
  2
*D65
 10
-208.14006796699999
 20
255.05740807000001
 30
0.0
 11
-176.64006796699999
 21
255.05740807000001
 31
0.0
 70
     1
 13
-145.14006796699999
 23
139.694937998
 33
0.0
 14
-208.14006796699999
 24
139.694937998
 34
0.0
  0
LINE
  5
905
  8
1
  6
CONTINUOUS
 62
     5
 10
-146.14006796699999
 20
140.694937998
 30
0.0
 11
-176.64006796699999
 21
140.694937998
 31
0.0
  0
LINE
  5
906
  8
1
  6
CONTINUOUS
 62
     5
 10
-129.22517711
 20
126.894937998
 30
0.0
 11
-151.89006796699999
 21
126.894937998
 31
0.0
  0
LINE
  5
907
  8
1
  6
CENTER
 62
     1
 10
-161.56048722899999
 20
118.894937998
 30
0.0
 11
-123.32605898
 21
118.894937998
 31
0.0
  0
LINE
  5
908
  8
1
  6
CONTINUOUS
 62
     5
 10
-171.14006796699999
 20
53.023435382999999
 30
0.0
 11
-171.14006796699999
 21
56.023435382999999
 31
0.0
  0
LINE
  5
909
  8
1
  6
CONTINUOUS
 62
     5
 10
-174.504652316
 20
53.023435382999999
 30
0.0
 11
-174.504652316
 21
56.023435382999999
 31
0.0
  0
ARC
  5
90A
  8
1
  6
CONTINUOUS
 62
     5
 10
-177.64006796699999
 20
38.523435382999999
 30
0.0
 40
0.5
 50
180.0
 51
270.0
  0
LINE
  5
90B
  8
1
  6
CONTINUOUS
 62
     5
 10
-174.504652316
 20
55.873435383
 30
0.0
 11
-171.14006796699999
 21
55.873435383
 31
0.0
  0
ARC
  5
90C
  8
1
  6
CONTINUOUS
 62
     5
 10
-175.64006796699999
 20
38.523435382999999
 30
0.0
 40
0.5
 50
270.0
 51
0.0
  0
LINE
  5
90D
  8
1
  6
CONTINUOUS
 62
     5
 10
-176.64006796699999
 20
140.694937998
 30
0.0
 11
-207.14006796699999
 21
140.694937998
 31
0.0
  0
LINE
  5
90E
  8
1
  6
CONTINUOUS
 62
     5
 10
-154.415067967
 20
142.29493799799999
 30
0.0
 11
-176.64006796699999
 21
142.29493799799999
 31
0.0
  0
LINE
  5
90F
  8
1
  6
CONTINUOUS
 62
     5
 10
-176.64006796699999
 20
142.29493799799999
 30
0.0
 11
-198.86506796699999
 21
142.29493799799999
 31
0.0
  0
LINE
  5
910
  8
1
  6
CONTINUOUS
 62
     5
 10
-145.14006796699999
 20
128.694937998
 30
0.0
 11
-146.14006796699999
 21
127.694937998
 31
0.0
  0
LINE
  5
911
  8
1
  6
CONTINUOUS
 62
     5
 10
-207.14006796699999
 20
127.694937998
 30
0.0
 11
-208.14006796699999
 21
128.694937998
 31
0.0
  0
LINE
  5
912
  8
1
  6
CONTINUOUS
 62
     5
 10
-198.86506796699999
 20
142.29493799799999
 30
0.0
 11
-189.327567969
 21
207.694937998
 31
0.0
  0
LINE
  5
913
  8
1
  6
CONTINUOUS
 62
     5
 10
-189.327567969
 20
207.694937998
 30
0.0
 11
-188.64006796699999
 21
208.09186630900001
 31
0.0
  0
LINE
  5
914
  8
1
  6
CONTINUOUS
 62
     5
 10
-145.14006796699999
 20
128.694937998
 30
0.0
 11
-145.14006796699999
 21
139.694937998
 31
0.0
  0
LINE
  5
915
  8
1
  6
CONTINUOUS
 62
     5
 10
-198.265681718
 20
127.694937998
 30
0.0
 11
-207.14006796699999
 21
127.694937998
 31
0.0
  0
LINE
  5
916
  8
1
  6
CONTINUOUS
 62
     5
 10
-207.14006796699999
 20
140.694937998
 30
0.0
 11
-208.14006796699999
 21
139.694937998
 31
0.0
  0
LINE
  5
918
  8
1
  6
CONTINUOUS
 62
     5
 10
-188.64006796699999
 20
208.09186630900001
 30
0.0
 11
-188.64006796699999
 21
212.31966032299999
 31
0.0
  0
LINE
  5
919
  8
1
  6
CONTINUOUS
 62
     5
 10
-145.14006796699999
 20
139.694937998
 30
0.0
 11
-146.14006796699999
 21
140.694937998
 31
0.0
  0
LINE
  5
91A
  8
1
  6
CONTINUOUS
 62
     5
 10
-208.14006796699999
 20
139.694937998
 30
0.0
 11
-208.14006796699999
 21
128.694937998
 31
0.0
  0
LINE
  5
91B
  8
1
  6
CONTINUOUS
 62
     5
 10
-188.64006796699999
 20
212.31966032299999
 30
0.0
 11
-189.11506796699999
 21
212.694937998
 31
0.0
  0
LINE
  5
91C
  8
1
  6
CONTINUOUS
 62
     5
 10
-188.64006796699999
 20
208.09186630900001
 30
0.0
 11
-164.64006796699999
 21
208.09186630900001
 31
0.0
  0
LINE
  5
91D
  8
1
  6
CONTINUOUS
 62
     5
 10
-188.64006796699999
 20
212.31966032299999
 30
0.0
 11
-164.64006796699999
 21
212.31966032299999
 31
0.0
  0
ARC
  5
91E
  8
1
  6
CONTINUOUS
 62
     5
 10
-336.56384179600002
 20
144.79493799799999
 30
0.0
 40
8.0999999999999996
 50
180.0
 51
0.0
  0
DIMENSION
  5
91F
  8
1
  6
CONTINUOUS
 62
     4
  2
*D66
 10
-260.81047116600001
 20
157.694937998
 30
0.0
 11
-260.81047116600001
 21
110.694937998
 31
0.0
 13
-260.81047116600001
 23
63.694937998
 33
0.0
 14
-272.8104711659999
 24
157.694937998
 34
0.0
 50
90.0
  0
LINE
  5
920
  8
1
  6
CONTINUOUS
 62
     5
 10
-328.463841796
 20
157.694937998
 30
0.0
 11
-328.463841796
 21
144.79493799799999
 31
0.0
  0
DIMENSION
  5
921
  8
1
  6
CONTINUOUS
 62
     4
  2
*D67
 10
-236.84770267100001
 20
225.09493799800001
 30
0.0
 11
-236.84770267100001
 21
137.05918668999999
 31
0.0
 13
-260.81047116600001
 23
49.023435382999999
 33
0.0
 14
-324.37634180100002
 24
225.09493799800001
 34
0.0
 50
90.0
  0
LINE
  5
922
  8
1
  6
CONTINUOUS
 62
     5
 10
-344.66384179599999
 20
144.79493799799999
 30
0.0
 11
-344.66384179599999
 21
157.694937998
 31
0.0
  0
LINE
  5
923
  8
1
  6
CONTINUOUS
 62
     5
 10
-363.300702075
 20
145.34493799800001
 30
0.0
 11
-344.66384179599999
 21
145.34493799800001
 31
0.0
  0
LINE
  5
924
  8
1
  6
CONTINUOUS
 62
     5
 10
-368.06384179600002
 20
138.09493799800001
 30
0.0
 11
-341.11576446700002
 21
138.09493799800001
 31
0.0
  0
LINE
  5
925
  8
1
  6
CONTINUOUS
 62
     5
 10
-332.01191912500002
 20
138.09493799800001
 30
0.0
 11
-305.06384179600002
 21
138.09493799800001
 31
0.0
  0
LINE
  5
926
  8
1
  6
CONTINUOUS
 62
     5
 10
-305.06384179600002
 20
148.09493799800001
 30
0.0
 11
-328.463841796
 21
148.09493799800001
 31
0.0
  0
LINE
  5
927
  8
1
  6
CONTINUOUS
 62
     5
 10
-344.66384179599999
 20
148.09493799800001
 30
0.0
 11
-368.06384179600002
 21
148.09493799800001
 31
0.0
  0
LINE
  5
928
  8
1
  6
CONTINUOUS
 62
     5
 10
-329.49224367400001
 20
140.84493799800001
 30
0.0
 11
-309.82698151699998
 21
140.84493799800001
 31
0.0
  0
LINE
  5
929
  8
1
  6
CONTINUOUS
 62
     5
 10
-363.300702075
 20
140.84493799800001
 30
0.0
 11
-343.63543991799997
 21
140.84493799800001
 31
0.0
  0
LINE
  5
92A
  8
1
  6
CONTINUOUS
 62
     5
 10
-305.06384179600002
 20
148.09493799800001
 30
0.0
 11
-305.06384179600002
 21
156.694937998
 31
0.0
  0
LINE
  5
92B
  8
1
  6
CONTINUOUS
 62
     5
 10
-306.06384179600002
 20
127.694937998
 30
0.0
 11
-312.31384179600002
 21
127.694937998
 31
0.0
  0
LINE
  5
92C
  8
1
  6
CONTINUOUS
 62
     5
 10
-306.06384179600002
 20
157.694937998
 30
0.0
 11
-336.56384179600002
 21
157.694937998
 31
0.0
  0
LINE
  5
92D
  8
1
  6
CONTINUOUS
 62
     5
 10
-368.06384179600002
 20
138.09493799800001
 30
0.0
 11
-368.06384179600002
 21
128.694937998
 31
0.0
  0
LINE
  5
92F
  8
1
  6
CONTINUOUS
 62
     5
 10
-328.463841796
 20
145.34493799800001
 30
0.0
 11
-309.82698151699998
 21
145.34493799800001
 31
0.0
  0
LINE
  5
930
  8
1
  6
CONTINUOUS
 62
     5
 10
-305.06384179600002
 20
128.694937998
 30
0.0
 11
-305.06384179600002
 21
138.09493799800001
 31
0.0
  0
LINE
  5
931
  8
1
  6
CONTINUOUS
 62
     5
 10
-368.06384179600002
 20
156.694937998
 30
0.0
 11
-368.06384179600002
 21
148.09493799800001
 31
0.0
  0
LINE
  5
932
  8
1
  6
CONTINUOUS
 62
     5
 10
-363.300702075
 20
145.34493799800001
 30
0.0
 11
-368.06384179600002
 21
148.09493799800001
 31
0.0
  0
LINE
  5
933
  8
1
  6
CONTINUOUS
 62
     5
 10
-368.06384179600002
 20
138.09493799800001
 30
0.0
 11
-363.300702075
 21
140.84493799800001
 31
0.0
  0
LINE
  5
934
  8
1
  6
CONTINUOUS
 62
     5
 10
-349.32349523800002
 20
224.600171507
 30
0.0
 11
-348.75134179100002
 21
225.09493799800001
 31
0.0
  0
LINE
  5
935
  8
1
  6
CONTINUOUS
 62
     5
 10
-336.56384179600002
 20
157.694937998
 30
0.0
 11
-367.06384179600002
 21
157.694937998
 31
0.0
  0
LINE
  5
936
  8
1
  6
CONTINUOUS
 62
     5
 10
-309.82698151699998
 20
145.34493799800001
 30
0.0
 11
-305.06384179600002
 21
148.09493799800001
 31
0.0
  0
LINE
  5
937
  8
1
  6
CONTINUOUS
 62
     5
 10
-305.06384179600002
 20
138.09493799800001
 30
0.0
 11
-309.82698151699998
 21
140.84493799800001
 31
0.0
  0
LINE
  5
938
  8
1
  6
CONTINUOUS
 62
     5
 10
-324.37634180100002
 20
225.09493799800001
 30
0.0
 11
-323.80418835400002
 21
224.600171507
 31
0.0
  0
DIMENSION
  5
939
  8
1
  6
CONTINUOUS
 62
     4
  2
*D68
 10
-248.81047116600001
 20
225.09493799800001
 30
0.0
 11
-248.81047116600001
 21
191.39493799799999
 31
0.0
 13
-306.06384179600002
 23
157.694937998
 33
0.0
 14
-324.37634180100002
 24
225.09493799800001
 34
0.0
 50
90.0
  0
LINE
  5
93A
  8
1
  6
CONTINUOUS
 62
     5
 10
-178.77548361699999
 20
56.023435382999999
 30
0.0
 11
-182.39006796699999
 21
56.023435382999999
 31
0.0
  0
ARC
  5
93B
  8
1
  6
CONTINUOUS
 62
     5
 10
-333.14119206499998
 20
50.023435382999992
 30
0.0
 40
1.0
 50
270.0
 51
330.0
  0
LINE
  5
93C
  8
1
  6
CONTINUOUS
 62
     5
 10
-180.92874310100001
 20
49.523435382999999
 30
0.0
 11
-182.406093371
 21
52.082281108999993
 31
0.0
  0
ARC
  5
93D
  8
1
  6
CONTINUOUS
 62
     5
 10
-339.986491527
 20
50.023435382999992
 30
0.0
 40
1.0
 50
210.0
 51
270.0
  0
LINE
  5
93E
  8
1
  6
CONTINUOUS
 62
     5
 10
-170.74006796699999
 20
52.873435383
 30
0.0
 11
-170.89006796699999
 21
53.023435382999999
 31
0.0
  0
LINE
  5
93F
  8
1
  6
CONTINUOUS
 62
     5
 10
-176.64006796699999
 20
60.523435382999999
 30
0.0
 11
-181.74006796699999
 21
60.523435382999999
 31
0.0
  0
ARC
  5
940
  8
1
  6
CONTINUOUS
 62
     5
 10
-181.74006796699999
 20
59.723435383000002
 30
0.0
 40
0.8
 50
90.0
 51
180.0
  0
LINE
  5
941
  8
1
  6
CONTINUOUS
 62
     5
 10
-323.80418835400002
 20
224.600171507
 30
0.0
 11
-314.338841796
 21
159.694937998
 31
0.0
  0
DIMENSION
  5
942
  8
1
  6
CONTINUOUS
 62
     4
  2
*D69
 10
-368.06384179600002
 20
242.381124793
 30
0.0
 11
-336.56384179600002
 21
242.381124793
 31
0.0
 70
     1
 13
-305.06384179600002
 23
156.694937998
 33
0.0
 14
-368.06384179600002
 24
156.694937998
 34
0.0
  0
LINE
  5
943
  8
1
  6
CONTINUOUS
 62
     5
 10
-363.06384179600002
 20
140.84493799800001
 30
0.0
 11
-363.06384179600002
 21
145.34493799800001
 31
0.0
  0
ARC
  5
944
  8
1
  6
CONTINUOUS
 62
     5
 10
-180.062717698
 20
50.023435382999992
 30
0.0
 40
1.0
 50
210.0
 51
270.0
  0
ARC
  5
945
  8
1
  6
CONTINUOUS
 62
     5
 10
-173.21741823599999
 20
50.023435382999992
 30
0.0
 40
1.0
 50
270.0
 51
330.0
  0
ARC
  5
946
  8
1
  6
CONTINUOUS
 62
     5
 10
-171.540067967
 20
59.723435383000002
 30
0.0
 40
0.8
 50
0.0
 51
90.0
  0
LINE
  5
947
  8
1
  6
CONTINUOUS
 62
     5
 10
-182.540067967
 20
52.873435383
 30
0.0
 11
-182.39006796699999
 21
53.023435382999999
 31
0.0
  0
LINE
  5
948
  8
1
  6
CONTINUOUS
 62
     5
 10
-182.14006796699999
 20
53.023435382999999
 30
0.0
 11
-182.14006796699999
 21
56.023435382999999
 31
0.0
  0
LINE
  5
949
  8
1
  6
CONTINUOUS
 62
     5
 10
-176.64006796699999
 20
60.523435382999999
 30
0.0
 11
-171.540067967
 21
60.523435382999999
 31
0.0
  0
LINE
  5
94A
  8
1
  6
CONTINUOUS
 62
     5
 10
-182.540067967
 20
59.723435383000002
 30
0.0
 11
-182.540067967
 21
56.173435382999998
 31
0.0
  0
LINE
  5
94B
  8
1
  6
CONTINUOUS
 62
     5
 10
-172.35139283199999
 20
49.523435382999999
 30
0.0
 11
-170.87404256299999
 21
52.082281108999993
 31
0.0
  0
LINE
  5
94C
  8
1
  6
CONTINUOUS
 62
     5
 10
-174.504652316
 20
56.023435382999999
 30
0.0
 11
-170.89006796699999
 21
56.023435382999999
 31
0.0
  0
ARC
  5
94D
  8
1
  6
CONTINUOUS
 62
     5
 10
-171.74006796699999
 20
52.582281108999993
 30
0.0
 40
1.0
 50
330.0
 51
0.0
  0
LINE
  5
94E
  8
1
  6
CONTINUOUS
 62
     5
 10
-170.74006796699999
 20
52.873435383
 30
0.0
 11
-170.74006796699999
 21
52.582281108999993
 31
0.0
  0
TEXT
  5
94F
  8
1
  6
CONTINUOUS
 62
     4
 10
-299.89697686900001
 20
142.61462221599999
 30
0.0
 40
3.0
  1
消音器１／８
 41
0.7537128712871298
 72
     5
 11
-284.67197686899999
 21
142.61462221599999
 31
0.0
  0
LINE
  5
950
  8
1
  6
CONTINUOUS
 62
     5
 10
-174.504652316
 20
53.023435382999999
 30
0.0
 11
-170.89006796699999
 21
53.023435382999999
 31
0.0
  0
LINE
  5
951
  8
1
  6
CONTINUOUS
 62
     5
 10
-170.89006796699999
 20
56.023435382999999
 30
0.0
 11
-170.74006796699999
 21
56.173435382999998
 31
0.0
  0
LINE
  5
952
  8
1
  6
CONTINUOUS
 62
     5
 10
-182.14006796699999
 20
55.873435383
 30
0.0
 11
-178.77548361699999
 21
55.873435383
 31
0.0
  0
LINE
  5
953
  8
1
  6
CONTINUOUS
 62
     5
 10
-182.14006796699999
 20
53.173435383000012
 30
0.0
 11
-178.77548361699999
 21
53.173435383000012
 31
0.0
  0
LINE
  5
954
  8
1
  6
CONTINUOUS
 62
     4
 10
-334.09604925999997
 20
61.194937998
 30
0.0
 11
-334.09604925999997
 21
63.694937998
 31
0.0
  0
LINE
  5
955
  8
1
  6
CONTINUOUS
 62
     5
 10
-334.42842614599999
 20
56.023435382999999
 30
0.0
 11
-338.69925744699998
 21
56.023435382999999
 31
0.0
  0
TEXT
  5
956
  8
1
  6
CONTINUOUS
 62
     4
 10
-306.58478836099999
 20
69.614937998000002
 30
0.0
 40
3.2000000000000002
  1
ワンタッチ管継手１／８
 41
0.8491492146596861
 72
     5
 11
-271.98478836100003
 21
69.614937998000002
 31
0.0
  0
LINE
  5
957
  8
1
  6
CONTINUOUS
 62
     5
 10
-334.42842614599999
 20
53.023435382999999
 30
0.0
 11
-338.69925744699998
 21
53.023435382999999
 31
0.0
  0
LINE
  5
958
  8
1
  6
CONTINUOUS
 62
     5
 10
-310.06384179599991
 20
140.84493799800001
 30
0.0
 11
-310.06384179599991
 21
145.34493799800001
 31
0.0
  0
LINE
  5
959
  8
1
  6
CONTINUOUS
 62
     5
 10
-360.81384179600002
 20
127.694937998
 30
0.0
 11
-367.06384179600002
 21
127.694937998
 31
0.0
  0
LINE
  5
95A
  8
1
  6
CONTINUOUS
 62
     5
 10
-358.56384179600002
 20
157.694937998
 30
0.0
 11
-358.56384179600002
 21
159.694937998
 31
0.0
  0
LINE
  5
95B
  8
1
  6
CONTINUOUS
 62
     5
 10
-336.56384179600002
 20
159.694937998
 30
0.0
 11
-358.78884179599999
 21
159.694937998
 31
0.0
  0
LINE
  5
95C
  8
1
  6
CONTINUOUS
 62
     5
 10
-314.56384179600002
 20
157.694937998
 30
0.0
 11
-314.56384179600002
 21
159.694937998
 31
0.0
  0
LINE
  5
95D
  8
1
  6
CONTINUOUS
 62
     5
 10
-336.56384179600002
 20
159.694937998
 30
0.0
 11
-314.338841796
 21
159.694937998
 31
0.0
  0
LINE
  5
95E
  8
1
  6
CONTINUOUS
 62
     5
 10
-367.06384179600002
 20
157.694937998
 30
0.0
 11
-368.06384179600002
 21
156.694937998
 31
0.0
  0
POLYLINE
  5
95F
  8
1
  6
CONTINUOUS
 62
     4
 66
     1
 10
0.0
 20
0.0
 30
0.0
  0
VERTEX
  5
1017
  8
1
  6
CONTINUOUS
 62
     4
 10
-310.70480346699998
 20
108.37832641599999
 30
0.0
  0
VERTEX
  5
1018
  8
1
  6
CONTINUOUS
 62
     4
 10
-310.601074219
 20
107.135101318
 30
0.0
  0
VERTEX
  5
1019
  8
1
  6
CONTINUOUS
 62
     4
 10
-310.497314453
 20
105.89186859100001
 30
0.0
  0
VERTEX
  5
101A
  8
1
  6
CONTINUOUS
 62
     4
 10
-310.39355468799999
 20
104.648635864
 30
0.0
  0
VERTEX
  5
101B
  8
1
  6
CONTINUOUS
 62
     4
 10
-310.28982543900003
 20
103.40540313699999
 30
0.0
  0
VERTEX
  5
101C
  8
1
  6
CONTINUOUS
 62
     4
 10
-310.18606567400002
 20
102.16217041
 30
0.0
  0
VERTEX
  5
101D
  8
1
  6
CONTINUOUS
 62
     4
 10
-310.08230590800002
 20
100.91894531299999
 30
0.0
  0
VERTEX
  5
101E
  8
1
  6
CONTINUOUS
 62
     4
 10
-309.97854614300002
 20
99.675712585000014
 30
0.0
  0
VERTEX
  5
101F
  8
1
  6
CONTINUOUS
 62
     4
 10
-309.87481689499998
 20
98.432479857999994
 30
0.0
  0
VERTEX
  5
1020
  8
1
  6
CONTINUOUS
 62
     4
 10
-309.77105712899998
 20
97.189247131000016
 30
0.0
  0
VERTEX
  5
1021
  8
1
  6
CONTINUOUS
 62
     4
 10
-309.66729736299999
 20
95.946022033999995
 30
0.0
  0
VERTEX
  5
1022
  8
1
  6
CONTINUOUS
 62
     4
 10
-309.56356811500001
 20
94.702789307000003
 30
0.0
  0
VERTEX
  5
1023
  8
1
  6
CONTINUOUS
 62
     4
 10
-309.45980835
 20
93.459556579999983
 30
0.0
  0
VERTEX
  5
1024
  8
1
  6
CONTINUOUS
 62
     4
 10
-309.35604858400001
 20
92.216323852999992
 30
0.0
  0
VERTEX
  5
1025
  8
1
  6
CONTINUOUS
 62
     4
 10
-309.25231933600003
 20
90.973098754999995
 30
0.0
  0
VERTEX
  5
1026
  8
1
  6
CONTINUOUS
 62
     4
 10
-309.14855956999997
 20
89.729866027999975
 30
0.0
  0
VERTEX
  5
1027
  8
1
  6
CONTINUOUS
 62
     4
 10
-309.04479980500003
 20
88.486633300999998
 30
0.0
  0
VERTEX
  5
1028
  8
1
  6
CONTINUOUS
 62
     4
 10
-308.94104003899997
 20
87.243400573999992
 30
0.0
  0
VERTEX
  5
1029
  8
1
  6
CONTINUOUS
 62
     4
 10
-308.83731079099999
 20
86.000167847000014
 30
0.0
  0
VERTEX
  5
102A
  8
1
  6
CONTINUOUS
 62
     4
 10
-308.733551025
 20
84.756942748999975
 30
0.0
  0
VERTEX
  5
102B
  8
1
  6
CONTINUOUS
 62
     4
 10
-308.62979125999999
 20
83.513710021999998
 30
0.0
  0
VERTEX
  5
102C
  8
1
  6
CONTINUOUS
 62
     4
 10
-308.52606201200001
 20
82.270477295000006
 30
0.0
  0
VERTEX
  5
102D
  8
1
  6
CONTINUOUS
 62
     4
 10
-308.42230224600002
 20
81.027244568
 30
0.0
  0
VERTEX
  5
102E
  8
1
  6
CONTINUOUS
 62
     4
 10
-308.31854248000002
 20
79.784019470000004
 30
0.0
  0
VERTEX
  5
102F
  8
1
  6
CONTINUOUS
 62
     4
 10
-308.21478271500001
 20
78.540786742999998
 30
0.0
  0
VERTEX
  5
1030
  8
1
  6
CONTINUOUS
 62
     4
 10
-308.11105346699998
 20
77.297554016000007
 30
0.0
  0
VERTEX
  5
1031
  8
1
  6
CONTINUOUS
 62
     4
 10
-308.00729370099998
 20
76.054321289000001
 30
0.0
  0
VERTEX
  5
1032
  8
1
  6
CONTINUOUS
 62
     4
 10
-307.90353393599997
 20
74.811096191000004
 30
0.0
  0
VERTEX
  5
1033
  8
1
  6
CONTINUOUS
 62
     4
 10
-307.79980468799999
 20
73.567863463999984
 30
0.0
  0
VERTEX
  5
1034
  8
1
  6
CONTINUOUS
 62
     4
 10
-307.696044922
 20
72.324630736999993
 30
0.0
  0
VERTEX
  5
1035
  8
1
  6
CONTINUOUS
 62
     4
 10
-307.592285156
 20
71.081398010000001
 30
0.0
  0
VERTEX
  5
1036
  8
1
  6
CONTINUOUS
 62
     4
 10
-307.488525391
 20
69.838165282999995
 30
0.0
  0
VERTEX
  5
1037
  8
1
  6
CONTINUOUS
 62
     4
 10
-307.38479614300002
 20
68.594940186000002
 30
0.0
  0
VERTEX
  5
1038
  8
1
  6
CONTINUOUS
 62
     4
 10
-306.22833251999998
 20
68.594940186000002
 30
0.0
  0
VERTEX
  5
1039
  8
1
  6
CONTINUOUS
 62
     4
 10
-305.07186889600001
 20
68.594940186000002
 30
0.0
  0
VERTEX
  5
103A
  8
1
  6
CONTINUOUS
 62
     4
 10
-303.91540527299998
 20
68.594940186000002
 30
0.0
  0
VERTEX
  5
103B
  8
1
  6
CONTINUOUS
 62
     4
 10
-302.75894165
 20
68.594940186000002
 30
0.0
  0
VERTEX
  5
103C
  8
1
  6
CONTINUOUS
 62
     4
 10
-301.60250854499998
 20
68.594940186000002
 30
0.0
  0
VERTEX
  5
103D
  8
1
  6
CONTINUOUS
 62
     4
 10
-300.446044922
 20
68.594940186000002
 30
0.0
  0
VERTEX
  5
103E
  8
1
  6
CONTINUOUS
 62
     4
 10
-299.28958129900002
 20
68.594940186000002
 30
0.0
  0
VERTEX
  5
103F
  8
1
  6
CONTINUOUS
 62
     4
 10
-298.13311767599998
 20
68.594940186000002
 30
0.0
  0
VERTEX
  5
1040
  8
1
  6
CONTINUOUS
 62
     4
 10
-296.976654053
 20
68.594940186000002
 30
0.0
  0
VERTEX
  5
1041
  8
1
  6
CONTINUOUS
 62
     4
 10
-295.820220947
 20
68.594940186000002
 30
0.0
  0
VERTEX
  5
1042
  8
1
  6
CONTINUOUS
 62
     4
 10
-294.66375732400002
 20
68.594940186000002
 30
0.0
  0
VERTEX
  5
1043
  8
1
  6
CONTINUOUS
 62
     4
 10
-293.50729370099998
 20
68.594940186000002
 30
0.0
  0
VERTEX
  5
1044
  8
1
  6
CONTINUOUS
 62
     4
 10
-292.350830078
 20
68.594940186000002
 30
0.0
  0
VERTEX
  5
1045
  8
1
  6
CONTINUOUS
 62
     4
 10
-291.19436645500002
 20
68.594940186000002
 30
0.0
  0
VERTEX
  5
1046
  8
1
  6
CONTINUOUS
 62
     4
 10
-290.03790283199999
 20
68.594940186000002
 30
0.0
  0
VERTEX
  5
1047
  8
1
  6
CONTINUOUS
 62
     4
 10
-288.88146972700002
 20
68.594940186000002
 30
0.0
  0
VERTEX
  5
1048
  8
1
  6
CONTINUOUS
 62
     4
 10
-287.72500610399999
 20
68.594940186000002
 30
0.0
  0
VERTEX
  5
1049
  8
1
  6
CONTINUOUS
 62
     4
 10
-286.56854248000002
 20
68.594940186000002
 30
0.0
  0
VERTEX
  5
104A
  8
1
  6
CONTINUOUS
 62
     4
 10
-285.41207885699998
 20
68.594940186000002
 30
0.0
  0
VERTEX
  5
104B
  8
1
  6
CONTINUOUS
 62
     4
 10
-284.255615234
 20
68.594940186000002
 30
0.0
  0
VERTEX
  5
104C
  8
1
  6
CONTINUOUS
 62
     4
 10
-283.09918212899998
 20
68.594940186000002
 30
0.0
  0
VERTEX
  5
104D
  8
1
  6
CONTINUOUS
 62
     4
 10
-281.94271850600001
 20
68.594940186000002
 30
0.0
  0
VERTEX
  5
104E
  8
1
  6
CONTINUOUS
 62
     4
 10
-280.78625488300003
 20
68.594940186000002
 30
0.0
  0
VERTEX
  5
104F
  8
1
  6
CONTINUOUS
 62
     4
 10
-279.62979125999999
 20
68.594940186000002
 30
0.0
  0
VERTEX
  5
1050
  8
1
  6
CONTINUOUS
 62
     4
 10
-278.47332763700001
 20
68.594940186000002
 30
0.0
  0
VERTEX
  5
1051
  8
1
  6
CONTINUOUS
 62
     4
 10
-277.31686401399998
 20
68.594940186000002
 30
0.0
  0
VERTEX
  5
1052
  8
1
  6
CONTINUOUS
 62
     4
 10
-276.16043090799991
 20
68.594940186000002
 30
0.0
  0
VERTEX
  5
1053
  8
1
  6
CONTINUOUS
 62
     4
 10
-275.00396728499999
 20
68.594940186000002
 30
0.0
  0
VERTEX
  5
1054
  8
1
  6
CONTINUOUS
 62
     4
 10
-273.84750366200001
 20
68.594940186000002
 30
0.0
  0
VERTEX
  5
1055
  8
1
  6
CONTINUOUS
 62
     4
 10
-272.69104003899997
 20
68.594940186000002
 30
0.0
  0
VERTEX
  5
1056
  8
1
  6
CONTINUOUS
 62
     4
 10
-271.53457641599999
 20
68.594940186000002
 30
0.0
  0
VERTEX
  5
1057
  8
1
  6
CONTINUOUS
 62
     4
 10
-270.37814331099997
 20
68.594940186000002
 30
0.0
  0
SEQEND
  5
1058
  8
1
  6
CONTINUOUS
 62
     4
  0
POLYLINE
  5
9A2
  8
1
  6
CONTINUOUS
 62
     4
 66
     1
 10
0.0
 20
0.0
 30
0.0
  0
VERTEX
  5
1059
  8
1
  6
CONTINUOUS
 62
     4
 10
-310.23951663399998
 20
106.410203411
 30
0.0
  0
VERTEX
  5
105A
  8
1
  6
CONTINUOUS
 62
     4
 10
-310.70480346699998
 20
108.37832641599999
 30
0.0
  0
VERTEX
  5
105B
  8
1
  6
CONTINUOUS
 62
     4
 10
-310.83743820699999
 20
106.36030559700001
 30
0.0
  0
SEQEND
  5
105C
  8
1
  6
CONTINUOUS
 62
     4
  0
LINE
  5
9A7
  8
1
  6
CONTINUOUS
 62
     5
 10
-338.69925744699998
 20
53.023435382999999
 30
0.0
 11
-338.69925744699998
 21
56.023435382999999
 31
0.0
  0
INSERT
  5
9A8
  8
1
  6
CONTINUOUS
 62
     5
  2
BLK543
 10
-315.129713052
 20
113.494937998
 30
0.0
 41
6.927999999999999
 42
3.4639999999999991
 50
90.0
  0
LINE
  5
9A9
  8
1
  6
CONTINUOUS
 62
     5
 10
-336.56384179600002
 20
66.594937998000006
 30
0.0
 11
-324.06384179600002
 21
66.594937998000006
 31
0.0
  0
LINE
  5
9AA
  8
1
  6
CONTINUOUS
 62
     5
 10
-358.78884179599999
 20
159.694937998
 30
0.0
 11
-349.32349523800002
 21
224.600171507
 31
0.0
  0
ARC
  5
9AB
  8
1
  6
CONTINUOUS
 62
     5
 10
-337.56384179600002
 20
38.523435382999999
 30
0.0
 40
0.5
 50
180.0
 51
270.0
  0
ARC
  5
9AC
  8
1
  6
CONTINUOUS
 62
     5
 10
-335.56384179600002
 20
38.523435382999999
 30
0.0
 40
0.5
 50
270.0
 51
0.0
  0
LINE
  5
9AD
  8
1
  6
CONTINUOUS
 62
     5
 10
-336.56384179600002
 20
66.394937998000003
 30
0.0
 11
-324.213841796
 21
66.394937998000003
 31
0.0
  0
LINE
  5
9AE
  8
1
  6
CONTINUOUS
 62
     5
 10
-334.42842614599999
 20
53.023435382999999
 30
0.0
 11
-334.42842614599999
 21
56.023435382999999
 31
0.0
  0
LINE
  5
9AF
  8
1
  6
CONTINUOUS
 62
     5
 10
-334.42842614599999
 20
55.873435383
 30
0.0
 11
-331.06384179600002
 21
55.873435383
 31
0.0
  0
LINE
  5
9B0
  8
1
  6
CONTINUOUS
 62
     5
 10
-334.42842614599999
 20
53.173435383000012
 30
0.0
 11
-331.06384179600002
 21
53.173435383000012
 31
0.0
  0
LINE
  5
9B1
  8
1
  6
CONTINUOUS
 62
     5
 10
-311.81384179600002
 20
104.194937998
 30
0.0
 11
-312.31384179600002
 21
103.694937998
 31
0.0
  0
LINE
  5
9B2
  8
1
  6
CONTINUOUS
 62
     5
 10
-361.31384179600002
 20
104.194937998
 30
0.0
 11
-361.31384179600002
 21
127.194937998
 31
0.0
  0
INSERT
  5
9B3
  8
1
  6
CONTINUOUS
 62
     5
  2
BLK554
 10
-315.389140279
 20
113.494937998
 30
0.0
 41
4.9900000000000002
 42
2.4950000000000001
 50
90.0
  0
LINE
  5
9B4
  8
1
  6
CONTINUOUS
 62
     5
 10
-311.81384179600002
 20
127.194937998
 30
0.0
 11
-311.81384179600002
 21
120.42293799799999
 31
0.0
  0
LINE
  5
9B5
  8
1
  6
CONTINUOUS
 62
     5
 10
-336.56384179600002
 20
103.694937998
 30
0.0
 11
-312.31384179600002
 21
103.694937998
 31
0.0
  0
LINE
  5
9B6
  8
1
  6
CONTINUOUS
 62
     5
 10
-360.81384179600002
 20
103.694937998
 30
0.0
 11
-336.56384179600002
 21
103.694937998
 31
0.0
  0
LINE
  5
9B7
  8
1
  6
CENTER
 62
     1
 10
-321.504215988
 20
113.494937998
 30
0.0
 11
-295.49312209800001
 21
113.494937998
 31
0.0
  0
LINE
  5
9B8
  8
1
  6
CONTINUOUS
 62
     5
 10
-311.81384179600002
 20
106.566937998
 30
0.0
 11
-311.81384179600002
 21
104.194937998
 31
0.0
  0
LINE
  5
9B9
  8
1
  6
CONTINUOUS
 62
     5
 10
-306.20153401200002
 20
119.494937998
 30
0.0
 11
-307.00515502299999
 21
120.42293799799999
 31
0.0
  0
LINE
  5
9BA
  8
1
  6
CONTINUOUS
 62
     5
 10
-306.201559261
 20
107.494937998
 30
0.0
 11
-307.00518027300001
 21
106.566937998
 31
0.0
  0
LINE
  5
9BB
  8
1
  6
CONTINUOUS
 62
     5
 10
-316.11748374000001
 20
116.958633134
 30
0.0
 11
-313.11748374000001
 21
120.42293799799999
 31
0.0
  0
LINE
  5
9BC
  8
1
  6
CONTINUOUS
 62
     5
 10
-316.11748374000001
 20
110.031242861
 30
0.0
 11
-313.11749647900001
 21
106.566937998
 31
0.0
  0
LINE
  5
9BD
  8
1
  6
CONTINUOUS
 62
     5
 10
-316.11748374000001
 20
110.031242861
 30
0.0
 11
-316.11748374000001
 21
116.958633134
 31
0.0
  0
LINE
  5
9BE
  8
1
  6
CONTINUOUS
 62
     5
 10
-310.00516753300002
 20
110.031242861
 30
0.0
 11
-310.00516753300002
 21
116.958633134
 31
0.0
  0
LINE
  5
9BF
  8
1
  6
CONTINUOUS
 62
     5
 10
-316.11748374000001
 20
110.031242861
 30
0.0
 11
-310.00516753300002
 21
110.031242861
 31
0.0
  0
LINE
  5
9C0
  8
1
  6
CONTINUOUS
 62
     5
 10
-310.00516753300002
 20
116.958633134
 30
0.0
 11
-316.11748374000001
 21
116.958633134
 31
0.0
  0
LINE
  5
9C1
  8
1
  6
CONTINUOUS
 62
     5
 10
-310.00516753300002
 20
110.031242861
 30
0.0
 11
-307.00518027300001
 21
106.566937998
 31
0.0
  0
LINE
  5
9C2
  8
1
  6
CONTINUOUS
 62
     5
 10
-315.389140279
 20
118.48493799800001
 30
0.0
 11
-314.79574250399997
 21
118.48493799800001
 31
0.0
  0
INSERT
  5
9C3
  8
1
  6
CONTINUOUS
 62
     5
  2
BLK570
 10
-307.00516753300002
 20
113.494937998
 30
0.0
 41
6.0
 42
3.0
 50
90.0
  0
LINE
  5
9C4
  8
1
  6
CONTINUOUS
 62
     5
 10
-307.00515502299999
 20
120.42293799799999
 30
0.0
 11
-313.11747122999998
 21
120.42293799799999
 31
0.0
  0
LINE
  5
9C5
  8
1
  6
CONTINUOUS
 62
     5
 10
-361.31384179600002
 20
127.194937998
 30
0.0
 11
-360.81384179600002
 21
127.694937998
 31
0.0
  0
LINE
  5
9C6
  8
1
  6
CONTINUOUS
 62
     5
 10
-313.11749647900001
 20
106.566937998
 30
0.0
 11
-307.00518027300001
 21
106.566937998
 31
0.0
  0
INSERT
  5
9C7
  8
1
  6
CONTINUOUS
 62
     5
  2
BLK574
 10
-316.358241894
 20
113.494937998
 30
0.0
 41
6.927999999999999
 42
3.4639999999999991
 50
90.0
  0
INSERT
  5
9C8
  8
1
  6
CONTINUOUS
 62
     5
  2
BLK575
 10
-316.358241894
 20
113.494937998
 30
0.0
 41
6.927999999999999
 42
3.4639999999999991
 50
90.0
  0
LINE
  5
9C9
  8
1
  6
CONTINUOUS
 62
     5
 10
-315.389140279
 20
108.504937998
 30
0.0
 11
-314.79574811700002
 21
108.504937998
 31
0.0
  0
INSERT
  5
9CA
  8
1
  6
CONTINUOUS
 62
     5
  2
BLK577
 10
-303.19465575599997
 20
113.494937998
 30
0.0
 41
3.5
 42
1.75
 50
90.0
  0
INSERT
  5
9CB
  8
1
  6
CONTINUOUS
 62
     5
  2
BLK578
 10
-303.19465575599997
 20
113.494937998
 30
0.0
 41
3.5
 42
1.75
 50
90.0
  0
LINE
  5
9CC
  8
1
  6
CONTINUOUS
 62
     5
 10
-301.63582060300001
 20
107.744937998
 30
0.0
 11
-300.336782497
 21
107.744937998
 31
0.0
  0
LINE
  5
9CD
  8
1
  6
CONTINUOUS
 62
     5
 10
-300.33676154099999
 20
119.244937998
 30
0.0
 11
-301.635799647
 21
119.244937998
 31
0.0
  0
LINE
  5
9CE
  8
1
  6
CONTINUOUS
 62
     5
 10
-303.19464492200001
 20
119.494937998
 30
0.0
 11
-307.00515694000001
 21
119.494937998
 31
0.0
  0
LINE
  5
9CF
  8
1
  6
CONTINUOUS
 62
     5
 10
-307.00516753300002
 20
107.494937998
 30
0.0
 11
-303.19466678999999
 21
107.494937998
 31
0.0
  0
INSERT
  5
9D0
  8
1
  6
CONTINUOUS
 62
     5
  2
BLK583
 10
-304.84010402400003
 20
113.494937998
 30
0.0
 41
6.0
 42
3.0
 50
90.0
  0
INSERT
  5
9D1
  8
1
  6
CONTINUOUS
 62
     5
  2
BLK584
 10
-303.19465575599997
 20
113.494937998
 30
0.0
 41
6.0
 42
3.0
 50
90.0
  0
INSERT
  5
9D2
  8
1
  6
CONTINUOUS
 62
     5
  2
BLK585
 10
-301.63581003000002
 20
113.494937998
 30
0.0
 41
5.75
 42
2.875
 50
90.0
  0
INSERT
  5
9D3
  8
1
  6
CONTINUOUS
 62
     5
  2
BLK586
 10
-300.336771924
 20
113.494937998
 30
0.0
 41
5.75
 42
2.875
 50
90.0
  0
INSERT
  5
9D4
  8
1
  6
CONTINUOUS
 62
     5
  2
BLK587
 10
-300.336771924
 20
113.494937998
 30
0.0
 41
3.0
 42
1.5
 50
90.0
  0
LINE
  5
9D5
  8
1
  6
CONTINUOUS
 62
     5
 10
-336.56384179600002
 20
66.394937998000003
 30
0.0
 11
-348.91384179599999
 21
66.394937998000003
 31
0.0
  0
LINE
  5
9D6
  8
1
  6
CONTINUOUS
 62
     5
 10
-336.56384179600002
 20
66.594937998000006
 30
0.0
 11
-349.06384179600002
 21
66.594937998000006
 31
0.0
  0
LINE
  5
9D7
  8
1
  6
CONTINUOUS
 62
     5
 10
-337.56384179600002
 20
38.023435382999999
 30
0.0
 11
-335.56384179600002
 21
38.023435382999999
 31
0.0
  0
LINE
  5
9D8
  8
1
  6
CONTINUOUS
 62
     5
 10
-324.213841796
 20
66.394937998000003
 30
0.0
 11
-324.11384179599997
 21
66.294937998000009
 31
0.0
  0
LINE
  5
9D9
  8
1
  6
CONTINUOUS
 62
     5
 10
-324.11384179599997
 20
66.294937998000009
 30
0.0
 11
-324.11384179599997
 21
63.794937998000002
 31
0.0
  0
LINE
  5
9DA
  8
1
  6
CONTINUOUS
 62
     5
 10
-348.91384179599999
 20
63.694937998
 30
0.0
 11
-349.01384179600001
 21
63.794937998000002
 31
0.0
  0
LINE
  5
9DB
  8
1
  6
CONTINUOUS
 62
     5
 10
-322.56384179599991
 20
70.716154126999996
 30
0.0
 11
-324.06384179600002
 21
66.594937998000006
 31
0.0
  0
LINE
  5
9DC
  8
1
  6
CONTINUOUS
 62
     5
 10
-342.463841796
 20
52.873435383
 30
0.0
 11
-330.66384179599999
 21
52.873435383
 31
0.0
  0
LINE
  5
9DD
  8
1
  6
CONTINUOUS
 62
     5
 10
-349.01384179600001
 20
66.294937998000009
 30
0.0
 11
-349.01384179600001
 21
63.794937998000002
 31
0.0
  0
LINE
  5
9DE
  8
1
  6
CONTINUOUS
 62
     5
 10
-342.463841796
 20
56.173435382999998
 30
0.0
 11
-330.66384179599999
 21
56.173435382999998
 31
0.0
  0
LINE
  5
9DF
  8
1
  6
CONTINUOUS
 62
     5
 10
-350.56384179600002
 20
103.694937998
 30
0.0
 11
-350.56384179600002
 21
70.716154126999996
 31
0.0
  0
LINE
  5
9E0
  8
1
  6
CONTINUOUS
 62
     5
 10
-339.03163433200001
 20
61.194937998
 30
0.0
 11
-334.09604925999997
 21
61.194937998
 31
0.0
  0
LINE
  5
9E1
  8
1
  6
CONTINUOUS
 62
     5
 10
-310.00516753300002
 20
116.958633134
 30
0.0
 11
-307.00516753300002
 21
120.42293799799999
 31
0.0
  0
LINE
  5
9E2
  8
1
  6
CONTINUOUS
 62
     5
 10
-360.81384179600002
 20
103.694937998
 30
0.0
 11
-361.31384179600002
 21
104.194937998
 31
0.0
  0
LINE
  5
9E3
  8
1
  6
CONTINUOUS
 62
     5
 10
-350.56384179600002
 20
70.716154126999996
 30
0.0
 11
-349.06384179600002
 21
66.594937998000006
 31
0.0
  0
LINE
  5
9E4
  8
1
  6
CONTINUOUS
 62
     5
 10
-348.91384179599999
 20
66.394937998000003
 30
0.0
 11
-349.01384179600001
 21
66.294937998000009
 31
0.0
  0
LINE
  5
9E5
  8
1
  6
CONTINUOUS
 62
     5
 10
-338.06384179600002
 20
38.523435382999999
 30
0.0
 11
-338.06384179600002
 21
49.023435382999999
 31
0.0
  0
LINE
  5
9E6
  8
1
  6
CONTINUOUS
 62
     5
 10
-335.06384179599991
 20
49.023435382999999
 30
0.0
 11
-335.06384179599991
 21
38.523435382999999
 31
0.0
  0
LINE
  5
9E7
  8
1
  6
CONTINUOUS
 62
     5
 10
-336.56384179600002
 20
127.694937998
 30
0.0
 11
-312.31384179600002
 21
127.694937998
 31
0.0
  0
LINE
  5
9E8
  8
1
  6
CONTINUOUS
 62
     5
 10
-360.81384179600002
 20
127.694937998
 30
0.0
 11
-336.56384179600002
 21
127.694937998
 31
0.0
  0
ARC
  5
9E9
  8
1
  6
CONTINUOUS
 62
     5
 10
-331.463841796
 20
59.723435383000002
 30
0.0
 40
0.8
 50
0.0
 51
90.0
  0
LINE
  5
9EA
  8
1
  6
CONTINUOUS
 62
     5
 10
-348.91384179599999
 20
63.694937998
 30
0.0
 11
-336.56384179600002
 21
63.694937998
 31
0.0
  0
LINE
  5
9EB
  8
1
  6
CONTINUOUS
 62
     5
 10
-322.56384179599991
 20
103.694937998
 30
0.0
 11
-322.56384179599991
 21
70.716154126999996
 31
0.0
  0
LINE
  5
9EC
  8
1
  6
CONTINUOUS
 62
     4
 10
-339.03163433200001
 20
63.694937998
 30
0.0
 11
-339.03163433200001
 21
61.194937998
 31
0.0
  0
LINE
  5
9ED
  8
1
  6
CONTINUOUS
 62
     5
 10
-341.26384179600001
 20
60.523435382999999
 30
0.0
 11
-341.26384179600001
 21
63.694937998
 31
0.0
  0
LINE
  5
9EE
  8
1
  6
CONTINUOUS
 62
     5
 10
-331.86384179599997
 20
60.523435382999999
 30
0.0
 11
-331.86384179599997
 21
63.694937998
 31
0.0
  0
DIMENSION
  5
9EF
  8
1
  6
CONTINUOUS
 62
     4
  2
*D82
 10
-322.56384179599991
 20
25.487160512999999
 30
0.0
 11
-336.56384179600002
 21
25.487160512999999
 31
0.0
 70
     1
 13
-350.56384179600002
 23
70.716154126999996
 33
0.0
 14
-322.56384179599991
 24
70.716154126999996
 34
0.0
  0
LINE
  5
9F0
  8
1
  6
CONTINUOUS
 62
     5
 10
-342.463841796
 20
52.873435383
 30
0.0
 11
-342.31384179600002
 21
53.023435382999999
 31
0.0
  0
LINE
  5
9F1
  8
1
  6
CONTINUOUS
 62
     5
 10
-324.213841796
 20
63.694937998
 30
0.0
 11
-336.56384179600002
 21
63.694937998
 31
0.0
  0
LINE
  5
9F2
  8
1
  6
CONTINUOUS
 62
     5
 10
-312.31384179600002
 20
127.694937998
 30
0.0
 11
-311.81384179600002
 21
127.194937998
 31
0.0
  0
POLYLINE
  5
9F3
  8
1
  6
CONTINUOUS
 62
     4
 66
     1
 10
0.0
 20
0.0
 30
0.0
  0
VERTEX
  5
105D
  8
1
  6
CONTINUOUS
 62
     4
 10
-293.719238281
 20
123.687065125
 30
0.0
  0
VERTEX
  5
105E
  8
1
  6
CONTINUOUS
 62
     4
 10
-293.93280029300001
 20
124.250427246
 30
0.0
  0
VERTEX
  5
105F
  8
1
  6
CONTINUOUS
 62
     4
 10
-294.14636230500003
 20
124.813789368
 30
0.0
  0
VERTEX
  5
1060
  8
1
  6
CONTINUOUS
 62
     4
 10
-294.35992431599999
 20
125.377151489
 30
0.0
  0
VERTEX
  5
1061
  8
1
  6
CONTINUOUS
 62
     4
 10
-294.573486328
 20
125.940505981
 30
0.0
  0
VERTEX
  5
1062
  8
1
  6
CONTINUOUS
 62
     4
 10
-294.78704834000001
 20
126.503868103
 30
0.0
  0
VERTEX
  5
1063
  8
1
  6
CONTINUOUS
 62
     4
 10
-295.00061035200002
 20
127.067230225
 30
0.0
  0
VERTEX
  5
1064
  8
1
  6
CONTINUOUS
 62
     4
 10
-295.21417236299999
 20
127.630592346
 30
0.0
  0
VERTEX
  5
1065
  8
1
  6
CONTINUOUS
 62
     4
 10
-295.427734375
 20
128.19395446799999
 30
0.0
  0
VERTEX
  5
1066
  8
1
  6
CONTINUOUS
 62
     4
 10
-295.64129638700001
 20
128.75730895999999
 30
0.0
  0
VERTEX
  5
1067
  8
1
  6
CONTINUOUS
 62
     4
 10
-295.85485839799998
 20
129.320678711
 30
0.0
  0
VERTEX
  5
1068
  8
1
  6
CONTINUOUS
 62
     4
 10
-296.06842040999999
 20
129.884033203
 30
0.0
  0
VERTEX
  5
1069
  8
1
  6
CONTINUOUS
 62
     4
 10
-296.281982422
 20
130.44740295400001
 30
0.0
  0
VERTEX
  5
106A
  8
1
  6
CONTINUOUS
 62
     4
 10
-296.49554443400001
 20
131.01075744600001
 30
0.0
  0
VERTEX
  5
106B
  8
1
  6
CONTINUOUS
 62
     4
 10
-296.70910644499997
 20
131.574127197
 30
0.0
  0
VERTEX
  5
106C
  8
1
  6
CONTINUOUS
 62
     4
 10
-296.92266845699999
 20
132.137481689
 30
0.0
  0
VERTEX
  5
106D
  8
1
  6
CONTINUOUS
 62
     4
 10
-297.136230469
 20
132.70083618199999
 30
0.0
  0
VERTEX
  5
106E
  8
1
  6
CONTINUOUS
 62
     4
 10
-297.34979248000002
 20
133.264205933
 30
0.0
  0
VERTEX
  5
106F
  8
1
  6
CONTINUOUS
 62
     4
 10
-297.56335449199997
 20
133.827560425
 30
0.0
  0
VERTEX
  5
1070
  8
1
  6
CONTINUOUS
 62
     4
 10
-297.7769165040001
 20
134.39093017600001
 30
0.0
  0
VERTEX
  5
1071
  8
1
  6
CONTINUOUS
 62
     4
 10
-297.990478516
 20
134.95428466800001
 30
0.0
  0
VERTEX
  5
1072
  8
1
  6
CONTINUOUS
 62
     4
 10
-298.20404052700002
 20
135.517654419
 30
0.0
  0
VERTEX
  5
1073
  8
1
  6
CONTINUOUS
 62
     4
 10
-298.41760253899997
 20
136.081008911
 30
0.0
  0
VERTEX
  5
1074
  8
1
  6
CONTINUOUS
 62
     4
 10
-298.63116455099998
 20
136.64437866200001
 30
0.0
  0
VERTEX
  5
1075
  8
1
  6
CONTINUOUS
 62
     4
 10
-298.84472656299999
 20
137.20773315400001
 30
0.0
  0
VERTEX
  5
1076
  8
1
  6
CONTINUOUS
 62
     4
 10
-299.05828857400002
 20
137.77108764600001
 30
0.0
  0
VERTEX
  5
1077
  8
1
  6
CONTINUOUS
 62
     4
 10
-299.27185058600003
 20
138.33445739699999
 30
0.0
  0
VERTEX
  5
1078
  8
1
  6
CONTINUOUS
 62
     4
 10
-299.48541259799998
 20
138.89781189000001
 30
0.0
  0
VERTEX
  5
1079
  8
1
  6
CONTINUOUS
 62
     4
 10
-299.698974609
 20
139.461181641
 30
0.0
  0
VERTEX
  5
107A
  8
1
  6
CONTINUOUS
 62
     4
 10
-299.91253662100002
 20
140.024536133
 30
0.0
  0
VERTEX
  5
107B
  8
1
  6
CONTINUOUS
 62
     4
 10
-300.12609863300003
 20
140.58790588400001
 30
0.0
  0
VERTEX
  5
107C
  8
1
  6
CONTINUOUS
 62
     4
 10
-300.33966064499998
 20
141.15126037600001
 30
0.0
  0
VERTEX
  5
107D
  8
1
  6
CONTINUOUS
 62
     4
 10
-300.553222656
 20
141.71461486800001
 30
0.0
  0
VERTEX
  5
107E
  8
1
  6
CONTINUOUS
 62
     4
 10
-299.82415771500001
 20
141.71461486800001
 30
0.0
  0
VERTEX
  5
107F
  8
1
  6
CONTINUOUS
 62
     4
 10
-299.09512329099999
 20
141.71461486800001
 30
0.0
  0
VERTEX
  5
1080
  8
1
  6
CONTINUOUS
 62
     4
 10
-298.36605835
 20
141.71461486800001
 30
0.0
  0
VERTEX
  5
1081
  8
1
  6
CONTINUOUS
 62
     4
 10
-297.63699340800002
 20
141.71461486800001
 30
0.0
  0
VERTEX
  5
1082
  8
1
  6
CONTINUOUS
 62
     4
 10
-296.907958984
 20
141.71461486800001
 30
0.0
  0
VERTEX
  5
1083
  8
1
  6
CONTINUOUS
 62
     4
 10
-296.17889404300001
 20
141.71461486800001
 30
0.0
  0
VERTEX
  5
1084
  8
1
  6
CONTINUOUS
 62
     4
 10
-295.44982910200002
 20
141.71461486800001
 30
0.0
  0
VERTEX
  5
1085
  8
1
  6
CONTINUOUS
 62
     4
 10
-294.720794678
 20
141.71461486800001
 30
0.0
  0
VERTEX
  5
1086
  8
1
  6
CONTINUOUS
 62
     4
 10
-293.99172973600002
 20
141.71461486800001
 30
0.0
  0
VERTEX
  5
1087
  8
1
  6
CONTINUOUS
 62
     4
 10
-293.26266479499998
 20
141.71461486800001
 30
0.0
  0
VERTEX
  5
1088
  8
1
  6
CONTINUOUS
 62
     4
 10
-292.53359985399999
 20
141.71461486800001
 30
0.0
  0
VERTEX
  5
1089
  8
1
  6
CONTINUOUS
 62
     4
 10
-291.80456543000003
 20
141.71461486800001
 30
0.0
  0
VERTEX
  5
108A
  8
1
  6
CONTINUOUS
 62
     4
 10
-291.07550048799999
 20
141.71461486800001
 30
0.0
  0
VERTEX
  5
108B
  8
1
  6
CONTINUOUS
 62
     4
 10
-290.346435547
 20
141.71461486800001
 30
0.0
  0
VERTEX
  5
108C
  8
1
  6
CONTINUOUS
 62
     4
 10
-289.61740112299998
 20
141.71461486800001
 30
0.0
  0
VERTEX
  5
108D
  8
1
  6
CONTINUOUS
 62
     4
 10
-288.88833618199999
 20
141.71461486800001
 30
0.0
  0
VERTEX
  5
108E
  8
1
  6
CONTINUOUS
 62
     4
 10
-288.15927124000001
 20
141.71461486800001
 30
0.0
  0
VERTEX
  5
108F
  8
1
  6
CONTINUOUS
 62
     4
 10
-287.43023681599999
 20
141.71461486800001
 30
0.0
  0
VERTEX
  5
1090
  8
1
  6
CONTINUOUS
 62
     4
 10
-286.701171875
 20
141.71461486800001
 30
0.0
  0
VERTEX
  5
1091
  8
1
  6
CONTINUOUS
 62
     4
 10
-285.97210693400001
 20
141.71461486800001
 30
0.0
  0
VERTEX
  5
1092
  8
1
  6
CONTINUOUS
 62
     4
 10
-285.24307250999999
 20
141.71461486800001
 30
0.0
  0
VERTEX
  5
1093
  8
1
  6
CONTINUOUS
 62
     4
 10
-284.51400756800001
 20
141.71461486800001
 30
0.0
  0
VERTEX
  5
1094
  8
1
  6
CONTINUOUS
 62
     4
 10
-283.78494262700002
 20
141.71461486800001
 30
0.0
  0
VERTEX
  5
1095
  8
1
  6
CONTINUOUS
 62
     4
 10
-283.05587768599997
 20
141.71461486800001
 30
0.0
  0
VERTEX
  5
1096
  8
1
  6
CONTINUOUS
 62
     4
 10
-282.32684326200001
 20
141.71461486800001
 30
0.0
  0
VERTEX
  5
1097
  8
1
  6
CONTINUOUS
 62
     4
 10
-281.59777831999997
 20
141.71461486800001
 30
0.0
  0
VERTEX
  5
1098
  8
1
  6
CONTINUOUS
 62
     4
 10
-280.86871337899998
 20
141.71461486800001
 30
0.0
  0
VERTEX
  5
1099
  8
1
  6
CONTINUOUS
 62
     4
 10
-280.13967895500002
 20
141.71461486800001
 30
0.0
  0
VERTEX
  5
109A
  8
1
  6
CONTINUOUS
 62
     4
 10
-279.41061401399998
 20
141.71461486800001
 30
0.0
  0
VERTEX
  5
109B
  8
1
  6
CONTINUOUS
 62
     4
 10
-278.681549072
 20
141.71461486800001
 30
0.0
  0
VERTEX
  5
109C
  8
1
  6
CONTINUOUS
 62
     4
 10
-277.95251464799998
 20
141.71461486800001
 30
0.0
  0
VERTEX
  5
109D
  8
1
  6
CONTINUOUS
 62
     4
 10
-277.22344970699999
 20
141.71461486800001
 30
0.0
  0
SEQEND
  5
109E
  8
1
  6
CONTINUOUS
 62
     4
  0
POLYLINE
  5
A36
  8
1
  6
CONTINUOUS
 62
     4
 66
     1
 10
0.0
 20
0.0
 30
0.0
  0
VERTEX
  5
109F
  8
1
  6
CONTINUOUS
 62
     4
 10
-294.70869944499998
 20
125.450858368
 30
0.0
  0
VERTEX
  5
10A0
  8
1
  6
CONTINUOUS
 62
     4
 10
-293.719238281
 20
123.687065125
 30
0.0
  0
VERTEX
  5
10A1
  8
1
  6
CONTINUOUS
 62
     4
 10
-294.147659127
 20
125.663540669
 30
0.0
  0
SEQEND
  5
10A2
  8
1
  6
CONTINUOUS
 62
     4
  0
DIMENSION
  5
A3B
  8
1
  6
CONTINUOUS
 62
     4
  2
*D83
 10
-260.81047116600001
 20
49.023435382999999
 30
0.0
 11
-260.693215458
 21
56.310811808999993
 31
0.0
 13
-324.213841796
 23
63.694937998
 33
0.0
 14
-333.14119206499998
 24
49.023435382999999
 34
0.0
 50
90.0
  0
DIMENSION
  5
A3C
  8
1
  6
CONTINUOUS
 62
     4
  2
*D84
 10
-272.8104711659999
 20
103.694937998
 30
0.0
 11
-272.8104711659999
 21
130.694937998
 31
0.0
 13
-306.06384179600002
 23
157.694937998
 33
0.0
 14
-312.31384179600002
 24
103.694937998
 34
0.0
 50
90.0
  0
DIMENSION
  5
A3D
  8
1
  6
CONTINUOUS
 62
     4
  2
*D85
 10
-361.31384179600002
 20
11.262101766000001
 30
0.0
 11
-336.56384179600002
 21
11.262101766000001
 31
0.0
 70
     1
 13
-311.81384179600002
 23
104.194937998
 33
0.0
 14
-361.31384179600002
 24
104.194937998
 34
0.0
  0
DIMENSION
  5
A3E
  8
1
  6
CONTINUOUS
 62
     4
  2
*D86
 10
-248.81047116600001
 20
49.023435382999999
 30
0.0
 11
-248.40896550599999
 21
104.62804507200001
 31
0.0
 13
-306.06384179600002
 23
157.694937998
 33
0.0
 14
-260.81047116600001
 24
49.023435382999999
 34
0.0
 50
90.0
  0
LINE
  5
A3F
  8
1
  6
CONTINUOUS
 62
     5
 10
-339.986491527
 20
49.023435382999999
 30
0.0
 11
-333.14119206499998
 21
49.023435382999999
 31
0.0
  0
LINE
  5
A40
  8
1
  6
CENTER
 62
     1
 10
-336.56384179600002
 20
35.445264465999998
 30
0.0
 11
-336.56384179600002
 21
230.811910719
 31
0.0
  0
LINE
  5
A41
  8
1
  6
CONTINUOUS
 62
     5
 10
-342.31384179600002
 20
56.023435382999999
 30
0.0
 11
-342.463841796
 21
56.173435382999998
 31
0.0
  0
LINE
  5
A42
  8
1
  6
CONTINUOUS
 62
     5
 10
-338.69925744699998
 20
53.023435382999999
 30
0.0
 11
-342.31384179600002
 21
53.023435382999999
 31
0.0
  0
LINE
  5
A43
  8
1
  6
CONTINUOUS
 62
     5
 10
-342.463841796
 20
52.873435383
 30
0.0
 11
-342.463841796
 21
52.582281108999993
 31
0.0
  0
INSERT
  5
A44
  8
1
  6
CONTINUOUS
 62
     5
  2
BLK628
 10
-289.14895093899997
 20
118.894937998
 30
0.0
 41
8.0
 42
4.0
 50
90.0
  0
ARC
  5
A45
  8
1
  6
CONTINUOUS
 62
     5
 10
-341.463841796
 20
52.582281108999993
 30
0.0
 40
1.0
 50
180.0
 51
210.0
  0
LINE
  5
A46
  8
1
  6
CONTINUOUS
 62
     5
 10
-289.14895093899997
 20
110.894937998
 30
0.0
 11
-297.72418221300001
 21
110.894937998
 31
0.0
  0
LINE
  5
A47
  8
1
  6
CONTINUOUS
 62
     5
 10
-330.66384179599999
 20
59.723435383000002
 30
0.0
 11
-330.66384179599999
 21
56.173435382999998
 31
0.0
  0
LINE
  5
A48
  8
1
  6
CONTINUOUS
 62
     5
 10
-289.14895093899997
 20
126.894937998
 30
0.0
 11
-311.81384179600002
 21
126.894937998
 31
0.0
  0
LINE
  5
A49
  8
1
  6
CONTINUOUS
 62
     5
 10
-342.06384179600002
 20
53.023435382999999
 30
0.0
 11
-342.06384179600002
 21
56.023435382999999
 31
0.0
  0
LINE
  5
A4A
  8
1
  6
CENTER
 62
     1
 10
-321.48426105800002
 20
118.894937998
 30
0.0
 11
-283.24983280999999
 21
118.894937998
 31
0.0
  0
LINE
  5
A4B
  8
1
  6
CONTINUOUS
 62
     5
 10
-331.06384179600002
 20
53.023435382999999
 30
0.0
 11
-331.06384179600002
 21
56.023435382999999
 31
0.0
  0
ARC
  5
A4F
  8
1
  6
CONTINUOUS
 62
     5
 10
-341.66384179599999
 20
59.723435383000002
 30
0.0
 40
0.8
 50
90.0
 51
180.0
  0
LINE
  5
A50
  8
1
  6
CONTINUOUS
 62
     5
 10
-338.69925744699998
 20
56.023435382999999
 30
0.0
 11
-342.31384179600002
 21
56.023435382999999
 31
0.0
  0
LINE
  5
A51
  8
1
  6
CONTINUOUS
 62
     5
 10
-305.06384179600002
 20
156.694937998
 30
0.0
 11
-306.06384179600002
 21
157.694937998
 31
0.0
  0
LINE
  5
A52
  8
1
  6
CONTINUOUS
 62
     5
 10
-340.85251693100003
 20
49.523435382999999
 30
0.0
 11
-342.32986720000002
 21
52.082281108999993
 31
0.0
  0
LINE
  5
A5A
  8
1
  6
CONTINUOUS
 62
     5
 10
-330.66384179599999
 20
52.873435383
 30
0.0
 11
-330.81384179599991
 21
53.023435382999999
 31
0.0
  0
LINE
  5
A63
  8
1
  6
CONTINUOUS
 62
     5
 10
-336.56384179600002
 20
60.523435382999999
 30
0.0
 11
-341.66384179599999
 21
60.523435382999999
 31
0.0
  0
LINE
  5
A64
  8
1
  6
CONTINUOUS
 62
     5
 10
-348.75134179100002
 20
225.09493799800001
 30
0.0
 11
-324.37634180100002
 21
225.09493799800001
 31
0.0
  0
LINE
  5
A65
  8
1
  6
CONTINUOUS
 62
     5
 10
-367.06384179600002
 20
127.694937998
 30
0.0
 11
-368.06384179600002
 21
128.694937998
 31
0.0
  0
LINE
  5
A66
  8
1
  6
CONTINUOUS
 62
     5
 10
-305.06384179600002
 20
128.694937998
 30
0.0
 11
-306.06384179600002
 21
127.694937998
 31
0.0
  0
LINE
  5
A67
  8
1
  6
CONTINUOUS
 62
     5
 10
-640.54364351499999
 20
110.031242861
 30
0.0
 11
-637.54365625399998
 21
106.566937998
 31
0.0
  0
TEXT
  5
A68
  8
1
  6
CONTINUOUS
 62
     4
 10
-630.43545285100004
 20
142.61462221599999
 30
0.0
 40
3.0
  1
消音器１／８
 41
0.7537128712871298
 72
     5
 11
-615.21045285100001
 21
142.61462221599999
 31
0.0
  0
POLYLINE
  5
A69
  8
1
  6
CONTINUOUS
 62
     4
 66
     1
 10
0.0
 20
0.0
 30
0.0
  0
VERTEX
  5
10A3
  8
1
  6
CONTINUOUS
 62
     4
 10
-624.25775146499996
 20
123.687065125
 30
0.0
  0
VERTEX
  5
10A4
  8
1
  6
CONTINUOUS
 62
     4
 10
-624.47131347699985
 20
124.250427246
 30
0.0
  0
VERTEX
  5
10A5
  8
1
  6
CONTINUOUS
 62
     4
 10
-624.68487548799999
 20
124.813789368
 30
0.0
  0
VERTEX
  5
10A6
  8
1
  6
CONTINUOUS
 62
     4
 10
-624.8984375
 20
125.377151489
 30
0.0
  0
VERTEX
  5
10A7
  8
1
  6
CONTINUOUS
 62
     4
 10
-625.1119995119999
 20
125.940505981
 30
0.0
  0
VERTEX
  5
10A8
  8
1
  6
CONTINUOUS
 62
     4
 10
-625.32556152300003
 20
126.503868103
 30
0.0
  0
VERTEX
  5
10A9
  8
1
  6
CONTINUOUS
 62
     4
 10
-625.53912353500004
 20
127.067230225
 30
0.0
  0
VERTEX
  5
10AA
  8
1
  6
CONTINUOUS
 62
     4
 10
-625.75268554699994
 20
127.630592346
 30
0.0
  0
VERTEX
  5
10AB
  8
1
  6
CONTINUOUS
 62
     4
 10
-625.96624755899995
 20
128.19395446799999
 30
0.0
  0
VERTEX
  5
10AC
  8
1
  6
CONTINUOUS
 62
     4
 10
-626.17980956999986
 20
128.75730895999999
 30
0.0
  0
VERTEX
  5
10AD
  8
1
  6
CONTINUOUS
 62
     4
 10
-626.39337158199999
 20
129.320678711
 30
0.0
  0
VERTEX
  5
10AE
  8
1
  6
CONTINUOUS
 62
     4
 10
-626.606933594
 20
129.884033203
 30
0.0
  0
VERTEX
  5
10AF
  8
1
  6
CONTINUOUS
 62
     4
 10
-626.82049560499991
 20
130.44740295400001
 30
0.0
  0
VERTEX
  5
10B0
  8
1
  6
CONTINUOUS
 62
     4
 10
-627.03405761699992
 20
131.01075744600001
 30
0.0
  0
VERTEX
  5
10B1
  8
1
  6
CONTINUOUS
 62
     4
 10
-627.24761962900004
 20
131.574127197
 30
0.0
  0
VERTEX
  5
10B2
  8
1
  6
CONTINUOUS
 62
     4
 10
-627.46118164099994
 20
132.137481689
 30
0.0
  0
VERTEX
  5
10B3
  8
1
  6
CONTINUOUS
 62
     4
 10
-627.67474365199996
 20
132.70083618199999
 30
0.0
  0
VERTEX
  5
10B4
  8
1
  6
CONTINUOUS
 62
     4
 10
-627.88830566399986
 20
133.264205933
 30
0.0
  0
VERTEX
  5
10B5
  8
1
  6
CONTINUOUS
 62
     4
 10
-628.10186767599987
 20
133.827560425
 30
0.0
  0
VERTEX
  5
10B6
  8
1
  6
CONTINUOUS
 62
     4
 10
-628.31542968799999
 20
134.39093017600001
 30
0.0
  0
VERTEX
  5
10B7
  8
1
  6
CONTINUOUS
 62
     4
 10
-628.52899169900002
 20
134.95428466800001
 30
0.0
  0
VERTEX
  5
10B8
  8
1
  6
CONTINUOUS
 62
     4
 10
-628.74255371100003
 20
135.517654419
 30
0.0
  0
VERTEX
  5
10B9
  8
1
  6
CONTINUOUS
 62
     4
 10
-628.95611572300004
 20
136.081008911
 30
0.0
  0
VERTEX
  5
10BA
  8
1
  6
CONTINUOUS
 62
     4
 10
-629.16961669900002
 20
136.64437866200001
 30
0.0
  0
VERTEX
  5
10BB
  8
1
  6
CONTINUOUS
 62
     4
 10
-629.38317871100003
 20
137.20773315400001
 30
0.0
  0
VERTEX
  5
10BC
  8
1
  6
CONTINUOUS
 62
     4
 10
-629.59674072300004
 20
137.77108764600001
 30
0.0
  0
VERTEX
  5
10BD
  8
1
  6
CONTINUOUS
 62
     4
 10
-629.81030273399995
 20
138.33445739699999
 30
0.0
  0
VERTEX
  5
10BE
  8
1
  6
CONTINUOUS
 62
     4
 10
-630.02386474599984
 20
138.89781189000001
 30
0.0
  0
VERTEX
  5
10BF
  8
1
  6
CONTINUOUS
 62
     4
 10
-630.23742675800008
 20
139.461181641
 30
0.0
  0
VERTEX
  5
10C0
  8
1
  6
CONTINUOUS
 62
     4
 10
-630.45098876999998
 20
140.024536133
 30
0.0
  0
VERTEX
  5
10C1
  8
1
  6
CONTINUOUS
 62
     4
 10
-630.66455078099989
 20
140.58790588400001
 30
0.0
  0
VERTEX
  5
10C2
  8
1
  6
CONTINUOUS
 62
     4
 10
-630.87811279300001
 20
141.15126037600001
 30
0.0
  0
VERTEX
  5
10C3
  8
1
  6
CONTINUOUS
 62
     4
 10
-631.09167480500003
 20
141.71461486800001
 30
0.0
  0
VERTEX
  5
10C4
  8
1
  6
CONTINUOUS
 62
     4
 10
-630.36267089800003
 20
141.71461486800001
 30
0.0
  0
VERTEX
  5
10C5
  8
1
  6
CONTINUOUS
 62
     4
 10
-629.63360595699987
 20
141.71461486800001
 30
0.0
  0
VERTEX
  5
10C6
  8
1
  6
CONTINUOUS
 62
     4
 10
-628.90454101599994
 20
141.71461486800001
 30
0.0
  0
VERTEX
  5
10C7
  8
1
  6
CONTINUOUS
 62
     4
 10
-628.17547607400002
 20
141.71461486800001
 30
0.0
  0
VERTEX
  5
10C8
  8
1
  6
CONTINUOUS
 62
     4
 10
-627.44641113300008
 20
141.71461486800001
 30
0.0
  0
VERTEX
  5
10C9
  8
1
  6
CONTINUOUS
 62
     4
 10
-626.71734619099993
 20
141.71461486800001
 30
0.0
  0
VERTEX
  5
10CA
  8
1
  6
CONTINUOUS
 62
     4
 10
-625.98834228500004
 20
141.71461486800001
 30
0.0
  0
VERTEX
  5
10CB
  8
1
  6
CONTINUOUS
 62
     4
 10
-625.25927734399988
 20
141.71461486800001
 30
0.0
  0
VERTEX
  5
10CC
  8
1
  6
CONTINUOUS
 62
     4
 10
-624.53021240199996
 20
141.71461486800001
 30
0.0
  0
VERTEX
  5
10CD
  8
1
  6
CONTINUOUS
 62
     4
 10
-623.80114746100003
 20
141.71461486800001
 30
0.0
  0
VERTEX
  5
10CE
  8
1
  6
CONTINUOUS
 62
     4
 10
-623.07208251999987
 20
141.71461486800001
 30
0.0
  0
VERTEX
  5
10CF
  8
1
  6
CONTINUOUS
 62
     4
 10
-622.34301757799994
 20
141.71461486800001
 30
0.0
  0
VERTEX
  5
10D0
  8
1
  6
CONTINUOUS
 62
     4
 10
-621.61395263700001
 20
141.71461486800001
 30
0.0
  0
VERTEX
  5
10D1
  8
1
  6
CONTINUOUS
 62
     4
 10
-620.88494873000002
 20
141.71461486800001
 30
0.0
  0
VERTEX
  5
10D2
  8
1
  6
CONTINUOUS
 62
     4
 10
-620.15588378899986
 20
141.71461486800001
 30
0.0
  0
VERTEX
  5
10D3
  8
1
  6
CONTINUOUS
 62
     4
 10
-619.42681884800004
 20
141.71461486800001
 30
0.0
  0
VERTEX
  5
10D4
  8
1
  6
CONTINUOUS
 62
     4
 10
-618.69775390599989
 20
141.71461486800001
 30
0.0
  0
VERTEX
  5
10D5
  8
1
  6
CONTINUOUS
 62
     4
 10
-617.96868896499996
 20
141.71461486800001
 30
0.0
  0
VERTEX
  5
10D6
  8
1
  6
CONTINUOUS
 62
     4
 10
-617.23962402300003
 20
141.71461486800001
 30
0.0
  0
VERTEX
  5
10D7
  8
1
  6
CONTINUOUS
 62
     4
 10
-616.51062011699992
 20
141.71461486800001
 30
0.0
  0
VERTEX
  5
10D8
  8
1
  6
CONTINUOUS
 62
     4
 10
-615.78155517599987
 20
141.71461486800001
 30
0.0
  0
VERTEX
  5
10D9
  8
1
  6
CONTINUOUS
 62
     4
 10
-615.05249023399995
 20
141.71461486800001
 30
0.0
  0
VERTEX
  5
10DA
  8
1
  6
CONTINUOUS
 62
     4
 10
-614.32342529300001
 20
141.71461486800001
 30
0.0
  0
VERTEX
  5
10DB
  8
1
  6
CONTINUOUS
 62
     4
 10
-613.59436035199985
 20
141.71461486800001
 30
0.0
  0
VERTEX
  5
10DC
  8
1
  6
CONTINUOUS
 62
     4
 10
-612.86529541000004
 20
141.71461486800001
 30
0.0
  0
VERTEX
  5
10DD
  8
1
  6
CONTINUOUS
 62
     4
 10
-612.13623046899988
 20
141.71461486800001
 30
0.0
  0
VERTEX
  5
10DE
  8
1
  6
CONTINUOUS
 62
     4
 10
-611.40722656299988
 20
141.71461486800001
 30
0.0
  0
VERTEX
  5
10DF
  8
1
  6
CONTINUOUS
 62
     4
 10
-610.67816162099996
 20
141.71461486800001
 30
0.0
  0
VERTEX
  5
10E0
  8
1
  6
CONTINUOUS
 62
     4
 10
-609.94909668000003
 20
141.71461486800001
 30
0.0
  0
VERTEX
  5
10E1
  8
1
  6
CONTINUOUS
 62
     4
 10
-609.22003173799988
 20
141.71461486800001
 30
0.0
  0
VERTEX
  5
10E2
  8
1
  6
CONTINUOUS
 62
     4
 10
-608.49096679699994
 20
141.71461486800001
 30
0.0
  0
VERTEX
  5
10E3
  8
1
  6
CONTINUOUS
 62
     4
 10
-607.76190185500002
 20
141.71461486800001
 30
0.0
  0
SEQEND
  5
10E4
  8
1
  6
CONTINUOUS
 62
     4
  0
POLYLINE
  5
AAC
  8
1
  6
CONTINUOUS
 62
     4
 66
     1
 10
0.0
 20
0.0
 30
0.0
  0
VERTEX
  5
10E5
  8
1
  6
CONTINUOUS
 62
     4
 10
-625.24720740699991
 20
125.450861297
 30
0.0
  0
VERTEX
  5
10E6
  8
1
  6
CONTINUOUS
 62
     4
 10
-624.25775146499996
 20
123.687065125
 30
0.0
  0
VERTEX
  5
10E7
  8
1
  6
CONTINUOUS
 62
     4
 10
-624.68616645999987
 20
125.66354193700001
 30
0.0
  0
SEQEND
  5
10E8
  8
1
  6
CONTINUOUS
 62
     4
  0
LINE
  5
AB1
  8
1
  6
CONTINUOUS
 62
     5
 10
-645.92761626000004
 20
118.48493799800001
 30
0.0
 11
-645.33421848599994
 21
118.48493799800001
 31
0.0
  0
INSERT
  5
AB2
  8
1
  6
CONTINUOUS
 62
     5
  2
BLK667
 10
-637.54364351499999
 20
113.494937998
 30
0.0
 41
6.0
 42
3.0
 50
90.0
  0
LINE
  5
AB3
  8
1
  6
CONTINUOUS
 62
     5
 10
-336.56384179600002
 20
60.523435382999999
 30
0.0
 11
-331.463841796
 21
60.523435382999999
 31
0.0
  0
LINE
  5
AB4
  8
1
  6
CONTINUOUS
 62
     5
 10
-342.463841796
 20
59.723435383000002
 30
0.0
 11
-342.463841796
 21
56.173435382999998
 31
0.0
  0
DIMENSION
  5
AB5
  8
1
  6
CONTINUOUS
 62
     4
  2
*D89
 10
-578.315746408
 20
205.09493799800001
 30
0.0
 11
-578.315746408
 21
179.8949379979999
 31
0.0
 13
-645.10231777800004
 23
154.694937998
 33
0.0
 14
-658.78565111499995
 24
205.09493799800001
 34
0.0
 50
90.0
  0
DIMENSION
  5
AB6
  8
1
  6
CONTINUOUS
 62
     4
  2
*D90
 10
-578.315746408
 20
49.023435382999999
 30
0.0
 11
-578.75530260199992
 21
102.55805369799999
 31
0.0
 13
-645.10231777800004
 23
154.694937998
 33
0.0
 14
-590.7503265979999
 24
49.023435382999999
 34
0.0
 50
90.0
  0
LINE
  5
AB7
  8
1
  6
CONTINUOUS
 62
     5
 10
-332.275166662
 20
49.523435382999999
 30
0.0
 11
-330.79781639200002
 21
52.082281108999993
 31
0.0
  0
LINE
  5
AB8
  8
1
  6
CONTINUOUS
 62
     5
 10
-637.54363100399985
 20
120.42293799799999
 30
0.0
 11
-643.6559472109999
 21
120.42293799799999
 31
0.0
  0
LINE
  5
AB9
  8
1
  6
CONTINUOUS
 62
     5
 10
-643.65597246100003
 20
106.566937998
 30
0.0
 11
-637.54365625399998
 21
106.566937998
 31
0.0
  0
INSERT
  5
ABA
  8
1
  6
CONTINUOUS
 62
     5
  2
BLK675
 10
-646.89671787500004
 20
113.494937998
 30
0.0
 41
6.927999999999999
 42
3.4639999999999991
 50
90.0
  0
INSERT
  5
ABB
  8
1
  6
CONTINUOUS
 62
     5
  2
BLK676
 10
-646.89671787500004
 20
113.494937998
 30
0.0
 41
6.927999999999999
 42
3.4639999999999991
 50
90.0
  0
LINE
  5
ABC
  8
1
  6
CONTINUOUS
 62
     5
 10
-645.92761626000004
 20
108.504937998
 30
0.0
 11
-645.33422409900004
 21
108.504937998
 31
0.0
  0
INSERT
  5
ABD
  8
1
  6
CONTINUOUS
 62
     5
  2
BLK678
 10
-633.733131738
 20
113.494937998
 30
0.0
 41
3.5
 42
1.75
 50
90.0
  0
INSERT
  5
ABE
  8
1
  6
CONTINUOUS
 62
     5
  2
BLK679
 10
-633.733131738
 20
113.494937998
 30
0.0
 41
3.5
 42
1.75
 50
90.0
  0
LINE
  5
ABF
  8
1
  6
CONTINUOUS
 62
     5
 10
-632.17429658499987
 20
107.744937998
 30
0.0
 11
-630.87525847899985
 21
107.744937998
 31
0.0
  0
LINE
  5
AC0
  8
1
  6
CONTINUOUS
 62
     5
 10
-630.87523752200002
 20
119.244937998
 30
0.0
 11
-632.17427562800003
 21
119.244937998
 31
0.0
  0
LINE
  5
AC1
  8
1
  6
CENTER
 62
     1
 10
-667.10231777800004
 20
34.057030220999998
 30
0.0
 11
-667.10231777800004
 21
209.13648287699999
 31
0.0
  0
LINE
  5
AC2
  8
1
  6
CONTINUOUS
 62
     5
 10
-633.73312090299999
 20
119.494937998
 30
0.0
 11
-637.54363292199992
 21
119.494937998
 31
0.0
  0
DIMENSION
  5
AC3
  8
1
  6
CONTINUOUS
 62
     4
  2
*D95
 10
-566.35297791300002
 20
205.09493799800001
 30
0.0
 11
-566.35297791300002
 21
127.05918669
 31
0.0
 13
-590.7503265979999
 23
49.023435382999999
 33
0.0
 14
-658.78565111499995
 24
205.09493799800001
 34
0.0
 50
90.0
  0
DIMENSION
  5
AC4
  8
1
  6
CONTINUOUS
 62
     4
  2
*D96
 10
-691.85231777800004
 20
230.427488474
 30
0.0
 11
-667.10231777800004
 21
230.427488474
 31
0.0
 70
     1
 13
-642.35231777800004
 23
127.194937998
 33
0.0
 14
-691.85231777800004
 24
127.194937998
 34
0.0
  0
LINE
  5
AC5
  8
1
  6
CONTINUOUS
 62
     5
 10
-637.54364351499999
 20
107.494937998
 30
0.0
 11
-633.73314277099985
 21
107.494937998
 31
0.0
  0
DIMENSION
  5
AC6
  8
1
  6
CONTINUOUS
 62
     4
  2
*D97
 10
-590.7503265979999
 20
154.694937998
 30
0.0
 11
-590.96964330299988
 21
85.788576613000004
 31
0.0
 13
-654.75231777800002
 23
63.694937998
 33
0.0
 14
-645.10231777800004
 24
154.694937998
 34
0.0
 50
90.0
  0
LINE
  5
AC7
  8
1
  6
CONTINUOUS
 62
     5
 10
-642.85231777800004
 20
127.694937998
 30
0.0
 11
-642.35231777800004
 21
127.194937998
 31
0.0
  0
LINE
  5
AC8
  8
1
  6
CONTINUOUS
 62
     5
 10
-334.42842614599999
 20
56.023435382999999
 30
0.0
 11
-330.81384179599991
 21
56.023435382999999
 31
0.0
  0
LINE
  5
AC9
  8
1
  6
CONTINUOUS
 62
     5
 10
-664.96690212700003
 20
53.023435382999999
 30
0.0
 11
-661.35231777800004
 21
53.023435382999999
 31
0.0
  0
ARC
  5
ACA
  8
1
  6
CONTINUOUS
 62
     5
 10
-331.66384179599999
 20
52.582281108999993
 30
0.0
 40
1.0
 50
330.0
 51
0.0
  0
INSERT
  5
ACB
  8
1
  6
CONTINUOUS
 62
     5
  2
BLK692
 10
-635.37858000499989
 20
113.494937998
 30
0.0
 41
6.0
 42
3.0
 50
90.0
  0
INSERT
  5
ACC
  8
1
  6
CONTINUOUS
 62
     5
  2
BLK693
 10
-633.733131738
 20
113.494937998
 30
0.0
 41
6.0
 42
3.0
 50
90.0
  0
INSERT
  5
ACD
  8
1
  6
CONTINUOUS
 62
     5
  2
BLK694
 10
-632.17428601099994
 20
113.494937998
 30
0.0
 41
5.75
 42
2.875
 50
90.0
  0
INSERT
  5
ACE
  8
1
  6
CONTINUOUS
 62
     5
  2
BLK695
 10
-630.87524790500004
 20
113.494937998
 30
0.0
 41
5.75
 42
2.875
 50
90.0
  0
INSERT
  5
ACF
  8
1
  6
CONTINUOUS
 62
     5
  2
BLK696
 10
-630.87524790500004
 20
113.494937998
 30
0.0
 41
3.0
 42
1.5
 50
90.0
  0
LINE
  5
AD0
  8
1
  6
CONTINUOUS
 62
     5
 10
-661.35231777800004
 20
56.023435382999999
 30
0.0
 11
-661.20231777800007
 21
56.173435382999998
 31
0.0
  0
LINE
  5
AD1
  8
1
  6
CONTINUOUS
 62
     5
 10
-691.35231777800004
 20
127.694937998
 30
0.0
 11
-667.10231777800004
 21
127.694937998
 31
0.0
  0
LINE
  5
AD2
  8
1
  6
CONTINUOUS
 62
     5
 10
-667.10231777800004
 20
127.694937998
 30
0.0
 11
-642.85231777800004
 21
127.694937998
 31
0.0
  0
LINE
  5
AD3
  8
1
  6
CONTINUOUS
 62
     5
 10
-330.66384179599999
 20
52.873435383
 30
0.0
 11
-330.66384179599999
 21
52.582281108999993
 31
0.0
  0
LINE
  5
AD4
  8
1
  6
CONTINUOUS
 62
     5
 10
-667.10231777800004
 20
66.394937998000003
 30
0.0
 11
-679.45231777799995
 21
66.394937998000003
 31
0.0
  0
LINE
  5
AD5
  8
1
  6
CONTINUOUS
 62
     5
 10
-334.42842614599999
 20
53.023435382999999
 30
0.0
 11
-330.81384179599991
 21
53.023435382999999
 31
0.0
  0
LINE
  5
AD9
  8
1
  6
CONTINUOUS
 62
     5
 10
-330.81384179599991
 20
56.023435382999999
 30
0.0
 11
-330.66384179599999
 21
56.173435382999998
 31
0.0
  0
LINE
  5
ADA
  8
1
  6
CONTINUOUS
 62
     5
 10
-342.06384179600002
 20
55.873435383
 30
0.0
 11
-338.69925744699998
 21
55.873435383
 31
0.0
  0
LINE
  5
ADC
  8
1
  6
CONTINUOUS
 62
     5
 10
-342.06384179600002
 20
53.173435383000012
 30
0.0
 11
-338.69925744699998
 21
53.173435383000012
 31
0.0
  0
LINE
  5
ADD
  8
1
  6
CONTINUOUS
 62
     4
 10
-664.63452524199988
 20
61.194937998
 30
0.0
 11
-664.63452524199988
 21
63.694937998
 31
0.0
  0
LINE
  5
ADE
  8
1
  6
CONTINUOUS
 62
     5
 10
-664.96690212700003
 20
56.023435382999999
 30
0.0
 11
-669.23773342799996
 21
56.023435382999999
 31
0.0
  0
TEXT
  5
ADF
  8
1
  6
CONTINUOUS
 62
     4
 10
-637.12326434299996
 20
69.614937998000002
 30
0.0
 40
3.2000000000000002
  1
ワンタッチ管継手１／８
 41
0.8491492146596861
 72
     5
 11
-602.52326434300005
 21
69.614937998000002
 31
0.0
  0
LINE
  5
AE1
  8
1
  6
CONTINUOUS
 62
     5
 10
-664.96690212700003
 20
53.023435382999999
 30
0.0
 11
-669.23773342799996
 21
53.023435382999999
 31
0.0
  0
LINE
  5
AE2
  8
1
  6
CONTINUOUS
 62
     5
 10
-667.10231777800004
 20
66.594937998000006
 30
0.0
 11
-679.60231777800004
 21
66.594937998000006
 31
0.0
  0
POLYLINE
  5
AE4
  8
1
  6
CONTINUOUS
 62
     4
 66
     1
 10
0.0
 20
0.0
 30
0.0
  0
VERTEX
  5
10E9
  8
1
  6
CONTINUOUS
 62
     4
 10
-641.24328613300008
 20
108.37832641599999
 30
0.0
  0
VERTEX
  5
10EA
  8
1
  6
CONTINUOUS
 62
     4
 10
-641.13952636699992
 20
107.135101318
 30
0.0
  0
VERTEX
  5
10EB
  8
1
  6
CONTINUOUS
 62
     4
 10
-641.03576660199985
 20
105.89186859100001
 30
0.0
  0
VERTEX
  5
10EC
  8
1
  6
CONTINUOUS
 62
     4
 10
-640.93206787099984
 20
104.648635864
 30
0.0
  0
VERTEX
  5
10ED
  8
1
  6
CONTINUOUS
 62
     4
 10
-640.82830810500002
 20
103.40540313699999
 30
0.0
  0
VERTEX
  5
10EE
  8
1
  6
CONTINUOUS
 62
     4
 10
-640.72454833999996
 20
102.16217041
 30
0.0
  0
VERTEX
  5
10EF
  8
1
  6
CONTINUOUS
 62
     4
 10
-640.62078857400002
 20
100.91894531299999
 30
0.0
  0
VERTEX
  5
10F0
  8
1
  6
CONTINUOUS
 62
     4
 10
-640.51702880899995
 20
99.675712585000014
 30
0.0
  0
VERTEX
  5
10F1
  8
1
  6
CONTINUOUS
 62
     4
 10
-640.4132690429999
 20
98.432479857999994
 30
0.0
  0
VERTEX
  5
10F2
  8
1
  6
CONTINUOUS
 62
     4
 10
-640.30950927699996
 20
97.189247131000016
 30
0.0
  0
VERTEX
  5
10F3
  8
1
  6
CONTINUOUS
 62
     4
 10
-640.20581054699994
 20
95.946022033999995
 30
0.0
  0
VERTEX
  5
10F4
  8
1
  6
CONTINUOUS
 62
     4
 10
-640.102050781
 20
94.702789307000003
 30
0.0
  0
VERTEX
  5
10F5
  8
1
  6
CONTINUOUS
 62
     4
 10
-639.99829101599994
 20
93.459556579999983
 30
0.0
  0
VERTEX
  5
10F6
  8
1
  6
CONTINUOUS
 62
     4
 10
-639.89453125
 20
92.216323852999992
 30
0.0
  0
VERTEX
  5
10F7
  8
1
  6
CONTINUOUS
 62
     4
 10
-639.79077148399995
 20
90.973098754999995
 30
0.0
  0
VERTEX
  5
10F8
  8
1
  6
CONTINUOUS
 62
     4
 10
-639.68701171899988
 20
89.729866027999975
 30
0.0
  0
VERTEX
  5
10F9
  8
1
  6
CONTINUOUS
 62
     4
 10
-639.58325195299994
 20
88.486633300999998
 30
0.0
  0
VERTEX
  5
10FA
  8
1
  6
CONTINUOUS
 62
     4
 10
-639.47955322300004
 20
87.243400573999992
 30
0.0
  0
VERTEX
  5
10FB
  8
1
  6
CONTINUOUS
 62
     4
 10
-639.37579345699987
 20
86.000167847000014
 30
0.0
  0
VERTEX
  5
10FC
  8
1
  6
CONTINUOUS
 62
     4
 10
-639.27203369099993
 20
84.756942748999975
 30
0.0
  0
VERTEX
  5
10FD
  8
1
  6
CONTINUOUS
 62
     4
 10
-639.16827392599998
 20
83.513710021999998
 30
0.0
  0
VERTEX
  5
10FE
  8
1
  6
CONTINUOUS
 62
     4
 10
-639.06451416000004
 20
82.270477295000006
 30
0.0
  0
VERTEX
  5
10FF
  8
1
  6
CONTINUOUS
 62
     4
 10
-638.96075439499987
 20
81.027244568
 30
0.0
  0
VERTEX
  5
1100
  8
1
  6
CONTINUOUS
 62
     4
 10
-638.85699462900004
 20
79.784019470000004
 30
0.0
  0
VERTEX
  5
1101
  8
1
  6
CONTINUOUS
 62
     4
 10
-638.75329589800003
 20
78.540786742999998
 30
0.0
  0
VERTEX
  5
1102
  8
1
  6
CONTINUOUS
 62
     4
 10
-638.64953613299997
 20
77.297554016000007
 30
0.0
  0
VERTEX
  5
1103
  8
1
  6
CONTINUOUS
 62
     4
 10
-638.5457763669998
 20
76.054321289000001
 30
0.0
  0
VERTEX
  5
1104
  8
1
  6
CONTINUOUS
 62
     4
 10
-638.44201660199985
 20
74.811096191000004
 30
0.0
  0
VERTEX
  5
1105
  8
1
  6
CONTINUOUS
 62
     4
 10
-638.33825683600003
 20
73.567863463999984
 30
0.0
  0
VERTEX
  5
1106
  8
1
  6
CONTINUOUS
 62
     4
 10
-638.23449706999997
 20
72.324630736999993
 30
0.0
  0
VERTEX
  5
1107
  8
1
  6
CONTINUOUS
 62
     4
 10
-638.13073730500003
 20
71.081398010000001
 30
0.0
  0
VERTEX
  5
1108
  8
1
  6
CONTINUOUS
 62
     4
 10
-638.02703857400002
 20
69.838165282999995
 30
0.0
  0
VERTEX
  5
1109
  8
1
  6
CONTINUOUS
 62
     4
 10
-637.92327880899995
 20
68.594940186000002
 30
0.0
  0
VERTEX
  5
110A
  8
1
  6
CONTINUOUS
 62
     4
 10
-636.7667846679999
 20
68.594940186000002
 30
0.0
  0
VERTEX
  5
110B
  8
1
  6
CONTINUOUS
 62
     4
 10
-635.61035156299999
 20
68.594940186000002
 30
0.0
  0
VERTEX
  5
110C
  8
1
  6
CONTINUOUS
 62
     4
 10
-634.45391845699999
 20
68.594940186000002
 30
0.0
  0
VERTEX
  5
110D
  8
1
  6
CONTINUOUS
 62
     4
 10
-633.29742431599993
 20
68.594940186000002
 30
0.0
  0
VERTEX
  5
110E
  8
1
  6
CONTINUOUS
 62
     4
 10
-632.14099121100003
 20
68.594940186000002
 30
0.0
  0
VERTEX
  5
110F
  8
1
  6
CONTINUOUS
 62
     4
 10
-630.98449706999986
 20
68.594940186000002
 30
0.0
  0
VERTEX
  5
1110
  8
1
  6
CONTINUOUS
 62
     4
 10
-629.82806396499996
 20
68.594940186000002
 30
0.0
  0
VERTEX
  5
1111
  8
1
  6
CONTINUOUS
 62
     4
 10
-628.67156982400002
 20
68.594940186000002
 30
0.0
  0
VERTEX
  5
1112
  8
1
  6
CONTINUOUS
 62
     4
 10
-627.515136719
 20
68.594940186000002
 30
0.0
  0
VERTEX
  5
1113
  8
1
  6
CONTINUOUS
 62
     4
 10
-626.35870361299988
 20
68.594940186000002
 30
0.0
  0
VERTEX
  5
1114
  8
1
  6
CONTINUOUS
 62
     4
 10
-625.20220947300004
 20
68.594940186000002
 30
0.0
  0
VERTEX
  5
1115
  8
1
  6
CONTINUOUS
 62
     4
 10
-624.04577636699992
 20
68.594940186000002
 30
0.0
  0
VERTEX
  5
1116
  8
1
  6
CONTINUOUS
 62
     4
 10
-622.88928222699985
 20
68.594940186000002
 30
0.0
  0
VERTEX
  5
1117
  8
1
  6
CONTINUOUS
 62
     4
 10
-621.73284912099984
 20
68.594940186000002
 30
0.0
  0
VERTEX
  5
1118
  8
1
  6
CONTINUOUS
 62
     4
 10
-620.57641601599994
 20
68.594940186000002
 30
0.0
  0
VERTEX
  5
1119
  8
1
  6
CONTINUOUS
 62
     4
 10
-619.419921875
 20
68.594940186000002
 30
0.0
  0
VERTEX
  5
111A
  8
1
  6
CONTINUOUS
 62
     4
 10
-618.26348876999987
 20
68.594940186000002
 30
0.0
  0
VERTEX
  5
111B
  8
1
  6
CONTINUOUS
 62
     4
 10
-617.10699462900004
 20
68.594940186000002
 30
0.0
  0
VERTEX
  5
111C
  8
1
  6
CONTINUOUS
 62
     4
 10
-615.95056152300003
 20
68.594940186000002
 30
0.0
  0
VERTEX
  5
111D
  8
1
  6
CONTINUOUS
 62
     4
 10
-614.7941284179999
 20
68.594940186000002
 30
0.0
  0
VERTEX
  5
111E
  8
1
  6
CONTINUOUS
 62
     4
 10
-613.63763427699985
 20
68.594940186000002
 30
0.0
  0
VERTEX
  5
111F
  8
1
  6
CONTINUOUS
 62
     4
 10
-612.48120117199994
 20
68.594940186000002
 30
0.0
  0
VERTEX
  5
1120
  8
1
  6
CONTINUOUS
 62
     4
 10
-611.32470703099989
 20
68.594940186000002
 30
0.0
  0
VERTEX
  5
1121
  8
1
  6
CONTINUOUS
 62
     4
 10
-610.16827392599998
 20
68.594940186000002
 30
0.0
  0
VERTEX
  5
1122
  8
1
  6
CONTINUOUS
 62
     4
 10
-609.01184081999986
 20
68.594940186000002
 30
0.0
  0
VERTEX
  5
1123
  8
1
  6
CONTINUOUS
 62
     4
 10
-607.85534668000003
 20
68.594940186000002
 30
0.0
  0
VERTEX
  5
1124
  8
1
  6
CONTINUOUS
 62
     4
 10
-606.69891357400002
 20
68.594940186000002
 30
0.0
  0
VERTEX
  5
1125
  8
1
  6
CONTINUOUS
 62
     4
 10
-605.54241943399995
 20
68.594940186000002
 30
0.0
  0
VERTEX
  5
1126
  8
1
  6
CONTINUOUS
 62
     4
 10
-604.38598632799994
 20
68.594940186000002
 30
0.0
  0
VERTEX
  5
1127
  8
1
  6
CONTINUOUS
 62
     4
 10
-603.22955322300004
 20
68.594940186000002
 30
0.0
  0
VERTEX
  5
1128
  8
1
  6
CONTINUOUS
 62
     4
 10
-602.07305908199999
 20
68.594940186000002
 30
0.0
  0
VERTEX
  5
1129
  8
1
  6
CONTINUOUS
 62
     4
 10
-600.91662597699985
 20
68.594940186000002
 30
0.0
  0
SEQEND
  5
112A
  8
1
  6
CONTINUOUS
 62
     4
  0
POLYLINE
  5
B27
  8
1
  6
CONTINUOUS
 62
     4
 66
     1
 10
0.0
 20
0.0
 30
0.0
  0
VERTEX
  5
112B
  8
1
  6
CONTINUOUS
 62
     4
 10
-640.77799930000003
 20
106.410203411
 30
0.0
  0
VERTEX
  5
112C
  8
1
  6
CONTINUOUS
 62
     4
 10
-641.24328613300008
 20
108.37832641599999
 30
0.0
  0
VERTEX
  5
112D
  8
1
  6
CONTINUOUS
 62
     4
 10
-641.37592087300004
 20
106.36030559700001
 30
0.0
  0
SEQEND
  5
112E
  8
1
  6
CONTINUOUS
 62
     4
  0
LINE
  5
B2E
  8
1
  6
CONTINUOUS
 62
     5
 10
-669.23773342799996
 20
53.023435382999999
 30
0.0
 11
-669.23773342799996
 21
56.023435382999999
 31
0.0
  0
INSERT
  5
B30
  8
1
  6
CONTINUOUS
 62
     5
  2
BLK722
 10
-645.66818903399985
 20
113.494937998
 30
0.0
 41
6.927999999999999
 42
3.4639999999999991
 50
90.0
  0
LINE
  5
B33
  8
1
  6
CONTINUOUS
 62
     5
 10
-667.10231777800004
 20
66.594937998000006
 30
0.0
 11
-654.60231777800004
 21
66.594937998000006
 31
0.0
  0
ARC
  5
B37
  8
1
  6
CONTINUOUS
 62
     5
 10
-668.10231777800004
 20
38.523435382999999
 30
0.0
 40
0.5
 50
180.0
 51
270.0
  0
ARC
  5
B3B
  8
1
  6
CONTINUOUS
 62
     5
 10
-666.10231777800004
 20
38.523435382999999
 30
0.0
 40
0.5
 50
270.0
 51
0.0
  0
LINE
  5
B3E
  8
1
  6
CONTINUOUS
 62
     5
 10
-667.10231777800004
 20
66.394937998000003
 30
0.0
 11
-654.75231777800002
 21
66.394937998000003
 31
0.0
  0
LINE
  5
B3F
  8
1
  6
CONTINUOUS
 62
     5
 10
-664.96690212700003
 20
53.023435382999999
 30
0.0
 11
-664.96690212700003
 21
56.023435382999999
 31
0.0
  0
LINE
  5
B48
  8
1
  6
CONTINUOUS
 62
     5
 10
-664.96690212700003
 20
55.873435383
 30
0.0
 11
-661.60231777800004
 21
55.873435383
 31
0.0
  0
LINE
  5
B49
  8
1
  6
CONTINUOUS
 62
     5
 10
-664.96690212700003
 20
53.173435383000012
 30
0.0
 11
-661.60231777800004
 21
53.173435383000012
 31
0.0
  0
LINE
  5
B4A
  8
1
  6
CONTINUOUS
 62
     5
 10
-642.35231777800004
 20
104.194937998
 30
0.0
 11
-642.85231777800004
 21
103.694937998
 31
0.0
  0
LINE
  5
B4B
  8
1
  6
CONTINUOUS
 62
     5
 10
-691.85231777800004
 20
104.194937998
 30
0.0
 11
-691.85231777800004
 21
127.194937998
 31
0.0
  0
INSERT
  5
B4C
  8
1
  6
CONTINUOUS
 62
     5
  2
BLK750
 10
-645.92761626000004
 20
113.494937998
 30
0.0
 41
4.9900000000000002
 42
2.4950000000000001
 50
90.0
  0
LINE
  5
B4D
  8
1
  6
CONTINUOUS
 62
     5
 10
-642.35231777800004
 20
127.194937998
 30
0.0
 11
-642.35231777800004
 21
120.42293799799999
 31
0.0
  0
LINE
  5
B4E
  8
1
  6
CONTINUOUS
 62
     5
 10
-667.10231777800004
 20
103.694937998
 30
0.0
 11
-642.85231777800004
 21
103.694937998
 31
0.0
  0
LINE
  5
B4F
  8
1
  6
CONTINUOUS
 62
     5
 10
-691.35231777800004
 20
103.694937998
 30
0.0
 11
-667.10231777800004
 21
103.694937998
 31
0.0
  0
LINE
  5
B50
  8
1
  6
CENTER
 62
     1
 10
-652.04269196899997
 20
113.494937998
 30
0.0
 11
-626.03159807999987
 21
113.494937998
 31
0.0
  0
LINE
  5
B53
  8
1
  6
CONTINUOUS
 62
     5
 10
-642.35231777800004
 20
106.566937998
 30
0.0
 11
-642.35231777800004
 21
104.194937998
 31
0.0
  0
LINE
  5
B55
  8
1
  6
CONTINUOUS
 62
     5
 10
-636.74000999300006
 20
119.494937998
 30
0.0
 11
-637.54363100399985
 21
120.42293799799999
 31
0.0
  0
LINE
  5
B56
  8
1
  6
CONTINUOUS
 62
     5
 10
-636.74003524299997
 20
107.494937998
 30
0.0
 11
-637.54365625399998
 21
106.566937998
 31
0.0
  0
LINE
  5
B58
  8
1
  6
CONTINUOUS
 62
     5
 10
-646.65595972099993
 20
116.958633134
 30
0.0
 11
-643.65595972099993
 21
120.42293799799999
 31
0.0
  0
LINE
  5
B5C
  8
1
  6
CONTINUOUS
 62
     5
 10
-646.65595972099993
 20
110.031242861
 30
0.0
 11
-643.65597246100003
 21
106.566937998
 31
0.0
  0
LINE
  5
B5D
  8
1
  6
CONTINUOUS
 62
     5
 10
-691.85231777800004
 20
127.194937998
 30
0.0
 11
-691.35231777800004
 21
127.694937998
 31
0.0
  0
LINE
  5
B60
  8
1
  6
CONTINUOUS
 62
     5
 10
-668.10231777800004
 20
38.023435382999999
 30
0.0
 11
-666.10231777800004
 21
38.023435382999999
 31
0.0
  0
LINE
  5
B61
  8
1
  6
CONTINUOUS
 62
     5
 10
-654.75231777800002
 20
66.394937998000003
 30
0.0
 11
-654.652317778
 21
66.294937998000009
 31
0.0
  0
LINE
  5
B63
  8
1
  6
CONTINUOUS
 62
     5
 10
-654.652317778
 20
66.294937998000009
 30
0.0
 11
-654.652317778
 21
63.794937998000002
 31
0.0
  0
LINE
  5
B67
  8
1
  6
CONTINUOUS
 62
     5
 10
-679.45231777799995
 20
63.694937998
 30
0.0
 11
-679.55231777799986
 21
63.794937998000002
 31
0.0
  0
LINE
  5
B68
  8
1
  6
CONTINUOUS
 62
     5
 10
-653.10231777800004
 20
70.716154126999996
 30
0.0
 11
-654.60231777800004
 21
66.594937998000006
 31
0.0
  0
LINE
  5
B69
  8
1
  6
CONTINUOUS
 62
     5
 10
-673.00231777800002
 20
52.873435383
 30
0.0
 11
-661.20231777800007
 21
52.873435383
 31
0.0
  0
LINE
  5
B6D
  8
1
  6
CONTINUOUS
 62
     5
 10
-679.55231777799986
 20
66.294937998000009
 30
0.0
 11
-679.55231777799986
 21
63.794937998000002
 31
0.0
  0
DIMENSION
  5
B7D
  8
1
  6
CONTINUOUS
 62
     4
  2
*D108
 10
-590.7503265979999
 20
49.023435382999999
 30
0.0
 11
-590.86554809500001
 21
56.310811808999993
 31
0.0
 13
-590.7503265979999
 23
63.694937998
 33
0.0
 14
-663.67966804699995
 24
49.023435382999999
 34
0.0
 50
90.0
  0
LINE
  5
B7E
  8
1
  6
CONTINUOUS
 62
     5
 10
-673.00231777800002
 20
56.173435382999998
 30
0.0
 11
-661.20231777800007
 21
56.173435382999998
 31
0.0
  0
LINE
  5
B7F
  8
1
  6
CONTINUOUS
 62
     5
 10
-681.10231777800004
 20
103.694937998
 30
0.0
 11
-681.10231777800004
 21
70.716154126999996
 31
0.0
  0
DIMENSION
  5
B80
  8
1
  6
CONTINUOUS
 62
     4
  2
*D109
 10
-603.34894714699999
 20
103.694937998
 30
0.0
 11
-603.34894714699999
 21
129.194937998
 31
0.0
 13
-645.10231777800004
 23
154.694937998
 33
0.0
 14
-642.85231777800004
 24
103.694937998
 34
0.0
 50
90.0
  0
LINE
  5
B81
  8
1
  6
CONTINUOUS
 62
     5
 10
-669.57011031299999
 20
61.194937998
 30
0.0
 11
-664.63452524199988
 21
61.194937998
 31
0.0
  0
LINE
  5
B82
  8
1
  6
CONTINUOUS
 62
     5
 10
-640.54364351499999
 20
116.958633134
 30
0.0
 11
-637.54364351499999
 21
120.42293799799999
 31
0.0
  0
LINE
  5
B83
  8
1
  6
CONTINUOUS
 62
     5
 10
-646.65595972099993
 20
110.031242861
 30
0.0
 11
-646.65595972099993
 21
116.958633134
 31
0.0
  0
LINE
  5
B84
  8
1
  6
CONTINUOUS
 62
     5
 10
-640.54364351499999
 20
110.031242861
 30
0.0
 11
-640.54364351499999
 21
116.958633134
 31
0.0
  0
LINE
  5
B85
  8
1
  6
CONTINUOUS
 62
     5
 10
-691.35231777800004
 20
103.694937998
 30
0.0
 11
-691.85231777800004
 21
104.194937998
 31
0.0
  0
LINE
  5
B86
  8
1
  6
CONTINUOUS
 62
     5
 10
-681.10231777800004
 20
70.716154126999996
 30
0.0
 11
-679.60231777800004
 21
66.594937998000006
 31
0.0
  0
LINE
  5
B87
  8
1
  6
CONTINUOUS
 62
     5
 10
-679.45231777799995
 20
66.394937998000003
 30
0.0
 11
-679.55231777799986
 21
66.294937998000009
 31
0.0
  0
LINE
  5
B88
  8
1
  6
CONTINUOUS
 62
     5
 10
-668.60231777800004
 20
38.523435382999999
 30
0.0
 11
-668.60231777800004
 21
49.023435382999999
 31
0.0
  0
LINE
  5
B89
  8
1
  6
CONTINUOUS
 62
     5
 10
-665.60231777800004
 20
49.023435382999999
 30
0.0
 11
-665.60231777800004
 21
38.523435382999999
 31
0.0
  0
LINE
  5
B8B
  8
1
  6
CONTINUOUS
 62
     5
 10
-679.45231777799995
 20
63.694937998
 30
0.0
 11
-667.10231777800004
 21
63.694937998
 31
0.0
  0
LINE
  5
B8E
  8
1
  6
CONTINUOUS
 62
     5
 10
-653.10231777800004
 20
103.694937998
 30
0.0
 11
-653.10231777800004
 21
70.716154126999996
 31
0.0
  0
LINE
  5
B8F
  8
1
  6
CONTINUOUS
 62
     4
 10
-669.57011031299999
 20
63.694937998
 30
0.0
 11
-669.57011031299999
 21
61.194937998
 31
0.0
  0
LINE
  5
B90
  8
1
  6
CONTINUOUS
 62
     5
 10
-671.80231777799997
 20
60.523435382999999
 30
0.0
 11
-671.80231777799997
 21
63.694937998
 31
0.0
  0
LINE
  5
B91
  8
1
  6
CONTINUOUS
 62
     5
 10
-662.40231777799988
 20
60.523435382999999
 30
0.0
 11
-662.40231777799988
 21
63.694937998
 31
0.0
  0
DIMENSION
  5
B94
  8
1
  6
CONTINUOUS
 62
     4
  2
*D111
 10
-653.10231777800004
 20
25.487160512999999
 30
0.0
 11
-667.10231777800004
 21
25.487160512999999
 31
0.0
 70
     1
 13
-681.10231777800004
 23
70.716154126999996
 33
0.0
 14
-653.10231777800004
 24
70.716154126999996
 34
0.0
  0
LINE
  5
B96
  8
1
  6
CONTINUOUS
 62
     5
 10
-654.75231777800002
 20
63.694937998
 30
0.0
 11
-667.10231777800004
 21
63.694937998
 31
0.0
  0
LINE
  5
B97
  8
1
  6
CONTINUOUS
 62
     5
 10
-670.52496750800003
 20
49.023435382999999
 30
0.0
 11
-663.67966804699995
 21
49.023435382999999
 31
0.0
  0
LINE
  5
B98
  8
1
  6
CONTINUOUS
 62
     5
 10
-672.85231777800004
 20
56.023435382999999
 30
0.0
 11
-673.00231777800002
 21
56.173435382999998
 31
0.0
  0
LINE
  5
B99
  8
1
  6
CONTINUOUS
 62
     5
 10
-669.23773342799996
 20
53.023435382999999
 30
0.0
 11
-672.85231777800004
 21
53.023435382999999
 31
0.0
  0
LINE
  5
B9A
  8
1
  6
CONTINUOUS
 62
     5
 10
-673.00231777800002
 20
52.873435383
 30
0.0
 11
-673.00231777800002
 21
52.582281108999993
 31
0.0
  0
INSERT
  5
B9B
  8
1
  6
CONTINUOUS
 62
     5
  2
BLK829
 10
-619.68742692000001
 20
118.894937998
 30
0.0
 41
8.0
 42
4.0
 50
90.0
  0
LINE
  5
B9C
  8
1
  6
CONTINUOUS
 62
     5
 10
-651.402317778
 20
156.694937998
 30
0.0
 11
-651.402317778
 21
154.694937998
 31
0.0
  0
LINE
  5
B9D
  8
1
  6
CONTINUOUS
 62
     5
 10
-667.10231777800004
 20
156.694937998
 30
0.0
 11
-682.97731777800004
 21
156.694937998
 31
0.0
  0
LINE
  5
B9E
  8
1
  6
CONTINUOUS
 62
     5
 10
-682.80231777799986
 20
154.694937998
 30
0.0
 11
-682.80231777799986
 21
156.694937998
 31
0.0
  0
LINE
  5
B9F
  8
1
  6
CONTINUOUS
 62
     5
 10
-682.97731777800004
 20
154.694937998
 30
0.0
 11
-682.80231777799986
 21
154.694937998
 31
0.0
  0
LINE
  5
BA0
  8
1
  6
CONTINUOUS
 62
     5
 10
-667.10231777800004
 20
154.694937998
 30
0.0
 11
-645.10231777800004
 21
154.694937998
 31
0.0
  0
LINE
  5
BA1
  8
1
  6
CONTINUOUS
 62
     5
 10
-675.20231777799995
 20
145.79493799799999
 30
0.0
 11
-675.20231777799995
 21
154.694937998
 31
0.0
  0
LINE
  5
BA2
  8
1
  6
CONTINUOUS
 62
     5
 10
-689.10231777800004
 20
154.694937998
 30
0.0
 11
-667.10231777800004
 21
154.694937998
 31
0.0
  0
ARC
  5
BA3
  8
1
  6
CONTINUOUS
 62
     5
 10
-672.00231777799991
 20
52.582281108999993
 30
0.0
 40
1.0
 50
180.0
 51
210.0
  0
LINE
  5
BA4
  8
1
  6
CONTINUOUS
 62
     5
 10
-619.68742692000001
 20
110.894937998
 30
0.0
 11
-628.26265819399987
 21
110.894937998
 31
0.0
  0
LINE
  5
BA5
  8
1
  6
CONTINUOUS
 62
     5
 10
-661.20231777800007
 20
59.723435383000002
 30
0.0
 11
-661.20231777800007
 21
56.173435382999998
 31
0.0
  0
LINE
  5
BA7
  8
1
  6
CONTINUOUS
 62
     5
 10
-619.68742692000001
 20
126.894937998
 30
0.0
 11
-642.35231777800004
 21
126.894937998
 31
0.0
  0
LINE
  5
BA8
  8
1
  6
CENTER
 62
     1
 10
-652.02273704000004
 20
118.894937998
 30
0.0
 11
-613.78830879099985
 21
118.894937998
 31
0.0
  0
LINE
  5
BAA
  8
1
  6
CONTINUOUS
 62
     5
 10
-661.60231777800004
 20
53.023435382999999
 30
0.0
 11
-661.60231777800004
 21
56.023435382999999
 31
0.0
  0
LINE
  5
BB0
  8
1
  6
CONTINUOUS
 62
     5
 10
-669.23773342799996
 20
56.023435382999999
 30
0.0
 11
-672.85231777800004
 21
56.023435382999999
 31
0.0
  0
LINE
  5
BB6
  8
1
  6
CONTINUOUS
 62
     5
 10
-671.39099291199989
 20
49.523435382999999
 30
0.0
 11
-672.868343181
 21
52.082281108999993
 31
0.0
  0
LINE
  5
BB7
  8
1
  6
CONTINUOUS
 62
     5
 10
-661.20231777800007
 20
52.873435383
 30
0.0
 11
-661.35231777800004
 21
53.023435382999999
 31
0.0
  0
LINE
  5
BB9
  8
1
  6
CONTINUOUS
 62
     5
 10
-667.10231777800004
 20
60.523435382999999
 30
0.0
 11
-672.20231777799995
 21
60.523435382999999
 31
0.0
  0
ARC
  5
BBC
  8
1
  6
CONTINUOUS
 62
     5
 10
-672.20231777799995
 20
59.723435383000002
 30
0.0
 40
0.8
 50
90.0
 51
180.0
  0
ARC
  5
BBE
  8
1
  6
CONTINUOUS
 62
     5
 10
-670.52496750800003
 20
50.023435382999992
 30
0.0
 40
1.0
 50
210.0
 51
270.0
  0
ARC
  5
BBF
  8
1
  6
CONTINUOUS
 62
     5
 10
-663.67966804699995
 20
50.023435382999992
 30
0.0
 40
1.0
 50
270.0
 51
330.0
  0
ARC
  5
BC0
  8
1
  6
CONTINUOUS
 62
     5
 10
-662.00231777800002
 20
59.723435383000002
 30
0.0
 40
0.8
 50
0.0
 51
90.0
  0
LINE
  5
BC2
  8
1
  6
CONTINUOUS
 62
     5
 10
-673.00231777800002
 20
52.873435383
 30
0.0
 11
-672.85231777800004
 21
53.023435382999999
 31
0.0
  0
LINE
  5
BC3
  8
1
  6
CONTINUOUS
 62
     5
 10
-672.60231777800004
 20
53.023435382999999
 30
0.0
 11
-672.60231777800004
 21
56.023435382999999
 31
0.0
  0
LINE
  5
BC4
  8
1
  6
CONTINUOUS
 62
     5
 10
-667.10231777800004
 20
60.523435382999999
 30
0.0
 11
-662.00231777800002
 21
60.523435382999999
 31
0.0
  0
LINE
  5
BC5
  8
1
  6
CONTINUOUS
 62
     5
 10
-673.00231777800002
 20
59.723435383000002
 30
0.0
 11
-673.00231777800002
 21
56.173435382999998
 31
0.0
  0
LINE
  5
BC6
  8
1
  6
CONTINUOUS
 62
     5
 10
-662.81364264299998
 20
49.523435382999999
 30
0.0
 11
-661.33629237399987
 21
52.082281108999993
 31
0.0
  0
LINE
  5
BC7
  8
1
  6
CONTINUOUS
 62
     5
 10
-659.00231777800002
 20
154.694937998
 30
0.0
 11
-659.00231777800002
 21
145.79493799799999
 31
0.0
  0
DIMENSION
  5
BC8
  8
1
  6
CONTINUOUS
 62
     4
  2
*D114
 10
-690.10231777800004
 20
219.70077326000001
 30
0.0
 11
-667.10231777800004
 21
219.70077326000001
 31
0.0
 70
     1
 13
-644.10231777800004
 23
153.694937998
 33
0.0
 14
-690.10231777800004
 24
153.694937998
 34
0.0
  0
LINE
  5
BC9
  8
1
  6
CONTINUOUS
 62
     5
 10
-651.22731777800004
 20
156.694937998
 30
0.0
 11
-667.10231777800004
 21
156.694937998
 31
0.0
  0
LINE
  5
BCA
  8
1
  6
CONTINUOUS
 62
     5
 10
-664.96690212700003
 20
56.023435382999999
 30
0.0
 11
-661.35231777800004
 21
56.023435382999999
 31
0.0
  0
ARC
  5
BCC
  8
1
  6
CONTINUOUS
 62
     5
 10
-662.20231777799995
 20
52.582281108999993
 30
0.0
 40
1.0
 50
330.0
 51
0.0
  0
LINE
  5
BCD
  8
1
  6
CONTINUOUS
 62
     5
 10
-661.20231777800007
 20
52.873435383
 30
0.0
 11
-661.20231777800007
 21
52.582281108999993
 31
0.0
  0
LINE
  5
BCE
  8
1
  6
CONTINUOUS
 62
     5
 10
-672.60231777800004
 20
55.873435383
 30
0.0
 11
-669.23773342799996
 21
55.873435383
 31
0.0
  0
LINE
  5
BCF
  8
1
  6
CONTINUOUS
 62
     5
 10
-646.65595972099993
 20
110.031242861
 30
0.0
 11
-640.54364351499999
 21
110.031242861
 31
0.0
  0
LINE
  5
BD0
  8
1
  6
CONTINUOUS
 62
     5
 10
-672.60231777800004
 20
53.173435383000012
 30
0.0
 11
-669.23773342799996
 21
53.173435383000012
 31
0.0
  0
LINE
  5
BD1
  8
1
  6
CONTINUOUS
 62
     5
 10
-640.54364351499999
 20
116.958633134
 30
0.0
 11
-646.65595972099993
 21
116.958633134
 31
0.0
  0
LINE
  5
BD7
  8
1
  6
CONTINUOUS
 62
     5
 10
-675.99113788699992
 20
204.600171507
 30
0.0
 11
-675.41898444099991
 21
205.09493799800001
 31
0.0
  0
LINE
  5
BD8
  8
1
  6
CONTINUOUS
 62
     5
 10
-644.10231777800004
 20
127.994937998
 30
0.0
 11
-644.402317778
 21
127.694937998
 31
0.0
  0
LINE
  5
BD9
  8
1
  6
CONTINUOUS
 62
     5
 10
-689.80231777799986
 20
127.694937998
 30
0.0
 11
-690.10231777800004
 21
127.994937998
 31
0.0
  0
LINE
  5
BF5
  8
1
  6
CONTINUOUS
 62
     5
 10
-658.21349766799995
 20
204.600171507
 30
0.0
 11
-658.78565111499995
 21
205.09493799800001
 31
0.0
  0
LINE
  5
BF8
  8
1
  6
CONTINUOUS
 62
     5
 10
-689.10231777800004
 20
154.694937998
 30
0.0
 11
-690.10231777800004
 21
153.694937998
 31
0.0
  0
LINE
  5
C01
  8
1
  6
CONTINUOUS
 62
     5
 10
-645.10231777800004
 20
154.694937998
 30
0.0
 11
-644.10231777800004
 21
153.694937998
 31
0.0
  0
LINE
  5
C06
  8
1
  6
CONTINUOUS
 62
     5
 10
-675.41898444099991
 20
205.09493799800001
 30
0.0
 11
-658.78565111499995
 21
205.09493799800001
 31
0.0
  0
LINE
  5
C07
  8
1
  6
CONTINUOUS
 62
     5
 10
-658.21349766799995
 20
204.600171507
 30
0.0
 11
-651.22731777800004
 21
156.694937998
 31
0.0
  0
LINE
  5
C08
  8
1
  6
CONTINUOUS
 62
     5
 10
-682.97731777800004
 20
156.694937998
 30
0.0
 11
-675.99113788699992
 21
204.600171507
 31
0.0
  0
LINE
  5
C09
  8
1
  6
CONTINUOUS
 62
     5
 10
-690.10231777800004
 20
153.694937998
 30
0.0
 11
-690.10231777800004
 21
147.09493799800001
 31
0.0
  0
LINE
  5
C0A
  8
1
  6
CONTINUOUS
 62
     5
 10
-644.10231777800004
 20
127.994937998
 30
0.0
 11
-644.10231777800004
 21
139.09493799800001
 31
0.0
  0
LINE
  5
C0B
  8
1
  6
CONTINUOUS
 62
     5
 10
-686.63821616199994
 20
145.09493799800001
 30
0.0
 11
-690.10231777800004
 21
147.09493799800001
 31
0.0
  0
ARC
  5
C0F
  8
1
  6
CONTINUOUS
 62
     5
 10
-667.10231777800004
 20
145.79493799799999
 30
0.0
 40
8.0999999999999996
 50
180.0
 51
0.0
  0
LINE
  5
C12
  8
1
  6
CONTINUOUS
 62
     5
 10
-647.56641939300005
 20
145.09493799800001
 30
0.0
 11
-644.10231777800004
 21
147.09493799800001
 31
0.0
  0
LINE
  5
C13
  8
1
  6
CONTINUOUS
 62
     5
 10
-659.00231777800002
 20
145.09493799800001
 30
0.0
 11
-647.56641939300005
 21
145.09493799800001
 31
0.0
  0
LINE
  5
C14
  8
1
  6
CONTINUOUS
 62
     5
 10
-647.56641939300005
 20
141.09493799800001
 30
0.0
 11
-660.44227924799998
 21
141.09493799800001
 31
0.0
  0
LINE
  5
C20
  8
1
  6
CONTINUOUS
 62
     5
 10
-644.10231777800004
 20
139.09493799800001
 30
0.0
 11
-647.56641939300005
 21
141.09493799800001
 31
0.0
  0
LINE
  5
C21
  8
1
  6
CONTINUOUS
 62
     5
 10
-648.10231777800004
 20
141.09493799800001
 30
0.0
 11
-648.10231777800004
 21
145.09493799800001
 31
0.0
  0
LINE
  5
C22
  8
1
  6
CONTINUOUS
 62
     5
 10
-690.10231777800004
 20
139.09493799800001
 30
0.0
 11
-690.10231777800004
 21
127.994937998
 31
0.0
  0
LINE
  5
C23
  8
1
  6
CONTINUOUS
 62
     5
 10
-644.10231777800004
 20
147.09493799800001
 30
0.0
 11
-644.10231777800004
 21
153.694937998
 31
0.0
  0
LINE
  5
C24
  8
1
  6
CONTINUOUS
 62
     5
 10
-686.10231777800004
 20
141.09493799800001
 30
0.0
 11
-686.10231777800004
 21
145.09493799800001
 31
0.0
  0
LINE
  5
C25
  8
1
  6
CONTINUOUS
 62
     5
 10
-690.10231777800004
 20
139.09493799800001
 30
0.0
 11
-686.63821616199994
 21
141.09493799800001
 31
0.0
  0
LINE
  5
C2A
  8
1
  6
CONTINUOUS
 62
     5
 10
-686.63821616199994
 20
141.09493799800001
 30
0.0
 11
-673.69928677899986
 21
141.09493799800001
 31
0.0
  0
LINE
  5
C2B
  8
1
  6
CONTINUOUS
 62
     5
 10
-675.20231777799995
 20
145.09493799800001
 30
0.0
 11
-686.63821616199994
 21
145.09493799800001
 31
0.0
  0
LINE
  5
CBC
  8
1
  6
CONTINUOUS
 62
     5
 10
-690.10231777800004
 20
139.09493799800001
 30
0.0
 11
-671.654240448
 21
139.09493799800001
 31
0.0
  0
LINE
  5
D0B
  8
1
  6
CONTINUOUS
 62
     5
 10
-662.55039510699987
 20
139.09493799800001
 30
0.0
 11
-644.10231777800004
 21
139.09493799800001
 31
0.0
  0
LINE
  5
D0D
  8
1
  6
CONTINUOUS
 62
     5
 10
-644.10231777800004
 20
147.09493799800001
 30
0.0
 11
-659.00231777800002
 21
147.09493799800001
 31
0.0
  0
LINE
  5
D0E
  8
1
  6
CONTINUOUS
 62
     5
 10
-675.20231777799995
 20
147.09493799800001
 30
0.0
 11
-690.10231777800004
 21
147.09493799800001
 31
0.0
  0
ENDSEC
  0
EOF
