  0
SECTION
  2
HEADER
  9
$ACADVER
  1
AC1009
  9
$INSBASE
 10
-140.794925911
 20
-163.525992328
  9
$EXTMIN
 10
-145.815527953
 20
-103.855405575
  9
$EXTMAX
 10
246.410569410
 20
63.219418840
  9
$LIMMIN
 10
-145.815527953
 20
-103.855405575
  9
$LIMMAX
 10
246.410569410
 20
63.219418840
  9
$SNAPBASE
 10
0.000000000
 20
0.000000000
  9
$SNAPANG
 50
0.000000000
  9
$SNAPSTYLE
 70
0
  9
$GRIDMODE
 70
0
  9
$GRIDUNIT
 10
0.000000000
 20
0.000000000
  9
$DIMEXO
 40
0.000000000
  9
$DIMDLI
 40
8.000000000
  9
$DIMDLE
 40
0.000000000
  9
$DIMEXE
 40
1.000000000
  9
$DIMTIH
 70
1
  9
$DIMTOH
 70
1
  9
$DIMTAD
 70
2
  9
$DIMZIN
 70
0
  9
$FILLETRAD
 40
1.000000000
  9
$CHAMFERA
 40
1.000000000
  9
$CHAMFERB
 40
1.000000000
  9
$TEXTSTYLE
  7
STANDARD
  9
$TDCREATE
 40
2455667.553032408
  9
$TDUPDATE
 40
2455667.553032408
  9
$ANGBASE
 50
0.000000000
  9
$ANGDIR
 70
0
  0
ENDSEC
  0
SECTION
  2
TABLES
  0
TABLE
  2
LTYPE
 70
5
  0
LTYPE
  2
CENTER
 70
64
  3
___ _ ___ _ __
 72
65
 73
4
 40
13.000000000
 49
8.500000000
 49
-1.500000000
 49
1.500000000
 49
-1.500000000
  0
LTYPE
  2
CONTINUOUS
 70
64
  3
______________
 72
65
 73
0
 40
0.000000000
  0
LTYPE
  2
DASHED
 70
64
  3
___ ___ ___ __
 72
65
 73
2
 40
5.000000119
 49
3.400000095
 49
-1.600000024
  0
LTYPE
  2
DIVIDE
 70
64
  3
___ . . ___ . 
 72
65
 73
6
 40
12.999999523
 49
5.199999809
 49
-2.599999905
 49
0.000000000
 49
-2.599999905
 49
0.000000000
 49
-2.599999905
  0
LTYPE
  2
PHANTOM
 70
64
  3
___ _ _ ___ _ 
 72
65
 73
6
 40
12.999999762
 49
4.000000000
 49
-1.799999952
 49
1.799999952
 49
-1.799999952
 49
1.799999952
 49
-1.799999952
  0
ENDTAB
  0
TABLE
  2
LAYER
 70
1
  0
LAYER
  2
1
 70
0
 62
7
  6
CONTINUOUS
999
Comment001
  0
LAYER
  2
_CONSTR
 70
0
 62
5
  6
CONTINUOUS
  0
ENDTAB
  0
TABLE
  2
STYLE
 70
1
  0
STYLE
  2
STANDARD
 70
64
 40
0.000000000
 42
3.200000000
 41
0.600000000
 50
0.000000000
 71
0
  3
TXT
  4
EXTFONT
  0
STYLE
  2
VISION_STANDARD
 70
64
 40
0.000000000
 42
3.200000000
 41
0.600000000
 50
0.000000000
 71
0
  3
TXT
  4
BIGFONT
  0
ENDTAB
  0
TABLE
  2
VPORT
 70
2
  0
VPORT
  2
*ACTIVE
 70
0
 10
0.000000000
 20
0.000000000
 11
1.000000000
 21
1.000000000
 12
50.297520728
 22
-20.317993367
 13
0.000000000
 23
0.000000000
 14
1.000000000
 24
1.000000000
 15
0.000000000
 25
0.000000000
 16
0.000000000
 26
0.000000000
 36
1.000000000
 17
0.000000000
 27
0.000000000
 37
0.000000000
 40
167.074824415
 41
2.347607419
 42
50.000000000
 43
0.000000000
 44
0.000000000
 50
0.000000000
 51
0.000000000
 71
0
 72
100
 73
1
 74
1
 75
0
 76
0
 77
0
 78
0
  0
ENDTAB
  0
TABLE
  2
VIEW
 70
0
  0
ENDTAB
  0
TABLE
  2
DIMSTYLE
 70
1
  0
DIMSTYLE
  2
STANDARD
 70
0
  3

  4

  5

  6

  7

 40
1.000000000
 41
2.500000000
 42
0.000000000
 43
8.000000000
 44
1.000000000
 45
0.000000000
 46
0.000000000
 47
0.000000000
 48
0.000000000
140
3.200000000
141
2.500000000
142
0.000000000
143
0.039400000
144
1.000000000
145
0.000000000
146
1.000000000
147
0.625000000
 71
0
 72
0
 73
1
 74
1
 75
0
 76
0
 77
2
 78
8
170
0
171
2
172
0
173
0
174
0
175
0
176
0
177
0
178
0
  0
ENDTAB
  0
ENDSEC
  0
SECTION
  2
BLOCKS
  0
BLOCK
  8
0
  2
blk35
 70
64
 10
101.171502615
 20
-13.083409789
  3
blk35
  0
LINE
  8
1
 62
7
  6
CONTINUOUS
 10
117.571502615
 20
-18.083409789
 11
117.571502615
 21
-8.083409789
  0
LINE
  8
1
 62
7
  6
CONTINUOUS
 10
107.532827481
 20
-17.583409789
 11
107.821502615
 21
-18.083409789
  0
LINE
  8
1
 62
7
  6
CONTINUOUS
 10
107.532827481
 20
-8.583409789
 11
107.532827481
 21
-17.583409789
  0
LINE
  8
1
 62
7
  6
CONTINUOUS
 10
116.071502615
 20
-18.083409789
 11
116.071502615
 21
-8.083409789
  0
LINE
  8
1
 62
7
  6
CONTINUOUS
 10
101.671502615
 20
-17.083409789
 11
101.171502615
 21
-17.083409789
  0
LINE
  8
1
 62
7
  6
CONTINUOUS
 10
115.571502615
 20
-17.583409789
 11
115.571502615
 21
-8.583409789
  0
LINE
  8
1
 62
7
  6
CONTINUOUS
 10
114.689602664
 20
-17.583409789
 11
115.571502615
 21
-17.583409789
  0
LINE
  8
1
 62
7
  6
CONTINUOUS
 10
116.071502615
 20
-18.083409789
 11
117.571502615
 21
-18.083409789
  0
LINE
  8
1
 62
7
  6
CONTINUOUS
 10
114.689602664
 20
-18.083409789
 11
114.689602664
 21
-8.083409789
  0
LINE
  8
1
 62
7
  6
CONTINUOUS
 10
101.671502615
 20
-8.583409789
 11
101.671502615
 21
-17.583409789
  0
LINE
  8
1
 62
7
  6
CONTINUOUS
 10
107.821502615
 20
-18.083409789
 11
114.689602664
 21
-18.083409789
  0
LINE
  8
1
 62
7
  6
CONTINUOUS
 10
101.671502615
 20
-9.083409789
 11
101.171502615
 21
-9.083409789
  0
LINE
  8
1
 62
7
  6
CONTINUOUS
 10
101.171502615
 20
-9.083409789
 11
101.171502615
 21
-17.083409789
  0
LINE
  8
1
 62
7
  6
CONTINUOUS
 10
116.071502615
 20
-9.583409789
 11
115.571502615
 21
-9.583409789
  0
LINE
  8
1
 62
7
  6
CONTINUOUS
 10
101.671502615
 20
-17.583409789
 11
107.532827481
 21
-17.583409789
  0
LINE
  8
1
 62
7
  6
CONTINUOUS
 10
107.821502615
 20
-8.083409789
 11
107.821502615
 21
-18.083409789
  0
LINE
  8
1
 62
7
  6
CONTINUOUS
 10
116.071502615
 20
-16.623409789
 11
115.571502615
 21
-16.623409789
  0
LINE
  8
1
 62
1
  6
CENTER
 10
99.171502615
 20
-13.083409789
 11
119.571502615
 21
-13.083409789
  0
ENDBLK
  8
0
  0
BLOCK
  8
0
  2
blk70
 70
64
 10
101.171502615
 20
-6.810792045
  3
blk70
  0
LINE
  8
1
 62
7
  6
CONTINUOUS
 10
107.821502615
 20
-1.810792045
 11
107.821502615
 21
-11.810792045
  0
LINE
  8
1
 62
7
  6
CONTINUOUS
 10
101.671502615
 20
-11.310792045
 11
107.532827481
 21
-11.310792045
  0
LINE
  8
1
 62
7
  6
CONTINUOUS
 10
116.071502615
 20
-3.310792045
 11
115.571502615
 21
-3.310792045
  0
LINE
  8
1
 62
7
  6
CONTINUOUS
 10
101.171502615
 20
-2.810792045
 11
101.171502615
 21
-10.810792045
  0
LINE
  8
1
 62
7
  6
CONTINUOUS
 10
117.571502615
 20
-1.810792045
 11
116.071502615
 21
-1.810792045
  0
LINE
  8
1
 62
7
  6
CONTINUOUS
 10
115.571502615
 20
-2.310792045
 11
114.689602664
 21
-2.310792045
  0
LINE
  8
1
 62
7
  6
CONTINUOUS
 10
101.671502615
 20
-2.810792045
 11
101.171502615
 21
-2.810792045
  0
LINE
  8
1
 62
7
  6
CONTINUOUS
 10
107.821502615
 20
-11.810792045
 11
114.689602664
 21
-11.810792045
  0
LINE
  8
1
 62
7
  6
CONTINUOUS
 10
114.689602664
 20
-1.810792045
 11
107.821502615
 21
-1.810792045
  0
LINE
  8
1
 62
7
  6
CONTINUOUS
 10
101.671502615
 20
-2.310792045
 11
101.671502615
 21
-11.310792045
  0
LINE
  8
1
 62
7
  6
CONTINUOUS
 10
114.689602664
 20
-11.810792045
 11
114.689602664
 21
-1.810792045
  0
LINE
  8
1
 62
7
  6
CONTINUOUS
 10
116.071502615
 20
-11.810792045
 11
117.571502615
 21
-11.810792045
  0
LINE
  8
1
 62
1
  6
CENTER
 10
99.171502615
 20
-6.810792045
 11
119.571502615
 21
-6.810792045
  0
LINE
  8
1
 62
7
  6
CONTINUOUS
 10
115.571502615
 20
-11.310792045
 11
115.571502615
 21
-2.310792045
  0
LINE
  8
1
 62
7
  6
CONTINUOUS
 10
114.689602664
 20
-11.310792045
 11
115.571502615
 21
-11.310792045
  0
LINE
  8
1
 62
7
  6
CONTINUOUS
 10
117.571502615
 20
-11.810792045
 11
117.571502615
 21
-1.810792045
  0
LINE
  8
1
 62
7
  6
CONTINUOUS
 10
107.532827481
 20
-2.310792045
 11
107.532827481
 21
-11.310792045
  0
LINE
  8
1
 62
7
  6
CONTINUOUS
 10
107.532827481
 20
-11.310792045
 11
107.821502615
 21
-11.810792045
  0
LINE
  8
1
 62
7
  6
CONTINUOUS
 10
116.071502615
 20
-11.810792045
 11
116.071502615
 21
-1.810792045
  0
LINE
  8
1
 62
7
  6
CONTINUOUS
 10
107.532827481
 20
-2.310792045
 11
101.671502615
 21
-2.310792045
  0
LINE
  8
1
 62
7
  6
CONTINUOUS
 10
107.821502615
 20
-1.810792045
 11
107.532827481
 21
-2.310792045
  0
ENDBLK
  8
0
  0
BLOCK
  8
0
  2
*D155
 70
65
 10
0.000000000
 20
0.000000000
  3
*D
  0
TEXT
  8
1
 62
4
  6
CONTINUOUS
 72
5
 10
-45.202153324
 20
15.358524268
 40
2.800000000
  1
(
 41
1.800001800
 50
281.250000000
 11
-44.874401583
 21
13.710804997
  0
TEXT
  8
1
 62
4
  6
CONTINUOUS
 72
5
 10
-44.710525713
 20
12.886945361
 40
2.800000000
  1
22.5
 41
1.099999267
 50
281.250000000
 11
-42.907891137
 21
3.824489370
  0
TEXT
  8
1
 62
4
  6
CONTINUOUS
 72
5
 10
-42.744015267
 20
3.000629735
 40
2.800000000
  1
°
 41
1.270648030
 50
281.250000000
 11
-42.088511785
 21
-0.294808807
  0
TEXT
  8
1
 62
4
  6
CONTINUOUS
 72
5
 10
-42.498201461
 20
1.764840282
 40
2.800000000
  1
)
 41
1.800001800
 50
281.250000000
 11
-42.170449720
 21
0.117121011
  0
LINE
  8
1
 62
4
  6
CONTINUOUS
 10
-52.130019839
 20
0.000000000
 11
-43.130019839
 21
0.000000000
  0
POLYLINE
  8
1
 62
4
  6
CONTINUOUS
 66
1
  0
VERTEX
  8
1
 10
-45.430019839
 20
2.000000000
  0
VERTEX
  8
1
 10
-45.130019839
 20
0.000000000
  0
VERTEX
  8
1
 10
-44.830019839
 20
2.000000000
  0
SEQEND
  8
1
  0
ARC
  8
1
 62
4
  6
CONTINUOUS
 10
-82.630019839
 20
0.000000000
 40
37.500000000
 50
0.000000000
 51
22.500000000
  0
POLYLINE
  8
1
 62
4
  6
CONTINUOUS
 66
1
  0
VERTEX
  8
1
 10
-46.942006646
 20
12.617674678
  0
VERTEX
  8
1
 10
-47.984537370
 20
14.350628714
  0
VERTEX
  8
1
 10
-47.496334365
 20
12.388064619
  0
SEQEND
  8
1
  0
LINE
  8
1
 62
4
  6
CONTINUOUS
 10
-56.068483280
 20
11.002148680
 11
-46.136778305
 21
15.115995578
  0
ENDBLK
  8
0
  0
BLOCK
  8
0
  2
*D156
 70
65
 10
0.000000000
 20
0.000000000
  3
*D
  0
TEXT
  8
1
 62
4
  6
CONTINUOUS
 72
5
 10
-56.924284180
 20
30.445613835
 40
2.800000000
  1
45
 41
0.899998740
 50
315.000000000
 11
-53.954435699
 21
27.475765354
  0
TEXT
  8
1
 62
4
  6
CONTINUOUS
 72
5
 10
-53.360466003
 20
26.881795658
 40
2.800000000
  1
°
 41
1.270648030
 50
315.000000000
 11
-50.984587218
 21
24.505916873
  0
LINE
  8
1
 62
4
  6
CONTINUOUS
 10
-56.068483280
 20
11.002148680
 11
-46.136778305
 21
15.115995578
  0
POLYLINE
  8
1
 62
4
  6
CONTINUOUS
 66
1
  0
VERTEX
  8
1
 10
-49.027068095
 20
16.083582749
  0
VERTEX
  8
1
 10
-47.984537370
 20
14.350628714
  0
VERTEX
  8
1
 10
-48.472740375
 20
16.313192808
  0
SEQEND
  8
1
  0
ARC
  8
1
 62
4
  6
CONTINUOUS
 10
-82.630019839
 20
0.000000000
 40
37.500000000
 50
22.500000000
 51
67.500000000
  0
POLYLINE
  8
1
 62
4
  6
CONTINUOUS
 66
1
  0
VERTEX
  8
1
 10
-66.316827031
 20
34.157279464
  0
VERTEX
  8
1
 10
-68.279391126
 20
34.645482469
  0
VERTEX
  8
1
 10
-66.546437090
 20
33.602951745
  0
SEQEND
  8
1
  0
LINE
  8
1
 62
4
  6
CONTINUOUS
 10
-71.627871159
 20
26.561536560
 11
-67.514024261
 21
36.493241534
  0
ENDBLK
  8
0
  0
BLOCK
  8
0
  2
*D157
 70
65
 10
0.000000000
 20
0.000000000
  3
*D
  0
TEXT
  8
1
 62
4
  6
CONTINUOUS
 72
5
 10
-80.642737456
 20
40.087571893
 40
2.800000000
  1
22.5
 41
1.099999267
 50
348.750000000
 11
-71.580281465
 21
38.284937318
  0
TEXT
  8
1
 62
4
  6
CONTINUOUS
 72
5
 10
-70.756421830
 20
38.121061447
 40
2.800000000
  1
°
 41
1.270648030
 50
348.750000000
 11
-67.460983287
 21
37.465557965
  0
LINE
  8
1
 62
4
  6
CONTINUOUS
 10
-71.627871159
 20
26.561536560
 11
-67.514024261
 21
36.493241534
  0
POLYLINE
  8
1
 62
4
  6
CONTINUOUS
 66
1
  0
VERTEX
  8
1
 10
-70.241955220
 20
35.133685474
  0
VERTEX
  8
1
 10
-68.279391126
 20
34.645482469
  0
VERTEX
  8
1
 10
-70.012345161
 20
35.688013194
  0
SEQEND
  8
1
  0
ARC
  8
1
 62
4
  6
CONTINUOUS
 10
-82.630019839
 20
0.000000000
 40
37.500000000
 50
67.500000000
 51
90.000000000
  0
POLYLINE
  8
1
 62
4
  6
CONTINUOUS
 66
1
  0
VERTEX
  8
1
 10
-80.630019839
 20
37.800000000
  0
VERTEX
  8
1
 10
-82.630019839
 20
37.500000000
  0
VERTEX
  8
1
 10
-80.630019839
 20
37.200000000
  0
SEQEND
  8
1
  0
LINE
  8
1
 62
4
  6
CONTINUOUS
 10
-82.630019839
 20
30.500000000
 11
-82.630019839
 21
39.500000000
  0
ENDBLK
  8
0
  0
BLOCK
  8
0
  2
*D210
 70
65
 10
0.000000000
 20
0.000000000
  3
*D
  0
TEXT
  8
1
 62
4
  6
CONTINUOUS
 72
5
 10
74.579902615
 20
-58.295000000
 40
2.800000000
  1
49
 41
0.899998740
 11
78.779902615
 21
-58.295000000
  0
LINE
  8
1
 62
4
  6
CONTINUOUS
 10
52.171502615
 20
-27.000000000
 11
52.171502615
 21
-62.500000000
  0
POLYLINE
  8
1
 62
4
  6
CONTINUOUS
 66
1
  0
VERTEX
  8
1
 10
54.171502615
 20
-60.200000000
  0
VERTEX
  8
1
 10
52.171502615
 20
-60.500000000
  0
VERTEX
  8
1
 10
54.171502615
 20
-60.800000000
  0
SEQEND
  8
1
  0
LINE
  8
1
 62
4
  6
CONTINUOUS
 10
52.171502615
 20
-60.500000000
 11
101.171502615
 21
-60.500000000
  0
POLYLINE
  8
1
 62
4
  6
CONTINUOUS
 66
1
  0
VERTEX
  8
1
 10
99.171502615
 20
-60.800000000
  0
VERTEX
  8
1
 10
101.171502615
 20
-60.500000000
  0
VERTEX
  8
1
 10
99.171502615
 20
-60.200000000
  0
SEQEND
  8
1
  0
LINE
  8
1
 62
4
  6
CONTINUOUS
 10
101.171502615
 20
-18.900000000
 11
101.171502615
 21
-62.500000000
  0
ENDBLK
  8
0
  0
BLOCK
  8
0
  2
*D219
 70
65
 10
0.000000000
 20
0.000000000
  3
*D
  0
TEXT
  8
1
 62
4
  6
CONTINUOUS
 72
5
 10
30.309902615
 20
-50.295000000
 40
2.800000000
  1
18.5
 41
1.237498917
 11
39.549902615
 21
-50.295000000
  0
LINE
  8
1
 62
4
  6
CONTINUOUS
 10
44.171502615
 20
-26.300000000
 11
44.171502615
 21
-54.500000000
  0
POLYLINE
  8
1
 62
4
  6
CONTINUOUS
 66
1
  0
VERTEX
  8
1
 10
42.171502615
 20
-52.800000000
  0
VERTEX
  8
1
 10
44.171502615
 20
-52.500000000
  0
VERTEX
  8
1
 10
42.171502615
 20
-52.200000000
  0
SEQEND
  8
1
  0
LINE
  8
1
 62
4
  6
CONTINUOUS
 10
44.171502615
 20
-52.500000000
 11
25.671502615
 21
-52.500000000
  0
POLYLINE
  8
1
 62
4
  6
CONTINUOUS
 66
1
  0
VERTEX
  8
1
 10
27.671502615
 20
-52.200000000
  0
VERTEX
  8
1
 10
25.671502615
 20
-52.500000000
  0
VERTEX
  8
1
 10
27.671502615
 20
-52.800000000
  0
SEQEND
  8
1
  0
LINE
  8
1
 62
4
  6
CONTINUOUS
 10
25.671502615
 20
-16.900000000
 11
25.671502615
 21
-54.500000000
  0
ENDBLK
  8
0
  0
BLOCK
  8
0
  2
*D222
 70
65
 10
0.000000000
 20
0.000000000
  3
*D
  0
TEXT
  8
1
 62
4
  6
CONTINUOUS
 72
5
 10
27.454151308
 20
-58.295000000
 40
2.800000000
  1
(
 41
1.800001800
 11
29.134151308
 21
-58.295000000
  0
TEXT
  8
1
 62
4
  6
CONTINUOUS
 72
5
 10
29.974151308
 20
-58.295000000
 40
2.800000000
  1
35.2
 41
1.099999267
 11
39.214151308
 21
-58.295000000
  0
TEXT
  8
1
 62
4
  6
CONTINUOUS
 72
5
 10
40.054151308
 20
-58.295000000
 40
2.800000000
  1
)
 41
1.800001800
 11
41.734151308
 21
-58.295000000
  0
LINE
  8
1
 62
4
  6
CONTINUOUS
 10
52.171502615
 20
-27.000000000
 11
52.171502615
 21
-62.500000000
  0
POLYLINE
  8
1
 62
4
  6
CONTINUOUS
 66
1
  0
VERTEX
  8
1
 10
50.171502615
 20
-60.800000000
  0
VERTEX
  8
1
 10
52.171502615
 20
-60.500000000
  0
VERTEX
  8
1
 10
50.171502615
 20
-60.200000000
  0
SEQEND
  8
1
  0
LINE
  8
1
 62
4
  6
CONTINUOUS
 10
52.171502615
 20
-60.500000000
 11
17.000000000
 21
-60.500000000
  0
POLYLINE
  8
1
 62
4
  6
CONTINUOUS
 66
1
  0
VERTEX
  8
1
 10
19.000000000
 20
-60.200000000
  0
VERTEX
  8
1
 10
17.000000000
 20
-60.500000000
  0
VERTEX
  8
1
 10
19.000000000
 20
-60.800000000
  0
SEQEND
  8
1
  0
LINE
  8
1
 62
4
  6
CONTINUOUS
 10
17.000000000
 20
-3.422649522
 11
17.000000000
 21
-62.500000000
  0
ENDBLK
  8
0
  0
BLOCK
  8
0
  2
*D255
 70
65
 10
0.000000000
 20
0.000000000
  3
*D
  0
TEXT
  8
1
 62
4
  6
CONTINUOUS
 72
5
 10
64.883684784
 20
-7.466672061
 40
2.800000000
  1
φ
 41
1.270648030
 50
90.000000000
 11
64.883684784
 21
-4.106672061
  0
TEXT
  8
1
 62
4
  6
CONTINUOUS
 72
5
 10
64.883684784
 20
-2.426672061
 40
2.800000000
  1
40
 41
1.000000667
 50
90.000000000
 11
64.883684784
 21
1.773327939
  0
TEXT
  8
1
 62
4
  6
CONTINUOUS
 72
5
 10
63.119684784
 20
2.613327939
 40
1.400000000
  1
 0
 41
2.333335926
 50
90.000000000
 11
63.119684784
 21
5.553327939
  0
TEXT
  8
1
 62
4
  6
CONTINUOUS
 72
5
 10
65.261684784
 20
2.613327939
 40
1.400000000
  1
-0.025
 41
1.478571006
 50
90.000000000
 11
65.261684784
 21
12.273327939
  0
LINE
  8
1
 62
4
  6
CONTINUOUS
 10
57.171502615
 20
-20.000000000
 11
69.088684784
 21
-20.000000000
  0
POLYLINE
  8
1
 62
4
  6
CONTINUOUS
 66
1
  0
VERTEX
  8
1
 10
66.788684784
 20
-18.000000000
  0
VERTEX
  8
1
 10
67.088684784
 20
-20.000000000
  0
VERTEX
  8
1
 10
67.388684784
 20
-18.000000000
  0
SEQEND
  8
1
  0
LINE
  8
1
 62
4
  6
CONTINUOUS
 10
67.088684784
 20
-20.000000000
 11
67.088684784
 21
20.000000000
  0
POLYLINE
  8
1
 62
4
  6
CONTINUOUS
 66
1
  0
VERTEX
  8
1
 10
67.388684784
 20
18.000000000
  0
VERTEX
  8
1
 10
67.088684784
 20
20.000000000
  0
VERTEX
  8
1
 10
66.788684784
 20
18.000000000
  0
SEQEND
  8
1
  0
LINE
  8
1
 62
4
  6
CONTINUOUS
 10
59.886553128
 20
20.000000000
 11
69.088684784
 21
20.000000000
  0
POLYLINE
  8
1
 62
4
  6
CONTINUOUS
 66
1
  0
VERTEX
  8
1
 10
67.088684784
 20
20.000000000
  0
VERTEX
  8
1
 10
67.088684784
 20
-9.479272061
  0
SEQEND
  8
1
  0
ENDBLK
  8
0
  0
BLOCK
  8
0
  2
*D256
 70
65
 10
0.000000000
 20
0.000000000
  3
*D
  0
TEXT
  8
1
 62
4
  6
CONTINUOUS
 72
5
 10
-31.205000000
 20
-4.611600000
 40
2.800000000
  1
φ
 41
1.270648030
 50
90.000000000
 11
-31.205000000
 21
-1.251600000
  0
TEXT
  8
1
 62
4
  6
CONTINUOUS
 72
5
 10
-31.205000000
 20
0.428400000
 40
2.800000000
  1
55
 41
0.899998740
 50
90.000000000
 11
-31.205000000
 21
4.628400000
  0
LINE
  8
1
 62
4
  6
CONTINUOUS
 10
45.371502615
 20
-27.500000000
 11
-31.000000000
 21
-27.500000000
  0
POLYLINE
  8
1
 62
4
  6
CONTINUOUS
 66
1
  0
VERTEX
  8
1
 10
-29.300000000
 20
-25.500000000
  0
VERTEX
  8
1
 10
-29.000000000
 20
-27.500000000
  0
VERTEX
  8
1
 10
-28.700000000
 20
-25.500000000
  0
SEQEND
  8
1
  0
LINE
  8
1
 62
4
  6
CONTINUOUS
 10
-29.000000000
 20
-27.500000000
 11
-29.000000000
 21
27.500000000
  0
POLYLINE
  8
1
 62
4
  6
CONTINUOUS
 66
1
  0
VERTEX
  8
1
 10
-28.700000000
 20
25.500000000
  0
VERTEX
  8
1
 10
-29.000000000
 20
27.500000000
  0
VERTEX
  8
1
 10
-29.300000000
 20
25.500000000
  0
SEQEND
  8
1
  0
LINE
  8
1
 62
4
  6
CONTINUOUS
 10
45.371502615
 20
27.500000000
 11
-31.000000000
 21
27.500000000
  0
ENDBLK
  8
0
  0
BLOCK
  8
0
  2
*D263
 70
65
 10
0.000000000
 20
0.000000000
  3
*D
  0
TEXT
  8
1
 62
4
  6
CONTINUOUS
 72
5
 10
126.262365640
 20
20.575382455
 40
2.800000000
  1
PCD.
 41
1.100000000
 11
135.502365640
 21
20.575382455
  0
TEXT
  8
1
 62
4
  6
CONTINUOUS
 72
5
 10
136.342365640
 20
20.575382455
 40
2.800000000
  1
29.5
 41
1.099999267
 11
145.582365640
 21
20.575382455
  0
POLYLINE
  8
1
 62
4
  6
CONTINUOUS
 66
1
  0
VERTEX
  8
1
 10
187.400937129
 20
-6.875941639
  0
VERTEX
  8
1
 10
189.266021178
 20
-7.657901670
  0
VERTEX
  8
1
 10
187.712444994
 20
-6.363142604
  0
SEQEND
  8
1
  0
LINE
  8
1
 62
4
  6
CONTINUOUS
 10
189.266021178
 20
-7.657901670
 11
164.053401956
 21
7.657901670
  0
POLYLINE
  8
1
 62
4
  6
CONTINUOUS
 66
1
  0
VERTEX
  8
1
 10
165.918486005
 20
6.875941639
  0
VERTEX
  8
1
 10
164.053401956
 20
7.657901670
  0
VERTEX
  8
1
 10
165.606978140
 20
6.363142604
  0
SEQEND
  8
1
  0
POLYLINE
  8
1
 62
4
  6
CONTINUOUS
 66
1
  0
VERTEX
  8
1
 10
164.053401956
 20
7.657901670
  0
VERTEX
  8
1
 10
146.418695308
 20
18.370382455
  0
VERTEX
  8
1
 10
124.262365640
 20
18.370382455
  0
SEQEND
  8
1
  0
ENDBLK
  8
0
  0
BLOCK
  8
0
  2
*D271
 70
65
 10
0.000000000
 20
0.000000000
  3
*D
  0
TEXT
  8
1
 62
4
  6
CONTINUOUS
 72
5
 10
17.910651308
 20
-50.295000000
 40
2.800000000
  1
(
 41
1.050001050
 11
18.890651308
 21
-50.295000000
  0
TEXT
  8
1
 62
4
  6
CONTINUOUS
 72
5
 10
19.380651308
 20
-50.295000000
 40
2.800000000
  1
8.7
 41
0.699999300
 11
23.300651308
 21
-50.295000000
  0
TEXT
  8
1
 62
4
  6
CONTINUOUS
 72
5
 10
23.790651308
 20
-50.295000000
 40
2.800000000
  1
)
 41
1.050001050
 11
24.770651308
 21
-50.295000000
  0
LINE
  8
1
 62
4
  6
CONTINUOUS
 10
17.000000000
 20
-3.422649522
 11
17.000000000
 21
-54.500000000
  0
POLYLINE
  8
1
 62
4
  6
CONTINUOUS
 66
1
  0
VERTEX
  8
1
 10
15.000000000
 20
-52.200000000
  0
VERTEX
  8
1
 10
17.000000000
 20
-52.500000000
  0
SEQEND
  8
1
  0
POLYLINE
  8
1
 62
4
  6
CONTINUOUS
 66
1
  0
VERTEX
  8
1
 10
14.000000000
 20
-52.500000000
  0
VERTEX
  8
1
 10
17.000000000
 20
-52.500000000
  0
VERTEX
  8
1
 10
15.000000000
 20
-52.800000000
  0
SEQEND
  8
1
  0
LINE
  8
1
 62
4
  6
CONTINUOUS
 10
17.000000000
 20
-52.500000000
 11
25.671502615
 21
-52.500000000
  0
POLYLINE
  8
1
 62
4
  6
CONTINUOUS
 66
1
  0
VERTEX
  8
1
 10
27.671502615
 20
-52.800000000
  0
VERTEX
  8
1
 10
25.671502615
 20
-52.500000000
  0
SEQEND
  8
1
  0
POLYLINE
  8
1
 62
4
  6
CONTINUOUS
 66
1
  0
VERTEX
  8
1
 10
28.671502615
 20
-52.500000000
  0
VERTEX
  8
1
 10
25.671502615
 20
-52.500000000
  0
VERTEX
  8
1
 10
27.671502615
 20
-52.200000000
  0
SEQEND
  8
1
  0
LINE
  8
1
 62
4
  6
CONTINUOUS
 10
25.671502615
 20
-16.900000000
 11
25.671502615
 21
-54.500000000
  0
ENDBLK
  8
0
  0
BLOCK
  8
0
  2
blk272
 70
64
 10
101.171502615
 20
13.083409789
  3
blk272
  0
LINE
  8
1
 62
7
  6
CONTINUOUS
 10
116.071502615
 20
9.543409789
 11
115.571502615
 21
9.543409789
  0
LINE
  8
1
 62
7
  6
CONTINUOUS
 10
107.821502615
 20
18.083409789
 11
107.532827481
 21
17.583409789
  0
LINE
  8
1
 62
7
  6
CONTINUOUS
 10
107.532827481
 20
17.583409789
 11
101.671502615
 21
17.583409789
  0
LINE
  8
1
 62
7
  6
CONTINUOUS
 10
116.071502615
 20
8.083409789
 11
116.071502615
 21
18.083409789
  0
LINE
  8
1
 62
7
  6
CONTINUOUS
 10
107.532827481
 20
8.583409789
 11
107.821502615
 21
8.083409789
  0
LINE
  8
1
 62
7
  6
CONTINUOUS
 10
107.532827481
 20
17.583409789
 11
107.532827481
 21
8.583409789
  0
LINE
  8
1
 62
7
  6
CONTINUOUS
 10
117.571502615
 20
8.083409789
 11
117.571502615
 21
18.083409789
  0
LINE
  8
1
 62
7
  6
CONTINUOUS
 10
114.689602664
 20
8.583409789
 11
115.571502615
 21
8.583409789
  0
LINE
  8
1
 62
7
  6
CONTINUOUS
 10
115.571502615
 20
8.583409789
 11
115.571502615
 21
17.583409789
  0
LINE
  8
1
 62
7
  6
CONTINUOUS
 10
101.671502615
 20
9.083409789
 11
101.171502615
 21
9.083409789
  0
LINE
  8
1
 62
1
  6
CENTER
 10
99.171502615
 20
13.083409789
 11
119.571502615
 21
13.083409789
  0
LINE
  8
1
 62
7
  6
CONTINUOUS
 10
116.071502615
 20
8.083409789
 11
117.571502615
 21
8.083409789
  0
LINE
  8
1
 62
7
  6
CONTINUOUS
 10
114.689602664
 20
8.083409789
 11
114.689602664
 21
18.083409789
  0
LINE
  8
1
 62
7
  6
CONTINUOUS
 10
101.671502615
 20
17.583409789
 11
101.671502615
 21
8.583409789
  0
LINE
  8
1
 62
7
  6
CONTINUOUS
 10
114.689602664
 20
18.083409789
 11
107.821502615
 21
18.083409789
  0
LINE
  8
1
 62
7
  6
CONTINUOUS
 10
107.821502615
 20
8.083409789
 11
114.689602664
 21
8.083409789
  0
LINE
  8
1
 62
7
  6
CONTINUOUS
 10
101.671502615
 20
17.083409789
 11
101.171502615
 21
17.083409789
  0
LINE
  8
1
 62
7
  6
CONTINUOUS
 10
115.571502615
 20
17.583409789
 11
114.689602664
 21
17.583409789
  0
LINE
  8
1
 62
7
  6
CONTINUOUS
 10
117.571502615
 20
18.083409789
 11
116.071502615
 21
18.083409789
  0
LINE
  8
1
 62
7
  6
CONTINUOUS
 10
101.171502615
 20
17.083409789
 11
101.171502615
 21
9.083409789
  0
LINE
  8
1
 62
7
  6
CONTINUOUS
 10
116.071502615
 20
16.583409789
 11
115.571502615
 21
16.583409789
  0
LINE
  8
1
 62
7
  6
CONTINUOUS
 10
101.671502615
 20
8.583409789
 11
107.532827481
 21
8.583409789
  0
LINE
  8
1
 62
7
  6
CONTINUOUS
 10
107.821502615
 20
18.083409789
 11
107.821502615
 21
8.083409789
  0
ENDBLK
  8
0
  0
BLOCK
  8
0
  2
*D275
 70
65
 10
0.000000000
 20
0.000000000
  3
*D
  0
TEXT
  8
1
 62
4
  6
CONTINUOUS
 72
5
 10
47.339902615
 20
-50.295000000
 40
2.800000000
  1
8
 41
0.899996850
 11
49.019902615
 21
-50.295000000
  0
LINE
  8
1
 62
4
  6
CONTINUOUS
 10
52.171502615
 20
-27.000000000
 11
52.171502615
 21
-54.500000000
  0
POLYLINE
  8
1
 62
4
  6
CONTINUOUS
 66
1
  0
VERTEX
  8
1
 10
54.171502615
 20
-52.800000000
  0
VERTEX
  8
1
 10
52.171502615
 20
-52.500000000
  0
SEQEND
  8
1
  0
POLYLINE
  8
1
 62
4
  6
CONTINUOUS
 66
1
  0
VERTEX
  8
1
 10
55.171502615
 20
-52.500000000
  0
VERTEX
  8
1
 10
52.171502615
 20
-52.500000000
  0
VERTEX
  8
1
 10
54.171502615
 20
-52.200000000
  0
SEQEND
  8
1
  0
LINE
  8
1
 62
4
  6
CONTINUOUS
 10
52.171502615
 20
-52.500000000
 11
44.171502615
 21
-52.500000000
  0
POLYLINE
  8
1
 62
4
  6
CONTINUOUS
 66
1
  0
VERTEX
  8
1
 10
42.171502615
 20
-52.200000000
  0
VERTEX
  8
1
 10
44.171502615
 20
-52.500000000
  0
SEQEND
  8
1
  0
POLYLINE
  8
1
 62
4
  6
CONTINUOUS
 66
1
  0
VERTEX
  8
1
 10
41.171502615
 20
-52.500000000
  0
VERTEX
  8
1
 10
44.171502615
 20
-52.500000000
  0
VERTEX
  8
1
 10
42.171502615
 20
-52.800000000
  0
SEQEND
  8
1
  0
LINE
  8
1
 62
4
  6
CONTINUOUS
 10
44.171502615
 20
-26.300000000
 11
44.171502615
 21
-54.500000000
  0
ENDBLK
  8
0
  0
BLOCK
  8
0
  2
*D277
 70
65
 10
0.000000000
 20
0.000000000
  3
*D
  0
TEXT
  8
1
 62
4
  6
CONTINUOUS
 72
5
 10
94.520373847
 20
-9.621846080
 40
2.800000000
  1
φ
 41
1.270648030
 50
90.000000000
 11
94.520373847
 21
-6.261846080
  0
TEXT
  8
1
 62
4
  6
CONTINUOUS
 72
5
 10
94.520373847
 20
-4.581846080
 40
2.800000000
  1
39.8
 41
1.099999267
 50
90.000000000
 11
94.520373847
 21
4.658153920
  0
LINE
  8
1
 62
4
  6
CONTINUOUS
 10
100.171502615
 20
-19.900000000
 11
94.725373847
 21
-19.900000000
  0
POLYLINE
  8
1
 62
4
  6
CONTINUOUS
 66
1
  0
VERTEX
  8
1
 10
96.425373847
 20
-17.900000000
  0
VERTEX
  8
1
 10
96.725373847
 20
-19.900000000
  0
VERTEX
  8
1
 10
97.025373847
 20
-17.900000000
  0
SEQEND
  8
1
  0
LINE
  8
1
 62
4
  6
CONTINUOUS
 10
96.725373847
 20
-19.900000000
 11
96.725373847
 21
19.900000000
  0
POLYLINE
  8
1
 62
4
  6
CONTINUOUS
 66
1
  0
VERTEX
  8
1
 10
97.025373847
 20
17.900000000
  0
VERTEX
  8
1
 10
96.725373847
 20
19.900000000
  0
VERTEX
  8
1
 10
96.425373847
 20
17.900000000
  0
SEQEND
  8
1
  0
LINE
  8
1
 62
4
  6
CONTINUOUS
 10
100.171502615
 20
19.900000000
 11
94.725373847
 21
19.900000000
  0
POLYLINE
  8
1
 62
4
  6
CONTINUOUS
 66
1
  0
VERTEX
  8
1
 10
96.725373847
 20
19.900000000
  0
VERTEX
  8
1
 10
96.725373847
 20
-11.621846080
  0
SEQEND
  8
1
  0
ENDBLK
  8
0
  0
BLOCK
  8
0
  2
*D278
 70
65
 10
0.000000000
 20
0.000000000
  3
*D
  0
TEXT
  8
1
 62
4
  6
CONTINUOUS
 72
5
 10
6.408400000
 20
-66.290622610
 40
2.800000000
  1
17
 41
1.124997750
 11
10.608400000
 21
-66.290622610
  0
LINE
  8
1
 62
4
  6
CONTINUOUS
 10
17.000000000
 20
-3.422649522
 11
17.000000000
 21
-70.495622610
  0
POLYLINE
  8
1
 62
4
  6
CONTINUOUS
 66
1
  0
VERTEX
  8
1
 10
15.000000000
 20
-68.795622610
  0
VERTEX
  8
1
 10
17.000000000
 20
-68.495622610
  0
VERTEX
  8
1
 10
15.000000000
 20
-68.195622610
  0
SEQEND
  8
1
  0
LINE
  8
1
 62
4
  6
CONTINUOUS
 10
17.000000000
 20
-68.495622610
 11
0.000000000
 21
-68.495622610
  0
POLYLINE
  8
1
 62
4
  6
CONTINUOUS
 66
1
  0
VERTEX
  8
1
 10
2.000000000
 20
-68.195622610
  0
VERTEX
  8
1
 10
0.000000000
 20
-68.495622610
  0
VERTEX
  8
1
 10
2.000000000
 20
-68.795622610
  0
SEQEND
  8
1
  0
LINE
  8
1
 62
4
  6
CONTINUOUS
 10
0.000000000
 20
-0.699999791
 11
0.000000000
 21
-70.495622610
  0
ENDBLK
  8
0
  0
BLOCK
  8
0
  2
*D329
 70
65
 10
0.000000000
 20
0.000000000
  3
*D
  0
TEXT
  8
1
 62
4
  6
CONTINUOUS
 72
5
 10
165.105116138
 20
-25.500717088
 40
2.800000000
  1
90
 41
1.000000667
 50
342.500000000
 11
169.110727331
 21
-26.763681446
  0
TEXT
  8
1
 62
4
  6
CONTINUOUS
 72
5
 10
169.911849570
 20
-27.016274318
 40
2.800000000
  1
°
 41
1.270648030
 50
342.500000000
 11
173.116338524
 21
-28.026645804
  0
LINE
  8
1
 62
4
  6
CONTINUOUS
 10
157.145473237
 20
-10.158469491
 11
148.275364905
 21
-14.775955624
  0
POLYLINE
  8
1
 62
4
  6
CONTINUOUS
 66
1
  0
VERTEX
  8
1
 10
151.238987048
 20
-15.487955479
  0
VERTEX
  8
1
 10
150.049386572
 20
-13.852458397
  0
VERTEX
  8
1
 10
150.706780548
 20
-15.765004647
  0
SEQEND
  8
1
  0
ARC
  8
1
 62
4
  6
CONTINUOUS
 10
176.659711567
 20
0.000000000
 40
30.000000000
 50
207.500000000
 51
297.500000000
  0
POLYLINE
  8
1
 62
4
  6
CONTINUOUS
 66
1
  0
VERTEX
  8
1
 10
188.876672882
 20
-27.799925472
  0
VERTEX
  8
1
 10
190.512169964
 20
-26.610324995
  0
VERTEX
  8
1
 10
188.599623714
 20
-27.267718972
  0
SEQEND
  8
1
  0
LINE
  8
1
 62
4
  6
CONTINUOUS
 10
186.818181058
 20
-19.514238330
 11
191.435667191
 21
-28.384346662
  0
ENDBLK
  8
0
  0
BLOCK
  8
0
  2
*D331
 70
65
 10
0.000000000
 20
0.000000000
  3
*D
  0
TEXT
  8
1
 62
4
  6
CONTINUOUS
 72
5
 10
196.395476492
 20
-21.054786686
 40
2.800000000
  1
(
 41
1.800001800
 50
58.750000000
 11
197.267015566
 21
-19.618534743
  0
TEXT
  8
1
 62
4
  6
CONTINUOUS
 72
5
 10
197.702785103
 20
-18.900408772
 40
2.800000000
  1
62.5
 41
1.099999267
 50
58.750000000
 11
202.496250008
 21
-11.001023087
  0
TEXT
  8
1
 62
4
  6
CONTINUOUS
 72
5
 10
202.932019545
 20
-10.282897116
 40
2.800000000
  1
°
 41
1.270648030
 50
58.750000000
 11
204.675097692
 21
-7.410393230
  0
TEXT
  8
1
 62
4
  6
CONTINUOUS
 72
5
 10
203.585673850
 20
-9.205708158
 40
2.800000000
  1
)
 41
1.800001800
 50
58.750000000
 11
204.457212924
 21
-7.769456216
  0
LINE
  8
1
 62
4
  6
CONTINUOUS
 10
186.818181058
 20
-19.514238330
 11
191.435667191
 21
-28.384346662
  0
POLYLINE
  8
1
 62
4
  6
CONTINUOUS
 66
1
  0
VERTEX
  8
1
 10
192.147667047
 20
-25.420724519
  0
VERTEX
  8
1
 10
190.512169964
 20
-26.610324995
  0
VERTEX
  8
1
 10
192.424716215
 20
-25.952931019
  0
SEQEND
  8
1
  0
ARC
  8
1
 62
4
  6
CONTINUOUS
 10
176.659711567
 20
0.000000000
 40
30.000000000
 50
297.500000000
 51
360.000000000
  0
POLYLINE
  8
1
 62
4
  6
CONTINUOUS
 66
1
  0
VERTEX
  8
1
 10
206.959711567
 20
-2.000000000
  0
VERTEX
  8
1
 10
206.659711567
 20
-0.000000000
  0
VERTEX
  8
1
 10
206.359711567
 20
-2.000000000
  0
SEQEND
  8
1
  0
LINE
  8
1
 62
4
  6
CONTINUOUS
 10
199.659711567
 20
0.000000000
 11
208.659711567
 21
-0.000000000
  0
ENDBLK
  8
0
  0
BLOCK
  8
0
  2
*D333
 70
65
 10
0.000000000
 20
0.000000000
  3
*D
  0
TEXT
  8
1
 62
4
  6
CONTINUOUS
 72
5
 10
206.546186440
 20
13.358006259
 40
2.800000000
  1
27.5
 41
1.099999267
 50
283.750000000
 11
208.742404085
 21
4.382805534
  0
TEXT
  8
1
 62
4
  6
CONTINUOUS
 72
5
 10
208.942060235
 20
3.566878196
 40
2.800000000
  1
°
 41
1.270648030
 50
283.750000000
 11
209.740684833
 21
0.303168841
  0
LINE
  8
1
 62
4
  6
CONTINUOUS
 10
199.659711567
 20
0.000000000
 11
208.659711567
 21
0.000000000
  0
POLYLINE
  8
1
 62
4
  6
CONTINUOUS
 66
1
  0
VERTEX
  8
1
 10
206.359711567
 20
2.000000000
  0
VERTEX
  8
1
 10
206.659711567
 20
0.000000000
  0
VERTEX
  8
1
 10
206.959711567
 20
2.000000000
  0
SEQEND
  8
1
  0
ARC
  8
1
 62
4
  6
CONTINUOUS
 10
176.659711567
 20
0.000000000
 40
30.000000000
 50
0.000000000
 51
27.500000000
  0
POLYLINE
  8
1
 62
4
  6
CONTINUOUS
 66
1
  0
VERTEX
  8
1
 10
204.459637039
 20
12.216961315
  0
VERTEX
  8
1
 10
203.270036562
 20
13.852458397
  0
VERTEX
  8
1
 10
203.927430539
 20
11.939912147
  0
SEQEND
  8
1
  0
LINE
  8
1
 62
4
  6
CONTINUOUS
 10
196.173949897
 20
10.158469491
 11
205.044058229
 21
14.775955624
  0
ENDBLK
  8
0
  0
BLOCK
  8
0
  2
*D334
 70
65
 10
0.000000000
 20
0.000000000
  3
*D
  0
TEXT
  8
1
 62
4
  6
CONTINUOUS
 72
5
 10
183.147464108
 20
31.722299956
 40
2.800000000
  1
90
 41
1.000000667
 50
342.500000000
 11
187.153075301
 21
30.459335599
  0
TEXT
  8
1
 62
4
  6
CONTINUOUS
 72
5
 10
187.954197540
 20
30.206742727
 40
2.800000000
  1
°
 41
1.270648030
 50
342.500000000
 11
191.158686494
 21
29.196371241
  0
LINE
  8
1
 62
4
  6
CONTINUOUS
 10
196.173949897
 20
10.158469491
 11
205.044058229
 21
14.775955624
  0
POLYLINE
  8
1
 62
4
  6
CONTINUOUS
 66
1
  0
VERTEX
  8
1
 10
202.080436086
 20
15.487955479
  0
VERTEX
  8
1
 10
203.270036562
 20
13.852458397
  0
VERTEX
  8
1
 10
202.612642586
 20
15.765004647
  0
SEQEND
  8
1
  0
ARC
  8
1
 62
4
  6
CONTINUOUS
 10
176.659711567
 20
0.000000000
 40
30.000000000
 50
27.500000000
 51
117.500000000
  0
POLYLINE
  8
1
 62
4
  6
CONTINUOUS
 66
1
  0
VERTEX
  8
1
 10
164.442750252
 20
27.799925472
  0
VERTEX
  8
1
 10
162.807253170
 20
26.610324995
  0
VERTEX
  8
1
 10
164.719799420
 20
27.267718972
  0
SEQEND
  8
1
  0
LINE
  8
1
 62
4
  6
CONTINUOUS
 10
166.501242076
 20
19.514238330
 11
161.883755944
 21
28.384346662
  0
ENDBLK
  8
0
  0
BLOCK
  8
0
  2
*D335
 70
65
 10
0.000000000
 20
0.000000000
  3
*D
  0
TEXT
  8
1
 62
4
  6
CONTINUOUS
 72
5
 10
144.937411611
 20
6.487752541
 40
2.800000000
  1
90
 41
1.000000667
 50
72.500000000
 11
146.200375969
 21
10.493363734
  0
TEXT
  8
1
 62
4
  6
CONTINUOUS
 72
5
 10
146.452968840
 20
11.294485973
 40
2.800000000
  1
°
 41
1.270648030
 50
72.500000000
 11
147.463340327
 21
14.498974927
  0
LINE
  8
1
 62
4
  6
CONTINUOUS
 10
166.501242076
 20
19.514238330
 11
161.883755944
 21
28.384346662
  0
POLYLINE
  8
1
 62
4
  6
CONTINUOUS
 66
1
  0
VERTEX
  8
1
 10
161.171756088
 20
25.420724519
  0
VERTEX
  8
1
 10
162.807253170
 20
26.610324995
  0
VERTEX
  8
1
 10
160.894706920
 20
25.952931019
  0
SEQEND
  8
1
  0
ARC
  8
1
 62
4
  6
CONTINUOUS
 10
176.659711567
 20
0.000000000
 40
30.000000000
 50
117.500000000
 51
207.500000000
  0
POLYLINE
  8
1
 62
4
  6
CONTINUOUS
 66
1
  0
VERTEX
  8
1
 10
148.859786095
 20
-12.216961315
  0
VERTEX
  8
1
 10
150.049386572
 20
-13.852458397
  0
VERTEX
  8
1
 10
149.391992595
 20
-11.939912147
  0
SEQEND
  8
1
  0
LINE
  8
1
 62
4
  6
CONTINUOUS
 10
157.145473237
 20
-10.158469491
 11
148.275364905
 21
-14.775955624
  0
ENDBLK
  8
0
  0
BLOCK
  8
0
  2
*D360
 70
65
 10
0.000000000
 20
0.000000000
  3
*D
  0
TEXT
  8
1
 62
4
  6
CONTINUOUS
 72
5
 10
67.464151308
 20
-66.290622610
 40
2.800000000
  1
112.7
 41
1.259998992
 11
79.224151308
 21
-66.290622610
  0
LINE
  8
1
 62
4
  6
CONTINUOUS
 10
17.000000000
 20
-3.422649522
 11
17.000000000
 21
-70.495622610
  0
POLYLINE
  8
1
 62
4
  6
CONTINUOUS
 66
1
  0
VERTEX
  8
1
 10
19.000000000
 20
-68.195622610
  0
VERTEX
  8
1
 10
17.000000000
 20
-68.495622610
  0
VERTEX
  8
1
 10
19.000000000
 20
-68.795622610
  0
SEQEND
  8
1
  0
LINE
  8
1
 62
4
  6
CONTINUOUS
 10
17.000000000
 20
-68.495622610
 11
129.671502615
 21
-68.495622610
  0
POLYLINE
  8
1
 62
4
  6
CONTINUOUS
 66
1
  0
VERTEX
  8
1
 10
127.671502615
 20
-68.795622610
  0
VERTEX
  8
1
 10
129.671502615
 20
-68.495622610
  0
VERTEX
  8
1
 10
127.671502615
 20
-68.195622610
  0
SEQEND
  8
1
  0
LINE
  8
1
 62
4
  6
CONTINUOUS
 10
129.671502615
 20
-10.600000000
 11
129.671502615
 21
-70.495622610
  0
ENDBLK
  8
0
  0
BLOCK
  8
0
  2
*D361
 70
65
 10
0.000000000
 20
0.000000000
  3
*D
  0
TEXT
  8
1
 62
4
  6
CONTINUOUS
 72
5
 10
108.289902615
 20
-58.295000000
 40
2.800000000
  1
(
 41
1.800001800
 11
109.969902615
 21
-58.295000000
  0
TEXT
  8
1
 62
4
  6
CONTINUOUS
 72
5
 10
110.809902615
 20
-58.295000000
 40
2.800000000
  1
28.5
 41
1.099999267
 11
120.049902615
 21
-58.295000000
  0
TEXT
  8
1
 62
4
  6
CONTINUOUS
 72
5
 10
120.889902615
 20
-58.295000000
 40
2.800000000
  1
)
 41
1.800001800
 11
122.569902615
 21
-58.295000000
  0
LINE
  8
1
 62
4
  6
CONTINUOUS
 10
101.171502615
 20
-18.900000000
 11
101.171502615
 21
-62.500000000
  0
POLYLINE
  8
1
 62
4
  6
CONTINUOUS
 66
1
  0
VERTEX
  8
1
 10
103.171502615
 20
-60.200000000
  0
VERTEX
  8
1
 10
101.171502615
 20
-60.500000000
  0
VERTEX
  8
1
 10
103.171502615
 20
-60.800000000
  0
SEQEND
  8
1
  0
LINE
  8
1
 62
4
  6
CONTINUOUS
 10
101.171502615
 20
-60.500000000
 11
129.671502615
 21
-60.500000000
  0
POLYLINE
  8
1
 62
4
  6
CONTINUOUS
 66
1
  0
VERTEX
  8
1
 10
127.671502615
 20
-60.800000000
  0
VERTEX
  8
1
 10
129.671502615
 20
-60.500000000
  0
VERTEX
  8
1
 10
127.671502615
 20
-60.200000000
  0
SEQEND
  8
1
  0
LINE
  8
1
 62
4
  6
CONTINUOUS
 10
129.671502615
 20
-10.600000000
 11
129.671502615
 21
-62.500000000
  0
ENDBLK
  8
0
  0
BLOCK
  8
0
  2
*D370
 70
65
 10
0.000000000
 20
0.000000000
  3
*D
  0
TEXT
  8
1
 62
4
  6
CONTINUOUS
 72
5
 10
-23.205000000
 20
-7.131600000
 40
2.800000000
  1
PCD.
 41
1.100000000
 50
90.000000000
 11
-23.205000000
 21
2.108400000
  0
TEXT
  8
1
 62
4
  6
CONTINUOUS
 72
5
 10
-23.205000000
 20
2.948400000
 40
2.800000000
  1
47
 41
0.899998740
 50
90.000000000
 11
-23.205000000
 21
7.148400000
  0
LINE
  8
1
 62
4
  6
CONTINUOUS
 10
42.171502615
 20
23.500000000
 11
-23.000000000
 21
23.500000000
  0
POLYLINE
  8
1
 62
4
  6
CONTINUOUS
 66
1
  0
VERTEX
  8
1
 10
-20.700000000
 20
21.500000000
  0
VERTEX
  8
1
 10
-21.000000000
 20
23.500000000
  0
VERTEX
  8
1
 10
-21.300000000
 20
21.500000000
  0
SEQEND
  8
1
  0
LINE
  8
1
 62
4
  6
CONTINUOUS
 10
-21.000000000
 20
23.500000000
 11
-21.000000000
 21
-23.500000000
  0
POLYLINE
  8
1
 62
4
  6
CONTINUOUS
 66
1
  0
VERTEX
  8
1
 10
-21.300000000
 20
-21.500000000
  0
VERTEX
  8
1
 10
-21.000000000
 20
-23.500000000
  0
VERTEX
  8
1
 10
-20.700000000
 20
-21.500000000
  0
SEQEND
  8
1
  0
LINE
  8
1
 62
4
  6
CONTINUOUS
 10
42.171502615
 20
-23.500000000
 11
-23.000000000
 21
-23.500000000
  0
ENDBLK
  8
0
  0
BLOCK
  8
0
  2
*D375
 70
65
 10
0.000000000
 20
0.000000000
  3
*D
  0
TEXT
  8
1
 62
4
  6
CONTINUOUS
 72
5
 10
-7.205000000
 20
-7.131599791
 40
2.800000000
  1
φ
 41
1.270648030
 50
90.000000000
 11
-7.205000000
 21
-3.771599791
  0
TEXT
  8
1
 62
4
  6
CONTINUOUS
 72
5
 10
-7.205000000
 20
-2.091599791
 40
2.800000000
  1
10.8
 41
1.319998944
 50
90.000000000
 11
-7.205000000
 21
7.148400209
  0
LINE
  8
1
 62
4
  6
CONTINUOUS
 10
19.692820323
 20
5.400000209
 11
-7.000000000
 21
5.400000209
  0
POLYLINE
  8
1
 62
4
  6
CONTINUOUS
 66
1
  0
VERTEX
  8
1
 10
-4.700000000
 20
3.400000209
  0
VERTEX
  8
1
 10
-5.000000000
 20
5.400000209
  0
VERTEX
  8
1
 10
-5.300000000
 20
3.400000209
  0
SEQEND
  8
1
  0
LINE
  8
1
 62
4
  6
CONTINUOUS
 10
-5.000000000
 20
5.400000209
 11
-5.000000000
 21
-5.399999791
  0
POLYLINE
  8
1
 62
4
  6
CONTINUOUS
 66
1
  0
VERTEX
  8
1
 10
-5.300000000
 20
-3.399999791
  0
VERTEX
  8
1
 10
-5.000000000
 20
-5.399999791
  0
VERTEX
  8
1
 10
-4.700000000
 20
-3.399999791
  0
SEQEND
  8
1
  0
LINE
  8
1
 62
4
  6
CONTINUOUS
 10
19.692820323
 20
-5.399999791
 11
-7.000000000
 21
-5.399999791
  0
ENDBLK
  8
0
  0
BLOCK
  8
0
  2
*D377
 70
65
 10
0.000000000
 20
0.000000000
  3
*D
  0
TEXT
  8
1
 62
4
  6
CONTINUOUS
 72
5
 10
78.289902615
 20
-50.295000000
 40
2.800000000
  1
(
 41
1.800001800
 11
79.969902615
 21
-50.295000000
  0
TEXT
  8
1
 62
4
  6
CONTINUOUS
 72
5
 10
80.809902615
 20
-50.295000000
 40
2.800000000
  1
31.5
 41
1.237498917
 11
90.049902615
 21
-50.295000000
  0
TEXT
  8
1
 62
4
  6
CONTINUOUS
 72
5
 10
90.889902615
 20
-50.295000000
 40
2.800000000
  1
)
 41
1.800001800
 11
92.569902615
 21
-50.295000000
  0
LINE
  8
1
 62
4
  6
CONTINUOUS
 10
69.671502615
 20
-19.700000000
 11
69.671502615
 21
-54.500000000
  0
POLYLINE
  8
1
 62
4
  6
CONTINUOUS
 66
1
  0
VERTEX
  8
1
 10
71.671502615
 20
-52.200000000
  0
VERTEX
  8
1
 10
69.671502615
 20
-52.500000000
  0
VERTEX
  8
1
 10
71.671502615
 20
-52.800000000
  0
SEQEND
  8
1
  0
LINE
  8
1
 62
4
  6
CONTINUOUS
 10
69.671502615
 20
-52.500000000
 11
101.171502615
 21
-52.500000000
  0
POLYLINE
  8
1
 62
4
  6
CONTINUOUS
 66
1
  0
VERTEX
  8
1
 10
99.171502615
 20
-52.800000000
  0
VERTEX
  8
1
 10
101.171502615
 20
-52.500000000
  0
VERTEX
  8
1
 10
99.171502615
 20
-52.200000000
  0
SEQEND
  8
1
  0
LINE
  8
1
 62
4
  6
CONTINUOUS
 10
101.171502615
 20
-18.900000000
 11
101.171502615
 21
-54.500000000
  0
ENDBLK
  8
0
  0
BLOCK
  8
0
  2
*D384
 70
65
 10
0.000000000
 20
0.000000000
  3
*D
  0
TEXT
  8
1
 62
4
  6
CONTINUOUS
 72
5
 10
56.309902615
 20
-50.295000000
 40
2.800000000
  1
17.5
 41
1.237498917
 11
65.549902615
 21
-50.295000000
  0
LINE
  8
1
 62
4
  6
CONTINUOUS
 10
52.171502615
 20
-27.000000000
 11
52.171502615
 21
-54.500000000
  0
POLYLINE
  8
1
 62
4
  6
CONTINUOUS
 66
1
  0
VERTEX
  8
1
 10
54.171502615
 20
-52.200000000
  0
VERTEX
  8
1
 10
52.171502615
 20
-52.500000000
  0
VERTEX
  8
1
 10
54.171502615
 20
-52.800000000
  0
SEQEND
  8
1
  0
LINE
  8
1
 62
4
  6
CONTINUOUS
 10
52.171502615
 20
-52.500000000
 11
69.671502615
 21
-52.500000000
  0
POLYLINE
  8
1
 62
4
  6
CONTINUOUS
 66
1
  0
VERTEX
  8
1
 10
67.671502615
 20
-52.800000000
  0
VERTEX
  8
1
 10
69.671502615
 20
-52.500000000
  0
VERTEX
  8
1
 10
67.671502615
 20
-52.200000000
  0
SEQEND
  8
1
  0
LINE
  8
1
 62
4
  6
CONTINUOUS
 10
69.671502615
 20
-19.700000000
 11
69.671502615
 21
-54.500000000
  0
ENDBLK
  8
0
  0
BLOCK
  8
0
  2
*D396
 70
65
 10
0.000000000
 20
0.000000000
  3
*D
  0
TEXT
  8
1
 62
4
  6
CONTINUOUS
 72
5
 10
-15.205000000
 20
-4.611600000
 40
2.800000000
  1
φ
 41
1.270648030
 50
90.000000000
 11
-15.205000000
 21
-1.251600000
  0
TEXT
  8
1
 62
4
  6
CONTINUOUS
 72
5
 10
-15.205000000
 20
0.428400000
 40
2.800000000
  1
39
 41
0.899998740
 50
90.000000000
 11
-15.205000000
 21
4.628400000
  0
LINE
  8
1
 62
4
  6
CONTINUOUS
 10
32.971502615
 20
19.500000000
 11
-15.000000000
 21
19.500000000
  0
POLYLINE
  8
1
 62
4
  6
CONTINUOUS
 66
1
  0
VERTEX
  8
1
 10
-12.700000000
 20
17.500000000
  0
VERTEX
  8
1
 10
-13.000000000
 20
19.500000000
  0
VERTEX
  8
1
 10
-13.300000000
 20
17.500000000
  0
SEQEND
  8
1
  0
LINE
  8
1
 62
4
  6
CONTINUOUS
 10
-13.000000000
 20
19.500000000
 11
-13.000000000
 21
-19.500000000
  0
POLYLINE
  8
1
 62
4
  6
CONTINUOUS
 66
1
  0
VERTEX
  8
1
 10
-13.300000000
 20
-17.500000000
  0
VERTEX
  8
1
 10
-13.000000000
 20
-19.500000000
  0
VERTEX
  8
1
 10
-12.700000000
 20
-17.500000000
  0
SEQEND
  8
1
  0
LINE
  8
1
 62
4
  6
CONTINUOUS
 10
32.971502615
 20
-19.500000000
 11
-15.000000000
 21
-19.500000000
  0
ENDBLK
  8
0
  0
ENDSEC
  0
SECTION
  2
ENTITIES
  0
LINE
  8
1
 62
7
  6
CONTINUOUS
 10
127.671502615
 20
-11.100000000
 11
126.871502615
 21
-11.100000000
  0
LINE
  8
1
 62
7
  6
CONTINUOUS
 10
126.871502615
 20
-1.400000000
 11
127.671502615
 21
-1.400000000
  0
LINE
  8
1
 62
1
  6
CENTER
 10
-99.490821308
 20
-6.983972641
 11
-109.191556399
 21
-11.002148680
  0
LINE
  8
1
 62
1
  6
CENTER
 10
-89.613992480
 20
-16.860801468
 11
-93.632168520
 21
-26.561536560
  0
LINE
  8
1
 62
1
  6
CENTER
 10
-99.490821308
 20
6.983972641
 11
-109.191556399
 21
11.002148680
  0
LINE
  8
1
 62
1
  6
CENTER
 10
-89.613992480
 20
16.860801468
 11
-93.632168520
 21
26.561536560
  0
LINE
  8
1
 62
1
  6
CENTER
 10
184.421056357
 20
4.040300366
 11
196.173949897
 21
10.158469491
  0
LINE
  8
1
 62
1
  6
CENTER
 10
171.821499601
 20
-11.680476947
 11
168.240676055
 21
-20.325349715
  0
CIRCLE
  8
1
 62
7
  6
CONTINUOUS
 10
174.780300320
 20
-5.960730942
 40
4.850000000
  0
LINE
  8
1
 62
7
  6
CONTINUOUS
 10
165.672588726
 20
0.532101188
 11
170.793628578
 21
-9.305324839
  0
LINE
  8
1
 62
7
  6
CONTINUOUS
 10
177.191812755
 20
10.987122841
 11
167.354386728
 21
5.866082989
  0
LINE
  8
1
 62
7
  6
CONTINUOUS
 10
187.646834408
 20
-0.532101188
 11
182.525794556
 21
9.305324839
  0
CIRCLE
  8
1
 62
7
  6
CONTINUOUS
 10
174.780300320
 20
-5.960730942
 40
4.000000000
  0
LINE
  8
1
 62
7
  6
CONTINUOUS
 10
176.127610379
 20
-10.987122841
 11
185.965036406
 21
-5.866082989
  0
ARC
  8
1
 62
7
  6
CONTINUOUS
 10
176.659711567
 20
0.000000000
 40
11.000000000
 50
259.274463421680
 51
267.227358681240
  0
CIRCLE
  8
1
 62
7
  6
CONTINUOUS
 10
182.382013272
 20
-1.804234797
 40
3.000000000
  0
LINE
  8
1
 62
7
  6
CONTINUOUS
 10
183.074833595
 20
-0.604234797
 11
181.689192949
 21
-0.604234797
  0
LINE
  8
1
 62
7
  6
CONTINUOUS
 10
183.767653918
 20
-1.804234797
 11
183.074833595
 21
-0.604234797
  0
LINE
  8
1
 62
7
  6
CONTINUOUS
 10
183.074833595
 20
-3.004234797
 11
183.767653918
 21
-1.804234797
  0
LINE
  8
1
 62
7
  6
CONTINUOUS
 10
181.689192949
 20
-3.004234797
 11
183.074833595
 21
-3.004234797
  0
LINE
  8
1
 62
7
  6
CONTINUOUS
 10
180.996372626
 20
-1.804234797
 11
181.689192949
 21
-3.004234797
  0
LINE
  8
1
 62
7
  6
CONTINUOUS
 10
181.689192949
 20
-0.604234797
 11
180.996372626
 21
-1.804234797
  0
LINE
  8
1
 62
7
  6
CONTINUOUS
 10
171.630230186
 20
3.004234797
 11
170.244589540
 21
3.004234797
  0
LINE
  8
1
 62
7
  6
CONTINUOUS
 10
172.323050509
 20
1.804234797
 11
171.630230186
 21
3.004234797
  0
LINE
  8
1
 62
7
  6
CONTINUOUS
 10
171.630230186
 20
0.604234797
 11
172.323050509
 21
1.804234797
  0
LINE
  8
1
 62
7
  6
CONTINUOUS
 10
170.244589540
 20
0.604234797
 11
171.630230186
 21
0.604234797
  0
LINE
  8
1
 62
7
  6
CONTINUOUS
 10
169.551769217
 20
1.804234797
 11
170.244589540
 21
0.604234797
  0
LINE
  8
1
 62
7
  6
CONTINUOUS
 10
170.244589540
 20
3.004234797
 11
169.551769217
 21
1.804234797
  0
CIRCLE
  8
1
 62
7
  6
CONTINUOUS
 10
170.937409863
 20
1.804234797
 40
2.750000000
  0
CIRCLE
  8
1
 62
7
  6
CONTINUOUS
 10
182.382013272
 20
-1.804234797
 40
2.750000000
  0
CIRCLE
  8
1
 62
7
  6
CONTINUOUS
 10
170.937409863
 20
1.804234797
 40
3.000000000
  0
INSERT
  8
1
 62
7
  6
CONTINUOUS
  2
blk35
 10
101.171502615
 20
-13.083409789
  0
LINE
  8
1
 62
1
  6
CENTER
 10
-89.170757565
 20
-6.540737726
 11
-96.595378768
 21
-13.965358928
  0
ARC
  8
1
 62
7
  6
CONTINUOUS
 10
176.659711567
 20
0.000000000
 40
11.000000000
 50
327.772641318840
 51
357.227358681240
  0
ARC
  8
1
 62
7
  6
CONTINUOUS
 10
176.659711567
 20
0.000000000
 40
11.000000000
 50
237.772641318840
 51
245.725536578400
  0
ARC
  8
1
 62
7
  6
CONTINUOUS
 10
176.659711567
 20
0.000000000
 40
11.000000000
 50
147.772641318840
 51
177.227358681240
  0
ARC
  8
1
 62
7
  6
CONTINUOUS
 10
189.077863232
 20
6.464480585
 40
6.000000000
 50
166.090377890899
 51
248.909622109219
  0
ARC
  8
1
 62
7
  6
CONTINUOUS
 10
176.659711567
 20
0.000000000
 40
11.000000000
 50
57.772641318840
 51
87.227358681240
  0
ARC
  8
1
 62
7
  6
CONTINUOUS
 10
170.195230982
 20
12.418151664
 40
6.000000000
 50
256.090377890880
 51
338.909622109200
  0
LINE
  8
1
 62
7
  6
CONTINUOUS
 10
126.171502615
 20
5.866082989
 11
126.671502615
 21
5.366082989
  0
LINE
  8
1
 62
7
  6
CONTINUOUS
 10
126.171502615
 20
6.594094917
 11
126.671502615
 21
6.094094917
  0
LINE
  8
1
 62
1
  6
CENTER
 10
-89.170757565
 20
6.540737726
 11
-96.595378768
 21
13.965358928
  0
LINE
  8
1
 62
1
  6
CENTER
 10
167.185559279
 20
2.987188742
 11
186.587889841
 21
-3.130342586
  0
LINE
  8
1
 62
7
  6
CONTINUOUS
 10
114.689602664
 20
-11.313708499
 11
116.071502615
 21
-11.313708499
  0
LINE
  8
1
 62
1
  6
CENTER
 10
157.145473237
 20
-10.158469491
 11
168.898366777
 21
-4.040300366
  0
LINE
  8
1
 62
7
  6
CONTINUOUS
 10
114.689602664
 20
-11.313708499
 11
116.071502615
 21
-11.313708499
  0
INSERT
  8
1
 62
7
  6
CONTINUOUS
  2
blk70
 10
101.171502615
 20
-6.810792045
  0
LINE
  8
1
 62
1
  6
CENTER
 10
185.078747079
 20
20.325349715
 11
181.497923533
 21
11.680476947
  0
LINE
  8
1
 62
7
  6
CONTINUOUS
 10
23.750000000
 20
-5.399999791
 11
24.171502615
 21
-5.399999791
  0
LINE
  8
1
 62
7
  6
CONTINUOUS
 10
23.750000000
 20
-5.399999791
 11
24.171502615
 21
-5.399999791
  0
LINE
  8
1
 62
7
  6
CONTINUOUS
 10
23.750000000
 20
5.400000209
 11
24.171502615
 21
5.400000209
  0
LINE
  8
1
 62
1
  6
CENTER
 10
166.501242076
 20
19.514238330
 11
172.619411201
 21
7.761344790
  0
LINE
  8
1
 62
1
  6
CENTER
 10
-71.627871159
 20
26.561536560
 11
-75.646047199
 21
16.860801468
  0
LINE
  8
1
 62
4
  6
CONTINUOUS
 10
23.600000000
 20
-2.039607805
 11
20.900000000
 21
2.039607805
  0
LINE
  8
1
 62
7
  6
CONTINUOUS
 10
17.000000000
 20
-1.999999791
 11
13.000000000
 21
-1.999999791
  0
LINE
  8
1
 62
7
  6
CONTINUOUS
 10
7.000000000
 20
-0.999999791
 11
13.000000000
 21
-1.999999791
  0
LINE
  8
1
 62
7
  6
CONTINUOUS
 10
7.000000000
 20
1.000000209
 11
13.000000000
 21
2.000000209
  0
LINE
  8
1
 62
7
  6
CONTINUOUS
 10
17.000000000
 20
2.000000209
 11
13.000000000
 21
2.000000209
  0
LINE
  8
1
 62
7
  6
CONTINUOUS
 10
24.171502615
 20
-5.849999791
 11
24.171502615
 21
-6.499999791
  0
ARC
  8
1
 62
7
  6
CONTINUOUS
 10
0.300000000
 20
-0.699999791
 40
0.300000000
 50
179.999999996040
 51
270.000000000000
  0
LINE
  8
1
 62
7
  6
CONTINUOUS
 10
13.000000000
 20
2.000000209
 11
13.000000000
 21
-1.999999791
  0
LINE
  8
1
 62
7
  6
CONTINUOUS
 10
7.000000000
 20
1.000000209
 11
13.000000000
 21
2.000000209
  0
LINE
  8
1
 62
7
  6
CONTINUOUS
 10
0.300000000
 20
1.000000209
 11
7.000000000
 21
1.000000209
  0
ARC
  8
1
 62
7
  6
CONTINUOUS
 10
0.300000000
 20
0.700000209
 40
0.300000000
 50
90.000000000000
 51
179.999999996040
  0
LINE
  8
1
 62
7
  6
CONTINUOUS
 10
20.750000000
 20
5.400000209
 11
19.692820323
 21
5.400000209
  0
ARC
  8
1
 62
7
  6
CONTINUOUS
 10
18.000000000
 20
3.422649939
 40
1.000000000
 50
119.999999999880
 51
179.999999996040
  0
LINE
  8
1
 62
4
  6
CONTINUOUS
 10
23.600000000
 20
2.039607805
 11
20.900000000
 21
-2.039607805
  0
LINE
  8
1
 62
7
  6
CONTINUOUS
 10
101.171502615
 20
10.987122841
 11
101.171502615
 21
-11.313708499
  0
LINE
  8
1
 62
7
  6
CONTINUOUS
 10
20.900000000
 20
-4.999999791
 11
23.600000000
 21
-4.999999791
  0
LINE
  8
1
 62
7
  6
CONTINUOUS
 10
20.750000000
 20
-5.399999791
 11
20.900000000
 21
-5.249999791
  0
LINE
  8
1
 62
5
  6
CONTINUOUS
 10
19.692820323
 20
-4.399999791
 11
19.692820323
 21
4.400000209
  0
ARC
  8
1
 62
7
  6
CONTINUOUS
 10
19.692820323
 20
4.400000209
 40
1.000000000
 50
90.000000000000
 51
119.999999999880
  0
ARC
  8
1
 62
7
  6
CONTINUOUS
 10
19.692820323
 20
-4.399999791
 40
1.000000000
 50
240.000000000120
 51
270.000000000000
  0
LINE
  8
1
 62
7
  6
CONTINUOUS
 10
101.171502615
 20
-11.313708499
 11
107.532827481
 21
-11.313708499
  0
LINE
  8
1
 62
7
  6
CONTINUOUS
 10
23.600000000
 20
-5.249999791
 11
23.600000000
 21
5.250000209
  0
ARC
  8
1
 62
7
  6
CONTINUOUS
 10
18.000000000
 20
-3.422649522
 40
1.000000000
 50
180.000000003960
 51
240.000000000120
  0
LINE
  8
1
 62
1
  6
CENTER
 10
169.677914633
 20
-4.351954916
 11
179.882686007
 21
-7.569506968
  0
LINE
  8
1
 62
7
  6
CONTINUOUS
 10
20.750000000
 20
5.400000209
 11
20.900000000
 21
5.250000209
  0
LINE
  8
1
 62
7
  6
PHANTOM
 10
20.900000000
 20
5.250000209
 11
21.050000000
 21
5.400000209
  0
LINE
  8
1
 62
7
  6
CONTINUOUS
 10
17.500000000
 20
-4.288674926
 11
19.192820323
 21
-5.266025195
  0
LINE
  8
1
 62
7
  6
CONTINUOUS
 10
23.600000000
 20
5.250000209
 11
23.750000000
 21
5.400000209
  0
LINE
  8
1
 62
7
  6
CONTINUOUS
 10
0.300000000
 20
-0.999999791
 11
7.000000000
 21
-0.999999791
  0
LINE
  8
1
 62
7
  6
PHANTOM
 10
23.450000000
 20
-5.399999791
 11
23.600000000
 21
-5.249999791
  0
LINE
  8
1
 62
7
  6
CONTINUOUS
 10
20.900000000
 20
5.000000209
 11
23.600000000
 21
5.000000209
  0
LINE
  8
1
 62
7
  6
CONTINUOUS
 10
0.000000000
 20
0.700000209
 11
0.000000000
 21
-0.699999791
  0
LINE
  8
1
 62
7
  6
CONTINUOUS
 10
7.000000000
 20
-0.999999791
 11
13.000000000
 21
-1.999999791
  0
LINE
  8
1
 62
7
  6
CONTINUOUS
 10
101.171502615
 20
-11.313708499
 11
107.532827481
 21
-11.313708499
  0
LINE
  8
1
 62
7
  6
CONTINUOUS
 10
7.000000000
 20
1.000000209
 11
7.000000000
 21
-0.999999791
  0
LINE
  8
1
 62
7
  6
CONTINUOUS
 10
20.900000000
 20
-5.249999791
 11
20.900000000
 21
5.250000209
  0
LINE
  8
1
 62
7
  6
CONTINUOUS
 10
20.750000000
 20
-5.399999791
 11
19.692820323
 21
-5.399999791
  0
LINE
  8
1
 62
7
  6
PHANTOM
 10
23.450000000
 20
-5.399999791
 11
21.050000000
 21
-5.399999791
  0
LINE
  8
1
 62
7
  6
PHANTOM
 10
23.450000000
 20
5.400000209
 11
21.050000000
 21
5.400000209
  0
LINE
  8
1
 62
7
  6
CONTINUOUS
 10
20.900000000
 20
-2.039607805
 11
23.600000000
 21
-2.039607805
  0
LINE
  8
1
 62
7
  6
CONTINUOUS
 10
17.000000000
 20
-3.422649522
 11
17.000000000
 21
3.422649939
  0
CIRCLE
  8
1
 62
7
  6
CONTINUOUS
 10
-82.630019839
 20
0.000000000
 40
5.550000000
  0
LINE
  8
1
 62
7
  6
CONTINUOUS
 10
23.600000000
 20
-5.249999791
 11
23.750000000
 21
-5.399999791
  0
CIRCLE
  8
1
 62
7
  6
CONTINUOUS
 10
-82.630019839
 20
0.000000000
 40
4.499999598
  0
CIRCLE
  8
1
 62
1
  6
CENTER
 10
-82.630019839
 20
0.000000000
 40
23.500000000
  0
CIRCLE
  8
1
 62
1
  6
CENTER
 10
-82.630019839
 20
0.000000000
 40
14.500000000
  0
LINE
  8
1
 62
7
  6
CONTINUOUS
 10
101.171502615
 20
6.594094917
 11
126.171502615
 21
6.594094917
  0
ARC
  8
1
 62
1
  6
CENTER
 10
176.659711567
 20
0.000000000
 40
16.500000000
 50
54.019406660040
 51
80.980593339960
  0
LINE
  8
1
 62
1
  6
CENTER
 10
-68.664660911
 20
13.965358928
 11
-75.912505418
 21
6.717514421
  0
LINE
  8
1
 62
1
  6
CENTER
 10
-56.068483280
 20
11.002148680
 11
-65.769218371
 21
6.983972641
  0
LINE
  8
1
 62
1
  6
CENTER
 10
-68.664660911
 20
-13.965358928
 11
-76.089282113
 21
-6.540737726
  0
LINE
  8
1
 62
1
  6
CENTER
 10
-56.068483280
 20
-11.002148680
 11
-65.769218371
 21
-6.983972641
  0
LINE
  8
1
 62
1
  6
CENTER
 10
-71.627871159
 20
-26.561536560
 11
-75.646047199
 21
-16.860801468
  0
ARC
  8
1
 62
1
  6
CENTER
 10
176.659711567
 20
0.000000000
 40
14.750000000
 50
3.804545403360
 51
51.195454596720
  0
ARC
  8
1
 62
1
  6
CENTER
 10
176.659711567
 20
0.000000000
 40
14.750000000
 50
273.804545403360
 51
342.839975702400
  0
ARC
  8
1
 62
1
  6
CENTER
 10
176.659711567
 20
0.000000000
 40
14.750000000
 50
183.804545403360
 51
231.195454596720
  0
DIMENSION
  8
1
 62
4
  6
CONTINUOUS
  2
*D155
 70
5
  3
STANDARD
 10
-47.984537370
 20
14.350628714
 11
-45.850571824
 21
7.315887076
 13
-52.130019839
 23
0.000000000
 14
-56.068483280
 24
11.002148680
 15
-82.630019839
 25
0.000000000
  0
DIMENSION
  8
1
 62
4
  6
CONTINUOUS
  2
*D156
 70
5
  3
STANDARD
 10
-68.279391126
 20
34.645482469
 11
-56.113515545
 21
26.516504294
 13
-56.068483280
 23
11.002148680
 14
-71.627871159
 24
26.561536560
 15
-82.630019839
 25
0.000000000
  0
DIMENSION
  8
1
 62
4
  6
CONTINUOUS
  2
*D157
 70
5
  3
STANDARD
 10
-82.630019839
 20
37.500000000
 11
-75.314132764
 21
36.779448015
 13
-71.627871159
 23
26.561536560
 14
-82.630019839
 24
30.500000000
 15
-82.630019839
 25
0.000000000
  0
LINE
  8
1
 62
1
  6
CENTER
 10
28.671502615
 20
-4.000000000
 11
28.671502615
 21
4.000000000
  0
CIRCLE
  8
1
 62
7
  6
CONTINUOUS
 10
-82.630019839
 20
0.000000000
 40
8.000000000
  0
CIRCLE
  8
1
 62
7
  6
CONTINUOUS
 10
-82.630019839
 20
0.000000000
 40
6.500000000
  0
LINE
  8
1
 62
7
  6
CONTINUOUS
 10
101.171502615
 20
0.532101188
 11
126.171502615
 21
0.532101188
  0
LINE
  8
1
 62
7
  6
CONTINUOUS
 10
101.171502615
 20
5.866082989
 11
126.171502615
 21
5.866082989
  0
LINE
  8
1
 62
7
  6
CONTINUOUS
 10
27.271502615
 20
18.500000000
 11
27.271502615
 21
6.000000000
  0
CIRCLE
  8
1
 62
7
  6
CONTINUOUS
 10
163.576301778
 20
-6.810792045
 40
5.000000000
  0
CIRCLE
  8
1
 62
7
  6
CONTINUOUS
 10
183.470503612
 20
-13.083409789
 40
5.000000000
  0
TEXT
  8
1
 62
2
  6
CONTINUOUS
 72
5
 10
191.275415513
 20
-1.401055257
 40
3.600000000
  1
Ｂｅ
 41
0.639539532
 11
196.212558370
 21
-1.401055257
  0
TEXT
  8
1
 62
2
  6
CONTINUOUS
 72
5
 10
188.391511975
 20
-13.968664946
 40
3.600000000
  1
Ｔ
 41
0.823568168
 11
191.191511975
 21
-13.968664946
  0
TEXT
  8
1
 62
2
  6
CONTINUOUS
 72
5
 10
173.068797993
 20
15.651645520
 40
3.600000000
  1
Ｔ
 41
0.823568168
 11
175.868797993
 21
15.651645520
  0
CIRCLE
  8
1
 62
7
  6
CONTINUOUS
 10
182.973988201
 20
15.244012286
 40
2.619047619
  0
LINE
  8
1
 62
1
  6
CENTER
 10
176.659711567
 20
23.000000000
 11
176.659711567
 21
-23.000000000
  0
LINE
  8
1
 62
1
  6
CENTER
 10
153.659711567
 20
0.000000000
 11
157.368574677
 21
0.000000000
  0
CIRCLE
  8
1
 62
7
  6
CONTINUOUS
 10
182.973988201
 20
15.244012286
 40
2.857142857
  0
ARC
  8
1
 62
7
  6
CONTINUOUS
 10
-65.130019839
 20
-1.350000000
 40
1.650000000
 50
270.000000003960
 51
0.000000000000
  0
CIRCLE
  8
1
 62
7
  6
CONTINUOUS
 10
170.345434933
 20
-15.244012286
 40
2.619047619
  0
CIRCLE
  8
1
 62
7
  6
CONTINUOUS
 10
170.345434933
 20
-15.244012286
 40
2.857142857
  0
CIRCLE
  8
1
 62
7
  6
CONTINUOUS
 10
169.848919522
 20
13.083409789
 40
5.000000000
  0
CIRCLE
  8
1
 62
7
  6
CONTINUOUS
 10
176.659711567
 20
0.000000000
 40
19.900000000
  0
CIRCLE
  8
1
 62
7
  6
CONTINUOUS
 10
189.743121357
 20
6.810792045
 40
5.000000000
  0
CIRCLE
  8
1
 62
7
  6
CONTINUOUS
 10
176.659711567
 20
0.000000000
 40
20.000000000
  0
LINE
  8
1
 62
7
  6
CONTINUOUS
 10
44.171502615
 20
-26.300000000
 11
45.371502615
 21
-27.500000000
  0
LINE
  8
1
 62
7
  6
CONTINUOUS
 10
51.671502615
 20
-27.500000000
 11
52.171502615
 21
-27.000000000
  0
LINE
  8
1
 62
7
  6
CONTINUOUS
 10
52.171502615
 20
27.000000000
 11
52.171502615
 21
-27.000000000
  0
LINE
  8
1
 62
7
  6
CONTINUOUS
 10
43.171502615
 20
-19.500000000
 11
43.471502615
 21
-19.200000000
  0
LINE
  8
1
 62
5
  6
CONTINUOUS
 10
51.671502615
 20
27.500000000
 11
51.671502615
 21
-27.500000000
  0
LINE
  8
1
 62
7
  6
CONTINUOUS
 10
44.171502615
 20
26.300000000
 11
44.171502615
 21
-26.300000000
  0
LINE
  8
1
 62
7
  6
CONTINUOUS
 10
45.371502615
 20
-27.500000000
 11
51.671502615
 21
-27.500000000
  0
LINE
  8
1
 62
7
  6
CONTINUOUS
 10
45.371502615
 20
27.500000000
 11
45.371502615
 21
-27.500000000
  0
LINE
  8
1
 62
7
  6
CONTINUOUS
 10
43.171502615
 20
19.500000000
 11
43.171502615
 21
-19.500000000
  0
LINE
  8
1
 62
7
  6
CONTINUOUS
 10
43.471502615
 20
-19.200000000
 11
43.671502615
 21
-19.200000000
  0
ARC
  8
1
 62
7
  6
CONTINUOUS
 10
43.671502615
 20
-20.000000000
 40
0.800000000
 50
51.317812546560
 51
90.000000000000
  0
ARC
  8
1
 62
7
  6
CONTINUOUS
 10
52.671502615
 20
-20.500000000
 40
0.800000000
 50
90.000000000000
 51
128.682187453440
  0
LINE
  8
1
 62
7
  6
CONTINUOUS
 10
53.871502615
 20
-19.700000000
 11
54.171502615
 21
-20.000000000
  0
LINE
  8
1
 62
7
  6
CONTINUOUS
 10
52.671502615
 20
-19.700000000
 11
53.871502615
 21
-19.700000000
  0
ARC
  8
1
 62
7
  6
CONTINUOUS
 10
-82.630019839
 20
0.000000000
 40
16.900000000
 50
323.027572618817
 51
36.972427381217
  0
ARC
  8
1
 62
7
  6
CONTINUOUS
 10
-82.630019839
 20
0.000000000
 40
16.900000000
 50
233.027572618817
 51
306.972427381217
  0
CIRCLE
  8
1
 62
7
  6
CONTINUOUS
 10
-92.883068167
 20
10.253048327
 40
3.000000000
  0
ARC
  8
1
 62
7
  6
CONTINUOUS
 10
-82.630019839
 20
0.000000000
 40
16.900000000
 50
53.027572618817
 51
126.972427381217
  0
LINE
  8
1
 62
7
  6
CONTINUOUS
 10
169.365639036
 20
-14.264216389
 11
169.007008847
 21
-15.602642475
  0
CIRCLE
  8
1
 62
7
  6
CONTINUOUS
 10
-92.883068167
 20
10.253048327
 40
3.250000000
  0
LINE
  8
1
 62
7
  6
CONTINUOUS
 10
169.007008847
 20
-15.602642475
 11
169.986804744
 21
-16.582438372
  0
CIRCLE
  8
1
 62
7
  6
CONTINUOUS
 10
-72.376971512
 20
10.253048327
 40
3.250000000
  0
CIRCLE
  8
1
 62
7
  6
CONTINUOUS
 10
-72.376971512
 20
10.253048327
 40
3.000000000
  0
CIRCLE
  8
1
 62
7
  6
CONTINUOUS
 10
-72.376971512
 20
-10.253048327
 40
3.250000000
  0
CIRCLE
  8
1
 62
7
  6
CONTINUOUS
 10
-72.376971512
 20
-10.253048327
 40
3.000000000
  0
LINE
  8
1
 62
7
  6
CONTINUOUS
 10
27.285861969
 20
0.000000000
 11
27.978682292
 21
-1.200000000
  0
ARC
  8
1
 62
7
  6
CONTINUOUS
 10
-82.630019839
 20
0.000000000
 40
18.500000000
 50
18.924644415979
 51
341.075355584059
  0
LINE
  8
1
 62
7
  6
CONTINUOUS
 10
27.978682292
 20
-1.200000000
 11
29.364322938
 21
-1.200000000
  0
ARC
  8
1
 62
7
  6
CONTINUOUS
 10
-82.630019839
 20
0.000000000
 40
16.900000000
 50
143.027572618817
 51
216.972427381217
  0
CIRCLE
  8
1
 62
7
  6
CONTINUOUS
 10
-92.883068167
 20
-10.253048327
 40
3.250000000
  0
DIMENSION
  8
1
 62
4
  6
CONTINUOUS
  2
*D210
 70
0
  3
STANDARD
 10
101.171502615
 20
-60.500000000
 11
76.671502615
 21
-60.500000000
 14
101.171502615
 24
-18.900000000
 13
52.171502615
 23
-27.000000000
 50
0.000000000
 53
0.000000000
  0
LINE
  8
1
 62
7
  6
CONTINUOUS
 10
54.171502615
 20
-20.000000000
 11
54.171502615
 21
20.000000000
  0
LINE
  8
1
 62
7
  6
CONTINUOUS
 10
52.671502615
 20
19.700000000
 11
53.871502615
 21
19.700000000
  0
LINE
  8
1
 62
7
  6
CONTINUOUS
 10
53.871502615
 20
19.700000000
 11
54.171502615
 21
20.000000000
  0
ARC
  8
1
 62
7
  6
CONTINUOUS
 10
52.671502615
 20
20.500000000
 40
0.800000000
 50
231.317812546560
 51
270.000000000000
  0
LINE
  8
1
 62
7
  6
CONTINUOUS
 10
43.471502615
 20
19.200000000
 11
43.671502615
 21
19.200000000
  0
LINE
  8
1
 62
7
  6
CONTINUOUS
 10
45.371502615
 20
27.500000000
 11
51.671502615
 21
27.500000000
  0
ARC
  8
1
 62
7
  6
CONTINUOUS
 10
43.671502615
 20
20.000000000
 40
0.800000000
 50
270.000000000000
 51
308.682187453440
  0
CIRCLE
  8
1
 62
7
  6
CONTINUOUS
 10
-92.883068167
 20
-10.253048327
 40
3.000000000
  0
DIMENSION
  8
1
 62
4
  6
CONTINUOUS
  2
*D219
 70
0
  3
STANDARD
 10
25.671502615
 20
-52.500000000
 11
34.921502615
 21
-52.500000000
 14
25.671502615
 24
-16.900000000
 13
44.171502615
 23
-26.300000000
 50
0.000000000
 53
0.000000000
  0
LINE
  8
1
 62
1
  6
CENTER
 10
-52.130019839
 20
0.000000000
 11
-113.130019839
 21
0.000000000
  0
LINE
  8
1
 62
1
  6
CENTER
 10
-82.630019839
 20
-30.500000000
 11
-82.630019839
 21
30.500000000
  0
DIMENSION
  8
1
 62
4
  6
CONTINUOUS
  2
*D222
 70
0
  3
STANDARD
 10
17.000000000
 20
-60.500000000
 11
34.585751308
 21
-60.500000000
 14
17.000000000
 24
-3.422649522
 13
52.171502615
 23
-27.000000000
 50
0.000000000
 53
0.000000000
  0
LINE
  8
1
 62
7
  6
CONTINUOUS
 10
32.171502615
 20
-18.500000000
 11
27.271502615
 21
-18.500000000
  0
LINE
  8
1
 62
7
  6
CONTINUOUS
 10
27.271502615
 20
-18.500000000
 11
25.671502615
 21
-16.900000000
  0
LINE
  8
1
 62
7
  6
CONTINUOUS
 10
101.171502615
 20
-18.900000000
 11
100.171502615
 21
-19.900000000
  0
LINE
  8
1
 62
7
  6
CONTINUOUS
 10
24.171502615
 20
6.500000000
 11
24.171502615
 21
-6.500000000
  0
LINE
  8
1
 62
7
  6
CONTINUOUS
 10
100.171502615
 20
19.900000000
 11
101.171502615
 21
18.900000000
  0
LINE
  8
1
 62
7
  6
CONTINUOUS
 10
90.871502615
 20
20.000000000
 11
91.171502615
 21
19.700000000
  0
LINE
  8
1
 62
7
  6
CONTINUOUS
 10
91.171502615
 20
-19.700000000
 11
90.871502615
 21
-20.000000000
  0
LINE
  8
1
 62
7
  6
CONTINUOUS
 10
91.471502615
 20
-19.900000000
 11
100.171502615
 21
-19.900000000
  0
LINE
  8
1
 62
7
  6
CONTINUOUS
 10
91.471502615
 20
19.900000000
 11
100.171502615
 21
19.900000000
  0
LINE
  8
1
 62
7
  6
CONTINUOUS
 10
101.171502615
 20
18.900000000
 11
101.171502615
 21
-18.900000000
  0
LINE
  8
1
 62
7
  6
CONTINUOUS
 10
69.971502615
 20
20.000000000
 11
76.371502615
 21
20.000000000
  0
LINE
  8
1
 62
7
  6
CONTINUOUS
 10
76.971502615
 20
20.000000000
 11
90.871502615
 21
20.000000000
  0
LINE
  8
1
 62
7
  6
CONTINUOUS
 10
76.671502615
 20
19.700000000
 11
76.971502615
 21
20.000000000
  0
LINE
  8
1
 62
7
  6
CONTINUOUS
 10
76.371502615
 20
20.000000000
 11
76.671502615
 21
19.700000000
  0
LINE
  8
1
 62
7
  6
CONTINUOUS
 10
69.671502615
 20
19.700000000
 11
69.971502615
 21
20.000000000
  0
LINE
  8
1
 62
7
  6
CONTINUOUS
 10
69.371502615
 20
20.000000000
 11
69.671502615
 21
19.700000000
  0
LINE
  8
1
 62
7
  6
CONTINUOUS
 10
-63.480019839
 20
-1.350000000
 11
-63.480019839
 21
1.350000000
  0
ARC
  8
1
 62
7
  6
CONTINUOUS
 10
-65.130019839
 20
1.350000000
 40
1.650000000
 50
0.000000000000
 51
90.000000000000
  0
LINE
  8
1
 62
7
  6
CONTINUOUS
 10
32.171502615
 20
-18.700000000
 11
32.171502615
 21
18.700000000
  0
LINE
  8
1
 62
7
  6
CONTINUOUS
 10
32.971502615
 20
-19.500000000
 11
32.171502615
 21
-18.700000000
  0
CIRCLE
  8
1
 62
7
  6
CONTINUOUS
 10
-82.630019839
 20
0.000000000
 40
3.623209918
  0
LINE
  8
1
 62
7
  6
CONTINUOUS
 10
20.900000000
 20
2.039607805
 11
23.600000000
 21
2.039607805
  0
CIRCLE
  8
1
 62
7
  6
CONTINUOUS
 10
-82.630019839
 20
0.000000000
 40
1.400000000
  0
LINE
  8
1
 62
7
  6
CONTINUOUS
 10
17.500000000
 20
4.288675343
 11
19.192820323
 21
5.266025612
  0
LINE
  8
1
 62
7
  6
PHANTOM
 10
23.450000000
 20
5.400000209
 11
23.600000000
 21
5.250000209
  0
LINE
  8
1
 62
7
  6
CONTINUOUS
 10
24.171502615
 20
6.500000000
 11
25.671502615
 21
8.000000000
  0
LINE
  8
1
 62
7
  6
CONTINUOUS
 10
24.171502615
 20
-6.500000000
 11
25.671502615
 21
-8.000000000
  0
LINE
  8
1
 62
7
  6
CONTINUOUS
 10
32.171502615
 20
18.500000000
 11
27.271502615
 21
18.500000000
  0
LINE
  8
1
 62
7
  6
CONTINUOUS
 10
25.671502615
 20
-16.900000000
 11
25.671502615
 21
16.900000000
  0
LINE
  8
1
 62
7
  6
CONTINUOUS
 10
76.671502615
 20
-19.700000000
 11
76.371502615
 21
-20.000000000
  0
LINE
  8
1
 62
7
  6
CONTINUOUS
 10
100.171502615
 20
19.900000000
 11
100.171502615
 21
-19.900000000
  0
DIMENSION
  8
1
 62
4
  6
CONTINUOUS
  2
*D255
 70
0
  3
STANDARD
 10
67.088684784
 20
20.000000000
 11
67.088684784
 21
1.126527939
 14
59.886553128
 24
20.000000000
 13
57.171502615
 23
-20.000000000
 50
90.000000000
 53
90.000000000
  0
DIMENSION
  8
1
 62
4
  6
CONTINUOUS
  2
*D256
 70
1
  3
STANDARD
 10
-29.000000000
 20
27.500000000
 11
-29.000000000
 21
0.000000000
 14
45.371502615
 24
27.500000000
 13
45.371502615
 23
-27.500000000
 50
90.000000000
 53
90.000000000
  0
LINE
  8
1
 62
7
  6
CONTINUOUS
 10
32.171502615
 20
18.700000000
 11
32.971502615
 21
19.500000000
  0
LINE
  8
1
 62
7
  6
CONTINUOUS
 10
76.971502615
 20
-20.000000000
 11
90.871502615
 21
-20.000000000
  0
LINE
  8
1
 62
7
  6
CONTINUOUS
 10
69.971502615
 20
-20.000000000
 11
76.371502615
 21
-20.000000000
  0
LINE
  8
1
 62
7
  6
CONTINUOUS
 10
-65.130019839
 20
-6.000000000
 11
-65.130019839
 21
6.000000000
  0
CIRCLE
  8
1
 62
7
  6
CONTINUOUS
 10
-82.630019839
 20
0.000000000
 40
19.500000000
  0
DIMENSION
  8
1
 62
4
  6
CONTINUOUS
  2
*D263
  3
STANDARD
 70
3
 10
189.266021178
 20
-7.657901670
 11
135.913965640
 21
18.370382455
 15
164.053401956
 25
7.657901670
  0
LINE
  8
1
 62
7
  6
CONTINUOUS
 10
76.671502615
 20
-19.700000000
 11
76.671502615
 21
19.700000000
  0
TEXT
  8
1
 62
4
  6
CONTINUOUS
 72
5
 10
72.853614611
 20
-38.889513314
 40
3.200000000
  1
※この範囲
 41
0.837772439
 11
88.253614611
 21
-38.889513314
  0
TEXT
  8
1
 62
4
  6
CONTINUOUS
 72
5
 10
72.853614611
 20
-43.989513314
 40
3.200000000
  1
  クランプ不可
 41
0.879667889
 11
94.653614611
 21
-43.989513314
  0
LINE
  8
1
 62
7
  6
CONTINUOUS
 10
51.671502615
 20
27.500000000
 11
52.171502615
 21
27.000000000
  0
LINE
  8
1
 62
7
  6
CONTINUOUS
 10
44.171502615
 20
26.300000000
 11
45.371502615
 21
27.500000000
  0
LINE
  8
1
 62
7
  6
CONTINUOUS
 10
69.671502615
 20
-19.700000000
 11
69.371502615
 21
-20.000000000
  0
CIRCLE
  8
1
 62
7
  6
CONTINUOUS
 10
-82.630019839
 20
0.000000000
 40
4.214285312
  0
DIMENSION
  8
1
 62
4
  6
CONTINUOUS
  2
*D271
 70
0
  3
STANDARD
 10
25.671502615
 20
-52.500000000
 11
21.335751308
 21
-52.500000000
 14
25.671502615
 24
-16.900000000
 13
17.000000000
 23
-3.422649522
 50
0.000000000
 53
0.000000000
  0
INSERT
  8
1
 62
7
  6
CONTINUOUS
  2
blk272
 10
101.171502615
 20
13.083409789
  0
DIMENSION
  8
1
 62
4
  6
CONTINUOUS
  2
*D275
 70
0
  3
STANDARD
 10
44.171502615
 20
-52.500000000
 11
48.171502615
 21
-52.500000000
 14
44.171502615
 24
-26.300000000
 13
52.171502615
 23
-27.000000000
 50
0.000000000
 53
0.000000000
  0
LINE
  8
1
 62
7
  6
CONTINUOUS
 10
43.171502615
 20
19.500000000
 11
43.471502615
 21
19.200000000
  0
DIMENSION
  8
1
 62
4
  6
CONTINUOUS
  2
*D277
 70
1
  3
STANDARD
 10
96.725373847
 20
19.900000000
 11
96.725373847
 21
-2.490246080
 14
100.171502615
 24
19.900000000
 13
100.171502615
 23
-19.900000000
 50
90.000000000
 53
90.000000000
  0
DIMENSION
  8
1
 62
4
  6
CONTINUOUS
  2
*D278
 70
0
  3
STANDARD
 10
0.000000000
 20
-68.495622610
 11
8.500000000
 21
-68.495622610
 14
0.000000000
 24
-0.699999791
 13
17.000000000
 23
-3.422649522
 50
0.000000000
 53
0.000000000
  0
LINE
  8
1
 62
7
  6
CONTINUOUS
 10
69.671502615
 20
-19.700000000
 11
69.671502615
 21
19.700000000
  0
LINE
  8
1
 62
7
  6
PHANTOM
 10
20.900000000
 20
-5.249999791
 11
21.050000000
 21
-5.399999791
  0
LINE
  8
1
 62
7
  6
CONTINUOUS
 10
24.171502615
 20
5.850000209
 11
24.171502615
 21
6.500000209
  0
LINE
  8
1
 62
7
  6
CONTINUOUS
 10
32.971502615
 20
19.500000000
 11
32.971502615
 21
-19.500000000
  0
LINE
  8
1
 62
7
  6
CONTINUOUS
 10
127.671502615
 20
-1.400000000
 11
127.998297534
 21
-1.966025404
  0
LINE
  8
1
 62
5
  6
CONTINUOUS
 10
129.171502615
 20
-11.100000000
 11
129.171502615
 21
-1.400000000
  0
LINE
  8
1
 62
7
  6
CONTINUOUS
 10
27.271502615
 20
18.500000000
 11
25.671502615
 21
16.900000000
  0
LINE
  8
1
 62
7
  6
CONTINUOUS
 10
91.471502615
 20
-19.900000000
 11
91.171502615
 21
-19.600000000
  0
LINE
  8
1
 62
7
  6
CONTINUOUS
 10
43.171502615
 20
-19.500000000
 11
32.971502615
 21
-19.500000000
  0
LINE
  8
1
 62
7
  6
CONTINUOUS
 10
91.171502615
 20
19.700000000
 11
91.171502615
 21
-19.700000000
  0
LINE
  8
1
 62
7
  6
CONTINUOUS
 10
54.171502615
 20
-20.000000000
 11
69.371502615
 21
-20.000000000
  0
LINE
  8
1
 62
7
  6
CONTINUOUS
 10
43.171502615
 20
19.500000000
 11
32.971502615
 21
19.500000000
  0
LINE
  8
1
 62
7
  6
CONTINUOUS
 10
76.971502615
 20
-20.000000000
 11
76.671502615
 21
-19.700000000
  0
CIRCLE
  8
1
 62
7
  6
CONTINUOUS
 10
-91.623080500
 20
21.711169014
 40
1.750000000
  0
CIRCLE
  8
1
 62
7
  6
CONTINUOUS
 10
-91.623080500
 20
21.711169014
 40
3.250000000
  0
CIRCLE
  8
1
 62
7
  6
CONTINUOUS
 10
-104.341188853
 20
8.993060661
 40
1.750000000
  0
CIRCLE
  8
1
 62
7
  6
CONTINUOUS
 10
-104.341188853
 20
8.993060661
 40
3.250000000
  0
CIRCLE
  8
1
 62
7
  6
CONTINUOUS
 10
-104.341188853
 20
-8.993060661
 40
1.750000000
  0
CIRCLE
  8
1
 62
7
  6
CONTINUOUS
 10
-104.341188853
 20
-8.993060661
 40
3.250000000
  0
CIRCLE
  8
1
 62
7
  6
CONTINUOUS
 10
-91.623080500
 20
-21.711169014
 40
1.750000000
  0
CIRCLE
  8
1
 62
7
  6
CONTINUOUS
 10
-91.623080500
 20
-21.711169014
 40
3.250000000
  0
CIRCLE
  8
1
 62
7
  6
CONTINUOUS
 10
-73.636959179
 20
-21.711169014
 40
1.750000000
  0
CIRCLE
  8
1
 62
7
  6
CONTINUOUS
 10
-73.636959179
 20
-21.711169014
 40
3.250000000
  0
CIRCLE
  8
1
 62
7
  6
CONTINUOUS
 10
-60.918850825
 20
-8.993060661
 40
1.750000000
  0
CIRCLE
  8
1
 62
7
  6
CONTINUOUS
 10
-60.918850825
 20
-8.993060661
 40
3.250000000
  0
LINE
  8
1
 62
7
  6
CONTINUOUS
 10
54.171502615
 20
20.000000000
 11
69.371502615
 21
20.000000000
  0
CIRCLE
  8
1
 62
7
  6
CONTINUOUS
 10
-60.918850825
 20
8.993060661
 40
1.750000000
  0
CIRCLE
  8
1
 62
7
  6
CONTINUOUS
 10
-60.918850825
 20
8.993060661
 40
3.250000000
  0
CIRCLE
  8
1
 62
7
  6
CONTINUOUS
 10
-73.636959179
 20
21.711169014
 40
3.250000000
  0
CIRCLE
  8
1
 62
7
  6
CONTINUOUS
 10
-73.636959179
 20
21.711169014
 40
1.750000000
  0
ARC
  8
1
 62
7
  6
CONTINUOUS
 10
-82.630019839
 20
0.000000000
 40
26.300000000
 50
71.303422000337
 51
108.696577999697
  0
ARC
  8
1
 62
7
  6
CONTINUOUS
 10
-82.630019839
 20
0.000000000
 40
26.300000000
 50
116.303422000337
 51
153.696577999697
  0
ARC
  8
1
 62
7
  6
CONTINUOUS
 10
-82.630019839
 20
0.000000000
 40
26.300000000
 50
161.303422000337
 51
198.696577999697
  0
ARC
  8
1
 62
7
  6
CONTINUOUS
 10
-82.630019839
 20
0.000000000
 40
26.300000000
 50
26.303422000337
 51
63.696577999697
  0
ARC
  8
1
 62
7
  6
CONTINUOUS
 10
-82.630019839
 20
0.000000000
 40
26.300000000
 50
206.303422000337
 51
243.696577999697
  0
CIRCLE
  8
1
 62
7
  6
CONTINUOUS
 10
-82.630019839
 20
0.000000000
 40
27.500000000
  0
ARC
  8
1
 62
7
  6
CONTINUOUS
 10
-82.630019839
 20
0.000000000
 40
26.300000000
 50
251.303422000337
 51
288.696577999697
  0
LINE
  8
1
 62
1
  6
DASHED
 10
47.671502615
 20
20.250000000
 11
44.171502615
 21
20.250000000
  0
LINE
  8
1
 62
7
  6
CONTINUOUS
 10
69.971502615
 20
-20.000000000
 11
69.671502615
 21
-19.700000000
  0
LINE
  8
1
 62
7
  6
CONTINUOUS
 10
129.171502615
 20
-1.400000000
 11
129.671502615
 21
-1.900000000
  0
ARC
  8
1
 62
7
  6
CONTINUOUS
 10
128.171502615
 20
-1.866025404
 40
0.200000000
 50
209.999999999880
 51
330.000000000120
  0
LINE
  8
1
 62
7
  6
CONTINUOUS
 10
129.171502615
 20
-11.100000000
 11
128.671502615
 21
-11.100000000
  0
LINE
  8
1
 62
7
  6
CONTINUOUS
 10
127.671502615
 20
-11.100000000
 11
127.998297534
 21
-10.533974596
  0
LINE
  8
1
 62
7
  6
CONTINUOUS
 10
128.344707696
 20
-1.966025404
 11
128.671502615
 21
-1.400000000
  0
LINE
  8
1
 62
7
  6
CONTINUOUS
 10
126.671502615
 20
-10.813708499
 11
126.171502615
 21
-11.313708499
  0
LINE
  8
1
 62
7
  6
CONTINUOUS
 10
126.671502615
 20
-10.813708499
 11
126.171502615
 21
-11.313708499
  0
LINE
  8
1
 62
5
  6
CONTINUOUS
 10
126.871502615
 20
-1.400000000
 11
126.871502615
 21
-11.100000000
  0
LINE
  8
1
 62
3
  6
PHANTOM
 10
126.671502615
 20
9.000000000
 11
126.671502615
 21
6.094094917
  0
ARC
  8
1
 62
7
  6
CONTINUOUS
 10
128.171502615
 20
-10.633974596
 40
0.200000000
 50
29.999999999880
 51
150.000000000120
  0
LINE
  8
1
 62
1
  6
CENTER
 10
180.568886961
 20
12.398320360
 11
172.720465594
 21
-12.493692055
  0
DIMENSION
  8
1
 62
4
  6
CONTINUOUS
  2
*D329
 70
5
  3
STANDARD
 10
190.512169964
 20
-26.610324995
 11
167.638537582
 21
-28.611508522
 13
157.145473237
 23
-10.158469491
 14
186.818181058
 24
-19.514238330
 15
176.659711567
 25
0.000000000
  0
ARC
  8
1
 62
1
  6
CENTER
 10
176.659711567
 20
0.000000000
 40
16.500000000
 50
234.019406660040
 51
260.980593339960
  0
DIMENSION
  8
1
 62
4
  6
CONTINUOUS
  2
*D331
 70
5
  3
STANDARD
 10
206.659711567
 20
-0.000000000
 11
202.307067687
 21
-15.563197745
 13
186.818181058
 23
-19.514238330
 14
199.659711567
 24
0.000000000
 15
176.659711567
 25
0.000000000
  0
DIMENSION
  8
1
 62
4
  6
CONTINUOUS
  2
*D333
 70
5
  3
STANDARD
 10
203.270036562
 20
13.852458397
 11
205.799973662
 21
7.130576770
 13
199.659711567
 23
0.000000000
 14
196.173949897
 24
10.158469491
 15
176.659711567
 25
0.000000000
  0
DIMENSION
  8
1
 62
4
  6
CONTINUOUS
  2
*D334
 70
5
  3
STANDARD
 10
162.807253170
 20
26.610324995
 11
185.680885552
 21
28.611508522
 13
196.173949897
 23
10.158469491
 14
166.501242076
 24
19.514238330
 15
176.659711567
 25
0.000000000
  0
DIMENSION
  8
1
 62
4
  6
CONTINUOUS
  2
*D335
 70
5
  3
STANDARD
 10
150.049386572
 20
-13.852458397
 11
148.048203045
 21
9.021173985
 13
166.501242076
 23
19.514238330
 14
157.145473237
 24
-10.158469491
 15
176.659711567
 25
0.000000000
  0
ARC
  8
1
 62
1
  6
CENTER
 10
176.659711567
 20
0.000000000
 40
14.750000000
 50
93.804545403360
 51
162.839975702400
  0
LINE
  8
1
 62
1
  6
CENTER
 10
180.700011933
 20
-7.761344790
 11
186.818181058
 21
-19.514238330
  0
CIRCLE
  8
1
 62
7
  6
CONTINUOUS
 10
169.848919522
 20
13.083409789
 40
4.000000000
  0
CIRCLE
  8
1
 62
7
  6
CONTINUOUS
 10
163.576301778
 20
-6.810792045
 40
4.000000000
  0
CIRCLE
  8
1
 62
7
  6
CONTINUOUS
 10
183.470503612
 20
-13.083409789
 40
4.000000000
  0
CIRCLE
  8
1
 62
7
  6
CONTINUOUS
 10
189.743121357
 20
6.810792045
 40
4.000000000
  0
LINE
  8
1
 62
1
  6
CENTER
 10
196.559711567
 20
0.000000000
 11
199.659711567
 21
0.000000000
  0
LINE
  8
1
 62
7
  6
CONTINUOUS
 10
107.821502615
 20
9.750000000
 11
114.689602664
 21
9.750000000
  0
LINE
  8
1
 62
7
  6
CONTINUOUS
 10
126.671502615
 20
-1.600000000
 11
126.871502615
 21
-1.400000000
  0
LINE
  8
1
 62
7
  6
CONTINUOUS
 10
128.671502615
 20
-1.400000000
 11
128.671502615
 21
-11.100000000
  0
LINE
  8
1
 62
3
  6
PHANTOM
 10
126.171502615
 20
9.500000000
 11
126.671502615
 21
9.000000000
  0
LINE
  8
1
 62
3
  6
PHANTOM
 10
117.571502615
 20
9.500000000
 11
126.171502615
 21
9.500000000
  0
LINE
  8
1
 62
7
  6
CONTINUOUS
 10
128.671502615
 20
-1.400000000
 11
129.171502615
 21
-1.400000000
  0
LINE
  8
1
 62
7
  6
CONTINUOUS
 10
128.344707696
 20
-10.533974596
 11
128.671502615
 21
-11.100000000
  0
LINE
  8
1
 62
7
  6
CONTINUOUS
 10
126.871502615
 20
-11.100000000
 11
126.671502615
 21
-10.900000000
  0
LINE
  8
1
 62
7
  6
CONTINUOUS
 10
127.671502615
 20
-11.100000000
 11
127.671502615
 21
-1.400000000
  0
DIMENSION
  8
1
 62
4
  6
CONTINUOUS
  2
*D360
 70
0
  3
STANDARD
 10
129.671502615
 20
-68.495622610
 11
73.335751308
 21
-68.495622610
 14
129.671502615
 24
-10.600000000
 13
17.000000000
 23
-3.422649522
 50
0.000000000
 53
0.000000000
  0
DIMENSION
  8
1
 62
4
  6
CONTINUOUS
  2
*D361
 70
0
  3
STANDARD
 10
129.671502615
 20
-60.500000000
 11
115.421502615
 21
-60.500000000
 14
129.671502615
 24
-10.600000000
 13
101.171502615
 23
-18.900000000
 50
0.000000000
 53
0.000000000
  0
LINE
  8
1
 62
7
  6
CONTINUOUS
 10
126.171502615
 20
0.532101188
 11
126.671502615
 21
0.032101188
  0
LINE
  8
1
 62
1
  6
DASHED
 10
52.171502615
 20
25.250000000
 11
47.671502615
 21
25.250000000
  0
LINE
  8
1
 62
1
  6
DASHED
 10
52.171502615
 20
21.750000000
 11
47.671502615
 21
21.750000000
  0
LINE
  8
1
 62
1
  6
DASHED
 10
47.671502615
 20
26.750000000
 11
47.671502615
 21
20.250000000
  0
LINE
  8
1
 62
1
  6
DASHED
 10
47.671502615
 20
26.750000000
 11
44.621502615
 21
26.750000000
  0
LINE
  8
1
 62
1
  6
CENTER
 10
42.171502615
 20
23.500000000
 11
54.171502615
 21
23.500000000
  0
LINE
  8
1
 62
1
  6
DASHED
 10
47.671502615
 20
-26.750000000
 11
44.621502615
 21
-26.750000000
  0
LINE
  8
1
 62
1
  6
CENTER
 10
42.171502615
 20
-23.500000000
 11
54.171502615
 21
-23.500000000
  0
DIMENSION
  8
1
 62
4
  6
CONTINUOUS
  2
*D370
 70
1
  3
STANDARD
 10
-21.000000000
 20
-23.500000000
 11
-21.000000000
 21
0.000000000
 14
42.171502615
 24
-23.500000000
 13
42.171502615
 23
23.500000000
 50
90.000000000
 53
90.000000000
  0
LINE
  8
1
 62
1
  6
DASHED
 10
47.671502615
 20
-20.250000000
 11
44.171502615
 21
-20.250000000
  0
LINE
  8
1
 62
7
  6
CONTINUOUS
 10
129.671502615
 20
-10.600000000
 11
129.171502615
 21
-11.100000000
  0
LINE
  8
1
 62
1
  6
CENTER
 10
124.171502615
 20
-6.250000000
 11
131.671502615
 21
-6.250000000
  0
LINE
  8
1
 62
7
  6
CONTINUOUS
 10
117.571502615
 20
-11.313708499
 11
126.171502615
 21
-11.313708499
  0
DIMENSION
  8
1
 62
4
  6
CONTINUOUS
  2
*D375
 70
1
  3
STANDARD
 10
-5.000000000
 20
-5.399999791
 11
-5.000000000
 21
0.000000209
 14
19.692820323
 24
-5.399999791
 13
19.692820323
 23
5.400000209
 50
90.000000000
 53
90.000000000
  0
LINE
  8
1
 62
7
  6
CONTINUOUS
 10
126.671502615
 20
-8.805324839
 11
126.171502615
 21
-9.305324839
  0
DIMENSION
  8
1
 62
4
  6
CONTINUOUS
  2
*D377
 70
0
  3
STANDARD
 10
101.171502615
 20
-52.500000000
 11
85.421502615
 21
-52.500000000
 14
101.171502615
 24
-18.900000000
 13
69.671502615
 23
-19.700000000
 50
0.000000000
 53
0.000000000
  0
LINE
  8
1
 62
1
  6
DASHED
 10
47.671502615
 20
-20.250000000
 11
47.671502615
 21
-26.750000000
  0
LINE
  8
1
 62
1
  6
DASHED
 10
52.171502615
 20
-25.250000000
 11
47.671502615
 21
-25.250000000
  0
LINE
  8
1
 62
7
  6
CONTINUOUS
 10
117.571502615
 20
-11.313708499
 11
126.171502615
 21
-11.313708499
  0
LINE
  8
1
 62
7
  6
CONTINUOUS
 10
129.671502615
 20
-1.900000000
 11
129.671502615
 21
-10.600000000
  0
LINE
  8
1
 62
7
  6
CONTINUOUS
 10
117.571502615
 20
-9.305324839
 11
126.171502615
 21
-9.305324839
  0
LINE
  8
1
 62
7
  6
CONTINUOUS
 10
116.071502615
 20
9.750000000
 11
117.571502615
 21
9.750000000
  0
DIMENSION
  8
1
 62
4
  6
CONTINUOUS
  2
*D384
 70
0
  3
STANDARD
 10
69.671502615
 20
-52.500000000
 11
60.921502615
 21
-52.500000000
 14
69.671502615
 24
-19.700000000
 13
52.171502615
 23
-27.000000000
 50
0.000000000
 53
0.000000000
  0
LINE
  8
1
 62
7
  6
CONTINUOUS
 10
126.671502615
 20
6.094094917
 11
126.671502615
 21
-10.900000000
  0
LINE
  8
1
 62
5
  6
CONTINUOUS
 10
126.171502615
 20
6.594094917
 11
126.171502615
 21
-11.313708499
  0
LINE
  8
1
 62
7
  6
CONTINUOUS
 10
27.978682292
 20
1.200000000
 11
27.285861969
 21
0.000000000
  0
LINE
  8
1
 62
7
  6
CONTINUOUS
 10
29.364322938
 20
-1.200000000
 11
30.057143261
 21
0.000000000
  0
LINE
  8
1
 62
7
  6
CONTINUOUS
 10
30.057143261
 20
0.000000000
 11
29.364322938
 21
1.200000000
  0
LINE
  8
1
 62
7
  6
CONTINUOUS
 10
29.364322938
 20
1.200000000
 11
27.978682292
 21
1.200000000
  0
LINE
  8
1
 62
7
  6
CONTINUOUS
 10
101.171502615
 20
9.500000000
 11
101.171502615
 21
8.000000000
  0
LINE
  8
1
 62
7
  6
CONTINUOUS
 10
91.171502615
 20
19.600000000
 11
91.471502615
 21
19.900000000
  0
DIMENSION
  8
1
 62
4
  6
CONTINUOUS
  2
*D396
 70
1
  3
STANDARD
 10
-13.000000000
 20
-19.500000000
 11
-13.000000000
 21
0.000000000
 14
32.971502615
 24
-19.500000000
 13
32.971502615
 23
19.500000000
 50
90.000000000
 53
90.000000000
  0
LINE
  8
1
 62
7
  6
CONTINUOUS
 10
183.332618390
 20
16.582438372
 11
181.994192304
 21
16.223808184
  0
LINE
  8
1
 62
7
  6
CONTINUOUS
 10
184.312414287
 20
15.602642475
 11
183.332618390
 21
16.582438372
  0
LINE
  8
1
 62
7
  6
CONTINUOUS
 10
183.953784098
 20
14.264216389
 11
184.312414287
 21
15.602642475
  0
LINE
  8
1
 62
7
  6
CONTINUOUS
 10
182.615358012
 20
13.905586200
 11
183.953784098
 21
14.264216389
  0
LINE
  8
1
 62
7
  6
CONTINUOUS
 10
181.635562115
 20
14.885382098
 11
182.615358012
 21
13.905586200
  0
LINE
  8
1
 62
7
  6
CONTINUOUS
 10
181.994192304
 20
16.223808184
 11
181.635562115
 21
14.885382098
  0
LINE
  8
1
 62
7
  6
CONTINUOUS
 10
170.704065122
 20
-13.905586200
 11
169.365639036
 21
-14.264216389
  0
LINE
  8
1
 62
7
  6
CONTINUOUS
 10
171.683861019
 20
-14.885382098
 11
170.704065122
 21
-13.905586200
  0
LINE
  8
1
 62
7
  6
CONTINUOUS
 10
171.325230830
 20
-16.223808184
 11
171.683861019
 21
-14.885382098
  0
LINE
  8
1
 62
7
  6
CONTINUOUS
 10
169.986804744
 20
-16.582438372
 11
171.325230830
 21
-16.223808184
  0
LINE
  8
1
 62
7
  6
CONTINUOUS
 10
-71.684151189
 20
-9.053048327
 11
-73.069791835
 21
-9.053048327
  0
LINE
  8
1
 62
7
  6
CONTINUOUS
 10
-70.991330866
 20
-10.253048327
 11
-71.684151189
 21
-9.053048327
  0
LINE
  8
1
 62
7
  6
CONTINUOUS
 10
-71.684151189
 20
-11.453048327
 11
-70.991330866
 21
-10.253048327
  0
LINE
  8
1
 62
7
  6
CONTINUOUS
 10
-73.069791835
 20
-11.453048327
 11
-71.684151189
 21
-11.453048327
  0
TEXT
  8
1
 62
2
  6
CONTINUOUS
 72
5
 10
157.463237862
 20
-1.240401569
 40
3.600000000
  1
Ｂｅ
 41
0.639539532
 11
162.400380719
 21
-1.240401569
  0
LINE
  8
1
 62
7
  6
CONTINUOUS
 10
-73.762612158
 20
-10.253048327
 11
-73.069791835
 21
-11.453048327
  0
TEXT
  8
1
 62
4
  6
CONTINUOUS
 72
5
 10
175.629061296
 20
-41.787618171
 40
3.200000000
  1
回転検知センサ取付け位置
 41
0.835136167
 11
213.429061296
 21
-41.787618171
  0
LINE
  8
1
 62
7
  6
CONTINUOUS
 10
-73.069791835
 20
-9.053048327
 11
-73.762612158
 21
-10.253048327
  0
LINE
  8
1
 62
7
  6
CONTINUOUS
 10
-93.575888490
 20
-9.053048327
 11
-94.268708813
 21
-10.253048327
  0
LINE
  8
1
 62
7
  6
CONTINUOUS
 10
-94.268708813
 20
-10.253048327
 11
-93.575888490
 21
-11.453048327
  0
LINE
  8
1
 62
7
  6
CONTINUOUS
 10
-93.575888490
 20
-11.453048327
 11
-92.190247844
 21
-11.453048327
  0
LINE
  8
1
 62
7
  6
CONTINUOUS
 10
-92.190247844
 20
-11.453048327
 11
-91.497427521
 21
-10.253048327
  0
LINE
  8
1
 62
7
  6
CONTINUOUS
 10
-91.497427521
 20
-10.253048327
 11
-92.190247844
 21
-9.053048327
  0
POLYLINE
  8
1
 62
4
  6
CONTINUOUS
 66
1
  0
VERTEX
  8
1
 10
174.764667604
 20
-10.810705748
  0
VERTEX
  8
1
 10
174.661533326
 20
-42.807618171
  0
VERTEX
  8
1
 10
213.725061296
 20
-42.807618171
  0
SEQEND
  8
1
  0
POLYLINE
  8
1
 62
4
  6
CONTINUOUS
 66
1
  0
VERTEX
  8
1
 10
175.058219565
 20
-12.811662331
  0
VERTEX
  8
1
 10
174.764667604
 20
-10.810705748
  0
VERTEX
  8
1
 10
174.458222682
 20
-12.809728387
  0
SEQEND
  8
1
  0
LINE
  8
1
 62
1
  6
DASHED
 10
52.171502615
 20
-21.750000000
 11
47.671502615
 21
-21.750000000
  0
TEXT
  8
1
 62
4
  6
CONTINUOUS
 72
5
 10
16.429551956
 20
50.316516806
 40
3.200000000
  1
段付テストバー（標準付属品）
 41
0.834874640
 11
60.629551956
 21
50.316516806
  0
TEXT
  8
1
 62
4
  6
CONTINUOUS
 72
5
 10
-49.763014939
 20
50.316516806
 40
3.200000000
  1
８－φ３．５キリ通し
 41
0.835504581
 11
-18.363014939
 21
50.316516806
  0
TEXT
  8
1
 62
4
  6
CONTINUOUS
 72
5
 10
-49.763014939
 20
45.216516806
 40
3.200000000
  1
８－φ６．５座ぐり 深さ３．５
 41
0.844674347
 11
-3.963014939
 21
45.216516806
  0
TEXT
  8
1
 62
4
  6
CONTINUOUS
 72
5
 10
-49.763014939
 20
40.116516806
 40
3.200000000
  1
（４５°等配 Ｍ３ボルト用）
 41
0.845538731
 11
-7.163014939
 21
40.116516806
  0
POLYLINE
  8
1
 62
4
  6
CONTINUOUS
 66
1
  0
VERTEX
  8
1
 10
4.234394623
 20
1.000000209
  0
VERTEX
  8
1
 10
16.429551956
 20
49.296516806
  0
VERTEX
  8
1
 10
60.925551956
 20
49.296516806
  0
SEQEND
  8
1
  0
POLYLINE
  8
1
 62
4
  6
CONTINUOUS
 66
1
  0
VERTEX
  8
1
 10
4.433167605
 20
3.012582953
  0
VERTEX
  8
1
 10
4.234394623
 20
1.000000209
  0
VERTEX
  8
1
 10
5.014908475
 20
2.865689927
  0
SEQEND
  8
1
  0
LINE
  8
1
 62
1
  6
CENTER
 10
70.812038702
 20
0.000000000
 11
103.171502615
 21
0.000000000
  0
LINE
  8
1
 62
1
  6
CENTER
 10
162.903261727
 20
0.000000000
 11
190.507029587
 21
0.000000000
  0
LINE
  8
1
 62
7
  6
CONTINUOUS
 10
-92.190247844
 20
-9.053048327
 11
-93.575888490
 21
-9.053048327
  0
LINE
  8
1
 62
7
  6
CONTINUOUS
 10
-92.190247844
 20
11.453048327
 11
-93.575888490
 21
11.453048327
  0
LINE
  8
1
 62
7
  6
CONTINUOUS
 10
-91.497427521
 20
10.253048327
 11
-92.190247844
 21
11.453048327
  0
LINE
  8
1
 62
7
  6
CONTINUOUS
 10
-92.190247844
 20
9.053048327
 11
-91.497427521
 21
10.253048327
  0
LINE
  8
1
 62
7
  6
CONTINUOUS
 10
-93.575888490
 20
9.053048327
 11
-92.190247844
 21
9.053048327
  0
LINE
  8
1
 62
7
  6
CONTINUOUS
 10
-94.268708813
 20
10.253048327
 11
-93.575888490
 21
9.053048327
  0
LINE
  8
1
 62
7
  6
CONTINUOUS
 10
-93.575888490
 20
11.453048327
 11
-94.268708813
 21
10.253048327
  0
LINE
  8
1
 62
7
  6
CONTINUOUS
 10
-71.684151189
 20
11.453048327
 11
-73.069791835
 21
11.453048327
  0
CIRCLE
  8
1
 62
7
  6
CONTINUOUS
 10
28.671502615
 20
0.000000000
 40
3.000000000
  0
LINE
  8
1
 62
7
  6
CONTINUOUS
 10
-70.991330866
 20
10.253048327
 11
-71.684151189
 21
11.453048327
  0
LINE
  8
1
 62
7
  6
CONTINUOUS
 10
27.271502615
 20
-6.000000000
 11
27.271502615
 21
-18.500000000
  0
ARC
  8
1
 62
7
  6
CONTINUOUS
 10
-82.630019839
 20
0.000000000
 40
26.300000000
 50
296.303422000337
 51
333.696577999697
  0
LINE
  8
1
 62
7
  6
CONTINUOUS
 10
32.171502615
 20
-6.000000000
 11
25.671502615
 21
-6.000000000
  0
LINE
  8
1
 62
7
  6
CONTINUOUS
 10
32.171502615
 20
6.000000000
 11
25.671502615
 21
6.000000000
  0
LINE
  8
1
 62
7
  6
CONTINUOUS
 10
-71.684151189
 20
9.053048327
 11
-70.991330866
 21
10.253048327
  0
LINE
  8
1
 62
7
  6
CONTINUOUS
 10
-73.069791835
 20
9.053048327
 11
-71.684151189
 21
9.053048327
  0
LINE
  8
1
 62
7
  6
CONTINUOUS
 10
-73.762612158
 20
10.253048327
 11
-73.069791835
 21
9.053048327
  0
LINE
  8
1
 62
7
  6
CONTINUOUS
 10
-73.069791835
 20
11.453048327
 11
-73.762612158
 21
10.253048327
  0
ARC
  8
1
 62
7
  6
CONTINUOUS
 10
-82.630019839
 20
0.000000000
 40
26.300000000
 50
341.303422000337
 51
18.696577999697
  0
POLYLINE
  8
1
 62
4
  6
CONTINUOUS
 66
1
  0
VERTEX
  8
1
 10
-71.510132444
 20
24.168628686
  0
VERTEX
  8
1
 10
-49.763014939
 20
49.296516806
  0
VERTEX
  8
1
 10
-3.667014939
 20
49.296516806
  0
SEQEND
  8
1
  0
POLYLINE
  8
1
 62
4
  6
CONTINUOUS
 66
1
  0
VERTEX
  8
1
 10
-70.428158423
 20
25.877234029
  0
VERTEX
  8
1
 10
-71.510132444
 20
24.168628686
  0
VERTEX
  8
1
 10
-69.974473560
 20
25.484589093
  0
SEQEND
  8
1
  0
TEXT
  8
1
 62
3
  6
CONTINUOUS
 72
5
 10
43.554384972
 20
-89.932503540
 40
5.000000000
  1
Ｘｐｅｅｄ１６００
 41
0.834566215
 11
87.554384972
 21
-89.932503540
  0
LINE
  8
1
 62
1
  6
CENTER
 10
-2.000000000
 20
0.000000000
 11
60.470785582
 21
0.000000000
  0
ENDSEC
  0
EOF
